osu file format v14

[General]
AudioFilename: S3RL - MTC (Different Heaven Remix).mp3
AudioLeadIn: 0
PreviewTime: 139118
Countdown: 0
SampleSet: Normal
StackLeniency: 0.7
Mode: 1
LetterboxInBreaks: 0
WidescreenStoryboard: 1

[Editor]
Bookmarks: 100757,101785
DistanceSpacing: 1.2
BeatDivisor: 4
GridSize: 4
TimelineZoom: 1.9

[Metadata]
Title:MTC (Different Heaven Remix)
TitleUnicode:MTC (Different Heaven Remix)
Artist:S3RL
ArtistUnicode:S3RL
Creator:-Genesis
Version:Muzukashii
Source:
Tags:electro dnb dj s3rl Jole Hughes different heaven remix rickput sumaru100 [te][amo] keada [ AeonLust ] lazer
BeatmapID:675755
BeatmapSetID:288162

[Difficulty]
HPDrainRate:6
CircleSize:4
OverallDifficulty:2
ApproachRate:6
SliderMultiplier:1.00000000596046
SliderTickRate:1

[Events]
//Background and Video events
0,0,"Konachan.com - 195837 blue_eyes boots choker gray_hair ia jpeg_artifacts long_hair megumoke skirt thighhighs vocaloid.jpg",0,0
//Break Periods
2,45757,55478
2,111585,126792
//Storyboard Layer 0 (Background)
//Storyboard Layer 1 (Fail)
//Storyboard Layer 2 (Pass)
//Storyboard Layer 3 (Foreground)
//Storyboard Sound Samples

[TimingPoints]
300,342.857142857143,4,1,0,100,1,0
18128,-100,4,1,0,60,0,0
26357,-100,4,1,0,80,0,1
45557,-100,4,1,0,50,0,0
67500,-100,4,1,0,80,0,1
89442,-100,4,1,0,50,0,0
111385,-100,4,1,0,50,0,0
127842,-100,4,1,0,50,0,0
140185,-100,4,1,0,80,0,1
162128,-100,4,1,0,50,0,0

[HitObjects]
256,188,18128,5,0,0:0:0:0:
248,180,18471,1,0,0:0:0:0:
252,184,18814,1,8,0:0:0:0:
252,184,19157,1,0,0:0:0:0:
252,184,19500,1,0,0:0:0:0:
248,180,19842,1,0,0:0:0:0:
252,184,20185,1,8,0:0:0:0:
244,180,20528,1,0,0:0:0:0:
244,180,20700,1,8,0:0:0:0:
252,184,20871,1,0,0:0:0:0:
244,184,21214,1,0,0:0:0:0:
244,184,21557,1,8,0:0:0:0:
240,184,21900,1,0,0:0:0:0:
248,184,22242,1,8,0:0:0:0:
244,184,22585,1,0,0:0:0:0:
248,192,22757,1,8,0:0:0:0:
244,184,22928,1,0,0:0:0:0:
248,184,23271,1,0,0:0:0:0:
248,184,23614,1,12,0:0:0:0:
244,184,24128,1,8,0:0:0:0:
248,184,24642,1,0,0:0:0:0:
248,184,24985,1,8,0:0:0:0:
236,184,25500,1,0,0:0:0:0:
248,184,25842,1,0,0:0:0:0:
248,184,25928,1,0,0:0:0:0:
248,184,26014,1,8,0:0:0:0:
240,188,26357,1,4,0:0:0:0:
248,188,26700,1,8,0:0:0:0:
240,192,26871,1,0,0:0:0:0:
240,188,27214,1,0,0:0:0:0:
240,188,27385,1,8,0:0:0:0:
240,188,27728,1,0,0:0:0:0:
240,188,28071,1,0,0:0:0:0:
236,188,28156,1,0,0:0:0:0:
236,188,28242,1,8,0:0:0:0:
224,184,28585,1,0,0:0:0:0:
232,184,28757,1,8,0:0:0:0:
248,184,28928,1,0,0:0:0:0:
260,176,29100,1,0,0:0:0:0:
256,188,29442,1,8,0:0:0:0:
256,188,29614,1,0,0:0:0:0:
256,188,29957,1,0,0:0:0:0:
256,188,30128,1,8,0:0:0:0:
252,192,30471,1,0,0:0:0:0:
256,188,30814,1,8,0:0:0:0:
256,188,30985,1,0,0:0:0:0:
256,188,31328,1,0,0:0:0:0:
256,188,31414,1,0,0:0:0:0:
256,188,31500,1,8,0:0:0:0:
248,184,31842,1,0,0:0:0:0:
256,188,32185,1,8,0:0:0:0:
256,188,32357,1,8,0:0:0:0:
256,188,32442,1,8,0:0:0:0:
256,188,32528,1,8,0:0:0:0:
256,188,32871,1,0,0:0:0:0:
256,192,33214,1,8,0:0:0:0:
256,188,33557,1,0,0:0:0:0:
260,196,33642,1,0,0:0:0:0:
256,188,33728,1,0,0:0:0:0:
270,187,34071,1,0,0:0:0:0:
270,187,34242,1,8,0:0:0:0:
256,188,34414,1,0,0:0:0:0:
265,185,34585,1,0,0:0:0:0:
274,191,34928,1,8,0:0:0:0:
268,180,35100,1,0,0:0:0:0:
270,178,35442,1,0,0:0:0:0:
270,187,35614,1,8,0:0:0:0:
265,185,35957,1,0,0:0:0:0:
277,181,36300,1,8,0:0:0:0:
275,185,36471,1,0,0:0:0:0:
281,182,36814,1,0,0:0:0:0:
294,186,36900,1,0,0:0:0:0:
281,182,36985,1,8,0:0:0:0:
276,182,37328,1,0,0:0:0:0:
277,181,37671,1,8,0:0:0:0:
297,175,37842,1,0,0:0:0:0:
278,179,38185,1,0,0:0:0:0:
298,174,38271,1,0,0:0:0:0:
263,180,38356,1,8,0:0:0:0:
249,178,38700,1,0,0:0:0:0:
249,177,39042,1,8,0:0:0:0:
259,180,39128,1,0,0:0:0:0:
238,182,39214,1,0,0:0:0:0:
239,182,39557,1,0,0:0:0:0:
237,182,39728,1,8,0:0:0:0:
260,183,40071,1,4,0:0:0:0:
255,182,40414,1,8,0:0:0:0:
259,187,40585,1,0,0:0:0:0:
262,175,40928,1,0,0:0:0:0:
262,175,41100,1,8,0:0:0:0:
260,183,41442,1,0,0:0:0:0:
255,182,41785,1,8,0:0:0:0:
266,184,41871,1,0,0:0:0:0:
255,182,41957,1,0,0:0:0:0:
246,184,42300,1,0,0:0:0:0:
262,147,42471,1,8,0:0:0:0:
247,171,42814,1,0,0:0:0:0:
248,171,43157,1,8,0:0:0:0:
249,171,43242,1,0,0:0:0:0:
256,167,43328,1,0,0:0:0:0:
257,167,43671,1,0,0:0:0:0:
257,167,43757,1,0,0:0:0:0:
257,167,43843,1,8,0:0:0:0:
250,165,44185,1,0,0:0:0:0:
250,165,44528,1,8,0:0:0:0:
248,171,44700,1,0,0:0:0:0:
251,169,45042,1,0,0:0:0:0:
251,169,45214,1,8,0:0:0:0:
251,169,45385,1,0,0:0:0:0:
262,173,45557,1,0,0:0:0:0:
207,189,56528,5,8,0:0:0:0:
203,193,56700,1,0,0:0:0:0:
207,189,56871,1,8,0:0:0:0:
207,189,57042,1,0,0:0:0:0:
207,189,57214,1,8,0:0:0:0:
207,189,57385,1,0,0:0:0:0:
213,200,57557,1,8,0:0:0:0:
213,200,57728,1,0,0:0:0:0:
213,200,57900,1,8,0:0:0:0:
213,196,58242,1,0,0:0:0:0:
213,196,58585,1,8,0:0:0:0:
213,200,58928,1,0,0:0:0:0:
213,200,59271,1,8,0:0:0:0:
213,200,59442,1,8,0:0:0:0:
213,196,59614,1,8,0:0:0:0:
213,196,59785,1,8,0:0:0:0:
213,196,59957,1,8,0:0:0:0:
213,196,60128,1,8,0:0:0:0:
213,200,60300,1,8,0:0:0:0:
210,190,60471,1,0,0:0:0:0:
221,182,60642,1,8,0:0:0:0:
219,185,60985,1,0,0:0:0:0:
219,185,61328,1,8,0:0:0:0:
219,185,61671,1,0,0:0:0:0:
216,186,62014,1,8,0:0:0:0:
216,186,62185,1,0,0:0:0:0:
219,185,62357,1,8,0:0:0:0:
219,185,62528,1,0,0:0:0:0:
219,185,62700,1,8,0:0:0:0:
219,185,62871,1,0,0:0:0:0:
219,185,63042,1,8,0:0:0:0:
208,182,63214,1,0,0:0:0:0:
216,186,63385,1,8,0:0:0:0:
216,186,63557,1,0,0:0:0:0:
219,185,63728,1,8,0:0:0:0:
219,185,63900,1,0,0:0:0:0:
219,185,64071,1,8,0:0:0:0:
219,185,64242,1,0,0:0:0:0:
219,185,64414,1,8,0:0:0:0:
219,185,64585,1,0,0:0:0:0:
216,189,64671,1,0,0:0:0:0:
216,189,64757,1,8,0:0:0:0:
216,186,64928,1,0,0:0:0:0:
216,186,65014,1,0,0:0:0:0:
219,185,65100,1,8,0:0:0:0:
219,185,65271,1,0,0:0:0:0:
219,185,65357,1,0,0:0:0:0:
227,197,65442,1,8,0:0:0:0:
219,185,65785,1,4,0:0:0:0:
219,185,66128,1,12,0:0:0:0:
214,181,66985,1,0,0:0:0:0:
214,181,67157,1,8,0:0:0:0:
205,182,67500,1,4,0:0:0:0:
205,178,67842,1,8,0:0:0:0:
206,179,68014,1,0,0:0:0:0:
210,171,68357,1,0,0:0:0:0:
215,171,68442,1,0,0:0:0:0:
210,171,68528,1,8,0:0:0:0:
213,167,68871,1,0,0:0:0:0:
214,168,69214,1,8,0:0:0:0:
214,169,69385,1,0,0:0:0:0:
210,171,69728,1,0,0:0:0:0:
210,171,69814,1,0,0:0:0:0:
210,171,69900,1,8,0:0:0:0:
196,166,70071,1,0,0:0:0:0:
196,166,70242,1,0,0:0:0:0:
201,171,70585,1,8,0:0:0:0:
201,171,70757,1,0,0:0:0:0:
201,171,71100,1,0,0:0:0:0:
201,171,71185,1,0,0:0:0:0:
201,171,71271,1,8,0:0:0:0:
194,172,71614,1,0,0:0:0:0:
201,171,71957,1,8,0:0:0:0:
201,171,72042,1,8,0:0:0:0:
201,171,72128,1,0,0:0:0:0:
201,171,72471,1,0,0:0:0:0:
218,174,72642,1,8,0:0:0:0:
212,180,72985,1,4,0:0:0:0:
216,178,73328,1,8,0:0:0:0:
216,178,73414,1,0,0:0:0:0:
216,178,73500,1,0,0:0:0:0:
216,178,73842,1,0,0:0:0:0:
216,178,74014,1,8,0:0:0:0:
218,174,74185,1,0,0:0:0:0:
212,180,74357,1,0,0:0:0:0:
216,178,74700,1,8,0:0:0:0:
216,178,74871,1,0,0:0:0:0:
216,178,75214,1,0,0:0:0:0:
216,178,75300,1,0,0:0:0:0:
216,178,75385,1,8,0:0:0:0:
218,174,75728,1,0,0:0:0:0:
236,176,76071,1,8,0:0:0:0:
234,178,76157,1,0,0:0:0:0:
234,178,76242,1,0,0:0:0:0:
236,176,76585,1,0,0:0:0:0:
236,176,76757,1,8,0:0:0:0:
237,175,77100,1,0,0:0:0:0:
236,176,77442,1,8,0:0:0:0:
236,176,77528,1,0,0:0:0:0:
236,176,77614,1,0,0:0:0:0:
236,176,77871,1,8,0:0:0:0:
236,176,78042,1,0,0:0:0:0:
252,174,78128,1,8,0:0:0:0:
249,186,78471,1,4,0:0:0:0:
243,176,78814,1,8,0:0:0:0:
243,176,78985,1,0,0:0:0:0:
208,175,79328,1,0,0:0:0:0:
236,176,79414,1,0,0:0:0:0:
243,176,79500,1,8,0:0:0:0:
234,180,79842,1,0,0:0:0:0:
228,184,80185,1,8,0:0:0:0:
230,180,80871,1,12,0:0:0:0:
234,180,81214,1,0,0:0:0:0:
242,181,81557,1,8,0:0:0:0:
221,199,81728,1,0,0:0:0:0:
236,194,82071,1,0,0:0:0:0:
249,185,82157,1,0,0:0:0:0:
236,194,82242,1,8,0:0:0:0:
222,205,82585,1,0,0:0:0:0:
246,200,82928,1,8,0:0:0:0:
245,201,83014,1,0,0:0:0:0:
245,200,83100,1,0,0:0:0:0:
232,184,83442,1,0,0:0:0:0:
237,206,83614,1,8,0:0:0:0:
237,206,83957,1,4,0:0:0:0:
237,206,84300,1,8,0:0:0:0:
231,202,84471,1,0,0:0:0:0:
225,200,84814,1,0,0:0:0:0:
233,193,84900,1,0,0:0:0:0:
226,200,84985,1,8,0:0:0:0:
231,193,85328,1,0,0:0:0:0:
234,193,85672,1,8,0:0:0:0:
234,193,85757,1,8,0:0:0:0:
234,193,85843,1,8,0:0:0:0:
236,193,86185,1,0,0:0:0:0:
236,193,86357,1,8,0:0:0:0:
238,189,86528,1,0,0:0:0:0:
226,190,86700,1,0,0:0:0:0:
227,190,87042,1,8,0:0:0:0:
227,190,87214,1,0,0:0:0:0:
236,193,87557,1,0,0:0:0:0:
236,193,87642,1,0,0:0:0:0:
236,193,87728,1,8,0:0:0:0:
245,187,88071,1,0,0:0:0:0:
252,185,88757,1,0,0:0:0:0:
252,185,89100,1,8,0:0:0:0:
252,185,89442,1,4,0:0:0:0:
261,173,89785,1,8,0:0:0:0:
264,173,89870,1,0,0:0:0:0:
251,173,89956,1,0,0:0:0:0:
252,164,90300,1,0,0:0:0:0:
252,167,90471,1,8,0:0:0:0:
250,171,90814,1,8,0:0:0:0:
250,171,90900,1,8,0:0:0:0:
250,171,90985,1,0,0:0:0:0:
250,171,91071,1,0,0:0:0:0:
250,171,91157,1,8,0:0:0:0:
254,169,91328,1,0,0:0:0:0:
252,164,91671,1,0,0:0:0:0:
252,164,91842,1,8,0:0:0:0:
243,167,92014,1,0,0:0:0:0:
243,167,92185,1,0,0:0:0:0:
250,171,92528,1,8,0:0:0:0:
250,171,92700,1,0,0:0:0:0:
240,188,93042,1,0,0:0:0:0:
240,188,93128,1,0,0:0:0:0:
244,184,93214,1,8,0:0:0:0:
243,167,93557,1,8,0:0:0:0:
243,167,93642,1,8,0:0:0:0:
243,167,93728,1,0,0:0:0:0:
241,167,93814,1,0,0:0:0:0:
241,167,93900,1,8,0:0:0:0:
250,171,94071,1,0,0:0:0:0:
235,167,94414,1,0,0:0:0:0:
237,167,94585,1,8,0:0:0:0:
256,168,94757,1,0,0:0:0:0:
254,168,94928,1,0,0:0:0:0:
243,167,95271,1,8,0:0:0:0:
241,167,95357,1,8,0:0:0:0:
241,167,95442,1,0,0:0:0:0:
243,166,95528,1,0,0:0:0:0:
243,166,95614,1,8,0:0:0:0:
248,176,95785,1,0,0:0:0:0:
237,167,95957,1,8,0:0:0:0:
248,176,96300,1,0,0:0:0:0:
252,180,96642,1,8,0:0:0:0:
252,180,96728,1,8,0:0:0:0:
252,180,96814,1,0,0:0:0:0:
252,180,96900,1,0,0:0:0:0:
252,180,96985,1,8,0:0:0:0:
242,185,97328,1,8,0:0:0:0:
245,173,97671,1,0,0:0:0:0:
252,180,98014,1,8,0:0:0:0:
252,180,98100,1,8,0:0:0:0:
252,180,98185,1,0,0:0:0:0:
252,180,98271,1,0,0:0:0:0:
252,180,98357,1,8,0:0:0:0:
260,173,98700,1,8,0:0:0:0:
260,173,99042,1,0,0:0:0:0:
256,176,99385,1,8,0:0:0:0:
256,176,99557,1,0,0:0:0:0:
244,168,99814,1,8,0:0:0:0:
252,168,99985,1,0,0:0:0:0:
252,168,100071,1,8,0:0:0:0:
252,168,100414,1,4,0:0:0:0:
248,176,100757,1,8,0:0:0:0:
248,176,100928,1,0,0:0:0:0:
248,176,101100,1,8,0:0:0:0:
248,176,101271,1,0,0:0:0:0:
248,176,101785,1,8,0:0:0:0:
248,176,101956,1,0,0:0:0:0:
248,176,102128,1,8,0:0:0:0:
248,176,102299,1,0,0:0:0:0:
232,192,102471,1,8,0:0:0:0:
256,176,102642,1,0,0:0:0:0:
248,176,103157,1,8,0:0:0:0:
248,176,103328,1,0,0:0:0:0:
248,176,103500,1,8,0:0:0:0:
248,176,103671,1,0,0:0:0:0:
236,180,103842,1,8,0:0:0:0:
248,172,104014,1,0,0:0:0:0:
248,176,104528,1,0,0:0:0:0:
232,172,104871,1,8,0:0:0:0:
236,180,105042,1,0,0:0:0:0:
236,180,105385,1,0,0:0:0:0:
256,184,105471,1,0,0:0:0:0:
232,176,105557,1,8,0:0:0:0:
240,180,105900,1,4,0:0:0:0:
224,184,106242,1,8,0:0:0:0:
256,184,106328,1,0,0:0:0:0:
224,184,106414,1,0,0:0:0:0:
224,180,106757,1,0,0:0:0:0:
224,180,106928,1,8,0:0:0:0:
212,176,107271,1,0,0:0:0:0:
216,184,107614,1,8,0:0:0:0:
256,184,107700,1,0,0:0:0:0:
240,188,107785,1,0,0:0:0:0:
224,180,108128,1,0,0:0:0:0:
224,180,108300,1,8,0:0:0:0:
216,168,108471,1,0,0:0:0:0:
220,172,108642,1,0,0:0:0:0:
240,184,108985,1,8,0:0:0:0:
256,184,109157,1,0,0:0:0:0:
224,180,109500,1,0,0:0:0:0:
224,180,109671,1,8,0:0:0:0:
236,184,110014,1,0,0:0:0:0:
252,184,110357,1,8,0:0:0:0:
240,184,110528,1,0,0:0:0:0:
240,184,110785,1,8,0:0:0:0:
244,192,110957,1,0,0:0:0:0:
244,192,111042,1,8,0:0:0:0:
248,192,111385,1,4,0:0:0:0:
244,188,127842,5,0,0:0:0:0:
244,188,128185,1,0,0:0:0:0:
244,188,128529,1,0,0:0:0:0:
244,188,128871,1,0,0:0:0:0:
256,184,129042,1,8,0:0:0:0:
244,188,129214,1,0,0:0:0:0:
244,188,129557,1,0,0:0:0:0:
244,188,129900,1,0,0:0:0:0:
244,188,130242,1,8,0:0:0:0:
248,176,130414,1,8,0:0:0:0:
256,184,130585,1,0,0:0:0:0:
244,188,130928,1,0,0:0:0:0:
244,188,131271,1,0,0:0:0:0:
244,188,131614,1,0,0:0:0:0:
248,180,131785,1,8,0:0:0:0:
244,188,131957,1,0,0:0:0:0:
244,188,132300,1,8,0:0:0:0:
248,188,132642,1,0,0:0:0:0:
248,188,132985,1,8,0:0:0:0:
244,188,133157,1,0,0:0:0:0:
224,196,133328,1,0,0:0:0:0:
232,196,133671,1,8,0:0:0:0:
232,196,134014,1,0,0:0:0:0:
232,196,134357,1,0,0:0:0:0:
232,196,134528,1,8,0:0:0:0:
232,196,134700,1,0,0:0:0:0:
232,196,135042,1,8,0:0:0:0:
232,196,135385,1,0,0:0:0:0:
232,196,135728,1,8,0:0:0:0:
232,196,136071,1,0,0:0:0:0:
232,196,136414,1,8,0:0:0:0:
232,196,136585,1,0,0:0:0:0:
232,196,136757,1,0,0:0:0:0:
232,196,137100,1,8,0:0:0:0:
232,196,137442,1,8,0:0:0:0:
232,196,137785,1,8,0:0:0:0:
232,196,137957,1,8,0:0:0:0:
232,196,138128,1,8,0:0:0:0:
232,196,138300,1,8,0:0:0:0:
232,196,138471,1,8,0:0:0:0:
232,196,138557,1,8,0:0:0:0:
232,196,138642,1,8,0:0:0:0:
232,196,138728,1,8,0:0:0:0:
232,196,138814,1,4,0:0:0:0:
256,192,139071,12,0,140014,0:0:0:0:
264,200,140185,5,4,0:0:0:0:
264,200,140528,1,8,0:0:0:0:
244,200,140700,1,0,0:0:0:0:
248,192,140957,1,8,0:0:0:0:
248,192,141129,1,0,0:0:0:0:
256,192,141214,1,8,0:0:0:0:
256,200,141557,1,0,0:0:0:0:
260,188,141900,1,8,0:0:0:0:
248,180,141985,1,0,0:0:0:0:
244,196,142071,1,0,0:0:0:0:
248,192,142414,1,0,0:0:0:0:
248,192,142585,1,8,0:0:0:0:
256,192,142928,1,4,0:0:0:0:
252,192,143271,1,8,0:0:0:0:
248,188,143442,1,0,0:0:0:0:
232,200,143785,1,0,0:0:0:0:
256,188,143871,1,0,0:0:0:0:
248,192,143957,1,8,0:0:0:0:
256,192,144300,1,0,0:0:0:0:
244,192,144642,1,8,0:0:0:0:
244,192,144728,1,8,0:0:0:0:
244,192,144814,1,0,0:0:0:0:
248,196,145157,1,0,0:0:0:0:
256,192,145328,1,8,0:0:0:0:
256,192,145671,1,4,0:0:0:0:
244,192,146014,1,8,0:0:0:0:
256,192,146185,1,0,0:0:0:0:
244,192,146528,1,0,0:0:0:0:
248,196,146614,1,0,0:0:0:0:
256,192,146700,1,8,0:0:0:0:
256,192,147042,1,0,0:0:0:0:
256,192,147385,1,8,0:0:0:0:
244,192,147471,1,0,0:0:0:0:
256,192,147557,1,0,0:0:0:0:
260,184,147900,1,0,0:0:0:0:
260,184,147985,1,0,0:0:0:0:
260,184,148071,1,8,0:0:0:0:
256,192,148414,1,8,0:0:0:0:
256,192,148500,1,8,0:0:0:0:
256,192,148585,1,0,0:0:0:0:
240,192,148928,1,8,0:0:0:0:
248,192,149014,1,8,0:0:0:0:
248,192,149100,1,0,0:0:0:0:
256,192,149442,1,8,0:0:0:0:
252,192,149527,1,8,0:0:0:0:
256,192,149613,1,8,0:0:0:0:
256,192,149785,1,0,0:0:0:0:
260,196,150128,1,8,0:0:0:0:
260,196,150214,1,8,0:0:0:0:
260,196,150300,1,0,0:0:0:0:
260,196,150385,1,0,0:0:0:0:
260,196,150471,1,8,0:0:0:0:
264,200,150814,1,8,0:0:0:0:
264,200,151157,1,4,0:0:0:0:
256,200,151500,1,8,0:0:0:0:
260,196,151671,1,0,0:0:0:0:
248,208,152014,1,0,0:0:0:0:
248,208,152100,1,0,0:0:0:0:
248,204,152185,1,8,0:0:0:0:
256,200,152528,1,0,0:0:0:0:
244,200,153557,1,12,0:0:0:0:
248,208,153900,1,0,0:0:0:0:
244,208,154242,1,8,0:0:0:0:
244,200,154328,1,8,0:0:0:0:
244,208,154414,1,0,0:0:0:0:
236,192,154757,1,0,0:0:0:0:
236,192,154842,1,0,0:0:0:0:
240,192,154928,1,8,0:0:0:0:
236,200,155271,1,8,0:0:0:0:
236,200,155357,1,8,0:0:0:0:
236,200,155442,1,0,0:0:0:0:
236,200,155528,1,0,0:0:0:0:
236,200,155614,1,8,0:0:0:0:
232,200,155957,1,8,0:0:0:0:
232,200,156042,1,8,0:0:0:0:
232,200,156128,1,0,0:0:0:0:
232,200,156214,1,0,0:0:0:0:
232,200,156300,1,8,0:0:0:0:
256,200,156642,1,4,0:0:0:0:
244,196,156985,1,8,0:0:0:0:
244,196,157157,1,0,0:0:0:0:
244,196,157500,1,0,0:0:0:0:
244,196,157671,1,8,0:0:0:0:
240,200,158014,1,0,0:0:0:0:
240,200,158357,1,8,0:0:0:0:
240,200,158528,1,0,0:0:0:0:
240,200,158871,1,0,0:0:0:0:
244,208,158957,1,0,0:0:0:0:
240,200,159042,1,8,0:0:0:0:
244,208,159385,1,0,0:0:0:0:
248,208,159728,1,8,0:0:0:0:
248,204,159814,1,8,0:0:0:0:
248,204,159900,1,8,0:0:0:0:
248,204,160242,1,0,0:0:0:0:
248,200,160414,1,8,0:0:0:0:
248,200,160757,1,0,0:0:0:0:
248,200,161100,1,8,0:0:0:0:
248,200,161185,1,8,0:0:0:0:
248,200,161271,1,8,0:0:0:0:
248,204,161442,1,0,0:0:0:0:
248,204,161785,1,8,0:0:0:0:
248,200,162128,1,4,0:0:0:0:
248,208,162471,1,8,0:0:0:0:
244,208,162642,1,0,0:0:0:0:
236,204,162985,1,0,0:0:0:0:
236,204,163157,1,8,0:0:0:0:
240,204,163500,1,0,0:0:0:0:
240,204,163842,1,8,0:0:0:0:
240,204,164014,1,0,0:0:0:0:
236,204,164357,1,0,0:0:0:0:
236,204,164528,1,8,0:0:0:0:
232,200,164871,1,0,0:0:0:0:
232,200,165214,1,8,0:0:0:0:
232,200,165385,1,0,0:0:0:0:
236,204,165728,1,0,0:0:0:0:
236,204,165900,1,8,0:0:0:0:
232,200,166242,1,0,0:0:0:0:
232,200,166585,1,8,0:0:0:0:
232,200,166757,1,0,0:0:0:0:
236,204,167100,1,0,0:0:0:0:
240,208,167185,1,0,0:0:0:0:
236,204,167271,1,8,0:0:0:0:
228,204,167614,1,0,0:0:0:0:
232,200,167957,1,8,0:0:0:0:
240,196,168128,1,0,0:0:0:0:
240,196,168471,1,8,0:0:0:0:
240,196,168642,1,0,0:0:0:0:
240,196,168985,1,0,0:0:0:0:
240,196,169328,1,0,0:0:0:0:
240,196,169500,1,8,0:0:0:0:
240,196,169842,1,8,0:0:0:0:
240,196,170014,1,8,0:0:0:0:
240,196,170357,1,0,0:0:0:0:
248,196,170700,1,8,0:0:0:0:
248,196,170871,1,0,0:0:0:0:
232,192,171214,1,0,0:0:0:0:
248,196,171385,1,8,0:0:0:0:
232,200,171728,1,0,0:0:0:0:
240,184,172071,1,8,0:0:0:0:
240,184,172242,1,0,0:0:0:0:
232,192,172500,1,8,0:0:0:0:
232,192,172671,1,0,0:0:0:0:
236,192,172757,1,8,0:0:0:0:
236,180,173100,1,0,0:0:0:0:
232,184,173442,1,8,0:0:0:0:
232,184,173614,1,0,0:0:0:0:
232,184,173957,1,0,0:0:0:0:
248,188,174042,1,0,0:0:0:0:
232,184,174128,1,8,0:0:0:0:
236,180,174471,1,0,0:0:0:0:
232,184,174814,1,8,0:0:0:0:
232,184,174985,1,8,0:0:0:0:
224,192,175328,1,0,0:0:0:0:
224,188,175500,1,8,0:0:0:0:
220,184,175842,1,0,0:0:0:0:
220,184,176185,1,8,0:0:0:0:
220,184,176357,1,0,0:0:0:0:
220,184,176700,1,0,0:0:0:0:
224,192,176785,1,0,0:0:0:0:
220,184,176871,1,8,0:0:0:0:
212,184,177214,1,0,0:0:0:0:
220,200,177557,1,8,0:0:0:0:
220,200,177642,1,0,0:0:0:0:
220,200,177728,1,0,0:0:0:0:
224,200,178071,1,0,0:0:0:0:
224,200,178242,1,8,0:0:0:0:
224,200,178585,1,4,0:0:0:0:
