osu file format v14

[General]
AudioFilename: S3RL - MTC (Different Heaven Remix).mp3
AudioLeadIn: 0
PreviewTime: 139118
Countdown: 0
SampleSet: Normal
StackLeniency: 0.7
Mode: 0
LetterboxInBreaks: 0
WidescreenStoryboard: 1

[Editor]
Bookmarks: 6471,100757,101785,140700,142757,142928,176871
DistanceSpacing: 1.2
BeatDivisor: 4
GridSize: 4
TimelineZoom: 1.9

[Metadata]
Title:MTC (Different Heaven Remix)
TitleUnicode:MTC (Different Heaven Remix)
Artist:S3RL
ArtistUnicode:S3RL
Creator:-Genesis
Version:Heaven
Source:
Tags:electro dnb dj s3rl Jole Hughes different heaven remix rickput sumaru100 [te][amo] keada [ AeonLust ] lazer
BeatmapID:770354
BeatmapSetID:288162

[Difficulty]
HPDrainRate:6.5
CircleSize:4.2
OverallDifficulty:8.6
ApproachRate:9.3
SliderMultiplier:1.8
SliderTickRate:1

[Events]
//Background and Video events
0,0,"Konachan.com - 195837 blue_eyes boots choker gray_hair ia jpeg_artifacts long_hair megumoke skirt thighhighs vocaloid.jpg",0,0
//Break Periods
2,45757,53917
2,111585,125746
//Storyboard Layer 0 (Background)
//Storyboard Layer 1 (Fail)
//Storyboard Layer 2 (Pass)
//Storyboard Layer 3 (Foreground)
//Storyboard Sound Samples

[TimingPoints]
300,342.857142857143,4,1,0,5,1,0
300,-111.111111111111,4,1,0,5,0,0
642,-111.111111111111,4,1,0,10,0,0
985,-111.111111111111,4,1,0,15,0,0
1328,-111.111111111111,4,1,0,20,0,0
1671,-111.111111111111,4,1,0,25,0,0
1928,-111.111111111111,4,1,0,5,0,0
2014,-111.111111111111,4,1,0,25,0,0
3300,-111.111111111111,4,1,0,5,0,0
3385,-111.111111111111,4,1,0,25,0,0
4671,-111.111111111111,4,1,0,5,0,0
4757,-111.111111111111,4,1,0,25,0,0
6042,-111.111111111111,4,1,0,5,0,0
6128,-111.111111111111,4,1,0,25,0,0
7414,-111.111111111111,4,1,0,5,0,0
7500,-111.111111111111,4,1,0,25,0,0
8785,-111.111111111111,4,1,0,5,0,0
8871,-111.111111111111,4,1,0,25,0,0
10071,-111.111111111111,4,1,0,5,0,0
10242,-111.111111111111,4,1,0,25,0,0
11528,-111.111111111111,4,1,0,5,0,0
11614,-111.111111111111,4,1,0,25,0,0
12642,-111.111111111111,4,1,0,50,0,0
12900,-111.111111111111,4,1,0,5,0,0
12985,-111.111111111111,4,1,0,25,0,0
14271,-111.111111111111,4,1,0,5,0,0
14357,-111.111111111111,4,1,0,50,0,0
15642,-111.111111111111,4,1,0,5,0,0
15728,-111.111111111111,4,1,0,50,0,0
17014,-111.111111111111,4,1,0,5,0,0
17100,-111.111111111111,4,1,0,50,0,0
17271,-111.111111111111,4,1,0,5,0,0
17442,-111.111111111111,4,1,0,50,0,0
17614,-111.111111111111,4,1,0,5,0,0
17785,-111.111111111111,4,1,0,50,0,0
17957,-111.111111111111,4,1,0,5,0,0
18128,-111.111111111111,4,1,0,50,0,0
23271,-76.9230769230769,4,1,0,50,0,0
26014,-133.333333333333,4,1,0,50,0,0
26357,-76.9230769230769,4,1,0,50,0,1
45557,-76.9230769230769,4,1,0,50,0,0
56100,-100,4,1,0,5,0,0
56528,-100,4,1,0,50,0,0
66471,-76.9230769230769,4,1,0,30,0,0
67500,-76.9230769230769,4,1,0,30,0,1
79157,-100,4,1,0,50,0,1
81214,-76.9230769230769,4,1,0,50,0,1
81900,-100,4,1,0,50,0,1
82242,-76.9230769230769,4,1,0,50,0,1
83957,-76.9230769230769,4,1,0,50,0,1
84642,-76.9230769230769,4,1,0,50,0,1
88414,-66.6666666666667,4,1,0,50,0,1
89442,-76.9230769230769,4,1,0,50,0,0
94928,-90.9090909090909,4,1,0,50,0,0
95957,-76.9230769230769,4,1,0,50,0,0
96300,-90.9090909090909,4,1,0,50,0,0
97328,-76.9230769230769,4,1,0,50,0,0
100414,-100,4,1,0,50,0,0
105900,-200,4,1,0,40,0,0
107271,-200,4,1,0,30,0,0
127671,-100,4,1,0,5,0,0
127842,-100,4,1,0,50,0,0
134700,-86.9565217391304,4,1,0,50,0,0
138471,-76.9230769230769,4,1,0,50,0,0
139157,-76.9230769230769,4,1,0,20,0,0
139500,-76.9230769230769,4,1,0,30,0,0
139842,-76.9230769230769,4,1,0,40,0,0
140185,-76.9230769230769,4,1,0,50,0,1
146871,-76.9230769230769,4,1,0,50,0,1
152700,-100,4,1,0,20,0,1
153557,-76.9230769230769,4,1,0,60,0,1
160585,-76.9230769230769,4,1,0,50,0,0
162128,-100,4,1,0,50,0,0

[Colours]
Combo1 : 255,159,255
Combo2 : 198,47,186
Combo3 : 240,240,0
Combo4 : 149,202,255

[HitObjects]
152,200,300,6,0,P|173:235|233:270,1,80.9999975280763,0|0,2:0|2:0,2:0:0:0:
316,248,642,2,0,P|297:216|243:184,1,80.9999975280763,0|0,2:0|2:0,2:0:0:0:
148,136,985,2,0,P|175:167|242:192,1,80.9999975280763,0|0,2:0|2:0,2:0:0:0:
344,168,1328,2,0,P|321:142|269:124,1,80.9999975280763,0|0,2:0|2:0,2:0:0:0:
127,220,1671,6,0,P|163:249|264:264,1,121.499996292114,0|0,2:0|2:0,2:0:0:0:
292,256,2014,2,0,L|259:152,1,80.9999975280763,0|0,2:0|2:0,2:0:0:0:
208,80,2357,1,0,2:0:0:0:
164,168,2528,1,0,2:0:0:0:
208,80,2700,1,0,2:0:0:0:
265,194,2871,1,0,2:0:0:0:
208,80,3042,6,0,P|178:116|164:217,1,121.499996292114,0|0,2:0|2:0,2:0:0:0:
171,244,3385,2,0,L|270:213,1,80.9999975280763,2|0,2:0|2:0,2:0:0:0:
288,132,3728,2,0,L|379:128,1,80.9999975280763,2|0,2:0|2:0,2:0:0:0:
440,60,4071,2,0,P|461:94|458:164,1,80.9999975280763,0|0,2:0|2:0,2:0:0:0:
444,240,4414,6,0,P|415:277|321:315,1,121.499996292114,0|0,2:0|2:0,2:0:0:0:
294,315,4757,2,0,L|299:202,1,80.9999975280763,2|0,2:0|2:0,2:0:0:0:
400,164,5100,2,0,P|368:132|325:121,1,80.9999975280763,0|0,2:0|2:0,2:0:0:0:
208,112,5442,1,0,2:0:0:0:
116,200,5614,1,0,2:0:0:0:
204,192,5785,6,0,P|272:160|284:96,1,121.499996292114,0|0,2:0|2:0,2:0:0:0:
208,112,6128,2,0,L|112:124,1,80.9999975280763,2|0,2:0|2:0,2:0:0:0:
35,189,6471,2,0,L|131:201,1,80.9999975280763,2|0,2:0|2:0,2:0:0:0:
204,296,6814,1,0,2:0:0:0:
204,296,6985,1,0,2:0:0:0:
316,328,7157,6,0,P|319:267|280:208,1,121.499996292114,0|0,2:0|2:0,2:0:0:0:
240,200,7500,2,0,L|280:104,1,80.9999975280763,2|0,2:0|2:0,2:0:0:0:
352,40,7842,2,0,L|386:123,1,80.9999975280763,2|0,2:0|2:0,2:0:0:0:
412,232,8185,1,0,2:0:0:0:
412,232,8357,1,0,2:0:0:0:
304,204,8528,6,0,P|236:224|160:200,1,121.499996292114,0|0,2:0|2:0,2:0:0:0:
140,180,8871,2,0,L|224:132,1,80.9999975280763,2|0,2:0|2:0,2:0:0:0:
200,12,9214,2,0,L|116:60,1,80.9999975280763,2|0,2:0|2:0,2:0:0:0:
116,184,9557,1,0,2:0:0:0:
97,60,9728,1,0,2:0:0:0:
92,188,9900,6,0,P|108:256|156:312,1,121.499996292114,0|0,2:0|2:0,2:0:0:0:
168,344,10242,2,0,L|280:336,1,80.9999975280763,2|0,2:0|2:0,2:0:0:0:
320,228,10585,2,0,L|208:236,1,80.9999975280763,2|0,2:0|2:0,2:0:0:0:
257,337,10928,1,0,0:0:0:0:
257,337,11100,1,0,0:0:0:0:
384,315,11271,6,0,P|433:244|409:190,1,121.499996292114,0|0,2:0|2:0,2:0:0:0:
412,168,11614,2,0,L|328:100,1,80.9999975280763,2|0,2:0|2:0,2:0:0:0:
220,84,11957,1,2,2:0:0:0:
220,84,12128,1,0,2:0:0:0:
128,172,12300,1,0,2:0:0:0:
128,172,12471,1,0,2:0:0:0:
220,260,12642,6,0,P|299:282|357:269,1,121.499996292114,0|0,2:0|2:0,2:0:0:0:
396,276,12985,2,0,L|368:160,1,80.9999975280763,2|0,2:0|2:0,2:0:0:0:
324,72,13328,1,2,2:0:0:0:
200,96,13500,1,0,2:0:0:0:
224,220,13671,1,0,2:0:0:0:
348,196,13842,1,0,2:0:0:0:
304,80,14014,6,0,P|252:116|216:184,1,121.499996292114,0|0,2:0|2:0,2:0:0:0:
236,216,14357,2,0,L|344:212,1,80.9999975280763,2|0,2:0|2:0,2:0:0:0:
452,204,14700,1,2,2:0:0:0:
488,324,14871,1,0,2:0:0:0:
364,296,15042,1,0,2:0:0:0:
472,224,15214,1,0,2:0:0:0:
475,349,15385,6,0,B|408:380|320:360,1,121.499996292114,0|0,2:0|2:0,2:0:0:0:
308,332,15728,2,0,L|296:232,1,80.9999975280763,0|0,2:0|2:0,2:0:0:0:
400,292,16071,5,0,0:0:0:0:
400,292,16242,1,0,0:0:0:0:
432,188,16414,1,0,2:0:0:0:
432,188,16585,1,0,2:0:0:0:
320,176,16757,2,0,P|256:180|200:236,1,121.499996292114,0|0,2:0|2:0,2:0:0:0:
204,264,17100,6,0,P|224:304|317:301,1,121.499996292114,2|0,2:0|2:0,2:0:0:0:
364,304,17442,2,0,P|344:264|250:266,1,121.499996292114,2|0,2:0|2:0,2:0:0:0:
274,251,17785,2,0,L|261:137,1,80.9999975280763
156,248,18128,5,0,0:0:0:0:
356,136,18471,1,0,0:0:0:0:
131,212,18814,1,0,0:0:0:0:
380,171,19157,1,0,0:0:0:0:
107,163,19500,1,0,0:0:0:0:
404,220,19842,1,0,0:0:0:0:
99,99,20185,1,0,0:0:0:0:
412,284,20528,1,0,0:0:0:0:
118,23,20871,5,0,0:0:0:0:
207,34,21042,1,0,0:0:0:0:
290,67,21214,1,0,0:0:0:0:
362,120,21385,1,0,0:0:0:0:
440,220,21557,5,0,0:0:0:0:
316,241,21728,1,0,0:0:0:0:
193,219,21900,1,0,0:0:0:0:
84,157,22071,1,0,0:0:0:0:
169,17,22242,5,0,0:0:0:0:
213,22,22328,1,0,0:0:0:0:
254,40,22414,1,0,0:0:0:0:
290,67,22500,1,0,0:0:0:0:
317,103,22585,1,0,0:0:0:0:
333,145,22671,1,0,0:0:0:0:
338,190,22757,1,0,0:0:0:0:
331,234,22842,1,0,0:0:0:0:
312,275,22928,6,0,L|281:301,15,22.5
192,156,25671,5,0,0:0:0:0:
336,76,25842,1,0,0:0:0:0:
256,272,26014,2,0,P|208:316|156:316,1,101.250003862381,8|0,0:0|0:0,0:0:0:0:
132,308,26357,2,0,L|144:168,1,116.999994644165,10|0,0:0|0:0,0:0:0:0:
220,60,26700,1,8,0:0:0:0:
352,200,26871,2,0,P|361:264|340:322,1,116.999994644165
184,252,27214,1,0,0:0:0:0:
324,96,27385,2,0,P|380:72|452:88,1,116.999994644165,8|0,0:0|0:0,0:0:0:0:
428,264,27728,6,0,P|352:284|248:232,1,175.499991966248,2|0,0:0|0:0,0:0:0:0:
224,204,28071,1,0,0:0:0:0:
208,160,28157,1,0,0:0:0:0:
192,116,28242,2,0,P|224:80|292:68,1,116.999994644165
428,264,28585,1,0,0:0:0:0:
321,154,28757,6,0,P|258:145|190:169,1,116.999994644165,8|0,0:0|0:0,0:0:0:0:
172,320,29100,2,0,B|232:324|232:324|288:300,1,116.999994644165,10|0,0:0|0:3,0:0:0:0:
396,192,29442,1,8,0:0:0:0:
244,68,29614,2,0,P|181:59|113:83,1,116.999994644165,8|0,0:0|0:0,0:0:0:0:
32,148,29957,5,0,0:0:0:0:
236,244,30128,2,0,P|298:252|366:228,1,116.999994644165,8|0,0:0|0:0,0:0:0:0:
340,64,30471,2,0,B|280:60|280:60|224:84,1,116.999994644165,10|0,0:0|0:3,0:0:0:0:
116,192,30814,1,8,0:0:0:0:
268,316,30985,6,0,P|330:324|398:300,1,116.999994644165,8|0,0:0|0:0,0:0:0:0:
180,92,31328,1,8,0:0:0:0:
268,316,31500,1,0,0:0:0:0:
272,272,31585,1,0,0:0:0:0:
262,229,31671,1,0,0:0:0:0:
239,192,31757,1,0,0:0:0:0:
208,168,31842,2,0,P|288:144|340:156,1,116.999994644165,2|0,0:0|0:0,0:0:0:0:
192,264,32185,5,8,0:0:0:0:
388,80,32357,2,0,P|412:159|400:211,1,116.999994644165
340,328,32700,1,0,0:0:0:0:
288,136,32871,2,0,P|207:112|156:124,1,116.999994644165,8|0,0:0|0:0,0:0:0:0:
20,164,33214,2,0,P|100:188|151:176,1,116.999994644165,2|0,0:0|0:0,0:0:0:0:
384,64,33557,5,8,0:0:0:0:
356,284,33728,1,0,0:0:0:0:
163,99,33900,1,0,0:0:0:0:
424,188,34071,1,0,0:0:0:0:
144,20,34242,6,0,P|94:65|84:118,1,116.999994644165,8|0,0:0|0:0,0:0:0:0:
264,280,34585,2,0,P|320:244|340:193,1,116.999994644165,2|0,0:0|0:0,0:0:0:0:
131,183,34928,1,8,0:0:0:0:
220,340,35100,1,2,0:0:0:0:
266,348,35185,1,2,0:0:0:0:
309,336,35271,2,2,P|326:315|334:273,1,58.4999973220826
372,196,35442,2,0,P|352:179|310:170,1,58.4999973220826
228,136,35614,6,0,P|244:80|300:36,1,116.999994644165,8|0,0:0|0:0,0:0:0:0:
372,224,35957,2,0,P|352:280|304:316,1,116.999994644165,10|0,0:0|0:0,0:0:0:0:
216,148,36300,1,8,0:0:0:0:
440,176,36471,2,0,P|450:234|427:289,1,116.999994644165,10|0,0:0|0:0,0:0:0:0:
360,64,36814,5,0,0:0:0:0:
276,232,36985,2,0,P|184:248|120:172,1,175.499991966248,8|0,0:0|0:0,0:0:0:0:
120,140,37328,2,0,L|268:116,1,116.999994644165,2|0,0:0|0:0,0:0:0:0:
430,236,37671,1,8,0:0:0:0:
148,172,37842,2,0,L|297:174,1,116.999994644165
414,261,38185,1,2,0:0:0:0:
84,240,38357,2,0,P|64:164|130:78,1,175.499991966248,8|0,0:0|0:0,0:0:0:0:
188,80,38700,5,2,0:0:0:0:
356,216,38871,1,2,0:0:0:0:
320,244,38957,1,0,0:0:0:0:
280,264,39042,2,0,P|248:276|192:264,1,58.4999973220826,8|0,0:0|0:0,0:0:0:0:
160,208,39214,1,0,0:0:0:0:
188,171,39300,1,0,0:0:0:0:
232,156,39385,1,0,0:0:0:0:
404,128,39557,5,8,0:0:0:0:
280,264,39728,2,0,P|209:286|110:253,1,175.499991966248,8|0,0:0|0:0,0:0:0:0:
98,200,40071,2,2,L|210:139,1,116.999994644165,10|0,0:0|0:0,0:0:0:0:
404,128,40414,1,8,0:0:0:0:
101,158,40585,2,0,L|225:129,1,116.999994644165,8|0,0:0|0:0,0:0:0:0:
404,128,40928,1,0,0:0:0:0:
98,200,41100,6,0,P|151:250|254:264,1,175.499991966248,8|0,0:0|0:0,0:0:0:0:
289,222,41442,2,2,L|214:117,1,116.999994644165,10|0,0:0|0:0,0:0:0:0:
46,23,41785,1,8,0:0:0:0:
304,183,41957,2,0,L|204:101,1,116.999994644165,8|0,0:0|0:0,0:0:0:0:
46,23,42300,1,8,0:0:0:0:
300,128,42471,5,8,0:0:0:0:
300,128,42557,1,0,0:0:0:0:
300,128,42642,1,0,0:0:0:0:
168,296,42814,2,0,P|110:282|70:226,1,116.999994644165,2|0,0:0|0:0,0:0:0:0:
44,92,43157,6,0,L|120:76,1,58.4999973220826,0|0,0:0|0:0,0:0:0:0:
180,132,43328,2,0,L|237:144,1,58.4999973220826,8|0,0:0|0:0,0:0:0:0:
312,84,43500,2,0,L|444:56,1,116.999994644165,8|0,0:0|0:0,0:0:0:0:
412,268,43842,1,8,0:0:0:0:
448,36,44014,1,0,0:0:0:0:
392,296,44185,2,0,P|328:312|256:308,1,116.999994644165,2|0,0:0|0:0,0:0:0:0:
72,264,44528,5,8,0:0:0:0:
252,212,44700,1,0,0:0:0:0:
80,140,44871,1,8,0:0:0:0:
267,136,45042,1,8,0:0:0:0:
116,24,45214,1,8,0:0:0:0:
396,360,45557,5,0,0:0:0:0:
256,192,54471,12,0,56357,0:0:0:0:
152,160,56528,5,2,0:0:0:0:
177,143,56614,1,0,0:0:0:0:
205,133,56700,1,0,0:0:0:0:
235,131,56785,1,0,0:0:0:0:
276,140,56871,1,2,0:0:0:0:
262,177,56957,1,0,0:0:0:0:
238,210,57042,1,0,0:0:0:0:
207,236,57128,1,0,0:0:0:0:
192,284,57214,5,2,0:0:0:0:
240,292,57300,1,0,0:0:0:0:
289,284,57385,1,0,0:0:0:0:
333,262,57471,1,0,0:0:0:0:
368,228,57557,2,2,P|332:156|288:144,1,90,2|0,0:0|0:0,0:0:0:0:
216,92,57900,5,2,0:0:0:0:
167,83,57985,1,0,0:0:0:0:
118,91,58071,1,0,0:0:0:0:
74,113,58157,1,0,0:0:0:0:
64,152,58242,1,2,0:0:0:0:
96,176,58328,1,0,0:0:0:0:
133,191,58414,1,0,0:0:0:0:
173,195,58500,1,0,0:0:0:0:
204,188,58585,5,2,0:0:0:0:
229,204,58671,1,0,0:0:0:0:
249,226,58757,1,0,0:0:0:0:
263,252,58842,1,0,0:0:0:0:
264,284,58928,2,0,P|340:280|372:256,1,90,2|0,0:0|0:0,0:0:0:0:
440,160,59271,5,2,0:0:0:0:
411,131,59357,1,0,0:0:0:0:
372,125,59442,1,0,0:0:0:0:
334,139,59528,1,0,0:0:0:0:
316,180,59614,1,2,0:0:0:0:
274,194,59700,1,0,0:0:0:0:
230,187,59785,1,0,0:0:0:0:
199,156,59871,1,0,0:0:0:0:
184,108,59957,5,2,0:0:0:0:
149,73,60042,1,0,0:0:0:0:
101,66,60128,1,0,0:0:0:0:
55,81,60214,1,0,0:0:0:0:
28,124,60300,2,0,P|76:152|116:152,1,90,2|0,0:0|0:0,0:0:0:0:
252,132,60642,5,2,0:0:0:0:
291,128,60728,1,0,0:0:0:0:
326,149,60814,1,0,0:0:0:0:
346,184,60900,1,0,0:0:0:0:
336,228,60985,1,2,0:0:0:0:
305,259,61071,1,0,0:0:0:0:
261,266,61157,1,0,0:0:0:0:
219,252,61242,1,0,0:0:0:0:
188,212,61328,5,2,0:0:0:0:
201,163,61414,1,0,0:0:0:0:
242,136,61500,1,0,0:0:0:0:
291,128,61585,1,0,0:0:0:0:
340,140,61671,2,0,P|408:172|432:208,1,90,2|0,0:0|0:0,0:0:0:0:
331,317,62014,2,0,P|288:312|244:260,1,90
213,92,62357,2,0,P|257:98|291:128,1,90
351,302,62700,2,0,P|307:304|269:281,1,90
197,101,63042,2,0,P|241:99|279:122,1,90
196,280,63385,5,0,0:0:0:0:
205,120,63557,1,0,0:0:0:0:
195,288,63728,1,0,0:0:0:0:
205,112,63900,1,0,0:0:0:0:
344,236,64071,5,0,0:0:0:0:
335,76,64242,1,0,0:0:0:0:
344,244,64414,1,0,0:0:0:0:
334,68,64585,1,0,0:0:0:0:
176,180,64757,6,0,L|116:192,1,45
280,180,64928,2,0,L|324:171,1,45
164,152,65100,2,0,L|104:137,1,45
296,208,65271,2,0,L|339:218,1,45
212,292,65442,5,0,0:0:0:0:
194,250,65528,1,0,0:0:0:0:
187,206,65614,1,0,0:0:0:0:
191,161,65700,1,0,0:0:0:0:
205,118,65785,1,0,0:0:0:0:
228,80,65871,1,0,0:0:0:0:
256,48,65957,2,0,L|256:0,2,45
256,296,66471,5,0,0:0:0:0:
256,296,66642,1,0,0:0:0:0:
164,272,66814,1,0,0:0:0:0:
256,184,66985,1,0,0:0:0:0:
68,292,67157,1,0,0:0:0:0:
172,112,67328,1,0,0:0:0:0:
316,348,67500,6,0,P|375:319|407:270,1,116.999994644165
416,96,67842,1,8,0:0:0:0:
252,180,68014,1,0,0:0:0:0:
448,184,68185,1,0,0:0:0:0:
172,112,68357,1,0,0:0:0:0:
388,333,68528,2,0,P|440:281|440:165,1,175.499991966248
416,144,68871,2,0,P|351:126|299:139,1,116.999994644165
212,328,69214,5,0,0:0:0:0:
196,80,69385,1,0,0:0:0:0:
292,252,69557,1,0,0:0:0:0:
91,104,69728,1,0,0:0:0:0:
104,344,69900,1,0,0:0:0:0:
308,128,70071,1,0,0:0:0:0:
28,164,70242,2,0,P|23:232|43:277,1,116.999994644165
80,92,70585,5,8,0:0:0:0:
284,140,70757,1,0,0:0:0:0:
80,92,70928,1,0,0:0:0:0:
284,44,71100,1,0,0:0:0:0:
56,88,71271,1,8,0:0:0:0:
364,96,71442,1,0,0:0:0:0:
154,278,71614,6,0,P|94:291|37:272,1,116.999994644165,4|0,0:0|0:0,0:0:0:0:
164,80,71957,1,8,0:0:0:0:
312,244,72128,1,0,0:0:0:0:
92,156,72300,1,0,0:0:0:0:
323,230,72471,1,0,0:0:0:0:
72,276,72642,1,8,0:0:0:0:
332,218,72814,1,0,0:0:0:0:
92,156,72985,6,0,P|55:203|54:268,1,116.999994644165,4|0,0:0|0:0,0:0:0:0:
328,316,73328,1,8,0:0:0:0:
160,204,73500,1,0,0:0:0:0:
420,156,73671,2,0,P|456:203|457:268,1,116.999994644165,4|0,0:0|0:0,0:0:0:0:
268,228,74014,1,0,0:0:0:0:
288,52,74185,1,8,0:0:0:0:
176,256,74357,1,0,0:0:0:0:
360,96,74528,5,0,0:0:0:0:
148,268,74700,2,0,P|92:244|60:192,1,116.999994644165,8|0,0:0|0:0,0:0:0:0:
264,136,75042,2,0,P|320:160|352:212,1,116.999994644165
168,240,75385,5,8,0:0:0:0:
344,104,75557,1,0,0:0:0:0:
160,320,75728,2,0,P|112:292|92:232,1,116.999994644165
200,88,76071,1,8,0:0:0:0:
384,164,76242,1,0,0:0:0:0:
192,76,76414,1,0,0:0:0:0:
346,244,76585,1,0,0:0:0:0:
100,108,76757,5,0,0:0:0:0:
372,80,76928,1,0,0:0:0:0:
36,164,77100,2,0,P|17:109|38:56,1,116.999994644165
220,140,77442,1,8,0:0:0:0:
92,244,77614,1,0,0:0:0:0:
296,200,77785,5,0,0:0:0:0:
296,200,77871,1,0,0:0:0:0:
296,200,77957,1,0,0:0:0:0:
92,244,78128,1,0,0:0:0:0:
249,362,78300,1,0,0:0:0:0:
138,137,78471,6,0,P|172:76|232:60,1,116.999994644165,0|0,0:0|0:0,0:0:0:0:
324,300,78814,1,8,0:0:0:0:
108,320,78985,1,0,0:0:0:0:
108,320,79157,2,0,L|92:252,1,45,0|0,0:0|0:0,0:0:0:0:
138,137,79328,2,0,L|154:205,1,45,0|0,0:0|0:0,0:0:0:0:
172,280,79500,1,8,0:0:0:0:
364,84,79842,5,0,0:0:0:0:
332,200,80014,1,0,0:0:0:0:
332,200,80185,2,0,P|292:224|244:216,1,90
148,160,80528,2,0,P|188:136|236:144,1,90,0|0,0:0|0:0,0:0:0:0:
344,212,80871,1,0,0:0:0:0:
220,268,81042,1,0,0:0:0:0:
72,180,81214,6,0,P|80:120|136:80,1,116.999994644165,0|0,0:0|0:0,0:0:0:0:
292,52,81557,1,8,0:0:0:0:
344,212,81728,1,0,0:0:0:0:
292,42,81900,1,0,0:0:0:0:
224,272,82071,1,0,0:0:0:0:
292,32,82242,5,8,0:0:0:0:
72,180,82414,1,0,0:0:0:0:
320,284,82585,2,0,P|388:274|418:223,1,116.999994644165
396,60,82928,1,8,0:0:0:0:
196,96,83100,1,0,0:0:0:0:
380,136,83271,1,0,0:0:0:0:
116,113,83442,1,0,0:0:0:0:
364,212,83614,1,8,0:0:0:0:
39,93,83785,1,0,0:0:0:0:
348,288,83957,6,0,P|424:260|436:228,1,116.999994644165,0|0,0:0|0:0,0:0:0:0:
273,116,84300,1,8,0:0:0:0:
273,116,84471,1,0,0:0:0:0:
354,185,84642,2,0,P|378:149|379:131,1,58.4999973220826
244,204,84814,2,0,P|220:240|219:258,1,58.4999973220826
208,364,84985,2,0,P|146:350|118:293,1,116.999994644165,8|0,0:0|0:0,0:0:0:0:
224,132,85328,2,0,P|286:141|318:196,1,116.999994644165,8|0,0:0|0:0,0:0:0:0:
284,52,85671,5,0,0:0:0:0:
300,276,85842,1,0,0:0:0:0:
432,160,86014,1,0,0:0:0:0:
136,132,86185,1,0,0:0:0:0:
412,184,86357,2,0,P|359:205|301:198,1,116.999994644165,8|0,0:0|0:0,0:0:0:0:
72,76,86700,2,0,P|126:53|183:59,1,116.999994644165
423,215,87042,5,8,0:0:0:0:
220,268,87214,1,0,0:0:0:0:
380,284,87385,1,0,0:0:0:0:
190,194,87557,1,0,0:0:0:0:
427,102,87728,2,0,P|439:152|402:241,1,116.999994644165,8|0,0:0|0:0,0:0:0:0:
187,306,88071,2,0,P|174:257|211:168,1,116.999994644165
380,284,88414,5,8,0:0:0:0:
132,100,88585,1,0,0:0:0:0:
424,208,88757,1,0,0:0:0:0:
87,172,88928,1,0,0:0:0:0:
443,110,89100,1,8,0:0:0:0:
68,273,89271,1,0,0:0:0:0:
379,27,89442,6,0,L|313:38,1,58.4999973220826
169,229,89614,2,0,L|234:217,1,58.4999973220826
443,110,89785,2,0,L|377:121,1,58.4999973220826
144,160,89957,2,0,L|201:148,1,58.4999973220826
435,200,90128,2,0,L|369:211,1,58.4999973220826
169,82,90300,2,0,L|226:70,1,58.4999973220826
408,320,90471,2,0,P|342:313|282:278,1,116.999994644165
111,89,90814,6,0,L|177:78,1,58.4999973220826
372,212,90985,2,0,L|305:222,1,58.4999973220826
79,189,91157,2,0,L|145:177,1,58.4999973220826
376,132,91328,2,0,L|312:141,1,58.4999973220826
116,271,91500,2,0,L|182:259,1,58.4999973220826
324,64,91671,2,0,L|263:73,1,58.4999973220826
184,360,91842,2,0,P|235:333|267:285,1,116.999994644165,2|0,0:0|0:0,0:0:0:0:
116,116,92185,5,2,0:0:0:0:
80,145,92271,1,0,0:0:0:0:
52,184,92357,1,0,0:0:0:0:
36,230,92442,1,0,0:0:0:0:
60,282,92528,1,2,0:0:0:0:
107,276,92614,1,0,0:0:0:0:
147,248,92700,1,0,0:0:0:0:
177,211,92785,1,0,0:0:0:0:
212,168,92871,5,0,0:0:0:0:
246,207,92957,1,0,0:0:0:0:
280,247,93042,1,0,0:0:0:0:
314,287,93128,1,0,0:0:0:0:
345,326,93214,2,0,P|425:307|449:275,1,116.999994644165
500,136,93557,5,2,0:0:0:0:
465,129,93642,1,0,0:0:0:0:
430,135,93728,1,0,0:0:0:0:
401,153,93814,1,0,0:0:0:0:
373,190,93900,1,2,0:0:0:0:
338,220,93985,1,0,0:0:0:0:
294,234,94071,1,0,0:0:0:0:
247,229,94157,1,0,0:0:0:0:
212,188,94242,5,0,0:0:0:0:
162,205,94328,1,0,0:0:0:0:
113,223,94414,1,0,0:0:0:0:
63,242,94500,1,0,0:0:0:0:
11,238,94585,2,0,P|33:192|86:157,1,116.999994644165
242,96,94928,5,2,0:0:0:0:
290,108,95014,1,0,0:0:0:0:
338,120,95100,1,0,0:0:0:0:
386,136,95185,1,0,0:0:0:0:
406,172,95271,1,2,0:0:0:0:
367,181,95357,1,0,0:0:0:0:
329,191,95442,1,0,0:0:0:0:
290,204,95528,1,0,0:0:0:0:
278,244,95614,5,2,0:0:0:0:
309,251,95700,1,0,0:0:0:0:
339,259,95785,1,0,0:0:0:0:
370,269,95871,1,0,0:0:0:0:
404,288,95957,2,0,P|360:324|300:316,1,116.999994644165,2|0,0:0|0:0,0:0:0:0:
204,280,96300,5,2,0:0:0:0:
173,270,96385,1,0,0:0:0:0:
143,262,96471,1,0,0:0:0:0:
112,255,96557,1,0,0:0:0:0:
124,215,96642,1,2,0:0:0:0:
163,202,96728,1,0,0:0:0:0:
201,192,96814,1,0,0:0:0:0:
240,183,96900,1,0,0:0:0:0:
220,147,96985,5,2,0:0:0:0:
172,131,97071,1,0,0:0:0:0:
124,119,97157,1,0,0:0:0:0:
76,107,97242,1,0,0:0:0:0:
20,88,97328,2,0,P|66:55|126:69,1,116.999994644165,2|0,0:0|0:0,0:0:0:0:
277,109,97671,6,0,L|309:33,3,58.4999973220826,2|0|0|0,0:0|0:0|0:0|0:0,0:0:0:0:
309,263,98014,2,0,L|365:328,3,58.4999973220826,2|0|0|0,0:0|0:0|0:0|0:0,0:0:0:0:
159,214,98357,2,0,L|70:249,3,58.4999973220826,2|0|0|0,0:0|0:0|0:0|0:0,0:0:0:0:
256,192,98700,2,0,P|320:176|380:204,1,116.999994644165,2|0,0:0|0:0,0:0:0:0:
309,263,99042,6,0,L|358:328,3,58.4999973220826,2|0|0|0,0:0|0:0|0:0|0:0,0:0:0:0:
159,212,99385,2,0,L|74:227,3,58.4999973220826,2|0|0|0,0:0|0:0|0:0|0:0,0:0:0:0:
277,107,99728,2,0,L|291:12,3,58.4999973220826,2|0|0|0,0:0|0:0|0:0|0:0,0:0:0:0:
246,202,100071,2,0,P|227:265|173:303,1,116.999994644165,2|0,0:0|0:0,0:0:0:0:
80,160,100414,5,2,0:0:0:0:
80,160,100500,1,0,0:0:0:0:
80,160,100585,2,0,L|136:120,1,45
192,64,100757,1,2,0:0:0:0:
192,64,100842,1,0,0:0:0:0:
192,64,100928,2,0,L|259:51,1,45
340,44,101100,5,2,0:0:0:0:
340,44,101185,1,0,0:0:0:0:
340,44,101271,2,0,L|406:61,1,45
483,88,101442,1,8,0:0:0:0:
463,306,101785,5,2,0:0:0:0:
463,306,101871,1,0,0:0:0:0:
463,306,101957,2,0,L|394:311,1,45
317,330,102128,1,2,0:0:0:0:
317,330,102214,1,0,0:0:0:0:
317,330,102300,2,0,L|252:305,1,45
180,271,102471,5,2,0:0:0:0:
180,271,102557,1,0,0:0:0:0:
180,271,102642,2,0,L|131:221,1,45
80,160,102814,1,8,0:0:0:0:
420,72,103157,6,0,L|476:40,3,45,2|0|0|0,0:0|0:0|0:0|0:0,0:0:0:0:
408,176,103500,2,0,L|472:170,3,45,2|0|0|0,0:0|0:0|0:0|0:0,0:0:0:0:
352,260,103842,2,0,L|412:282,3,45,2|0|0|0,0:0|0:0|0:0|0:0,0:0:0:0:
488,316,104185,1,8,0:0:0:0:
136,328,104528,6,0,L|77:323,3,45,2|0|0|0,0:0|0:0|0:0|0:0,0:0:0:0:
120,228,104871,2,0,L|69:198,3,45,2|0|0|0,0:0|0:0|0:0|0:0,0:0:0:0:
153,128,105214,2,0,L|119:80,3,45,2|0|0|0,0:0|0:0|0:0|0:0,0:0:0:0:
64,8,105557,1,8,0:0:0:0:
320,76,105900,6,0,L|360:64,3,22.5,0|0|0|0,2:0|2:0|2:0|2:0,2:0:0:0:
240,116,106242,2,0,L|200:104,3,22.5,0|0|0|0,2:0|2:0|2:0|2:0,2:0:0:0:
320,160,106585,2,0,L|360:148,3,22.5,0|0|0|0,2:0|2:0|2:0|2:0,2:0:0:0:
240,200,106928,1,0,3:0:0:0:
64,296,107271,6,0,L|24:308,3,22.5,0|0|0|0,2:0|2:0|2:0|2:0,2:0:0:0:
144,256,107614,2,0,L|184:268,3,22.5,0|0|0|0,2:0|2:0|2:0|2:0,2:0:0:0:
64,212,107957,2,0,L|24:224,3,22.5,0|0|0|0,2:0|2:0|2:0|2:0,2:0:0:0:
144,172,108300,1,0,3:0:0:0:
256,192,108642,12,0,111042,0:0:0:0:
256,192,111385,5,4,0:0:0:0:
256,192,126300,12,8,127671,0:0:0:0:
300,240,127842,5,0,0:0:0:0:
300,240,128014,1,0,0:0:0:0:
324,136,128185,2,0,L|344:40,1,90,0|0,0:0|0:0,0:0:0:0:
212,144,128528,5,0,0:0:0:0:
188,248,128700,1,0,0:0:0:0:
287,135,128871,5,0,0:0:0:0:
300,240,129042,1,0,0:0:0:0:
378,109,129214,5,8,0:0:0:0:
394,235,129385,1,0,0:0:0:0:
378,361,129557,2,0,L|268:336,1,90,0|0,0:0|0:0,0:0:0:0:
212,144,129900,2,0,L|322:169,1,90,0|0,0:0|0:0,0:0:0:0:
412,256,130242,5,0,0:0:0:0:
432,276,130414,1,0,0:0:0:0:
272,284,130585,1,8,0:0:0:0:
252,304,130757,1,0,0:0:0:0:
408,216,130928,5,0,0:0:0:0:
428,196,131100,1,0,0:0:0:0:
268,188,131271,1,8,0:0:0:0:
248,168,131442,1,0,0:0:0:0:
328,116,131614,6,0,P|264:92|164:112,1,135,0|0,0:0|0:0,0:0:0:0:
136,132,131957,2,0,L|80:112,3,45,8|0|0|0,0:0|0:0|0:0|0:0,0:0:0:0:
168,204,132300,1,0,0:0:0:0:
328,268,132471,1,0,0:0:0:0:
328,268,132557,1,0,0:0:0:0:
328,268,132642,1,0,0:0:0:0:
328,116,132814,5,8,0:0:0:0:
396,316,132985,1,8,0:0:0:0:
184,268,133157,1,0,0:0:0:0:
358,151,133328,5,0,0:0:0:0:
153,232,133500,1,0,0:0:0:0:
370,198,133671,5,0,0:0:0:0:
141,185,133842,1,0,0:0:0:0:
362,249,134014,5,0,0:0:0:0:
149,134,134185,1,0,0:0:0:0:
332,291,134357,2,0,P|252:316|220:296,1,90,0|0,0:0|0:0,0:0:0:0:
88,236,134700,5,8,0:0:0:0:
300,120,134871,1,0,0:0:0:0:
91,186,135042,5,0,0:0:0:0:
308,172,135214,1,0,0:0:0:0:
114,145,135385,5,0,0:0:0:0:
296,216,135557,1,0,0:0:0:0:
152,117,135728,5,0,0:0:0:0:
184,100,135814,1,0,0:0:0:0:
220,96,135900,1,0,0:0:0:0:
382,190,136071,5,8,0:3:0:0:
296,216,136242,1,8,0:3:0:0:
206,219,136414,1,8,0:3:0:0:
119,200,136585,1,8,0:3:0:0:
7,141,136757,5,8,0:0:0:0:
112,71,136928,1,8,0:0:0:0:
233,41,137100,1,8,0:0:0:0:
358,53,137271,1,8,0:0:0:0:
384,248,137442,1,0,0:0:0:0:
393,289,137528,1,0,0:0:0:0:
377,330,137614,1,0,0:0:0:0:
340,355,137700,1,0,0:0:0:0:
295,353,137785,1,0,0:0:0:0:
260,327,137871,1,0,0:0:0:0:
246,284,137957,1,0,0:0:0:0:
260,242,138042,1,0,0:0:0:0:
296,216,138128,6,0,L|300:168,14,25.8750004935265
304,296,138814,1,0,0:0:0:0:
288,308,139157,5,0,0:0:0:0:
288,308,139328,1,0,0:0:0:0:
216,248,139500,5,0,0:0:0:0:
308,216,139671,1,0,0:0:0:0:
152,148,139842,5,0,0:0:0:0:
344,116,140014,1,0,0:0:0:0:
156,344,140185,2,0,P|160:276|184:228,1,116.999994644165
380,204,140528,1,8,0:0:0:0:
179,66,140700,1,0,0:0:0:0:
316,260,140871,6,0,P|373:287|435:270,1,116.999994644165
300,180,141214,1,8,0:0:0:0:
104,90,141385,1,0,0:0:0:0:
104,328,141557,5,0,0:0:0:0:
104,328,141728,1,0,0:0:0:0:
196,140,141900,1,0,0:0:0:0:
232,352,142071,1,0,0:0:0:0:
328,96,142242,1,0,0:0:0:0:
328,96,142414,1,0,0:0:0:0:
136,200,142585,5,8,0:0:0:0:
437,176,142757,1,0,0:0:0:0:
177,302,142928,2,0,P|146:268|137:194,1,116.999994644165
304,380,143271,2,0,P|328:328|316:256,1,116.999994644165
56,224,143614,2,0,P|61:166|107:110,1,116.999994644165
408,208,143957,5,8,0:0:0:0:
135,199,144128,1,0,0:0:0:0:
366,313,144300,2,0,P|394:273|406:193,1,116.999994644165
192,88,144642,1,8,0:0:0:0:
344,124,144814,1,0,0:0:0:0:
200,252,144985,1,8,0:0:0:0:
352,216,145157,1,0,0:0:0:0:
156,168,145328,1,8,0:0:0:0:
424,164,145500,1,0,0:0:0:0:
192,76,145671,6,0,P|128:76|80:104,1,116.999994644165
400,160,146014,1,8,0:0:0:0:
144,116,146185,1,0,0:0:0:0:
387,272,146357,2,0,P|407:196|391:140,1,116.999994644165
152,280,146700,1,8,0:0:0:0:
352,216,146871,1,0,0:0:0:0:
216,112,147042,5,0,0:0:0:0:
272,336,147214,1,0,0:0:0:0:
136,92,147385,1,0,0:0:0:0:
296,257,147557,1,0,0:0:0:0:
56,113,147728,1,0,0:0:0:0:
277,176,147900,1,0,0:0:0:0:
48,316,148071,5,0,0:0:0:0:
48,316,148242,1,0,0:0:0:0:
292,336,148414,2,0,P|344:316|373:262,1,116.999994644165
354,72,148757,1,8,0:0:0:0:
176,188,148928,1,0,0:0:0:0:
84,64,149100,1,0,0:0:0:0:
95,275,149271,1,0,0:0:0:0:
288,188,149442,6,0,P|284:130|244:85,1,116.999994644165,8|0,0:0|0:0,0:0:0:0:
88,236,149785,2,0,P|91:293|131:338,1,116.999994644165
292,312,150128,1,8,0:0:0:0:
452,284,150300,1,0,0:0:0:0:
312,228,150471,1,8,0:0:0:0:
276,220,150557,1,8,0:0:0:0:
244,216,150642,1,8,0:0:0:0:
112,256,150814,5,8,0:0:0:0:
416,72,150985,1,8,0:0:0:0:
133,140,151157,2,0,L|110:266,1,116.999994644165
360,160,151500,5,8,0:0:0:0:
56,344,151671,1,8,0:0:0:0:
339,276,151842,2,0,L|362:150,1,116.999994644165
264,264,152185,2,0,P|304:344|408:312,1,175.499991966248
392,324,152528,1,0,0:0:0:0:
360,160,152700,1,0,0:0:0:0:
464,280,152871,6,0,L|446:171,1,90
292,264,153214,2,0,L|277:174,1,90
424,124,153557,1,0,0:0:0:0:
232,348,153728,1,0,0:0:0:0:
224,108,153900,2,0,P|278:90|332:110,1,116.999994644165
416,300,154242,5,8,0:0:0:0:
192,224,154414,1,0,0:0:0:0:
392,208,154585,1,0,0:0:0:0:
136,304,154757,1,0,0:0:0:0:
332,110,154928,5,8,0:0:0:0:
224,372,155100,1,0,0:0:0:0:
136,136,155271,2,0,P|146:80|198:44,1,116.999994644165,0|0,0:0|0:0,0:0:0:0:
372,216,155614,5,8,0:0:0:0:
220,128,155785,1,0,0:0:0:0:
337,294,155957,1,0,0:0:0:0:
220,128,156128,1,0,0:0:0:0:
260,349,156300,1,8,0:0:0:0:
220,128,156471,1,0,0:0:0:0:
158,368,156642,2,0,P|120:280|128:232,1,116.999994644165
204,108,156985,5,8,0:0:0:0:
321,274,157157,1,0,0:0:0:0:
108,368,157328,2,0,P|94:273|114:228,1,116.999994644165
180,80,157671,1,8,0:0:0:0:
180,80,157842,1,0,0:0:0:0:
360,128,158014,5,0,0:0:0:0:
416,280,158185,1,0,0:0:0:0:
360,128,158357,1,8,0:0:0:0:
290,319,158528,1,0,0:0:0:0:
360,128,158700,1,0,0:0:0:0:
444,357,158871,1,0,0:0:0:0:
360,104,159042,5,8,0:0:0:0:
184,164,159214,1,0,0:0:0:0:
290,319,159385,2,0,P|352:320|408:296,1,116.999994644165,0|0,0:0|0:0,0:0:0:0:
360,104,159728,5,8,0:0:0:0:
332,224,159900,1,0,0:0:0:0:
376,100,160071,1,0,0:0:0:0:
244,224,160242,1,0,0:0:0:0:
392,96,160414,1,8,0:0:0:0:
152,184,160585,1,0,0:0:0:0:
408,92,160757,5,0,0:0:0:0:
200,104,160928,1,0,0:0:0:0:
392,164,161100,1,8,0:0:0:0:
253,205,161271,1,0,0:0:0:0:
389,240,161442,1,8,0:0:0:0:
253,205,161614,1,8,0:0:0:0:
392,164,161785,1,8,0:0:0:0:
200,104,161957,1,8,0:0:0:0:
424,88,162128,6,0,P|454:119|421:238,2,180,4|0|0,0:0|0:0|0:0,0:0:0:0:
296,112,162985,1,0,0:0:0:0:
232,208,163157,2,0,P|223:252|233:296,1,90
340,276,163500,2,0,P|344:327|327:365,1,90
144,232,163842,2,0,P|176:144|256:116,1,180
392,164,164357,1,0,0:0:0:0:
392,164,164528,2,0,P|364:199|326:221,1,90
182,167,164871,6,0,P|263:120|342:150,1,180
276,312,165385,1,0,0:0:0:0:
276,312,165557,2,0,L|268:212,1,90
372,292,165900,1,0,0:0:0:0:
400,284,166071,1,0,0:0:0:0:
428,276,166242,2,0,P|440:228|420:128,1,135
400,112,166585,6,0,P|344:136|320:168,1,90
224,164,166928,1,0,0:0:0:0:
168,64,167100,1,0,0:0:0:0:
116,172,167271,1,0,0:0:0:0:
60,72,167443,1,0,0:0:0:0:
8,180,167614,2,0,P|24:232|92:280,1,135
128,304,167957,6,0,P|184:284|212:248,1,90
254,150,168300,1,0,0:0:0:0:
310,50,168472,1,0,0:0:0:0:
362,158,168643,1,0,0:0:0:0:
418,58,168815,1,0,0:0:0:0:
470,166,168986,2,0,P|454:218|382:254,1,135
362,158,169328,2,0,L|310:78,1,90
248,28,169671,6,0,P|205:19|162:36,1,90
24,100,170014,2,0,P|68:108|112:91,1,90
288,160,170357,2,0,P|198:142|109:176,1,180
44,248,170871,5,0,0:0:0:0:
120,324,171042,1,0,0:0:0:0:
220,280,171214,1,0,0:0:0:0:
308,344,171385,1,0,0:0:0:0:
384,268,171557,1,0,0:0:0:0:
356,164,171728,6,0,P|341:88|252:40,1,180
248,152,172242,1,0,0:0:0:0:
300,240,172414,1,0,0:0:0:0:
300,240,172500,1,0,0:0:0:0:
300,240,172585,1,0,0:0:0:0:
320,336,172757,1,0,0:0:0:0:
224,304,172928,1,0,0:0:0:0:
312,236,173100,6,0,P|382:257|420:353,1,180
308,356,173614,1,0,0:0:0:0:
208,340,173785,1,0,0:0:0:0:
268,264,173957,1,0,0:0:0:0:
164,252,174128,2,0,P|128:248|84:208,1,90
16,124,174471,2,0,P|108:116|196:164,1,180
264,268,174985,2,0,L|356:280,1,90
412,212,175328,1,0,0:0:0:0:
336,144,175500,2,0,L|225:158,1,90
148,164,175842,6,0,P|181:86|268:57,1,180
256,164,176357,1,0,0:0:0:0:
192,260,176528,1,0,0:0:0:0:
192,260,176700,1,0,0:0:0:0:
320,260,176871,1,0,0:0:0:0:
320,260,177042,1,0,0:0:0:0:
256,344,177214,2,0,L|256:252,1,90
256,164,177557,6,0,L|256:-48,2,180,2|2|8,0:0|0:0|0:0,0:0:0:0:
256,192,178585,5,4,0:0:0:0:
256,192,178671,12,0,181328,0:0:0:0:
