osu file format v14

[General]
AudioFilename: audio.mp3
AudioLeadIn: 0
PreviewTime: 47934
Countdown: 0
SampleSet: Normal
StackLeniency: 0.7
Mode: 0
LetterboxInBreaks: 0
WidescreenStoryboard: 0

[Editor]
Bookmarks: 5420,17591,28562,39534,45020,47762,50505,72448,83420,88905,91650
DistanceSpacing: 1.2
BeatDivisor: 4
GridSize: 4
TimelineZoom: 2.2

[Metadata]
Title:Light of my Life
TitleUnicode:Light of my Life
Artist:S3RL
ArtistUnicode:S3RL
Creator:Blue Steps
Version:Insane
Source:crossbeats REV. SUNRISE
Tags:s3rl happy uk hardcore dance arcade rhythm game crossbeats rev sunrise capcom Criss Crissaegrim Tatan xfraczynho silent spica bauhelloxd nyanekomiau TheShadowOfDark
BeatmapID:1373145
BeatmapSetID:648150

[Difficulty]
HPDrainRate:6.9
CircleSize:3.9
OverallDifficulty:6.9
ApproachRate:9.1
SliderMultiplier:1.6
SliderTickRate:1

[Events]
//Background and Video events
0,0,"BG.jpg",0,0
//Break Periods
//Storyboard Layer 0 (Background)
//Storyboard Layer 1 (Fail)
//Storyboard Layer 2 (Pass)
//Storyboard Layer 3 (Foreground)
//Storyboard Sound Samples

[TimingPoints]
1134.35294117647,342.857142857143,4,1,0,88,1,0
1135,-133.333333333333,4,2,1,50,0,0
5420,-133.333333333333,4,2,1,65,0,0
17591,-100,4,2,2,70,0,0
18277,-100,4,2,3,70,0,0
18448,-100,4,2,4,70,0,0
18620,-100,4,2,3,70,0,0
18791,-100,4,2,4,70,0,0
18962,-100,4,2,2,70,0,0
19648,-100,4,2,3,70,0,0
19820,-100,4,2,4,70,0,0
19991,-100,4,2,3,70,0,0
20162,-100,4,2,4,70,0,0
20334,-100,4,2,5,70,0,0
21020,-100,4,2,6,70,0,0
21705,-100,4,2,5,70,0,0
22391,-100,4,2,6,70,0,0
23077,-100,4,2,4,70,0,0
23762,-100,4,2,5,70,0,0
23934,-100,4,2,3,70,0,0
24105,-100,4,2,5,70,0,0
24278,-100,4,2,3,70,0,0
24448,-100,4,2,4,70,0,0
25134,-100,4,2,5,70,0,0
25305,-100,4,2,3,70,0,0
25477,-100,4,2,5,70,0,0
25648,-100,4,2,3,70,0,0
25820,-100,4,2,2,70,0,0
26505,-100,4,2,3,70,0,0
27191,-133.333333333333,4,2,2,70,0,0
27362,-133.333333333333,4,2,4,70,0,0
27534,-100,4,2,2,70,0,0
27705,-100,4,2,4,70,0,0
27877,-90.9090909090909,4,2,2,70,0,0
28048,-90.9090909090909,4,2,4,70,0,0
28220,-83.3333333333333,4,2,2,70,0,0
28391,-83.3333333333333,4,2,4,70,0,0
28562,-111.111111111111,4,2,1,70,0,0
39534,-111.111111111111,4,3,1,70,0,0
40905,-100,4,3,1,70,0,0
42277,-90.9090909090909,4,3,1,70,0,0
43648,-83.3333333333333,4,3,1,70,0,0
45020,-111.111111111111,4,3,4,55,0,0
46391,-111.111111111111,4,3,4,60,0,0
47762,-111.111111111111,4,3,2,70,0,0
49134,-111.111111111111,4,2,7,70,0,0
50505,-76.9230769230769,4,1,7,85,0,1
71077,-133.333333333333,4,2,0,75,0,0
72448,-83.3333333333333,4,2,7,75,0,0
88905,-83.3333333333333,4,3,1,75,0,0
91648,-100,4,3,2,65,0,0

[Colours]
Combo1 : 0,255,255
Combo2 : 40,255,148
Combo3 : 19,63,236
Combo4 : 254,203,1
Combo5 : 247,179,87
Combo6 : 205,205,205

[HitObjects]
424,40,1134,5,2,0:0:0:0:
320,128,1477,1,2,0:0:0:0:
176,96,1820,1,2,0:0:0:0:
88,96,1991,1,0,0:0:0:0:
56,168,2162,1,0,0:0:0:0:
128,228,2334,1,2,0:0:0:0:
200,176,2505,1,2,0:0:0:0:
316,260,2848,1,2,0:0:0:0:
400,160,3191,6,0,P|416:188|456:200,1,60.0000022888184,0|2,0:0|0:0,0:0:0:0:
320,236,3534,2,0,P|296:212|268:200,1,60.0000022888184,0|2,0:0|0:0,0:0:0:0:
216,108,3877,1,2,0:0:0:0:
104,200,4220,1,2,0:0:0:0:
356,148,4562,6,0,P|408:148|432:124,1,60.0000022888184,0|2,0:0|0:0,0:0:0:0:
472,44,4905,2,0,P|436:56|396:48,1,60.0000022888184,0|2,0:0|0:0,0:0:0:0:
276,28,5248,2,0,P|268:64|276:108,1,60.0000022888184,0|2,0:0|0:0,0:0:0:0:
156,156,5591,6,0,L|213:140,1,60.0000022888184,2|0,0:0|0:0,0:0:0:0:
304,156,5934,2,0,L|380:180,1,60.0000022888184,2|0,0:0|0:0,0:0:0:0:
416,236,6277,1,2,0:0:0:0:
324,268,6448,1,0,0:0:0:0:
232,240,6620,2,0,P|160:292|132:172,1,240.000009155274,4|2,3:0|0:0,0:0:0:0:
232,68,7648,2,0,P|272:80|308:72,1,60.0000022888184,0|2,0:0|0:0,0:0:0:0:
316,164,7991,1,2,0:0:0:0:
200,256,8162,5,0,0:0:0:0:
200,256,8334,2,0,L|124:220,1,60.0000022888184
44,180,8677,1,0,0:0:0:0:
112,124,8848,1,2,0:0:0:0:
212,148,9020,1,0,0:0:0:0:
212,148,9191,1,2,0:0:0:0:
336,184,9362,2,0,B|368:152|368:152|388:64|476:124|476:124|428:160,1,240.000009155274,2|0,0:0|0:0,0:0:0:0:
396,296,10391,2,0,P|432:320|468:320,2,60.0000022888184,0|2|0,0:0|0:0|0:0,0:0:0:0:
451,207,10905,5,0,0:0:0:0:
467,115,11077,1,2,0:0:0:0:
386,61,11248,1,0,0:0:0:0:
302,99,11420,1,2,0:0:0:0:
302,99,11591,2,0,P|272:88|228:96,1,60.0000022888184,0|2,0:0|0:0,0:0:0:0:
264,184,11934,1,0,0:0:0:0:
168,264,12105,2,0,P|128:280|40:236,1,120.000004577637,2|0,0:0|0:0,0:0:0:0:
156,168,12620,5,0,0:0:0:0:
184,320,12791,2,0,P|212:332|264:336,1,60.0000022888184,2|0,0:0|0:0,0:0:0:0:
372,276,13134,2,0,P|336:280|292:268,1,60.0000022888184,2|0,0:0|0:0,0:0:0:0:
376,184,13477,2,0,P|424:180|420:108,1,120.000004577637,2|0,0:0|0:0,0:0:0:0:
256,116,13991,5,0,0:0:0:0:
288,224,14162,2,0,P|328:196|352:192,1,60.0000022888184,2|0,0:0|0:0,0:0:0:0:
360,108,14505,1,0,0:0:0:0:
168,112,14677,1,0,0:0:0:0:
68,196,14848,2,0,B|100:220|136:180|136:180|212:252|288:220,1,240.000009155274,2|0,0:0|0:0,0:0:0:0:
468,188,15877,1,2,0:0:0:0:
448,296,16048,2,0,P|416:280|372:208,1,120.000004577637,2|0,0:0|0:0,0:0:0:0:
232,76,16562,6,0,P|256:100|296:108,1,60.0000022888184
392,72,16905,1,2,0:0:0:0:
364,188,17077,1,0,0:0:0:0:
248,236,17248,2,0,P|248:204|256:160,1,60.0000022888184,2|0,0:0|0:0,0:0:0:0:
72,40,17591,6,0,P|76:88|128:132,1,120,6|0,3:2|3:0,0:0:0:0:
160,144,17934,1,10,3:0:0:0:
279,54,18105,1,0,3:0:0:0:
280,224,18277,1,2,3:2:0:0:
419,139,18448,1,2,3:2:0:0:
452,256,18620,2,0,P|420:288|380:304,1,80,10|2,3:0|0:0,0:0:0:0:
256,320,18962,6,0,P|280:284|220:232,1,120,2|0,3:2|3:0,0:0:0:0:
212,224,19305,1,10,3:0:0:0:
296,84,19477,1,0,3:0:0:0:
136,72,19648,2,0,P|176:128|208:144,1,80,2|2,3:2|3:0,0:0:0:0:
344,152,19991,2,0,P|328:120|288:88,1,80,10|2,3:3|2:0,0:0:0:0:
296,196,20334,6,0,P|356:188|420:208,1,120,2|0,3:2|3:0,0:0:0:0:
444,224,20677,1,10,3:0:0:0:
296,308,20848,1,0,3:0:0:0:
296,308,21020,2,0,P|236:308|184:300,1,80,2|0,3:2|3:0,0:0:0:0:
64,240,21362,2,0,P|56:188|88:144,1,80,10|0,3:0|3:0,0:0:0:0:
208,128,21705,2,0,L|344:64,1,120,2|0,3:2|3:0,0:0:0:0:
348,60,22048,1,10,3:0:0:0:
476,136,22220,1,0,2:3:0:0:
372,200,22391,5,2,3:2:0:0:
298,337,22562,1,0,3:0:0:0:
444,294,22734,1,10,3:0:0:0:
273,226,22905,1,0,0:0:0:0:
136,248,23077,2,0,B|112:220|72:208|72:208|64:164|36:132,1,160,2|10,3:2|0:3,0:0:0:0:
208,40,23591,5,0,3:2:0:0:
336,72,23762,2,0,P|320:116|328:156,1,80,2|2,3:2|3:0,0:0:0:0:
476,136,24105,2,0,B|460:200|416:216,1,80,10|2,3:0|0:0,0:0:0:0:
308,240,24448,2,0,B|288:228|288:228|232:296|180:240,1,120,2|0,3:2|0:0,0:0:0:0:
112,228,24791,2,0,L|160:144,1,80,10|0,3:0|3:0,0:0:0:0:
200,76,25134,5,2,3:2:0:0:
376,148,25305,1,2,3:0:0:0:
300,28,25477,1,10,0:3:0:0:
264,176,25648,1,2,3:0:0:0:
264,176,25820,2,0,B|312:192|312:192|288:232|320:260|320:260|360:252|396:260|420:308,1,240,2|0,3:2|3:0,3:0:0:0:
452,188,26505,1,2,3:2:0:0:
424,56,26677,1,0,3:0:0:0:
452,188,26848,1,10,3:0:0:0:
304,40,27020,1,0,3:0:0:0:
196,152,27191,6,0,L|192:212,1,60.0000022888184,2|2,0:0|0:0,0:0:0:0:
320,136,27534,2,0,L|336:232,1,80,2|2,0:0|0:0,0:0:0:0:
140,120,27877,2,0,L|92:208,1,88.000002685547,2|2,0:0|0:0,0:0:0:0:
368,128,28220,2,0,L|412:216,1,95.9999970703126,2|2,0:0|0:0,0:0:0:0:
304,304,28562,6,0,P|376:316|448:264,1,143.999995605469,4|10,0:2|0:0,0:0:0:0:
196,128,29248,2,0,P|224:160|260:184,1,71.9999978027344,8|2,0:0|0:0,0:0:0:0:
392,132,29591,2,0,P|352:120|324:100,1,71.9999978027344,8|2,0:0|0:0,0:0:0:0:
244,48,29934,1,8,0:0:0:0:
56,160,30191,1,2,0:0:0:0:
56,160,30277,2,0,B|108:160|143:187,1,71.9999978027344,8|2,0:0|0:0,0:0:0:0:
188,284,30620,5,8,0:0:0:0:
324,228,30791,1,2,0:0:0:0:
220,136,30962,2,0,P|216:176|228:220,1,71.9999978027344,8|2,0:0|0:0,0:0:0:0:
312,76,31305,2,0,B|276:52|276:52|252:60|196:44,1,107.999996704102,8|0,0:0|0:0,0:0:0:0:
184,44,31648,1,8,0:0:0:0:
40,224,31991,6,0,P|76:192|128:184,1,71.9999978027344,8|2,0:0|0:0,0:0:0:0:
64,320,32334,2,0,P|88:292|132:280,1,71.9999978027344,8|2,0:0|0:0,0:0:0:0:
232,320,32677,1,8,0:0:0:0:
476,272,32934,1,2,0:0:0:0:
476,272,33020,2,0,B|424:272|389:245,1,71.9999978027344,8|2,0:0|0:0,0:0:0:0:
272,144,33362,6,0,L|352:144,1,71.9999978027344,8|2,0:0|0:0,0:0:0:0:
248,48,33705,2,0,L|172:48,1,71.9999978027344,8|2,0:0|0:0,0:0:0:0:
56,116,34048,2,0,P|52:168|112:228,1,107.999996704102,10|0,0:0|0:0,0:0:0:0:
100,232,34391,1,8,0:0:0:0:
248,168,34562,1,2,0:0:0:0:
228,44,34734,5,8,0:0:0:0:
360,88,34905,1,2,0:0:0:0:
400,220,35077,1,8,0:0:0:0:
252,152,35248,1,2,0:0:0:0:
292,296,35420,2,0,B|336:288|336:288|368:312|412:300,1,107.999996704102,8|2,0:0|0:0,0:0:0:0:
432,304,35762,1,8,0:0:0:0:
432,304,35934,1,2,0:0:0:0:
416,156,36105,6,0,L|372:100,1,71.9999978027344,8|2,0:0|0:0,0:0:0:0:
212,84,36448,2,0,L|260:144,1,71.9999978027344,8|2,0:0|0:0,0:0:0:0:
188,276,36791,2,0,P|260:252|316:260,1,107.999996704102,8|0,0:0|0:0,0:0:0:0:
320,256,37134,1,8,0:0:0:0:
248,132,37305,1,2,0:0:0:0:
96,176,37477,5,8,0:0:0:0:
48,56,37648,1,2,0:0:0:0:
176,80,37820,2,0,P|192:112|248:148,1,71.9999978027344,8|2,0:0|0:0,0:0:0:0:
340,228,38162,2,0,P|380:212|428:152,1,107.999996704102,8|2,0:0|0:0,0:0:0:0:
344,103,38505,6,0,P|304:83|256:79,1,71.9999978027344,8|2,0:0|0:0,0:0:0:0:
185,245,38848,1,8,0:0:0:0:
344,103,39020,1,2,0:0:0:0:
162,129,39191,1,8,0:0:0:0:
353,227,39362,1,2,0:0:0:0:
240,80,39534,6,0,P|264:56|304:40,1,71.9999978027344,8|0,0:0|2:0,0:0:0:0:
376,56,39791,2,0,P|416:88|428:112,1,71.9999978027344,8|0,0:0|2:0,0:0:0:0:
312,168,40048,2,0,P|356:184|392:176,1,71.9999978027344,8|0,0:0|2:0,0:0:0:0:
412,176,40305,1,8,0:0:0:0:
316,288,40477,1,8,0:0:0:0:
264,132,40648,1,8,0:0:0:0:
264,132,40734,1,8,0:0:0:0:
147,54,40905,6,0,P|92:74|76:120,1,80,8|0,0:0|2:0,0:0:0:0:
88,183,41162,2,0,P|138:208|180:200,1,80,8|0,0:0|2:0,0:0:0:0:
214,100,41420,2,0,P|239:132|245:173,1,80,8|0,0:0|2:0,0:0:0:0:
240,208,41677,1,8,0:0:0:0:
64,264,41848,1,8,0:0:0:0:
216,340,42020,1,8,0:0:0:0:
216,340,42105,1,8,0:0:0:0:
328,296,42277,6,0,P|370:326|425:309,1,88.000002685547,8|0,0:0|2:0,0:0:0:0:
476,259,42534,2,0,P|464:217|430:175,1,88.000002685547,8|0,0:0|2:0,0:0:0:0:
308,204,42791,2,0,P|317:153|346:106,1,88.000002685547,8|0,0:0|0:0,0:0:0:0:
372,92,43048,1,8,0:0:0:0:
248,32,43220,1,8,0:0:0:0:
124,96,43391,1,8,0:0:0:0:
124,96,43477,1,8,0:0:0:0:
85,224,43648,6,0,P|99:299|133:327,1,95.9999970703126,8|0,0:0|2:0,0:0:0:0:
226,323,43905,2,0,P|284:285|298:234,1,95.9999970703126,8|0,0:0|2:0,0:0:0:0:
203,158,44162,2,0,P|256:134|316:148,1,95.9999970703126,8|0,0:0|0:0,0:0:0:0:
336,164,44420,1,8,0:0:0:0:
352,312,44591,1,8,0:0:0:0:
204,256,44762,1,8,0:0:0:0:
204,256,44848,1,8,0:0:0:0:
28,184,45020,6,0,L|64:136,3,35.9999989013672,4|0|2|0,3:2|0:0|0:2|0:0,0:0:0:0:
180,212,45362,2,0,L|204:184,3,35.9999989013672,4|0|2|0,3:2|0:0|0:0|0:0,0:0:0:0:
88,64,45705,2,0,L|112:36,3,35.9999989013672,4|0|2|0,3:2|0:0|0:0|0:0,0:0:0:0:
256,64,46048,2,0,L|280:32,3,35.9999989013672,4|0|2|0,3:2|0:0|0:0|0:0,0:0:0:0:
368,60,46391,5,4,3:2:0:0:
401,71,46477,1,0,0:0:0:0:
431,92,46562,1,2,0:0:0:0:
454,119,46648,1,0,0:0:0:0:
469,152,46734,5,4,3:2:0:0:
474,187,46820,1,0,0:0:0:0:
470,223,46905,1,2,0:0:0:0:
457,256,46991,1,0,0:0:0:0:
432,284,47077,2,0,L|408:324,3,35.9999989013672,4|0|2|0,0:2|0:0|0:0|0:0,0:0:0:0:
292,324,47420,2,0,L|268:352,3,35.9999989013672,4|0|2|0,0:2|0:0|0:0|0:0,0:0:0:0:
140,320,47762,2,0,L|92:268,1,35.9999989013672
48,216,47934,6,0,L|76:257,1,35.9999989013672,2|0,0:0|0:0,0:0:0:0:
208,288,48105,2,0,L|174:241,1,35.9999989013672,2|0,0:0|0:0,0:0:0:0:
73,153,48277,2,0,L|105:195,1,35.9999989013672,2|0,0:0|0:0,0:0:0:0:
280,256,48448,2,0,L|250:227,1,35.9999989013672,2|0,0:0|0:0,0:0:0:0:
123,98,48620,2,0,L|151:136,1,35.9999989013672,2|0,0:0|0:0,0:0:0:0:
348,216,48791,2,0,L|317:181,1,35.9999989013672,2|0,0:0|0:0,0:0:0:0:
192,44,48962,2,0,L|226:94,1,35.9999989013672,2|0,0:0|0:0,0:0:0:0:
252,132,49134,5,2,2:0:0:0:
236,152,49477,1,2,2:0:0:0:
264,184,49820,1,2,2:0:0:0:
292,216,50162,1,2,2:0:0:0:
256,72,50334,1,2,2:0:0:0:
104,88,50505,6,0,P|92:160|112:224,1,103.999995239258,6|0,3:1|0:0,0:0:0:0:
180,316,50848,2,0,P|192:268|184:208,1,103.999995239258,2|0,3:1|0:0,0:0:0:0:
285,48,51191,1,0,3:0:0:0:
163,183,51362,1,2,0:1:0:0:
365,133,51534,1,0,3:0:0:0:
247,271,51705,1,2,1:1:0:0:
40,244,51877,2,0,P|84:172|168:180,1,155.999992858887,2|0,3:1|0:0,0:0:0:0:
218,192,52220,5,2,3:1:0:0:
91,74,52391,1,2,0:0:0:0:
272,99,52562,1,0,3:0:0:0:
420,48,52734,1,2,0:0:0:0:
452,196,52905,2,0,P|440:260|416:296,1,103.999995239258,0|2,3:0|0:0,0:0:0:0:
336,136,53248,6,0,P|388:128|444:152,1,103.999995239258,2|0,3:1|0:0,0:0:0:0:
352,272,53591,2,0,P|296:276|220:232,1,103.999995239258,2|0,3:1|0:0,0:0:0:0:
160,184,53934,1,0,3:0:0:0:
224,41,54105,1,2,0:0:0:0:
160,184,54277,1,0,3:0:0:0:
228,46,54448,1,2,0:0:0:0:
76,88,54620,2,0,P|36:164|76:228,1,155.999992858887,2|0,3:1|0:0,0:0:0:0:
116,294,54962,1,2,3:1:0:0:
251,241,55134,1,2,0:0:0:0:
152,112,55305,6,0,P|100:104|52:128,1,103.999995239258,0|2,3:0|0:0,0:0:0:0:
224,36,55648,2,0,P|270:59|324:36,1,103.999995239258,0|2,3:0|0:0,0:0:0:0:
420,84,55991,2,0,P|440:108|460:176,1,103.999995239258,2|0,3:1|0:0,0:0:0:0:
408,316,56334,2,0,P|384:291|368:216,1,103.999995239258,2|0,3:1|0:0,0:0:0:0:
214,217,56677,1,0,3:0:0:0:
97,116,56848,1,2,0:0:0:0:
272,154,57020,1,0,3:0:0:0:
373,54,57191,1,2,0:0:0:0:
340,200,57362,6,0,P|428:160|464:192,1,155.999992858887,2|0,3:1|0:0,0:0:0:0:
471,266,57705,1,2,3:1:0:0:
322,324,57877,1,2,0:0:0:0:
204,264,58048,2,0,P|228:204|208:144,1,103.999995239258,0|2,3:0|0:0,0:0:0:0:
56,208,58391,2,0,P|80:140|104:112,1,103.999995239258,0|2,3:0|0:0,0:0:0:0:
232,40,58734,2,0,B|256:96|312:128|312:128|308:160|276:229|324:220,1,207.999990478516,2|2,3:1|3:1,0:0:0:0:
212,328,59248,1,0,0:0:0:0:
104,232,59420,6,0,P|136:188|192:164,1,103.999995239258,0|2,3:0|0:0,0:0:0:0:
360,188,59762,2,0,P|320:224|260:232,1,103.999995239258,0|2,3:0|0:0,0:0:0:0:
216,112,60105,2,0,P|252:64|356:48,1,155.999992858887,2|0,3:1|0:0,0:0:0:0:
410,100,60448,5,2,3:1:0:0:
468,258,60620,1,0,0:0:0:0:
300,232,60791,1,2,3:1:0:0:
156,132,60962,1,0,0:0:0:0:
152,280,61134,1,2,3:1:0:0:
288,136,61305,1,2,0:0:0:0:
232,316,61477,6,0,B|272:296|272:296|368:308,1,103.999995239258,2|0,3:1|0:0,0:0:0:0:
464,204,61820,2,0,B|432:224|432:224|356:200,1,103.999995239258,2|0,3:1|0:0,0:0:0:0:
344,56,62162,1,0,3:0:0:0:
292,240,62334,1,2,0:0:0:0:
204,68,62505,1,0,3:0:0:0:
388,148,62677,1,2,0:0:0:0:
172,168,62848,2,0,P|97:176|62:242,1,155.999992858887,2|0,3:1|0:0,0:0:0:0:
60,312,63191,5,2,3:1:0:0:
224,324,63362,1,2,0:0:0:0:
280,148,63534,1,0,3:0:0:0:
352,284,63705,1,2,0:0:0:0:
164,176,63877,2,0,B|128:212|128:212|132:268,1,103.999995239258,0|2,3:0|0:0,0:0:0:0:
251,284,64220,6,0,B|315:312|363:276,1,103.999995239258,2|0,3:1|0:0,0:0:0:0:
464,216,64562,1,2,3:1:0:0:
424,72,64734,1,0,0:0:0:0:
424,72,64820,1,0,0:0:0:0:
424,72,64905,5,0,3:1:0:0:
300,172,65077,1,2,0:0:0:0:
136,64,65248,1,0,3:0:0:0:
188,208,65420,1,2,0:0:0:0:
304,60,65591,1,2,3:1:0:0:
400,216,65762,1,0,0:0:0:0:
400,216,65848,1,0,0:0:0:0:
400,216,65934,2,0,B|368:240|368:240|304:252,1,103.999995239258,2|2,3:1|0:0,0:0:0:0:
136,224,66277,6,0,P|96:232|40:200,1,103.999995239258,0|2,3:0|0:0,0:0:0:0:
164,88,66620,2,0,P|224:92|284:56,1,103.999995239258,0|2,3:0|0:0,0:0:0:0:
436,156,66962,2,0,P|376:172|316:208,1,103.999995239258,2|0,3:1|0:0,0:0:0:0:
296,328,67305,2,0,P|348:335|399:327,1,103.999995239258,2|0,3:1|0:0,0:0:0:0:
344,168,67648,1,0,3:0:0:0:
344,168,67820,1,2,0:0:0:0:
200,224,67991,1,0,3:0:0:0:
196,56,68162,1,2,0:0:0:0:
200,224,68334,6,0,P|112:184|76:216,1,155.999992858887,2|0,3:1|0:0,0:0:0:0:
52,288,68677,1,2,3:1:0:0:
204,336,68848,1,2,0:0:0:0:
340,272,69020,2,0,P|316:212|336:152,1,103.999995239258,0|2,3:0|0:0,0:0:0:0:
400,56,69362,2,0,P|430:99|444:149,1,103.999995239258,0|2,3:0|0:0,0:0:0:0:
288,36,69705,2,0,B|220:72|220:72|176:72|112:104,1,155.999992858887,2|0,3:1|0:0,0:0:0:0:
48,40,70048,2,0,B|68:64|16:112|44:144,1,103.999995239258,2|0,3:1|0:0,0:0:0:0:
184,216,70391,6,0,P|216:172|272:148,1,103.999995239258,0|2,3:0|0:0,0:0:0:0:
424,216,70734,2,0,P|384:252|324:260,1,103.999995239258,0|2,3:0|0:0,0:0:0:0:
192,340,71077,2,0,B|164:328|164:328|136:348|136:348|108:320|108:320|80:316|80:316|84:256|84:256|44:224|44:224|80:200|80:200|56:168|56:168|96:156|96:156|76:128|76:128|100:96,1,420.000016021729,2|0,2:0|0:0,0:0:0:0:
212,64,72448,6,0,P|248:100|320:108,1,95.9999970703126,0|0,3:2|0:0,0:0:0:0:
416,64,72791,1,2,3:2:0:0:
452,192,72962,2,0,P|384:212|352:244,1,95.9999970703126,0|2,0:0|3:2,0:0:0:0:
244,168,73305,1,0,0:0:0:0:
168,56,73477,1,2,3:2:0:0:
40,116,73648,1,2,0:2:0:0:
140,228,73820,6,0,P|84:228|32:268,2,95.9999970703126,0|2|0,3:0|0:0|3:0,0:0:0:0:
252,140,74334,1,2,0:0:0:0:
372,192,74505,2,0,B|408:224|408:224|476:208,1,95.9999970703126,0|0,3:0|0:0,0:0:0:0:
296,288,74848,2,0,B|256:320|256:320|192:320,1,95.9999970703126,0|0,3:0|0:0,0:0:0:0:
104,164,75191,5,0,3:0:0:0:
272,104,75362,2,0,P|244:96|176:108,1,95.9999970703126,0|2,0:0|3:2,0:0:0:0:
204,212,75705,1,0,0:0:0:0:
104,284,75877,2,0,P|172:316|204:324,1,95.9999970703126,2|0,3:2|0:0,0:0:0:0:
284,216,76220,1,2,3:2:0:0:
412,332,76391,2,0,P|356:300|320:296,1,95.9999970703126,0|0,0:2|3:0,0:0:0:0:
216,220,76734,1,2,0:0:0:0:
32,168,76905,2,0,P|84:204|120:252,1,95.9999970703126,2|0,3:2|0:0,0:0:0:0:
232,184,77248,5,2,3:2:0:0:
304,352,77420,1,0,0:0:0:0:
364,180,77591,1,2,3:2:0:0:
200,292,77762,1,0,0:0:0:0:
408,288,77934,2,0,B|444:244|444:244|444:104,1,191.999994140625,2|0,3:2|3:0,0:0:0:0:
244,76,78448,5,2,0:0:0:0:
244,76,78534,1,0,0:0:0:0:
244,76,78620,2,0,L|200:164,1,95.9999970703126,2|0,3:2|0:0,0:0:0:0:
340,140,78962,1,0,3:0:0:0:
144,60,79134,1,2,0:0:0:0:
40,196,79305,2,0,B|100:168|100:168|120:236|204:200,1,191.999994140625,2|0,3:2|3:0,0:0:0:0:
316,124,79820,1,0,0:0:0:0:
340,248,79991,6,0,P|412:252|456:288,1,95.9999970703126,2|0,3:2|0:0,0:0:0:0:
236,308,80334,2,0,P|172:296|140:268,1,95.9999970703126,2|0,3:2|0:0,0:0:0:0:
168,71,80677,2,0,B|226:92|226:92|264:67|264:67|322:75,1,143.999995605469,2|0,3:2|0:0,0:0:0:0:
388,133,81020,2,0,P|343:162|243:167,1,143.999995605469,2|0,3:2|0:0,0:0:0:0:
156,150,81362,2,0,B|147:216|85:225|77:275,1,143.999995605469,2|0,3:2|0:0,0:0:0:0:
84,316,81705,1,2,3:2:0:0:
224,260,81877,2,0,P|276:280|328:268,1,95.9999970703126,2|0,0:0|3:0,0:0:0:0:
383,179,82220,5,0,0:0:0:0:
281,34,82391,1,2,3:2:0:0:
383,179,82562,1,0,0:0:0:0:
281,34,82734,2,0,P|302:77|285:132,1,95.9999970703126,2|0,3:2|0:0,0:0:0:0:
128,128,83077,2,0,P|124:184|164:224,1,95.9999970703126,2|0,3:2|0:0,0:0:0:0:
272,244,83420,5,0,3:2:0:0:
412,136,83591,2,0,P|404:200|376:224,1,95.9999970703126,0|10,0:0|3:2,0:0:0:0:
232,192,83934,1,0,0:0:0:0:
180,60,84105,2,0,B|78:68,1,95.9999970703126,2|0,3:2|0:0,0:0:0:0:
56,98,84362,1,0,0:0:0:0:
35,128,84448,1,10,3:2:0:0:
184,162,84620,1,2,0:0:0:0:
104,276,84791,1,0,3:0:0:0:
256,232,84962,6,0,P|296:184|328:176,1,95.9999970703126,2|10,0:2|3:2,0:0:0:0:
436,104,85305,1,0,0:0:0:0:
424,256,85477,2,0,P|464:212|476:168,1,95.9999970703126,2|0,3:2|0:0,0:0:0:0:
272,248,85820,2,0,P|316:224|332:168,1,95.9999970703126,10|0,3:2|0:0,0:0:0:0:
160,160,86162,1,0,3:2:0:0:
260,40,86334,1,0,0:0:0:0:
64,48,86505,6,0,P|56:100|123:163,1,143.999995605469,10|0,3:2|0:0,0:0:0:0:
164,172,86848,1,2,3:2:0:0:
64,280,87020,1,0,0:0:0:0:
68,288,87105,1,0,0:0:0:0:
68,288,87191,2,0,P|128:284|176:320,1,95.9999970703126,10|2,3:2|0:0,0:0:0:0:
264,216,87534,1,0,3:0:0:0:
440,248,87705,5,0,0:0:0:0:
296,328,87877,1,2,3:2:0:0:
392,160,88048,1,0,0:0:0:0:
392,160,88134,1,0,0:0:0:0:
392,160,88220,2,8,P|316:148|292:108,1,95.9999970703126,10|8,3:2|0:0,0:0:0:0:
128,176,88562,2,0,P|176:168|208:136,1,95.9999970703126,2|0,3:2|0:0,0:0:0:0:
252,32,88905,6,0,L|252:164,1,95.9999970703126,8|0,3:0|0:0,0:0:0:0:
256,200,89162,1,8,3:0:0:0:
256,200,89248,1,8,0:0:0:0:
352,88,89420,1,10,0:3:0:0:
352,88,89505,1,2,0:0:0:0:
352,88,89591,2,0,P|380:132|460:128,1,95.9999970703126,0|8,0:3|0:0,0:0:0:0:
404,288,89934,1,8,0:0:0:0:
404,288,90020,1,0,0:0:0:0:
224,340,90277,6,0,B|256:320|256:320|276:256,1,95.9999970703126,8|0,3:0|0:0,0:0:0:0:
232,248,90534,1,8,0:0:0:0:
192,236,90620,2,0,P|140:220|88:224,1,95.9999970703126,8|10,3:0|0:0,0:0:0:0:
112,84,90962,2,0,P|172:72|224:84,1,95.9999970703126,2|0,3:3|0:0,0:0:0:0:
248,80,91220,1,8,0:0:0:0:
296,84,91305,2,0,P|340:116|364:160,1,95.9999970703126,10|8,3:0|0:0,0:0:0:0:
276,196,91648,6,0,P|224:192|136:204,1,120,0|0,3:0|2:0,0:0:0:0:
116,208,91991,1,8,3:0:0:0:
192,96,92162,1,0,2:0:0:0:
220,252,92334,1,0,3:0:0:0:
308,104,92505,1,0,3:0:0:0:
372,216,92677,2,0,P|408:244|452:248,1,80,8|0,3:0|0:0,0:0:0:0:
344,312,93020,1,0,3:3:0:0:
