osu file format v14

[General]
AudioFilename: audio.mp3
AudioLeadIn: 0
PreviewTime: 47934
Countdown: 0
SampleSet: Normal
StackLeniency: 0.7
Mode: 0
LetterboxInBreaks: 0
WidescreenStoryboard: 1

[Editor]
Bookmarks: 5420,17591,28562,39534,45020,47762,50505,72448,83420,88905,91650
DistanceSpacing: 0.9
BeatDivisor: 2
GridSize: 4
TimelineZoom: 1

[Metadata]
Title:Light of my Life
TitleUnicode:Light of my Life
Artist:S3RL
ArtistUnicode:S3RL
Creator:Blue Steps
Version:Easy
Source:crossbeats REV. SUNRISE
Tags:s3rl happy uk hardcore dance arcade rhythm game crossbeats rev sunrise capcom Criss Crissaegrim Tatan xfraczynho silent spica bauhelloxd nyanekomiau TheShadowOfDark
BeatmapID:1375269
BeatmapSetID:648150

[Difficulty]
HPDrainRate:3.4
CircleSize:2.5
OverallDifficulty:3.1
ApproachRate:4
SliderMultiplier:1
SliderTickRate:1

[Events]
//Background and Video events
0,0,"BG.jpg",0,0
//Break Periods
2,39734,43700
//Storyboard Layer 0 (Background)
//Storyboard Layer 1 (Fail)
//Storyboard Layer 2 (Pass)
//Storyboard Layer 3 (Foreground)
//Storyboard Sound Samples

[TimingPoints]
1134.35294117647,342.857142857143,4,1,1,88,1,0
1235,-100,4,2,1,50,0,0
5420,-133.333333333333,4,2,1,65,0,0
17591,-133.333333333333,4,2,2,70,0,0
18277,-133.333333333333,4,2,3,70,0,0
18962,-133.333333333333,4,2,2,70,0,0
19648,-133.333333333333,4,2,3,70,0,0
20334,-133.333333333333,4,2,5,70,0,0
21020,-133.333333333333,4,2,6,70,0,0
21705,-133.333333333333,4,2,5,70,0,0
23077,-133.333333333333,4,2,4,70,0,0
23762,-133.333333333333,4,2,5,70,0,0
24448,-133.333333333333,4,2,4,70,0,0
25134,-133.333333333333,4,2,5,70,0,0
25820,-133.333333333333,4,2,2,70,0,0
28562,-125,4,2,1,70,0,0
39534,-111.111111111111,4,3,1,70,0,0
45020,-111.111111111111,4,2,1,70,0,0
50505,-100,4,3,7,88,0,1
71077,-133.333333333333,4,2,0,75,0,0
72448,-100,4,2,1,82,0,0
91648,-133.333333333333,4,2,1,65,0,0

[Colours]
Combo1 : 0,255,255
Combo2 : 40,255,148
Combo3 : 19,63,236
Combo4 : 254,203,1
Combo5 : 247,179,87
Combo6 : 205,205,205

[HitObjects]
256,192,1134,12,0,4905,0:0:0:0:
400,200,5591,6,0,B|328:240|256:200,1,150.000005722046,0|2,0:0|0:0,0:0:0:0:
236,120,6620,2,0,P|184:156|184:240,1,150.000005722046,4|2,3:3|0:0,0:0:0:0:
372,344,8334,2,0,P|392:304|392:260,2,75.000002861023,2|2|0,0:0|0:0|0:0,0:0:0:0:
296,316,9362,2,0,B|248:328|248:328|228:304|152:284,1,150.000005722046,2|0,0:0|0:0,0:0:0:0:
44,252,11077,6,0,P|44:188|56:172,1,75.000002861023,2|2,0:0|0:0,0:0:0:0:
108,124,11762,1,2,0:0:0:0:
80,44,12105,2,0,P|136:36|196:100,1,150.000005722046,2|0,0:0|0:0,0:0:0:0:
284,108,13134,2,0,P|324:100|364:112,1,75.0000028610231,2|0,0:0|0:0,0:0:0:0:
444,208,14162,2,0,P|468:164|468:124,1,75.0000028610231,2|0,0:0|0:0,0:0:0:0:
400,84,14848,2,0,P|344:124|324:280,1,225.000008583069,2|2,0:0|0:0,0:0:0:0:
224,344,16562,6,0,L|144:344,1,75.0000028610231,0|2,0:0|0:0,0:0:0:0:
68,328,17248,1,2,0:0:0:0:
120,264,17591,2,0,P|128:200|80:128,1,150.000005722046,2|2,0:0|0:0,0:0:0:0:
132,64,18620,1,2,0:0:0:0:
200,116,18962,2,2,B|260:80|260:80|296:120|336:88,1,150.000005722046
412,72,19991,1,2,0:0:0:0:
388,152,20334,2,0,B|472:168|460:268,1,150.000005722046,2|2,0:0|0:0,0:0:0:0:
316,348,21705,6,2,B|264:348|264:348|236:320,1,75.0000028610231
212,256,22391,2,2,P|252:248|288:252,1,75.0000028610231
364,272,23077,1,2,0:0:0:0:
464,140,23762,2,0,P|444:184|452:216,2,75.0000028610231,2|2|2,0:0|0:0|0:0,0:0:0:0:
336,80,25134,2,0,L|260:80,1,75.0000028610231,2|2,0:0|0:0,0:0:0:0:
176,72,25820,2,0,P|148:64|84:204,1,225.000008583069,2|0,0:0|0:0,0:0:0:0:
140,144,27191,1,2,0:0:0:0:
256,40,27877,1,2,0:0:0:0:
392,104,28562,6,0,P|424:80|444:36,2,80,12|10|8,0:0|0:0|0:0,0:0:0:0:
456,240,29934,2,0,P|408:220|372:224,2,80,8|10|8,0:0|0:0|0:0,0:0:0:0:
324,152,31305,1,8,0:0:0:0:
288,76,31648,2,0,P|256:104|244:144,1,80,10|8,0:0|0:0,0:0:0:0:
224,256,32677,2,0,P|184:260|144:232,1,80,8|10,0:0|0:0,0:0:0:0:
80,196,33362,1,10,0:0:0:0:
56,52,34048,6,0,B|80:68|80:68|152:44|192:108,1,160,10|8,0:0|0:0,0:0:0:0:
268,80,35077,1,10,0:0:0:0:
348,52,35420,2,0,P|360:100|456:152,1,160,10|8,0:0|0:0,0:0:0:0:
472,328,36791,2,0,P|436:288|400:276,1,80,10|8,0:0|0:0,0:0:0:0:
324,276,37477,1,8,0:0:0:0:
168,192,38162,2,0,P|252:120|348:188,1,240,8|8,0:0|0:0,0:0:0:0:
260,212,39534,1,8,0:0:0:0:
176,240,45020,5,2,3:2:0:0:
256,100,45705,1,2,3:2:0:0:
336,240,46391,1,2,3:2:0:0:
188,176,47077,1,2,3:2:0:0:
328,152,47762,2,0,P|324:212|292:244,1,89.9999972534181,0|2,3:0|0:0,0:0:0:0:
200,236,48448,2,0,P|184:204|192:140,1,89.9999972534181,0|2,3:0|0:0,0:0:0:0:
256,192,49134,12,4,50505,1:0:0:0:
392,152,51191,6,0,P|424:124|436:64,2,100,2|0|2,3:1|0:1|3:1,0:0:0:0:
332,84,52220,1,0,0:0:0:0:
248,112,52562,2,0,P|216:120|152:92,1,100,2|0,3:1|0:0,2:0:0:0:
68,68,53248,2,0,B|4:128|136:160|72:256,1,200,2|0,3:1|3:0,0:0:0:0:
152,308,54277,1,0,0:0:0:0:
152,308,54620,2,0,B|212:280|212:280|280:324|280:324|328:300,1,200,2|2,3:1|3:1,0:0:0:0:
424,312,55648,1,0,0:1:0:0:
392,228,55991,1,2,3:1:0:0:
272,328,56677,6,0,P|244:336|160:316,1,100,2|0,3:1|0:0,0:0:0:0:
92,280,57362,2,0,P|84:224|204:184,1,200,2|0,3:1|3:0,0:0:0:0:
288,200,58391,1,0,0:0:0:0:
197,179,58734,2,0,P|137:171|233:87,1,300,2|0,3:1|0:0,0:0:0:0:
324,92,60105,1,2,3:1:0:0:
380,164,60448,2,0,P|416:172|476:212,2,100,0|2|0,0:0|3:1|0:0,0:0:0:0:
380,164,61477,1,2,3:1:0:0:
228,196,62162,5,0,3:0:0:0:
172,268,62505,1,2,0:1:0:0:
172,268,62848,2,0,B|112:272|112:272|64:240,1,100,0|2,3:0|0:1,0:0:0:0:
44,92,63877,1,2,0:1:0:0:
44,92,64220,2,0,P|76:84|128:36,1,100,0|2,3:0|0:1,0:0:0:0:
212,52,64905,2,0,B|280:36|280:36|300:72|300:72|392:56,1,200,0|0,3:0|3:0,0:0:0:0:
468,108,65934,2,0,P|476:172|472:224,1,100,2|0,0:1|3:0,0:0:0:0:
396,248,66620,1,2,0:1:0:0:
456,320,66962,6,0,P|404:336|260:320,1,200,0|0,3:0|3:0,0:0:0:0:
164,336,67991,1,2,0:1:0:0:
164,336,68334,2,0,B|100:332|100:332|40:288,1,100,2|0,3:1|0:0,0:0:0:0:
204,252,69362,2,0,P|240:208|320:200,1,100,2|0,0:1|3:0,0:0:0:0:
352,236,70048,1,2,0:1:0:0:
440,228,70391,1,0,3:0:0:0:
392,156,70734,1,0,0:0:0:0:
392,156,71077,2,0,B|312:112|316:84|316:84|296:108|188:112,1,225.000008583069,2|0,0:0|0:0,0:0:0:0:
144,52,72448,5,0,3:0:0:0:
144,52,72791,2,0,B|124:100|124:100|192:156|128:228,1,200,2|2,0:0|0:0,0:0:0:0:
52,268,73820,1,0,3:0:0:0:
128,308,74162,2,0,P|168:336|232:336,1,100,2|0,0:0|3:0,0:0:0:0:
224,256,74848,1,2,0:0:0:0:
156,208,75191,2,0,P|160:148|224:104,1,100,0|2,3:0|0:0,0:0:0:0:
252,68,75877,1,0,3:0:0:0:
304,140,76220,2,0,P|400:96|480:164,1,200,2|0,0:0|0:0,0:0:0:0:
444,228,77248,6,0,P|444:280|468:324,2,100,0|2|0,3:0|0:0|3:0,0:0:0:0:
352,136,78620,2,0,P|328:88|324:32,2,100,0|2|0,3:0|0:0|3:0,0:0:0:0:
216,40,79991,2,0,L|104:40,1,100,2|0,3:2|0:0,0:0:0:0:
64,104,80677,2,0,P|52:204|176:132,1,300,2|2,3:2|0:0,0:0:0:0:
248,100,82048,2,0,P|300:64|336:64,1,100,0|2,3:0|0:0,0:0:0:0:
392,124,82734,2,0,P|436:100|448:48,2,100,2|0|2,3:2|0:0|3:2,0:0:0:0:
472,240,84105,6,0,P|424:324|316:336,1,200,0|0,3:0|3:0,0:0:0:0:
248,320,85134,2,0,P|196:332|144:332,1,100,2|0,0:0|3:0,0:0:0:0:
64,340,85820,1,2,0:0:0:0:
64,340,86162,2,0,P|44:276|56:144,1,200,2|0,3:2|3:0,0:0:0:0:
140,32,87534,6,0,P|76:40|32:32,2,100,0|2|0,3:0|0:0|3:0,0:0:0:0:
216,80,88562,2,0,P|280:56|312:64,1,100,2|8,0:0|3:0,0:0:0:0:
400,176,89591,2,0,P|348:192|296:192,1,100,2|2,3:2|0:0,0:0:0:0:
256,124,90277,1,8,3:0:0:0:
264,280,90962,2,0,P|348:300|388:288,1,100,2|0,3:2|0:0,0:0:0:0:
392,220,91648,2,0,B|356:136|280:200|280:200|220:112|160:208,1,300.000011444092,0|0,3:0|3:0,0:0:0:0:
