osu file format v14

[General]
AudioFilename: audio.mp3
AudioLeadIn: 0
PreviewTime: 66148
Countdown: 1
SampleSet: Soft
StackLeniency: 0.7
Mode: 0
LetterboxInBreaks: 0
WidescreenStoryboard: 0

[Editor]
Bookmarks: 11291,16777
DistanceSpacing: 0.9
BeatDivisor: 4
GridSize: 4
TimelineZoom: 1.5

[Metadata]
Title:Intensify
TitleUnicode:Intensify
Artist:S3RL
ArtistUnicode:S3RL
Creator:DCVLIVE
Version:FASTER LIGHT
Source:
Tags:
BeatmapID:1525576
BeatmapSetID:722675

[Difficulty]
HPDrainRate:5.7
CircleSize:4.2
OverallDifficulty:8
ApproachRate:9.4
SliderMultiplier:1.8
SliderTickRate:1

[Events]
//Background and Video events
//Break Periods
//Storyboard Layer 0 (Background)
//Storyboard Layer 1 (Fail)
//Storyboard Layer 2 (Pass)
//Storyboard Layer 3 (Foreground)
//Storyboard Sound Samples

[TimingPoints]
320,342.857142857143,4,2,0,70,1,0
3062,-83.3333333333333,4,2,0,70,0,0
3407,-100,4,2,0,70,0,0
11291,-76.9230769230769,4,2,0,70,0,0
22262,-100,4,2,0,70,0,0
33234,-133.333333333333,4,2,0,70,0,0
33579,-100,4,2,0,70,0,0
34605,-100,4,2,0,70,0,0
46948,-66.6666666666667,4,2,0,70,0,0
47122,-100,4,2,0,70,0,0
49691,-66.6666666666667,4,2,0,70,0,0
49864,-100,4,2,0,70,0,0
52434,-66.6666666666667,4,2,0,70,0,0
52607,-100,4,2,0,70,0,0
64779,-133.333333333333,4,2,0,70,0,0
66148,-100,4,2,0,70,0,1
85348,-66.6666666666667,4,2,0,70,0,1
85862,-100,4,2,0,70,0,1
88091,-90.9090909090909,4,2,0,80,0,1
108662,-100,4,2,0,70,0,0
110034,-125,4,2,0,70,0,0
112777,-111.111111111111,4,2,0,70,0,0
114148,-100,4,2,0,70,0,0
115520,-111.111111111111,4,2,0,70,0,0
121005,-100,4,2,0,70,0,0
123748,-133.333333333333,4,2,0,70,0,0
127177,-100,4,2,0,70,0,0
138148,-133.333333333333,4,2,0,70,0,0
138491,-100,4,2,0,70,0,0
142948,-100,4,2,0,10,0,0
143291,-100,4,2,0,13,0,0
143634,-100,4,2,0,15,0,0
143977,-100,4,2,0,17,0,0
144320,-100,4,2,0,20,0,0
144662,-100,4,2,0,22,0,0
145005,-100,4,2,0,25,0,0
145348,-100,4,2,0,27,0,0
145691,-100,4,2,0,30,0,0
148434,-100,4,2,0,40,0,0
149120,-100,4,2,0,50,0,0
149462,-125,4,2,0,40,0,0
149805,-100,4,2,0,50,0,0
151177,-100,4,2,0,60,0,0
153920,-100,4,2,0,70,0,0
164977,-90.9090909090909,4,2,0,70,0,0
167634,-83.3333333333333,4,2,0,70,0,0
168148,-90.9090909090909,4,2,0,70,0,0
173120,-76.9230769230769,4,2,0,70,0,0
173634,-90.9090909090909,4,2,0,70,0,0
186834,-90.9090909090909,4,2,0,70,0,1
192320,-83.3333333333333,4,2,0,70,0,1
196434,-100,4,2,0,70,0,1
203291,-100,4,2,0,70,0,0
208434,-100,4,2,0,10,0,0

[HitObjects]
160,96,320,6,0,P|248:64|336:96,1,180,2|0,0:0|0:0,0:0:0:0:
328,288,1005,2,0,P|240:320|152:288,1,180,2|0,0:0|0:0,0:0:0:0:
96,56,1691,5,2,0:0:0:0:
248,168,2034,1,0,0:0:0:0:
464,48,2377,2,0,B|400:48|400:48|368:80|368:80|280:80,1,180,2|0,0:0|0:0,0:0:0:0:
80,232,3062,6,0,B|104:296|152:304|152:304|176:240|176:240|216:216,1,215.999993408203,2|0,0:0|0:0,0:0:0:0:
448,88,3748,1,2,0:0:0:0:
264,88,4091,1,0,0:0:0:0:
432,256,4434,6,0,P|408:352|312:328,1,180,2|0,0:0|0:0,0:0:0:0:
232,144,5120,2,0,P|149:159|140:242,1,180,2|0,0:0|0:0,0:0:0:0:
360,328,5805,5,2,0:0:0:0:
344,144,6148,1,0,0:0:0:0:
104,56,6491,2,2,B|24:112|24:112|32:208,1,180,2|0,0:0|0:0,0:0:0:0:
264,288,7177,6,0,B|280:248|312:240|312:240|352:248|352:248|392:240|400:192,1,180,2|0,0:0|0:0,0:0:0:0:
192,56,7862,1,2,0:0:0:0:
96,200,8205,1,0,0:0:0:0:
304,72,8548,6,0,P|392:56|448:120,1,180,2|0,0:0|0:0,0:0:0:0:
352,328,9234,1,2,0:0:0:0:
184,288,9577,1,0,0:0:0:0:
216,48,9920,6,0,B|272:56|296:96|296:96|368:56,1,180,2|0,0:0|0:0,0:0:0:0:
352,296,10605,1,2,0:0:0:0:
184,272,10948,1,0,0:0:0:0:
116,68,11291,6,0,P|172:44|232:64,1,116.999994644165,2|0,0:0|0:0,0:0:0:0:
352,212,11634,1,0,0:0:0:0:
184,272,11805,1,0,0:0:0:0:
324,80,11977,2,0,B|402:72|400:68|400:68|451:108,1,116.999994644165,2|0,0:0|0:0,0:0:0:0:
512,276,12320,1,0,0:0:0:0:
352,212,12491,1,0,0:0:0:0:
512,28,12662,6,0,L|488:152,1,116.999994644165,2|0,0:0|0:0,0:0:0:0:
392,300,13005,1,0,0:0:0:0:
392,136,13177,1,0,0:0:0:0:
468,344,13348,2,0,B|432:364|432:364|352:372,1,116.999994644165,2|0,0:0|0:0,0:0:0:0:
160,336,13691,1,0,0:0:0:0:
320,272,13862,1,0,0:0:0:0:
104,184,14034,6,0,B|108:228|108:228|160:236|180:272,1,116.999994644165,2|0,0:0|0:0,0:0:0:0:
312,384,14377,1,0,0:0:0:0:
256,216,14548,1,0,0:0:0:0:
40,300,14720,2,0,B|4:244|4:244|20:176,1,116.999994644165,2|0,0:0|0:0,0:0:0:0:
120,24,15062,1,0,0:0:0:0:
168,196,15234,1,0,0:0:0:0:
360,68,15405,6,0,P|430:93|449:142,1,116.999994644165,2|0,0:0|0:0,0:0:0:0:
472,328,15748,1,0,0:0:0:0:
336,200,15920,1,0,0:0:0:0:
508,36,16091,2,0,L|372:4,1,116.999994644165,2|0,0:0|0:0,0:0:0:0:
196,44,16434,1,0,0:0:0:0:
252,208,16605,1,0,0:0:0:0:
84,36,16777,6,0,P|148:25|201:48,1,116.999994644165,2|0,0:0|0:0,0:0:0:0:
340,184,17120,1,0,0:0:0:0:
168,152,17291,1,0,0:0:0:0:
381,80,17462,2,0,B|353:116|367:139|367:139|327:203,1,116.999994644165,2|0,0:0|0:0,0:0:0:0:
192,320,17805,1,0,0:0:0:0:
168,152,17977,1,0,0:0:0:0:
348,285,18148,6,0,P|364:217|316:173,1,116.999994644165,2|0,0:0|0:0,0:0:0:0:
200,36,18491,1,0,0:0:0:0:
252,188,18662,1,0,0:0:0:0:
396,12,18834,2,0,P|332:12|280:48,1,116.999994644165,2|0,0:0|0:0,0:0:0:0:
300,236,19177,1,0,0:0:0:0:
424,116,19348,1,0,0:0:0:0:
232,112,19520,6,0,B|196:136|160:128|160:128|132:148|112:184,1,116.999994644165,2|0,0:0|0:0,0:0:0:0:
28,328,19862,1,0,0:0:0:0:
200,280,20034,1,0,0:0:0:0:
0,192,20205,2,0,B|8:160|34:136|34:136|76:120|100:92,1,116.999994644165,2|0,0:0|0:0,0:0:0:0:
268,44,20548,1,0,0:0:0:0:
324,212,20720,1,0,0:0:0:0:
140,244,20891,6,0,P|106:265|145:209,1,233.999989288331
144,92,22262,6,0,P|240:92|200:140,1,180,2|2,0:0|0:0,0:0:0:0:
80,296,22948,1,2,0:0:0:0:
63,93,23291,2,2,P|119:77|151:101,1,90
184,224,23634,1,2,0:0:0:0:
408,16,23977,1,2,0:0:0:0:
219,110,24320,2,2,B|164:146|240:205|240:205|184:223,1,180
56,156,24834,1,2,0:0:0:0:
160,64,25005,6,2,B|168:24|200:8|200:8|240:72|304:16,1,180
488,176,25691,1,2,0:0:0:0:
224,304,26034,1,2,0:0:0:0:
272,184,26205,1,2,0:0:0:0:
488,176,26377,6,2,B|488:120|456:64|456:64|448:104|412:136,1,180
276,344,27062,1,2,0:0:0:0:
112,104,27405,1,2,0:0:0:0:
264,176,27577,1,2,0:0:0:0:
112,248,27748,6,2,B|119:191|119:191|182:175|208:107,1,180
264,340,28434,1,2,0:0:0:0:
472,232,28777,1,2,0:0:0:0:
368,336,28948,1,2,0:0:0:0:
344,212,29120,6,2,B|264:124|264:124|272:168|256:220,1,180
76,352,29805,1,2,0:0:0:0:
400,344,30148,1,2,0:0:0:0:
360,184,30320,1,2,0:0:0:0:
448,296,30491,5,2,0:0:0:0:
208,224,30834,2,2,P|184:208|208:264,1,180
432,96,31520,1,2,0:0:0:0:
276,108,31691,1,2,0:0:0:0:
320,224,31862,6,2,B|312:272|312:272|344:312|344:312|256:336,1,180
64,284,32548,2,2,B|40:240|64:192|64:192|104:200|144:168,1,180
236,52,33062,1,2,0:0:0:0:
320,224,33234,6,2,B|320:160|320:160|296:128|296:128|296:80,1,135.000005149842
480,44,33920,1,2,0:0:0:0:
348,16,34091,1,0,0:0:0:0:
364,104,34262,1,2,0:0:0:0:
236,52,34434,1,0,0:0:0:0:
196,144,34605,6,2,B|76:144|76:144|148:104,1,180
236,52,35291,2,0,P|292:44|332:60,1,90,2|0,0:0|0:0,0:0:0:0:
432,120,35634,1,2,0:0:0:0:
284,228,35805,1,2,0:0:0:0:
400,232,35977,6,2,B|395:138|307:180|273:112,1,180
48,40,36662,1,2,0:0:0:0:
160,220,37005,2,0,P|208:252|240:244,1,90,2|0,0:0|0:0,0:0:0:0:
376,172,37348,6,2,B|384:228|384:228|312:252|312:324,1,180
480,304,38034,2,0,B|440:344|440:344|376:344,1,90,2|0,0:0|0:0,0:0:0:0:
256,256,38377,1,2,0:0:0:0:
408,196,38548,1,2,0:0:0:0:
284,348,38720,2,0,P|232:352|188:316,1,90
228,168,39062,2,0,P|280:164|324:200,1,90
160,244,39405,5,2,0:0:0:0:
60,16,39748,1,2,0:0:0:0:
44,152,39920,1,2,0:0:0:0:
160,64,40091,6,0,P|200:28|240:44,1,90,2|0,0:0|0:0,0:0:0:0:
332,116,40434,2,0,P|292:152|252:136,1,90,2|0,0:0|0:0,0:0:0:0:
416,16,40777,2,0,B|404:88|404:88|436:112,1,90,2|0,0:0|0:0,0:0:0:0:
488,240,41120,1,2,0:0:0:0:
352,188,41291,1,2,0:0:0:0:
280,48,41462,6,2,B|264:96|224:104|224:104|200:160|240:208,1,180
400,320,42148,2,0,B|349:325|349:325|327:284,1,90,2|0,0:0|0:0,0:0:0:0:
308,120,42491,2,0,B|358:114|358:114|380:155,1,90,2|0,0:0|0:0,0:0:0:0:
410,252,42834,6,0,P|468:296|399:319,1,180
136,80,44205,6,0,P|192:64|232:80,1,90
312,216,44548,2,0,P|268:224|227:208,1,90
64,104,44891,1,0,0:0:0:0:
96,296,45062,1,0,0:0:0:0:
228,176,45234,1,0,0:0:0:0:
20,248,45405,1,0,0:0:0:0:
168,88,45577,6,0,L|272:104,1,90
196,276,45920,2,0,B|229:268|229:268|249:250|281:258,1,90
151,166,46262,2,0,B|151:94|151:94|191:78,1,90
336,128,46605,2,0,B|352:176|352:176|296:216,1,90
161,287,46948,6,0,B|169:231|169:231|145:215|145:215|153:143,1,135.000005149842
208,56,47291,2,0,P|240:88|232:144,1,90
161,287,47634,2,0,B|201:319|201:319|249:295,1,90
239,130,47977,2,0,B|201:131|201:131|181:179,1,90
316,260,48320,2,0,B|348:220|348:220|330:185,1,90
165,207,48662,2,0,B|145:275|145:275|173:295,1,90
384,264,49005,1,0,0:0:0:0:
392,80,49177,1,0,0:0:0:0:
280,248,49348,1,0,0:0:0:0:
480,152,49520,1,0,0:0:0:0:
288,144,49691,6,0,B|224:152|208:112|208:112|128:136,1,135.000005149842
0,192,50034,2,0,B|16:240|16:240|72:272,1,90
264,344,50377,1,0,0:0:0:0:
136,192,50548,1,0,0:0:0:0:
264,344,50720,1,0,0:0:0:0:
64,344,50891,1,0,0:0:0:0:
224,224,51062,6,0,L|328:160,1,90
472,264,51405,2,0,L|376:256,1,90
208,160,51748,1,0,0:0:0:0:
416,160,51920,1,0,0:0:0:0:
280,272,52091,1,0,0:0:0:0:
368,88,52262,1,0,0:0:0:0:
152,256,52434,6,0,P|72:272|40:232,1,135.000005149842
104,64,52777,2,0,L|104:176,1,90
104,352,53120,1,0,0:0:0:0:
264,224,53291,1,0,0:0:0:0:
160,360,53462,1,0,0:0:0:0:
224,160,53634,1,0,0:0:0:0:
384,248,53805,6,0,P|384:192|352:168,1,90
201,83,54148,2,0,P|201:139|233:163,1,90
448,200,54491,1,0,0:0:0:0:
328,40,54662,1,0,0:0:0:0:
320,224,54834,2,0,B|288:272|288:272|240:280,1,90
56,168,55177,6,0,B|80:120|56:80,1,90
240,80,55520,2,0,B|217:118|241:166,1,90
368,320,55862,1,0,0:0:0:0:
200,272,56034,1,0,0:0:0:0:
368,320,56205,1,0,0:0:0:0:
200,272,56377,1,0,0:0:0:0:
336,152,56548,6,0,L|432:104,1,90
248,48,56891,2,0,L|192:136,1,90
104,280,57234,1,0,0:0:0:0:
40,96,57405,1,0,0:0:0:0:
104,280,57577,1,0,0:0:0:0:
40,96,57748,1,0,0:0:0:0:
224,80,57920,6,0,B|192:120|192:120|224:168,1,90
392,152,58262,2,0,B|424:112|424:112|392:64,1,90
224,24,58605,1,0,0:0:0:0:
440,24,58777,1,0,0:0:0:0:
224,24,58948,1,0,0:0:0:0:
440,24,59120,1,0,0:0:0:0:
280,112,59291,5,0,0:0:0:0:
424,240,59462,1,0,0:0:0:0:
424,192,59548,1,0,0:0:0:0:
392,168,59634,1,0,0:0:0:0:
232,272,59805,1,0,0:0:0:0:
280,48,59977,1,0,0:0:0:0:
320,280,60148,1,0,0:0:0:0:
280,48,60320,1,0,0:0:0:0:
320,280,60491,1,0,0:0:0:0:
192,208,60662,5,0,0:0:0:0:
160,80,60834,1,0,0:0:0:0:
64,176,61005,1,0,0:0:0:0:
104,304,61177,1,0,0:0:0:0:
240,320,61348,1,0,0:0:0:0:
192,208,61520,1,0,0:0:0:0:
296,120,61691,1,0,0:0:0:0:
352,240,61862,1,0,0:0:0:0:
192,208,62034,5,0,0:0:0:0:
152,80,62205,1,0,0:0:0:0:
296,120,62377,1,0,0:0:0:0:
352,240,62548,1,0,0:0:0:0:
256,336,62720,1,0,0:0:0:0:
192,208,62891,1,0,0:0:0:0:
352,240,63062,1,0,0:0:0:0:
296,120,63234,1,0,0:0:0:0:
144,120,63405,5,0,0:0:0:0:
96,120,63491,1,0,0:0:0:0:
64,144,63577,1,0,0:0:0:0:
48,184,63662,1,0,0:0:0:0:
64,224,63748,1,0,0:0:0:0:
104,248,63834,1,0,0:0:0:0:
152,240,63920,1,0,0:0:0:0:
192,264,64005,1,0,0:0:0:0:
200,312,64091,1,0,0:0:0:0:
168,344,64177,1,0,0:0:0:0:
120,344,64262,1,0,0:0:0:0:
96,304,64348,1,0,0:0:0:0:
104,248,64434,1,0,0:0:0:0:
136,216,64520,1,0,0:0:0:0:
152,176,64605,1,0,0:0:0:0:
128,136,64691,1,0,0:0:0:0:
88,112,64777,2,0,P|56:72|152:72,1,180
416,264,66148,6,0,L|320:232,1,90
312,24,66491,2,0,L|392:96,1,90
496,264,66834,1,0,0:0:0:0:
464,56,67005,1,0,0:0:0:0:
424,272,67177,1,0,0:0:0:0:
512,88,67348,1,0,0:0:0:0:
336,216,67520,6,0,P|288:216|256:176,1,90
80,296,67862,2,0,P|128:296|160:336,1,90
144,112,68205,2,0,L|208:32,1,90
408,96,68548,2,0,B|376:136|376:136|336:136,1,90
128,216,68891,6,0,P|80:224|32:256,1,90
272,232,69234,2,0,P|320:224|368:192,1,90
160,104,69577,2,0,B|208:88|208:88|256:104,1,90
192,304,69920,2,0,L|200:192,1,90
352,72,70262,6,0,B|352:144|376:128|368:160,1,90
296,360,70605,2,0,B|296:288|272:304|280:272,1,90
264,64,70948,1,2,0:0:0:0:
400,224,71120,1,2,0:0:0:0:
216,128,71291,1,2,0:0:0:0:
416,160,71462,1,2,0:0:0:0:
208,232,71634,6,0,L|96:256,1,90
0,80,71977,2,0,L|96:104,1,90
288,176,72320,2,0,B|328:192|328:192|384:176,1,90
200,56,72662,2,0,B|160:40|160:40|104:56,1,90
32,240,73005,6,0,L|112:336,1,90
280,232,73348,2,0,L|184:200,1,90
8,120,73691,1,0,0:0:0:0:
240,72,73862,1,0,0:0:0:0:
112,240,74034,1,0,0:0:0:0:
104,32,74205,1,0,0:0:0:0:
256,160,74377,6,0,L|344:144,1,90
200,296,74720,2,0,L|112:312,1,90
8,136,75062,2,0,B|0:88|0:88|32:56,1,90
200,168,75405,2,0,L|104:128,1,90
312,48,75748,6,0,P|368:48|392:80,1,90,2|0,0:0|0:0,0:0:0:0:
416,224,76091,2,0,P|360:224|336:192,1,90,2|0,0:0|0:0,0:0:0:0:
192,64,76434,1,2,0:0:0:0:
192,272,76605,1,2,0:0:0:0:
216,240,76691,1,2,0:0:0:0:
240,208,76777,1,2,0:0:0:0:
360,48,76948,1,2,0:0:0:0:
400,176,77120,5,0,0:0:0:0:
416,208,77205,1,0,0:0:0:0:
416,248,77291,1,0,0:0:0:0:
392,280,77377,1,0,0:0:0:0:
360,288,77462,1,0,0:0:0:0:
320,280,77548,1,0,0:0:0:0:
296,248,77634,1,0,0:0:0:0:
296,208,77720,1,0,0:0:0:0:
320,176,77805,1,0,0:0:0:0:
328,136,77891,1,0,0:0:0:0:
296,104,77977,1,0,0:0:0:0:
256,104,78062,1,0,0:0:0:0:
228,124,78148,2,0,B|216:132|216:132|211:143|211:143|208:142|208:142|203:153|203:153|200:151|200:151|195:163|195:163|192:161|192:161|187:172|187:172|184:171|184:171|179:182|179:182|176:181|176:181|171:192|171:192|168:190|168:190|163:202|163:202|159:200|159:200|155:211|155:211|152:212|152:212,1,135
140,236,78491,5,0,0:0:0:0:
120,276,78577,1,0,0:0:0:0:
80,292,78662,1,0,0:0:0:0:
40,280,78748,1,0,0:0:0:0:
20,244,78834,1,0,0:0:0:0:
24,204,78920,1,0,0:0:0:0:
52,176,79006,1,0,0:0:0:0:
96,168,79091,1,0,0:0:0:0:
128,192,79177,1,0,0:0:0:0:
140,236,79262,1,0,0:0:0:0:
156,280,79348,1,0,0:0:0:0:
196,300,79434,1,0,0:0:0:0:
236,292,79520,2,0,B|247:283|247:283|252:272|252:272|255:273|255:273|260:262|260:262|263:264|263:264|268:252|268:252|271:254|271:254|276:243|276:243|279:244|279:244|284:233|284:233|287:234|287:234|292:223|292:223|295:225|295:225|300:213|300:213|304:215|304:215|308:204|308:204|312:204|312:204,1,135
332,172,79862,5,0,0:0:0:0:
360,136,79948,1,0,0:0:0:0:
364,92,80034,1,0,0:0:0:0:
336,56,80120,1,0,0:0:0:0:
292,48,80205,1,0,0:0:0:0:
256,68,80291,1,0,0:0:0:0:
240,108,80377,1,0,0:0:0:0:
232,152,80462,1,0,0:0:0:0:
200,184,80548,1,0,0:0:0:0:
160,184,80634,1,0,0:0:0:0:
120,160,80720,1,0,0:0:0:0:
116,116,80805,1,0,0:0:0:0:
124,80,80891,2,0,B|136:73|136:73|142:63|142:63|146:65|146:65|152:54|152:54|155:56|155:56|161:46|161:46|165:48|165:48|171:38|171:38|174:40|174:40|180:29|180:29|184:31|184:31|190:21|190:21|193:23|193:23|199:12|199:12|203:14|203:14|209:4|209:4|212:4|212:4,1,135
328,40,81234,5,0,0:0:0:0:
368,40,81320,1,0,0:0:0:0:
408,40,81405,1,0,0:0:0:0:
448,40,81491,1,0,0:0:0:0:
400,112,81577,1,0,0:0:0:0:
360,112,81663,1,0,0:0:0:0:
320,112,81748,1,0,0:0:0:0:
280,112,81834,1,0,0:0:0:0:
236,112,81920,2,0,B|196:112|196:112|172:100|172:100|136:100,1,90
0,236,82262,2,0,B|13:239|13:239|25:236|25:236|26:239|26:239|37:236|37:236|39:240|39:240|50:236|50:236|51:240|51:240|63:236|63:236|64:240|64:240|75:236|75:236|77:240|77:240|88:236|88:236|89:240|89:240|101:236|101:236|102:240|102:240|112:236|112:236|112:240|112:240,1,135
216,232,82605,6,0,P|248:264|220:300,1,90
48,368,82948,2,0,P|16:336|44:300,1,90
240,344,83291,1,0,0:0:0:0:
376,184,83462,1,0,0:0:0:0:
168,192,83634,1,0,0:0:0:0:
336,312,83805,1,0,0:0:0:0:
304,128,83977,6,0,B|280:96|280:96|280:72|280:72|256:40,1,90
80,16,84320,2,0,B|104:48|104:48|104:72|104:72|128:104,1,90
224,272,84662,1,0,0:0:0:0:
192,64,84834,1,0,0:0:0:0:
112,256,85005,1,0,0:0:0:0:
304,160,85177,1,0,0:0:0:0:
72,104,85348,6,0,B|36:109|20:163|20:163|73:179,1,135.000005149842
392,176,85691,2,0,B|427:170|443:116|443:116|390:100,1,135.000005149842
168,24,86034,2,0,B|184:56|216:72|216:72|232:104,1,90
216,304,86377,2,0,B|200:272|168:256|168:256|152:224,1,90
368,248,86720,6,0,P|360:305|349:265,1,180
208,72,88091,6,0,P|256:56|304:72,1,99.0000030212403
232,304,88434,2,0,P|184:320|136:304,1,99.0000030212403
64,80,88777,1,0,0:0:0:0:
280,192,88948,1,0,0:0:0:0:
40,232,89120,1,0,0:0:0:0:
208,72,89291,1,0,0:0:0:0:
232,304,89462,6,0,L|336:272,1,99.0000030212403
472,80,89805,2,0,L|376:136,1,99.0000030212403
168,240,90148,1,0,0:0:0:0:
408,208,90320,1,0,0:0:0:0:
208,72,90491,1,0,0:0:0:0:
344,272,90662,1,0,0:0:0:0:
128,144,90834,6,0,P|104:96|104:48,1,99.0000030212403
296,8,91177,2,0,P|320:56|320:104,1,99.0000030212403
272,336,91520,1,0,0:0:0:0:
208,104,91691,1,0,0:0:0:0:
352,296,91862,1,0,0:0:0:0:
152,160,92034,1,0,0:0:0:0:
384,216,92205,6,0,B|440:200|440:200|472:160,1,99.0000030212403
289,56,92548,2,0,B|233:72|233:72|201:112,1,99.0000030212403
88,312,92891,1,0,0:0:0:0:
304,200,93062,1,0,0:0:0:0:
88,312,93234,1,0,0:0:0:0:
304,200,93405,1,0,0:0:0:0:
56,200,93577,6,0,B|56:136|80:160|72:104,1,99.0000030212403
296,32,93920,2,0,B|296:96|272:72|280:128,1,99.0000030212403
312,368,94262,1,0,0:0:0:0:
464,176,94434,1,0,0:0:0:0:
232,240,94605,1,0,0:0:0:0:
456,336,94777,1,0,0:0:0:0:
352,120,94948,6,0,L|232:160,1,99.0000030212403
104,336,95291,2,0,L|224:296,1,99.0000030212403
48,112,95634,1,0,0:0:0:0:
16,352,95805,1,0,0:0:0:0:
216,216,95977,1,0,0:0:0:0:
0,144,96148,1,0,0:0:0:0:
168,320,96320,6,0,B|200:336|232:320|232:320|248:296|280:296|280:296|320:320|360:296,1,198.000006042481
472,128,96834,2,0,B|464:72|464:72|424:40,1,99.0000030212403
256,148,97177,2,0,B|232:196|192:220|192:220|216:268,1,148.50000453186
328,288,97520,2,0,L|360:288,3,24.7500007553101
392,280,97691,6,0,P|416:216|392:192,1,99.0000030212403
176,104,98034,2,0,P|152:168|176:192,1,99.0000030212403
376,72,98377,2,0,P|309:58|289:85,1,99.0000030212403
237,312,98720,2,0,P|303:325|323:298,1,99.0000030212403
448,160,99062,6,0,B|400:184|400:184|344:184,1,99.0000030212403
312,184,99320,1,0,0:0:0:0:
264,184,99405,1,0,0:0:0:0:
224,176,99491,1,0,0:0:0:0:
192,144,99577,1,0,0:0:0:0:
184,104,99662,1,0,0:0:0:0:
216,72,99748,1,0,0:0:0:0:
264,80,99834,1,0,0:0:0:0:
280,120,99920,1,0,0:0:0:0:
264,160,100005,1,0,0:0:0:0:
224,176,100177,2,0,L|128:224,1,99.0000030212403
96,240,100434,5,0,0:0:0:0:
112,280,100520,1,0,0:0:0:0:
128,320,100605,1,0,0:0:0:0:
172,324,100691,1,0,0:0:0:0:
212,300,100777,1,0,0:0:0:0:
240,256,100862,1,0,0:0:0:0:
288,248,100948,1,0,0:0:0:0:
328,264,101034,1,0,0:0:0:0:
360,296,101120,1,0,0:0:0:0:
376,336,101205,1,0,0:0:0:0:
416,320,101291,1,0,0:0:0:0:
432,280,101377,1,0,0:0:0:0:
440,240,101462,2,0,P|440:176|376:120,1,148.50000453186
336,112,101805,5,0,0:0:0:0:
292,108,101891,1,0,0:0:0:0:
248,120,101977,1,0,0:0:0:0:
216,152,102062,1,0,0:0:0:0:
204,196,102148,1,0,0:0:0:0:
216,240,102234,1,0,0:0:0:0:
184,268,102320,1,0,0:0:0:0:
140,280,102405,1,0,0:0:0:0:
96,264,102491,1,0,0:0:0:0:
72,224,102577,1,0,0:0:0:0:
72,180,102662,1,0,0:0:0:0:
88,140,102748,1,0,0:0:0:0:
112,104,102834,2,0,P|160:60|260:60,1,148.50000453186
280,76,103177,5,0,0:0:0:0:
316,104,103262,1,0,0:0:0:0:
348,136,103348,1,0,0:0:0:0:
380,168,103434,1,0,0:0:0:0:
364,264,103520,1,0,0:0:0:0:
328,236,103605,1,0,0:0:0:0:
296,204,103691,1,0,0:0:0:0:
264,172,103777,1,0,0:0:0:0:
184,96,103862,2,0,B|128:104|128:104|104:152,1,99.0000030212403
44,368,104205,2,0,P|96:380|116:344,1,99.0000030212403
28,128,104548,6,0,B|44:80|44:80|72:76|92:60,1,99.0000030212403
240,248,104891,2,0,B|224:296|224:296|196:300|176:316,1,99.0000030212403
200,72,105234,1,0,0:0:0:0:
424,168,105405,1,0,0:0:0:0:
188,208,105577,1,0,0:0:0:0:
364,40,105748,1,0,0:0:0:0:
312,268,105920,6,0,B|336:280|336:280|344:312|344:312|400:300,1,99.0000030212403
280,88,106262,2,0,B|256:76|256:76|248:44|248:44|192:56,1,99.0000030212403
8,184,106605,1,0,0:0:0:0:
232,276,106777,1,0,0:0:0:0:
132,56,106948,1,0,0:0:0:0:
80,292,107120,1,0,0:0:0:0:
312,336,107291,6,0,L|388:272,1,99.0000030212403
328,28,107634,2,0,L|248:92,1,99.0000030212403
56,232,107977,1,0,0:0:0:0:
296,192,108148,1,0,0:0:0:0:
84,92,108320,1,0,0:0:0:0:
164,320,108491,1,0,0:0:0:0:
380,288,108662,6,0,P|440:208|360:96,1,225
160,72,110034,6,0,L|256:72,1,72,8|0,0:0|0:0,0:0:0:0:
360,208,110377,2,0,L|264:208,1,72,8|0,0:0|0:0,0:0:0:0:
128,48,110720,2,0,L|224:48,1,72,8|0,0:0|0:0,0:0:0:0:
384,232,111063,2,0,L|288:232,1,72,8|0,0:0|0:0,0:0:0:0:
80,224,111405,6,0,P|64:272|88:308,1,72,8|0,0:0|0:0,0:0:0:0:
224,292,111748,2,0,P|240:244|216:208,1,72,8|0,0:0|0:0,0:0:0:0:
56,224,112091,2,0,P|40:272|64:308,1,72,8|0,0:0|0:0,0:0:0:0:
248,292,112434,2,0,P|264:244|240:208,1,72,8|0,0:0|0:0,0:0:0:0:
196,68,112777,6,0,B|228:80|252:40|284:64,1,80.9999975280763,8|0,0:0|0:0,0:0:0:0:
404,160,113120,2,0,B|372:148|348:188|316:164,1,80.9999975280763,8|0,0:0|0:0,0:0:0:0:
176,44,113462,2,0,B|208:56|232:16|264:40,1,80.9999975280763,8|0,0:0|0:0,0:0:0:0:
420,184,113805,2,0,B|388:172|364:212|332:188,1,80.9999975280763,8|0,0:0|0:0,0:0:0:0:
128,184,114148,6,0,P|96:232|116:264,1,90
256,304,114491,1,0,0:0:0:0:
404,252,114662,1,0,0:0:0:0:
448,132,114834,1,0,0:0:0:0:
436,88,114920,1,0,0:0:0:0:
404,56,115005,1,0,0:0:0:0:
368,40,115091,1,0,0:0:0:0:
320,32,115177,2,0,B|292:40|292:40|256:32|256:32|224:36,1,90
100,48,115520,6,0,P|52:48|16:80,1,80.9999975280763,8|0,0:0|0:0,0:0:0:0:
80,136,115862,2,0,P|46:169|44:220,1,80.9999975280763,8|0,0:0|0:0,0:0:0:0:
128,208,116205,2,0,P|128:256|148:288,1,80.9999975280763,8|0,0:0|0:0,0:0:0:0:
212,228,116548,2,0,P|245:261|292:264,1,80.9999975280763,8|0,0:0|0:0,0:0:0:0:
256,88,116891,6,0,P|236:48|204:32,1,80.9999975280763,8|0,0:0|0:0,0:0:0:0:
328,160,117234,2,0,P|368:140|384:108,1,80.9999975280763,8|0,0:0|0:0,0:0:0:0:
256,232,117577,2,0,P|276:272|308:288,1,80.9999975280763,8|0,0:0|0:0,0:0:0:0:
176,160,117920,2,0,P|136:180|120:212,1,80.9999975280763,8|0,0:0|0:0,0:0:0:0:
252,88,118262,5,8,0:0:0:0:
232,48,118348,1,0,0:0:0:0:
192,24,118434,1,0,0:0:0:0:
144,32,118520,1,0,0:0:0:0:
116,72,118605,1,8,0:0:0:0:
120,116,118691,1,0,0:0:0:0:
152,144,118777,1,0,0:0:0:0:
196,156,118862,1,0,0:0:0:0:
232,184,118948,1,8,0:0:0:0:
248,228,119034,1,0,0:0:0:0:
232,268,119120,1,0,0:0:0:0:
188,288,119205,1,0,0:0:0:0:
144,272,119291,1,8,0:0:0:0:
128,228,119377,1,0,0:0:0:0:
128,184,119462,1,0,0:0:0:0:
152,144,119548,1,0,0:0:0:0:
176,112,119634,6,0,B|216:72|272:64|272:64|324:120|384:84,1,202.499993820191
144,312,121005,6,0,P|84:256|136:188,1,180,2|0,0:0|0:0,0:0:0:0:
352,188,121691,2,0,P|412:244|360:312,1,180,2|0,0:0|0:0,0:0:0:0:
228,92,122377,6,0,B|160:52|124:116|48:92,1,180,2|0,0:0|0:0,0:0:0:0:
180,184,123062,2,0,B|248:224|284:160|360:184,1,180,2|0,0:0|0:0,0:0:0:0:
220,48,123748,6,0,L|76:48,1,135.000005149842,2|0,0:0|0:0,0:0:0:0:
272,128,124434,2,0,L|416:128,1,135.000005149842,2|0,0:0|0:0,0:0:0:0:
420,300,125120,6,2,P|356:340|304:320,1,135.000005149842
216,152,125805,2,2,P|153:134|100:172,1,135.000005149842
64,272,126320,1,2,0:0:0:0:
132,352,126491,6,2,P|194:369|247:331,1,135.000005149842
296,236,127005,1,0,0:0:0:0:
384,332,127177,2,0,B|436:360|460:308,1,90,2|0,0:0|0:0,0:0:0:0:
480,168,127520,1,2,0:0:0:0:
344,88,127691,1,2,0:0:0:0:
216,44,127862,6,2,B|160:32|128:64|128:64|172:96|184:136,1,180
240,280,128548,2,2,P|200:328|180:246,1,180
284,152,129062,1,2,0:0:0:0:
200,32,129234,6,2,B|156:52|144:104|144:104|176:152|148:196,1,180
112,360,129920,2,2,B|180:360|180:360|224:328|224:328|300:328,1,180
424,328,130434,1,2,0:0:0:0:
352,200,130605,6,2,B|324:152|324:152|388:92|332:32,1,180
156,40,131291,2,2,P|64:84|64:168,1,180
96,280,131805,1,2,0:0:0:0:
228,316,131977,6,2,P|320:272|320:188,1,180
196,140,132662,2,2,P|213:55|294:27,1,180
432,136,133177,1,2,0:0:0:0:
472,272,133348,6,2,B|432:304|376:264|376:264|304:288,1,180
128,336,134034,2,0,B|96:296|96:296|128:248,1,90,2|0,0:0|0:0,0:0:0:0:
208,152,134377,1,2,0:0:0:0:
72,192,134548,1,2,0:0:0:0:
224,256,134720,6,2,P|304:208|312:128,1,180
152,64,135405,2,2,B|200:88|240:56|240:56|280:24|328:32,1,180
456,72,135920,1,2,0:0:0:0:
448,208,136091,6,2,P|368:240|328:168,1,180
376,16,136777,2,0,B|328:24|328:24|296:56,1,90,2|0,0:0|0:0,0:0:0:0:
256,184,137120,1,2,0:0:0:0:
224,48,137291,1,2,0:0:0:0:
344,136,137462,6,2,B|376:184|344:240|344:240|392:304,1,180
208,296,138148,2,2,L|72:296,1,135.000005149842
136,176,138662,1,2,0:0:0:0:
256,176,138834,6,2,B|296:200|304:248|304:248|360:248|392:288,1,180
480,136,139520,2,0,L|448:32,1,90,2|0,0:0|0:0,0:0:0:0:
320,40,139862,1,2,0:0:0:0:
256,160,140034,1,2,0:0:0:0:
296,272,140205,6,2,P|360:224|368:120,1,180
200,72,140891,2,2,B|120:80|120:80|136:136|112:176,1,180
40,288,141405,1,2,0:0:0:0:
184,272,141577,6,0,P|224:248|168:264,1,180
304,64,142948,6,0,B|352:72|352:72|376:120,1,90
272,256,143291,2,0,B|298:290|298:290|344:296,1,90
256,128,143634,2,0,B|221:154|221:154|215:200,1,90
444,152,143977,2,0,B|438:195|438:195|400:224,1,90
240,316,144320,5,0,0:0:0:0:
128,192,144491,1,0,0:0:0:0:
88,352,144662,1,0,0:0:0:0:
224,248,144834,1,0,0:0:0:0:
56,248,145005,2,0,P|40:204|56:144,1,90
148,40,145348,2,0,B|192:68|192:68|248:68,1,90
384,68,145691,6,0,B|428:100|428:100|412:124|416:156,1,90
384,296,146034,2,0,B|340:264|340:264|356:240|352:208,1,90
240,92,146377,1,0,0:0:0:0:
184,224,146548,1,0,0:0:0:0:
228,228,146634,1,0,0:0:0:0:
260,212,146720,2,0,P|296:176|308:124,1,90
260,16,147062,6,0,B|224:60|224:60|172:80,1,90
64,144,147405,2,0,P|48:180|64:240,2,90
168,12,147920,1,0,0:0:0:0:
176,160,148091,2,0,P|200:204|244:216,1,90
400,232,148434,6,0,B|440:260|424:288|464:312,1,90
288,296,148777,2,0,B|248:268|264:240|224:216,1,90
104,112,149120,1,0,0:0:0:0:
112,300,149291,1,0,0:0:0:0:
144,276,149377,1,0,0:0:0:0:
164,240,149462,2,0,P|176:196|140:168,1,72
40,72,149805,5,0,0:0:0:0:
28,272,149977,1,0,0:0:0:0:
40,72,150148,1,0,0:0:0:0:
28,272,150320,1,0,0:0:0:0:
136,144,150491,2,0,B|176:112|176:112|224:112,1,90
372,156,150834,2,0,P|388:108|364:64,1,90
208,36,151177,6,0,L|104:36,1,90
216,168,151520,2,0,L|320:168,1,90
448,80,151862,1,0,0:0:0:0:
288,32,152034,1,0,0:0:0:0:
240,32,152120,1,0,0:0:0:0:
192,32,152205,2,0,B|140:32|140:32|100:72,1,90
48,208,152548,5,0,0:0:0:0:
204,144,152720,1,0,0:0:0:0:
52,76,152891,1,0,0:0:0:0:
136,216,153062,1,0,0:0:0:0:
272,316,153234,2,0,P|328:312|352:268,1,90
368,124,153577,2,0,P|312:128|288:172,1,90
452,196,153920,6,0,B|428:244|428:244|452:284,1,90
268,284,154263,2,0,B|291:246|291:246|267:198,1,90
140,44,154605,1,0,0:0:0:0:
308,92,154777,1,0,0:0:0:0:
140,44,154948,1,0,0:0:0:0:
308,92,155120,1,0,0:0:0:0:
172,212,155291,6,0,P|124:220|84:216,1,90
268,284,155634,2,0,P|316:276|356:280,1,90
404,84,155977,1,0,0:0:0:0:
468,268,156148,1,0,0:0:0:0:
404,84,156320,1,0,0:0:0:0:
468,268,156491,1,0,0:0:0:0:
284,284,156663,6,0,B|316:244|284:196,1,90
112,200,157005,2,0,B|80:240|112:288,1,90
284,340,157348,1,0,0:0:0:0:
68,340,157520,1,0,0:0:0:0:
284,340,157691,1,0,0:0:0:0:
68,340,157863,1,0,0:0:0:0:
228,252,158034,5,0,0:0:0:0:
84,124,158205,1,0,0:0:0:0:
84,172,158291,1,0,0:0:0:0:
116,196,158377,1,0,0:0:0:0:
276,92,158548,1,0,0:0:0:0:
228,316,158720,1,0,0:0:0:0:
188,84,158891,1,0,0:0:0:0:
228,316,159063,1,0,0:0:0:0:
188,84,159234,1,0,0:0:0:0:
312,248,159405,5,0,0:0:0:0:
368,120,159577,1,0,0:0:0:0:
232,144,159748,1,0,0:0:0:0:
312,248,159920,1,0,0:0:0:0:
464,248,160091,1,0,0:0:0:0:
384,360,160262,1,0,0:0:0:0:
232,360,160434,1,0,0:0:0:0:
176,220,160605,1,0,0:0:0:0:
312,248,160777,5,0,0:0:0:0:
312,92,160948,1,0,0:0:0:0:
176,64,161120,1,0,0:0:0:0:
176,220,161291,1,0,0:0:0:0:
312,248,161462,1,0,0:0:0:0:
432,136,161634,1,0,0:0:0:0:
464,296,161805,1,0,0:0:0:0:
312,248,161977,1,0,0:0:0:0:
184,184,162148,5,0,0:0:0:0:
144,160,162234,1,0,0:0:0:0:
96,152,162320,1,0,0:0:0:0:
56,176,162405,1,0,0:0:0:0:
40,216,162491,1,0,0:0:0:0:
40,264,162577,1,0,0:0:0:0:
72,296,162662,1,0,0:0:0:0:
120,304,162748,1,0,0:0:0:0:
160,288,162834,1,0,0:0:0:0:
200,272,162920,1,0,0:0:0:0:
248,280,163005,1,0,0:0:0:0:
288,304,163091,1,0,0:0:0:0:
336,304,163177,1,0,0:0:0:0:
368,272,163262,1,0,0:0:0:0:
368,224,163348,1,0,0:0:0:0:
336,200,163434,1,0,0:0:0:0:
288,192,163520,6,0,P|225:171|282:94,1,180
208,64,164891,6,0,B|256:64|256:88|256:88|296:112,1,90
304,304,165234,2,0,B|256:304|256:280|256:280|216:256,1,99.0000030212403
80,120,165577,1,0,0:0:0:0:
272,168,165748,1,0,0:0:0:0:
312,184,165834,1,0,0:0:0:0:
352,192,165920,2,0,P|400:192|432:152,1,99.0000030212403
264,40,166262,6,0,L|176:112,1,99.0000030212403
40,264,166605,1,0,0:0:0:0:
256,224,166777,1,0,0:0:0:0:
56,136,166948,1,0,0:0:0:0:
264,96,167120,1,0,0:0:0:0:
440,200,167291,2,0,B|416:256|416:256|352:272,1,99.0000030212403
152,288,167634,6,0,B|120:336|120:336|152:344|176:328,1,107.999996704102
344,192,167977,2,0,B|376:144|376:144|344:136|320:152,1,107.999996704102
216,336,168320,1,0,0:0:0:0:
208,120,168491,1,0,0:0:0:0:
216,80,168577,1,0,0:0:0:0:
248,48,168662,2,0,P|296:32|344:48,1,99.0000030212403
432,224,169005,6,0,L|456:128,1,99.0000030212403
264,248,169348,1,0,0:0:0:0:
352,64,169520,1,0,0:0:0:0:
352,280,169691,1,0,0:0:0:0:
240,88,169862,1,0,0:0:0:0:
432,224,170034,2,0,P|456:272|440:328,1,99.0000030212403
248,320,170377,6,0,L|144:272,1,99.0000030212403
104,80,170720,2,0,L|208:128,1,99.0000030212403
392,208,171062,1,0,0:0:0:0:
344,48,171177,1,0,0:0:0:0:
304,32,171291,1,0,0:0:0:0:
256,40,171405,2,0,B|224:88|224:88|236:152,1,99.0000030212403
296,320,171748,6,0,B|352:320|352:320|408:288,1,99.0000030212403
240,160,172091,2,0,B|184:160|184:160|128:204,1,99.0000030212403
336,248,172434,2,0,L|456:216,1,99.0000030212403
496,40,172777,2,0,L|376:96,1,99.0000030212403
200,168,173120,6,0,B|152:184|152:184|136:168|136:168|88:192,1,116.999994644165
16,360,173462,2,0,B|64:344|64:344|80:360|80:360|136:336,1,116.999994644165
288,208,173805,1,0,0:0:0:0:
216,88,173920,1,0,0:0:0:0:
178,72,174034,1,0,0:0:0:0:
140,85,174148,2,0,B|113:95|99:115|99:115|110:142|97:162,1,99.0000030212403
232,320,174491,6,0,B|272:352|304:336|304:336|312:296|312:296|348:268,1,132.00000402832,2|0,0:0|0:0,0:0:0:0:
352,268,174834,2,0,B|408:228|408:228|416:180|392:156,1,132.00000402832,2|0,0:0|0:0,0:0:0:0:
376,120,175177,2,0,L|300:112,1,49.5000015106202,2|0,0:0|0:0,0:0:0:0:
60,64,175434,1,2,0:0:0:0:
52,112,175520,2,0,P|80:132|112:124,1,49.5000015106202,2|0,0:0|0:0,0:0:0:0:
216,72,175691,1,4,0:0:0:0:
168,216,175862,6,0,B|144:256|144:256|152:288|184:296,1,99.0000030212403
368,224,176205,2,0,B|392:184|392:184|384:152|352:144,1,99.0000030212403
152,64,176548,1,0,0:0:0:0:
80,240,176720,1,0,0:0:0:0:
112,224,176805,1,0,0:0:0:0:
144,208,176891,2,0,B|184:192|184:192|216:208|216:208|256:208,1,99.0000030212403
440,216,177234,6,0,P|488:184|488:136,1,99.0000030212403
312,232,177577,2,0,P|264:264|264:312,1,99.0000030212403
368,160,177920,2,0,B|336:112|336:112|288:112,1,99.0000030212403
384,288,178263,2,0,B|416:336|416:336|464:336,1,99.0000030212403
472,136,178605,6,0,B|456:104|456:104|424:88|424:88|400:48,1,99.0000030212403
288,224,178948,2,0,B|304:256|304:256|336:272|336:272|360:312,1,99.0000030212403
336,96,179291,1,0,0:0:0:0:
136,72,179462,1,0,0:0:0:0:
96,96,179548,1,0,0:0:0:0:
80,136,179634,2,0,P|72:192|96:232,1,99.0000030212403
280,304,179977,6,0,B|336:296|336:296|360:248,1,99.0000030212403
384,56,180320,1,0,0:0:0:0:
240,216,180491,1,0,0:0:0:0:
456,168,180662,1,0,0:0:0:0:
264,56,180834,1,0,0:0:0:0:
400,224,181005,2,0,B|440:272|400:320,1,99.0000030212403
208,352,181348,5,8,0:0:0:0:
168,336,181434,1,0,0:0:0:0:
136,304,181520,1,0,0:0:0:0:
128,264,181605,1,0,0:0:0:0:
144,224,181691,1,8,0:0:0:0:
184,200,181777,1,0,0:0:0:0:
224,216,181862,1,0,0:0:0:0:
240,256,181948,1,0,0:0:0:0:
272,288,182034,1,8,0:0:0:0:
320,288,182120,1,0,0:0:0:0:
352,256,182205,1,0,0:0:0:0:
344,208,182291,1,0,0:0:0:0:
320,176,182377,1,8,0:0:0:0:
280,160,182462,1,0,0:0:0:0:
240,176,182548,1,0,0:0:0:0:
224,216,182634,1,0,0:0:0:0:
208,256,182720,5,8,0:0:0:0:
168,280,182805,1,0,0:0:0:0:
128,264,182891,1,0,0:0:0:0:
104,224,182977,1,0,0:0:0:0:
112,184,183062,1,8,0:0:0:0:
136,144,183148,1,0,0:0:0:0:
176,120,183234,1,0,0:0:0:0:
176,72,183320,1,0,0:0:0:0:
136,48,183405,1,8,0:0:0:0:
88,56,183491,1,0,0:0:0:0:
56,88,183577,1,0,0:0:0:0:
40,128,183662,1,0,0:0:0:0:
40,176,183748,1,8,0:0:0:0:
48,216,183834,1,0,0:0:0:0:
64,256,183920,1,0,0:0:0:0:
88,296,184005,1,0,0:0:0:0:
120,264,184091,5,8,0:0:0:0:
160,248,184177,1,0,0:0:0:0:
200,240,184262,1,8,0:0:0:0:
240,256,184348,1,0,0:0:0:0:
272,288,184434,1,8,0:0:0:0:
312,304,184520,1,0,0:0:0:0:
352,296,184605,1,8,0:0:0:0:
376,256,184691,1,0,0:0:0:0:
368,208,184777,1,8,0:0:0:0:
328,184,184862,1,0,0:0:0:0:
280,192,184948,1,8,0:0:0:0:
248,216,185034,1,0,0:0:0:0:
240,256,185120,1,8,0:0:0:0:
232,296,185205,1,0,0:0:0:0:
192,320,185291,1,8,0:0:0:0:
152,296,185377,1,0,0:0:0:0:
136,256,185462,6,0,B|112:192|168:136|168:136|184:88|144:48,1,198.000006042481
256,56,186834,6,0,B|328:56|328:56|344:88,1,99.0000030212403
380,312,187177,2,0,B|308:312|308:312|292:280,1,99.0000030212403
172,28,187520,1,0,0:0:0:0:
408,192,187691,1,0,0:0:0:0:
120,200,187862,1,0,0:0:0:0:
340,16,188034,1,0,0:0:0:0:
216,256,188205,6,0,B|200:304|200:304|224:312|232:352,1,99.0000030212403
476,368,188548,2,0,B|492:320|492:320|468:312|460:272,1,99.0000030212403
400,4,188891,1,0,0:0:0:0:
280,264,189062,1,0,0:0:0:0:
496,72,189234,1,0,0:0:0:0:
212,108,189405,1,0,0:0:0:0:
476,196,189577,6,0,L|392:132,1,99.0000030212403
124,132,189920,2,0,L|208:196,1,99.0000030212403
444,348,190262,1,0,0:0:0:0:
284,108,190434,1,0,0:0:0:0:
192,380,190605,1,0,0:0:0:0:
448,240,190777,1,0,0:0:0:0:
176,208,190948,6,0,B|116:204|116:204|84:240,1,99.0000030212403
352,184,191291,2,0,B|412:188|412:188|444:152,1,99.0000030212403
172,48,191634,1,2,0:0:0:0:
248,324,191805,1,2,0:0:0:0:
328,44,191977,1,2,0:0:0:0:
96,216,192148,1,2,0:0:0:0:
344,280,192320,6,0,B|364:248|364:248|408:228|360:200,1,107.999996704102
96,216,192662,2,0,B|76:248|76:248|32:268|80:296,1,107.999996704102
332,104,193005,1,0,0:0:0:0:
24,32,193177,1,0,0:0:0:0:
200,292,193348,1,0,0:0:0:0:
316,0,193520,1,0,0:0:0:0:
48,156,193691,6,0,B|100:184|100:184|172:164,1,107.999996704102
428,180,194034,2,0,B|376:152|376:152|304:172,1,107.999996704102
40,288,194377,1,0,0:0:0:0:
352,320,194548,1,0,0:0:0:0:
136,88,194720,1,0,0:0:0:0:
40,384,194891,1,0,0:0:0:0:
296,224,195062,6,0,B|332:172|332:172|312:128|312:128|316:60|380:40,1,215.999993408203
476,268,195577,2,0,P|440:320|384:316,1,107.999996704102
228,140,195920,2,0,P|168:108|48:184,1,215.999993408203
48,252,196348,1,0,0:0:0:0:
108,324,196434,6,0,L|216:324,1,90
372,212,196777,2,0,L|264:212,1,90
136,300,197120,2,0,L|244:300,1,90
400,188,197463,2,0,L|292:188,1,90
104,192,197805,1,0,0:0:0:0:
68,168,197891,1,0,0:0:0:0:
64,128,197977,1,0,0:0:0:0:
84,92,198062,1,0,0:0:0:0:
128,80,198148,1,0,0:0:0:0:
164,104,198234,1,0,0:0:0:0:
172,144,198320,1,0,0:0:0:0:
148,184,198405,1,0,0:0:0:0:
124,212,198491,1,0,0:0:0:0:
100,252,198576,1,0,0:0:0:0:
108,292,198662,1,0,0:0:0:0:
144,316,198748,1,0,0:0:0:0:
188,316,198834,2,0,P|248:300|280:232,1,135
280,200,199177,5,0,0:0:0:0:
272,156,199262,1,0,0:0:0:0:
244,124,199348,1,0,0:0:0:0:
208,104,199434,1,0,0:0:0:0:
192,64,199520,1,0,0:0:0:0:
216,28,199605,1,0,0:0:0:0:
260,32,199691,1,0,0:0:0:0:
284,64,199777,1,0,0:0:0:0:
280,108,199862,1,0,0:0:0:0:
244,124,199948,1,0,0:0:0:0:
212,148,200034,1,0,0:0:0:0:
192,184,200120,1,0,0:0:0:0:
192,228,200205,2,0,P|196:296|128:308,1,135
104,292,200548,5,0,0:0:0:0:
68,268,200634,1,0,0:0:0:0:
56,224,200720,1,0,0:0:0:0:
72,184,200805,1,0,0:0:0:0:
104,156,200891,1,0,0:0:0:0:
152,160,200977,1,0,0:0:0:0:
188,136,201062,1,0,0:0:0:0:
200,96,201148,1,0,0:0:0:0:
180,60,201234,1,0,0:0:0:0:
220,80,201320,1,0,0:0:0:0:
260,92,201405,1,0,0:0:0:0:
300,92,201491,1,0,0:0:0:0:
336,80,201577,2,0,B|360:64|388:64|388:64|424:100|412:144,1,135
408,176,201920,5,0,0:0:0:0:
400,216,202005,1,0,0:0:0:0:
388,256,202091,1,0,0:0:0:0:
376,296,202177,1,0,0:0:0:0:
280,336,202262,1,0,0:0:0:0:
288,296,202347,1,0,0:0:0:0:
300,256,202433,1,0,0:0:0:0:
312,216,202519,1,0,0:0:0:0:
324,172,202605,2,0,L|356:72,1,90
228,52,202948,2,0,P|160:24|152:72,1,135
160,104,203291,6,0,P|176:156|144:200,1,90,2|0,0:0|0:0,0:0:0:0:
68,312,203634,1,2,0:0:0:0:
68,124,203805,1,2,0:0:0:0:
68,312,203977,2,0,B|116:340|116:340|176:340,1,90,2|0,0:0|0:0,0:0:0:0:
312,240,204320,2,0,L|208:256,1,90,2|0,0:0|0:0,0:0:0:0:
380,340,204662,6,0,P|432:312|436:276,1,90,2|0,0:0|0:0,0:0:0:0:
408,100,205005,1,2,0:0:0:0:
372,76,205091,1,2,0:0:0:0:
332,76,205177,1,2,0:0:0:0:
304,104,205262,1,2,0:0:0:0:
292,144,205348,2,0,P|276:208|240:240,1,90,2|0,0:0|0:0,0:0:0:0:
228,256,205605,1,2,0:0:0:0:
184,268,205691,2,0,P|160:272|128:256,1,45
56,208,205862,1,0,0:0:0:0:
120,32,206034,6,0,B|144:40|152:68|152:68|136:96|136:128,1,90
72,280,206377,2,0,L|164:208,1,90
272,96,206720,1,0,0:0:0:0:
420,220,206891,1,0,0:0:0:0:
420,264,206977,1,0,0:0:0:0:
400,304,207062,2,0,B|388:336|356:336|356:336|312:312,1,90
256,192,207405,12,0,208605,0:0:0:0:
