osu file format v14

[General]
AudioFilename: Intensify - S3RL_231446732_soundcloud.mp3
AudioLeadIn: 0
PreviewTime: 66176
Countdown: 1
SampleSet: Normal
StackLeniency: 0.7
Mode: 0
LetterboxInBreaks: 0
WidescreenStoryboard: 0

[Editor]
Bookmarks: 85719,91204,101833
DistanceSpacing: 1.8
BeatDivisor: 4
GridSize: 8
TimelineZoom: 1.3

[Metadata]
Title:Intensify
TitleUnicode:Intensify
Artist:S3RL
ArtistUnicode:S3RL
Creator:- Supreme
Version:Insane
Source:Youtube
Tags:
BeatmapID:863086
BeatmapSetID:391840

[Difficulty]
HPDrainRate:8
CircleSize:4.2
OverallDifficulty:7
ApproachRate:9
SliderMultiplier:1.5
SliderTickRate:2

[Events]
//Background and Video events
0,0,"wallhaven-303401.jpg",0,0
//Break Periods
//Storyboard Layer 0 (Background)
//Storyboard Layer 1 (Fail)
//Storyboard Layer 2 (Pass)
//Storyboard Layer 3 (Foreground)
//Storyboard Sound Samples

[TimingPoints]
11319,342.857515499687,4,1,0,100,1,0
44233,-80,4,1,0,100,0,0
55204,-100,4,1,0,100,0,0
55890,-66.6666666666667,4,1,0,100,0,0
66176,-66.6666666666667,4,1,0,100,0,1
67547,-100,4,1,0,100,0,1
68233,-66.6666666666667,4,1,0,100,0,1
70290,-100,4,1,0,100,0,1
70976,-66.6666666666667,4,1,0,100,0,1
76461,-133.333333333333,4,1,0,100,0,1
77147,-66.6666666666667,4,1,0,100,0,1
84004,-100,4,1,0,100,0,1
84690,-66.6666666666667,4,1,0,100,0,1
90176,-100,4,1,0,100,0,1
90861,-66.6666666666667,4,1,0,100,0,1
92224,-66.6666666666667,4,1,0,100,0,1
92919,-100,4,1,0,100,0,1
93604,-66.6666666666667,4,1,0,100,0,1
121033,-80,4,1,0,100,0,0
142976,-80,4,1,0,5,0,0
143319,-80,4,1,0,8,0,0
143662,-80,4,1,0,11,0,0
143762,-80,4,1,0,11,0,0
144347,-80,4,1,0,15,0,0
144690,-80,4,1,0,20,0,0
145724,-80,4,1,0,20,0,0
147090,-80,4,1,0,25,0,0
147433,-80,4,1,0,30,0,0
147604,-80,4,1,0,40,0,0
147776,-80,4,1,0,45,0,0
147947,-80,4,1,0,55,0,0
148119,-80,4,1,0,65,0,0
148462,-80,4,1,0,85,0,0
148976,-80,4,1,0,90,0,0
149833,-80,4,1,0,93,0,0
150004,-80,4,1,0,95,0,0
150176,-80,4,1,0,98,0,0
150347,-80,4,1,0,100,0,0
154633,-100,4,1,0,100,0,0
155319,-66.6666666666667,4,1,0,100,0,0
156004,-80,4,1,0,100,0,0
158747,-66.6666666666667,4,1,0,100,0,0
164919,-66.6666666666667,4,1,0,100,0,1
165776,-100,4,1,0,100,0,1
167147,-66.6666666666667,4,1,0,100,0,1
170404,-100,4,1,0,100,0,1
175890,-66.6666666666667,4,1,0,100,0,1
181376,-66.6666666666667,4,1,0,100,0,1
188919,-100,4,1,0,100,0,0
189604,-66.6666666666667,4,1,0,100,0,0
191662,-100,4,1,0,100,0,0
192347,-66.6666666666667,4,1,0,100,0,0

[HitObjects]
88,248,11319,6,0,P|96:176|160:116,1,150,0|0,2:0|2:0,2:0:0:0:
332,100,12004,1,0,2:0:0:0:
228,268,12347,1,0,2:0:0:0:
380,252,12690,6,0,P|332:200|244:172,1,150,0|0,2:0|2:0,2:0:0:0:
140,260,13376,5,0,2:0:0:0:
172,108,13719,1,0,2:0:0:0:
356,96,14061,6,0,P|372:184|344:248,1,150,0|0,2:0|2:0,2:0:0:0:
172,108,14747,2,0,P|156:152|164:184,1,75,0|0,2:0|2:0,2:0:0:0:
236,228,15090,2,0,P|264:256|264:304,1,75,0|0,2:0|2:0,2:0:0:0:
180,304,15433,1,0,2:0:0:0:
336,232,15776,1,0,2:0:0:0:
200,80,16119,6,0,P|276:104|320:172,1,150,0|0,2:0|2:0,2:0:0:0:
152,236,16804,1,0,2:0:0:0:
416,188,17147,1,0,2:0:0:0:
300,260,17490,6,0,P|232:212|216:148,1,150,0|0,2:0|2:0,2:0:0:0:
396,128,18176,1,0,2:0:0:0:
216,112,18519,1,0,2:0:0:0:
232,328,18861,6,0,P|288:292|292:272,1,75,0|0,2:0|2:0,2:0:0:0:
188,196,19204,2,0,P|152:216|136:252,1,75,0|0,2:0|2:0,2:0:0:0:
252,228,19547,1,0,2:0:0:0:
60,124,19890,1,0,2:0:0:0:
272,112,20233,1,0,2:0:0:0:
272,308,20576,2,0,P|344:232|348:184,1,150,0|0,2:0|2:0,2:0:0:0:
124,124,22290,6,0,P|136:168|152:200,1,75
216,268,22633,1,0,0:0:0:0:
292,196,22804,2,0,P|324:144|316:120,1,75
256,56,23147,1,0,0:0:0:0:
156,72,23319,2,0,P|108:92|100:128,1,75
100,212,23661,1,0,0:0:0:0:
308,176,24004,1,0,0:0:0:0:
176,336,24347,6,0,P|192:272|232:188,1,150
280,116,24861,1,0,0:0:0:0:
380,80,25033,2,0,P|408:136|384:228,1,150
116,128,25719,1,0,0:0:0:0:
328,116,26061,2,0,P|340:160|324:200,1,75
248,252,26404,1,0,0:0:0:0:
112,192,26747,1,0,0:0:0:0:
300,104,27090,1,0,0:0:0:0:
220,300,27433,6,0,P|172:264|168:240,1,75
152,152,27776,1,0,0:0:0:0:
332,260,28119,1,0,0:0:0:0:
316,52,28461,1,0,0:0:0:0:
116,112,28804,2,0,P|116:148|156:176,1,75
244,184,29147,1,0,0:0:0:0:
452,184,29490,1,0,0:0:0:0:
268,80,29833,6,0,P|220:140|216:156,1,75
224,236,30176,1,0,0:0:0:0:
316,188,30347,1,0,0:0:0:0:
404,128,30519,1,0,0:0:0:0:
196,92,30861,6,0,P|224:136|220:156,1,75
236,292,31204,1,0,0:0:0:0:
175,211,31376,1,0,0:0:0:0:
128,116,31547,1,0,0:0:0:0:
316,112,31890,2,0,P|312:196|264:236,1,150
76,156,32576,1,0,0:0:0:0:
272,80,32919,1,0,0:0:0:0:
176,120,33090,1,0,0:0:0:0:
336,292,33261,6,0,P|276:252|192:216,1,150
72,80,33947,2,0,P|124:72|160:72,1,75
240,108,34290,2,0,P|276:112|320:132,1,75
392,184,34633,1,0,0:0:0:0:
192,160,34976,2,0,P|140:184|140:208,1,75
256,296,35319,2,0,P|316:280|324:188,1,150
132,192,35833,5,0,0:0:0:0:
84,268,36004,1,0,0:0:0:0:
172,268,36176,1,0,0:0:0:0:
168,124,36347,2,0,P|216:108|320:140,1,150
156,280,37033,6,0,P|132:236|140:200,1,75
196,132,37376,2,0,P|232:112|272:116,1,75
360,156,37719,1,0,0:0:0:0:
156,84,38061,6,0,P|152:120|176:160,1,75
252,220,38404,2,0,P|273:231|328:232,1,75
420,276,38747,6,0,P|428:204|356:160,1,150
132,88,39433,1,0,0:0:0:0:
124,312,39776,1,0,0:0:0:0:
124,208,39947,1,0,0:0:0:0:
256,128,40119,6,0,P|280:184|280:208,1,75
384,148,40461,2,0,P|388:200|372:236,1,75
292,288,40804,1,0,0:0:0:0:
88,196,41147,1,0,0:0:0:0:
172,260,41319,1,0,0:0:0:0:
272,328,41490,2,0,P|312:316|340:276,1,75
352,180,41833,1,0,0:0:0:0:
140,108,42176,6,0,P|168:176|176:180,2,75
252,120,42690,1,0,0:0:0:0:
248,232,42861,2,0,B|248:280|248:280|196:272,1,75
140,104,44233,6,0,P|132:176|216:252,1,187.5
388,32,44919,2,0,L|348:120,1,93.75
292,204,45261,1,0,0:0:0:0:
156,124,45433,1,0,0:0:0:0:
72,224,45604,6,0,P|100:308|112:324,1,93.75
252,336,45947,2,0,P|306:324|343:283,1,93.75,0|0,0:3|0:0,0:0:0:0:
160,268,46290,2,0,P|164:208|196:152,1,93.75
256,100,46633,1,0,0:0:0:0:
364,216,46804,1,0,0:0:0:0:
224,256,46976,2,0,P|168:212|160:92,1,187.5
432,60,47661,6,0,P|444:128|440:156,1,93.75
388,240,48004,1,0,0:0:0:0:
316,96,48176,1,0,0:0:0:0:
184,104,48347,6,0,P|176:160|192:200,1,93.75
296,272,48690,2,0,P|308:204|292:172,1,93.75
216,124,49033,1,2,0:0:0:0:
92,200,49204,1,0,0:0:0:0:
236,240,49376,1,0,0:0:0:0:
112,92,49547,1,0,0:0:0:0:
328,148,49719,6,0,P|264:136|140:168,1,187.5
248,236,50233,1,0,0:0:0:0:
420,252,50404,1,0,0:0:0:0:
312,308,50576,1,0,0:0:0:0:
368,144,50747,2,0,P|320:132|252:152,1,93.75
168,112,51090,2,0,P|160:172|176:204,1,93.75
336,244,51433,2,0,P|304:296|272:320,1,93.75
144,272,51776,1,0,0:0:0:0:
244,148,51947,1,0,0:0:0:0:
260,320,52119,1,0,0:0:0:0:
176,168,52290,1,0,0:0:0:0:
300,144,52461,6,0,P|364:144|440:252,1,187.5
328,320,52976,1,0,0:0:0:0:
208,244,53147,2,0,P|188:164|192:120,1,93.75
60,92,53490,1,0,0:0:0:0:
200,76,53661,1,0,0:0:0:0:
328,132,53833,6,0,P|360:176|360:240,1,93.75
236,272,54176,2,0,P|176:256|148:204,1,93.75
204,100,54519,1,0,0:0:0:0:
340,128,54690,1,0,0:0:0:0:
320,268,54861,1,0,0:0:0:0:
264,112,55033,1,0,0:0:0:0:
172,220,55204,2,0,L|96:272,1,75
0,160,55547,2,0,L|84:140,1,75
168,112,55890,6,2,L|224:136,6,56.2500021457673
176,308,56576,2,0,L|176:192,1,112.500004291535
320,128,56919,2,0,P|340:176|356:240,1,112.500004291535
188,240,57261,1,0,0:0:0:0:
166,216,57346,1,0,0:0:0:0:
152,187,57432,1,0,0:0:0:0:
149,155,57518,1,0,0:0:0:0:
155,124,57603,1,0,0:0:0:0:
170,96,57689,1,0,0:0:0:0:
193,74,57775,1,0,0:0:0:0:
222,60,57861,1,0,0:0:0:0:
256,52,57947,6,0,P|319:80|320:117,1,112.500004291535
404,264,58290,2,0,P|350:256|327:207,1,112.500004291535
188,144,58633,1,0,0:0:0:0:
166,167,58718,1,0,0:0:0:0:
152,196,58804,1,0,0:0:0:0:
149,228,58890,1,0,0:0:0:0:
155,259,58975,1,0,0:0:0:0:
170,287,59061,1,0,0:0:0:0:
193,309,59147,1,0,0:0:0:0:
222,323,59233,1,0,0:0:0:0:
256,320,59319,6,0,P|240:252|204:244,1,112.500004291535
168,244,59576,1,0,0:0:0:0:
136,248,59661,1,0,0:0:0:0:
72,124,59833,1,0,0:0:0:0:
256,192,60004,12,0,64804,0:0:0:0:
60,104,66176,6,0,P|60:176|192:272,1,225
288,268,66690,5,0,0:0:0:0:
196,188,66861,2,0,P|196:112|236:76,1,112.500004291535
460,128,67204,2,0,P|408:64|364:64,1,112.500004291535
284,164,67547,2,0,P|336:228|356:232,1,75
352,312,67890,2,0,P|304:344|264:336,1,75
184,304,68233,1,0,0:0:0:0:
192,128,68404,1,0,0:0:0:0:
284,284,68576,1,0,0:0:0:0:
288,124,68747,1,0,0:0:0:0:
160,224,68919,6,0,P|80:203|48:59,1,225
248,224,69433,1,0,0:0:0:0:
120,296,69604,1,0,0:0:0:0:
288,308,69776,2,0,P|328:264|336:200,1,112.500004291535
296,80,70119,1,0,0:0:0:0:
160,124,70290,2,0,P|152:184|176:216,1,75
264,224,70633,2,0,P|248:280|268:320,1,75
372,272,70976,5,0,0:0:0:0:
312,112,71147,1,0,0:0:0:0:
424,176,71319,1,0,0:0:0:0:
264,224,71490,1,0,0:0:0:0:
312,112,71661,6,0,P|240:104|144:216,1,225.000008583069
248,260,72176,2,0,B|224:212|224:212|144:168,1,112.500004291535
24,100,72519,2,0,B|48:52|48:52|128:8,1,112.500004291535
216,80,72861,1,0,0:0:0:0:
164,208,73033,6,0,L|164:328,1,112.500004291535
292,212,73376,2,0,L|292:340,1,112.500004291535
136,260,73719,5,2,0:0:0:0:
264,112,73890,1,0,0:0:0:0:
256,280,74061,1,0,0:0:0:0:
140,116,74233,1,0,0:0:0:0:
348,140,74404,6,0,P|284:108|228:108,1,112.500004291535
80,148,74747,2,0,P|36:208|36:272,1,112.500004291535
196,280,75090,1,0,0:0:0:0:
264,128,75261,2,0,P|216:96|156:104,1,112.500004291535
104,260,75604,1,0,0:0:0:0:
272,284,75776,2,0,P|312:237|312:176,1,112.500004291535,0|0,0:3|0:3,0:3:0:0:
208,132,76119,1,0,0:0:0:0:
68,248,76461,2,0,P|84:188|92:176,2,56.2500021457673
172,244,76976,1,0,0:0:0:0:
329,129,77147,5,0,0:0:0:0:
295,118,77233,1,0,0:0:0:0:
259,117,77319,1,0,0:0:0:0:
223,122,77404,1,0,0:0:0:0:
192,136,77490,1,0,0:0:0:0:
168,160,77576,1,0,0:0:0:0:
148,188,77661,1,0,0:0:0:0:
136,224,77747,1,0,0:0:0:0:
128,260,77833,1,0,0:0:0:0:
126,296,77919,2,0,L|198:312,3,56.2500021457673
260,152,78519,5,0,0:0:0:0:
292,144,78604,1,0,0:0:0:0:
328,144,78690,1,0,0:0:0:0:
360,160,78776,1,0,0:0:0:0:
376,192,78861,1,0,0:0:0:0:
372,228,78947,1,0,0:0:0:0:
360,260,79033,1,0,0:0:0:0:
334,283,79119,1,0,0:0:0:0:
301,293,79204,2,0,L|249:257,4,56.2500021457673
161,41,79890,5,0,0:0:0:0:
127,54,79976,1,0,0:0:0:0:
106,81,80061,1,0,0:0:0:0:
95,115,80147,1,0,0:0:0:0:
96,150,80233,1,0,0:0:0:0:
104,184,80319,1,0,0:0:0:0:
112,216,80405,1,0,0:0:0:0:
127,247,80490,1,0,0:0:0:0:
155,265,80576,1,0,0:0:0:0:
188,266,80662,1,0,0:0:0:0:
224,256,80748,1,0,0:0:0:0:
246,230,80833,1,0,0:0:0:0:
252,195,80919,1,0,0:0:0:0:
92,192,81261,6,0,L|52:122,3,56.2500021457673
136,196,81604,2,0,L|176:126,3,56.2500021457673
128,112,81947,2,0,L|48:112,3,56.2500021457673
216,112,82290,1,0,0:0:0:0:
365,81,82633,6,0,P|400:148|396:194,1,112.500004291535
264,164,82976,1,0,0:0:0:0:
360,324,83147,1,0,0:0:0:0:
440,180,83319,2,0,P|368:148|308:164,1,112.500004291535
267,249,83661,1,0,0:0:0:0:
264,56,83833,1,0,0:0:0:0:
146,132,84004,6,0,P|196:143|226:183,1,75
170,318,84347,2,0,P|144:276|144:244,1,75
251,250,84690,5,0,0:0:0:0:
427,215,84861,1,0,0:0:0:0:
249,167,85033,1,0,0:0:0:0:
427,137,85204,1,0,0:0:0:0:
204,84,85376,6,0,P|275:75|332:132,1,112.500004291535
249,167,85719,1,0,0:0:0:0:
120,336,85890,1,0,0:0:0:0:
220,240,86061,2,0,P|172:268|104:232,1,112.500004291535
292,144,86404,2,0,P|340:116|408:152,1,112.500004291535
80,76,88119,6,0,L|80:188,1,112.500004291535
184,72,88461,2,0,L|184:184,1,112.500004291535
292,68,88804,2,0,L|292:180,1,112.500004291535
160,272,89147,5,0,0:0:0:0:
320,268,89319,1,0,0:0:0:0:
184,188,89490,1,0,0:0:0:0:
264,336,89661,2,0,P|304:292|300:232,1,112.500004291535
264,152,90004,1,0,0:0:0:0:
84,264,90176,6,0,L|164:264,1,75
120,152,90519,2,0,L|32:152,1,75
175,41,90861,2,0,B|226:69|226:69|250:117,1,112.500004291535
120,259,91204,2,0,B|96:211|96:211|124:139,1,112.500004291535
250,117,91547,5,0,0:0:0:0:
423,160,91719,1,0,0:0:0:0:
250,117,91890,1,0,0:0:0:0:
309,265,92061,1,0,0:0:0:0:
98,117,92233,6,0,P|58:192|109:315,1,225.000008583069
193,207,92747,1,0,0:0:0:0:
98,117,92919,2,0,P|132:103|180:103,1,75
120,222,93261,2,0,P|154:208|201:208,1,75
359,348,93604,6,0,P|456:263|441:151,1,225.000008583069
340,223,94119,2,0,P|316:158|344:82,1,112.500004291535
413,156,94461,2,0,P|477:124|503:79,1,112.500004291535
384,29,94804,2,0,P|321:16|273:33,1,112.500004291535,0|0,0:3|0:3,0:3:0:0:
332,138,95147,5,0,0:0:0:0:
470,43,95319,1,0,0:0:0:0:
449,225,95490,1,0,0:0:0:0:
326,30,95661,1,0,0:0:0:0:
255,186,95833,1,0,0:0:0:0:
172,42,96004,1,0,0:0:0:0:
255,186,96176,1,0,0:0:0:0:
96,80,96347,6,0,P|96:156|196:272,1,225.000008583069
307,289,96861,1,0,0:0:0:0:
96,80,97204,1,0,0:0:0:0:
408,80,97547,2,0,L|376:108,4,28.1250010728836
224,72,97890,1,0,0:0:0:0:
180,224,98061,1,0,0:0:0:0:
324,160,98233,1,0,0:0:0:0:
168,132,98404,1,0,0:0:0:0:
272,248,98576,2,0,P|340:252|388:208,1,112.500004291535
296,92,98919,1,0,0:0:0:0:
148,318,99090,5,0,0:0:0:0:
136,282,99175,1,0,0:0:0:0:
148,244,99261,1,0,0:0:0:0:
164,208,99347,1,0,0:0:0:0:
178,171,99432,1,0,0:0:0:0:
177,133,99518,1,0,0:0:0:0:
145,113,99604,1,0,0:0:0:0:
112,131,99690,1,0,0:0:0:0:
109,169,99775,1,0,0:0:0:0:
129,203,99861,1,0,0:0:0:0:
158,230,99947,1,0,0:0:0:0:
191,251,100032,1,0,0:0:0:0:
229,255,100119,6,0,L|284:207,3,56.2500021457673
289,178,100461,1,0,0:0:0:0:
293,138,100546,1,0,0:0:0:0:
308,102,100632,1,0,0:0:0:0:
336,75,100718,1,0,0:0:0:0:
373,67,100803,5,0,0:0:0:0:
408,84,100889,1,0,0:0:0:0:
427,118,100975,1,0,0:0:0:0:
427,157,101061,1,0,0:0:0:0:
416,195,101146,1,0,0:0:0:0:
398,230,101232,1,0,0:0:0:0:
380,265,101318,1,0,0:0:0:0:
368,302,101403,1,0,0:0:0:0:
384,337,101490,2,0,L|443:349,3,56.2500021457673
438,246,101833,6,0,L|409:180,3,56.2500021457673
302,176,102176,2,0,L|324:233,3,56.2500021457673
329,272,102519,1,0,0:0:0:0:
300,298,102604,1,0,0:0:0:0:
263,312,102690,1,0,0:0:0:0:
224,309,102776,1,0,0:0:0:0:
189,292,102861,1,0,0:0:0:0:
81,140,103204,6,0,L|41:70,3,56.2500021457673
125,144,103547,6,0,L|165:74,3,56.2500021457673
117,60,103890,6,0,L|37:60,3,56.2500021457673
205,60,104233,1,0,0:0:0:0:
204,268,104576,6,0,L|316:168,1,112.500004291535
240,24,104919,2,0,L|144:104,1,112.500004291535
370,268,105261,2,0,L|278:184,1,112.500004291535
96,200,105604,2,0,L|176:288,1,112.500004291535
200,104,105947,6,0,P|264:108|308:160,1,112.500004291535
296,324,106290,6,0,P|232:320|188:268,1,112.500004291535
148,192,106633,1,0,0:0:0:0:
360,192,106804,1,0,0:0:0:0:
160,100,106976,1,0,0:0:0:0:
352,100,107147,5,0,0:0:0:0:
252,220,107319,1,0,0:0:0:0:
256,64,107490,1,0,0:0:0:0:
144,160,107661,6,0,P|97:113|112:57,1,112.500004291535
236,96,108004,1,0,0:0:0:0:
359,42,108176,1,0,0:0:0:0:
363,241,108347,1,0,0:0:0:0:
359,42,108519,1,0,0:0:0:0:
256,192,108690,12,0,110061,0:0:0:0:
132,128,110404,5,0,0:0:0:0:
340,216,110747,1,0,0:0:0:0:
132,300,111090,1,0,0:0:0:0:
268,120,111433,1,0,0:0:0:0:
44,84,111776,6,0,P|44:160|176:220,1,225.000008583069
360,112,112461,2,0,P|352:212|268:312,1,225.000008583069
421,60,113147,6,0,P|374:32|306:53,1,112.500004291535
200,196,113490,2,0,P|256:244|300:240,1,112.500004291535
403,276,113833,2,0,P|383:154|264:174,1,225.000008583069
124,84,115547,6,0,P|112:144|152:196,1,112.500004291535
396,200,115890,2,0,P|388:268|356:296,1,112.500004291535
100,288,116233,2,0,P|124:213|150:198,1,112.500004291535
324,84,116576,2,0,P|280:40|212:44,1,112.500004291535
312,268,116919,2,0,P|280:328|236:344,1,112.500004291535
148,248,117261,5,0,0:0:0:0:
247,112,117433,1,0,0:0:0:0:
244,272,117604,1,0,0:0:0:0:
164,153,117776,1,0,0:0:0:0:
325,156,117947,1,0,0:0:0:0:
89,100,118119,6,0,P|149:60|209:72,1,112.500004291535
327,263,118461,2,0,P|339:199|319:147,1,112.500004291535
154,150,118804,2,0,P|142:214|162:266,1,112.500004291535
324,155,119147,1,0,0:0:0:0:
156,257,119319,1,0,0:0:0:0:
327,263,119490,1,0,0:0:0:0:
154,150,119661,1,0,0:0:0:0:
116,112,121033,6,0,P|116:164|144:204,1,93.75,0|0,2:0|2:0,2:0:0:0:
137,198,121290,1,0,2:0:0:0:
137,198,121376,1,0,2:0:0:0:
260,156,121547,1,0,2:0:0:0:
240,288,121719,1,0,2:0:0:0:
376,200,121890,2,0,P|380:132|348:92,1,93.75,0|0,2:0|2:0,2:0:0:0:
251,62,122233,2,0,P|178:92|161:139,1,93.75,0|0,2:0|2:0,2:0:0:0:
277,189,122576,5,0,2:0:0:0:
277,189,122661,1,0,2:0:0:0:
277,189,122747,1,0,2:0:0:0:
375,124,122919,2,0,P|347:89|264:68,1,93.75,0|0,2:0|2:0,2:0:0:0:
192,88,123261,1,0,2:0:0:0:
168,256,123433,1,0,2:0:0:0:
80,160,123604,1,0,2:0:0:0:
80,328,123776,2,0,P|120:376|176:384,1,93.75
148,384,124033,5,0,2:0:0:0:
148,384,124119,1,0,2:0:0:0:
168,256,124290,1,0,2:0:0:0:
296,288,124461,2,0,P|344:228|332:192,1,93.75,0|0,2:0|2:0,2:0:0:0:
256,136,124804,1,0,2:0:0:0:
440,136,124976,1,0,2:0:0:0:
220,296,125147,6,0,P|148:284|140:256,1,93.75,0|0,2:0|2:0,2:0:0:0:
142,273,125404,1,0,2:0:0:0:
142,273,125490,1,0,2:0:0:0:
314,64,125661,2,0,P|346:144|330:176,1,93.75,0|0,2:0|2:0,2:0:0:0:
211,147,126004,5,0,2:0:0:0:
211,147,126090,1,0,2:0:0:0:
211,147,126176,1,0,2:0:0:0:
314,64,126347,1,0,2:0:0:0:
276,216,126519,1,0,2:0:0:0:
152,288,126690,6,0,P|136:232|152:172,1,93.75,0|0,2:0|2:0,2:0:0:0:
276,216,127033,1,0,0:0:0:0:
380,280,127204,2,0,P|444:228|444:184,1,93.75,0|0,2:0|2:0,2:0:0:0:
332,108,127547,1,0,2:0:0:0:
196,192,127719,1,0,2:0:0:0:
316,296,127890,6,0,P|380:236|384:200,1,93.75,0|0,2:0|2:0,2:0:0:0:
380,233,128147,1,0,2:0:0:0:
380,233,128233,1,0,2:0:0:0:
256,132,128404,2,0,P|220:184|216:252,1,93.75,0|0,2:0|2:0,2:0:0:0:
216,372,128747,1,0,2:0:0:0:
100,264,128919,1,0,2:0:0:0:
248,212,129090,1,0,2:0:0:0:
128,108,129261,1,0,2:0:0:0:
288,96,129433,5,0,2:0:0:0:
288,96,129519,1,0,2:0:0:0:
288,96,129604,2,0,P|304:184|284:220,1,93.75,0|0,2:0|2:0,2:0:0:0:
152,232,129947,1,0,2:0:0:0:
304,284,130119,2,0,P|368:244|368:200,1,93.75,0|0,2:0|2:0,2:0:0:0:
252,124,130461,2,0,P|204:144|192:188,1,93.75,0|0,2:0|2:0,2:0:0:0:
352,168,130804,5,0,2:0:0:0:
228,64,130976,1,0,2:0:0:0:
88,144,131147,2,0,P|124:200|168:208,1,93.75,0|0,2:0|2:0,2:0:0:0:
304,228,131490,1,0,2:0:0:0:
173,111,131661,1,0,2:0:0:0:
332,116,131833,1,0,2:0:0:0:
200,240,132004,1,0,2:0:0:0:
332,116,132176,6,0,P|384:176|376:216,1,93.75,0|0,2:0|2:0,2:0:0:0:
188,180,132519,1,0,2:0:0:0:
360,88,132690,2,0,P|396:120|416:184,1,93.75,0|0,2:0|2:0,2:0:0:0:
216,232,133033,2,0,P|172:224|144:280,1,93.75,0|0,2:0|2:0,2:0:0:0:
336,280,133376,1,0,2:0:0:0:
172,172,133547,6,0,P|120:192|108:248,1,93.75,0|0,2:0|2:0,2:0:0:0:
312,212,133890,1,0,2:0:0:0:
164,84,134061,2,0,P|152:132|160:184,1,93.75,0|0,2:0|2:0,2:0:0:0:
288,320,134404,1,0,2:0:0:0:
240,128,134576,2,0,P|232:192|248:236,1,93.75,0|0,2:0|2:0,2:0:0:0:
420,304,134919,5,0,2:0:0:0:
436,108,135090,2,0,P|368:100|360:112,1,93.75,0|0,2:0|2:0,2:0:0:0:
228,260,135433,2,0,P|300:272|328:236,1,93.75,0|0,2:0|2:0,2:0:0:0:
136,132,135776,1,0,2:0:0:0:
336,132,135947,1,0,2:0:0:0:
240,304,136119,1,0,2:0:0:0:
224,76,136290,6,0,P|288:116|288:144,1,93.75,0|0,2:0|2:0,2:0:0:0:
104,196,136633,1,0,2:0:0:0:
276,288,136804,2,0,P|220:236|220:212,1,93.75,0|0,2:0|2:0,2:0:0:0:
219,224,137061,1,0,2:0:0:0:
219,224,137147,1,0,2:0:0:0:
368,176,137319,5,0,0:0:0:0:
240,64,137490,1,0,0:0:0:0:
116,152,137661,2,0,P|128:208|164:244,1,93.75
328,252,138004,2,0,P|304:200|272:168,1,93.75
184,92,138347,1,0,0:0:0:0:
140,272,138519,1,0,0:0:0:0:
48,140,138690,6,0,P|68:84|104:56,1,93.75
244,184,139033,1,0,0:0:0:0:
236,32,139204,1,0,0:0:0:0:
136,144,139376,1,0,2:0:0:0:
324,84,139547,2,0,P|364:116|364:168,1,93.75,0|0,2:0|2:0,2:0:0:0:
204,264,139890,2,0,P|160:244|104:200,1,93.75,0|0,2:0|2:0,2:0:0:0:
316,184,140233,5,0,2:0:0:0:
452,336,140404,2,0,P|456:252|424:220,1,93.75,0|0,2:0|2:0,2:0:0:0:
280,156,140747,1,0,2:0:0:0:
464,84,140919,2,0,P|448:160|424:176,1,93.75,0|0,2:0|2:0,2:0:0:0:
252,224,141261,2,0,P|180:228|168:200,1,93.75,0|0,2:0|2:0,2:0:0:0:
60,60,142976,6,0,L|60:184,1,93.75
204,68,143319,2,0,L|204:192,1,93.75
348,72,143662,2,0,L|348:188,1,93.75
276,320,144004,2,0,P|316:280|316:236,1,93.75
258,158,144347,5,0,0:0:0:0:
367,96,144519,1,0,0:0:0:0:
318,245,144690,1,0,0:0:0:0:
367,96,144862,1,0,0:0:0:0:
200,92,145033,1,0,0:0:0:0:
344,176,145204,1,0,0:0:0:0:
200,92,145376,1,0,0:0:0:0:
96,136,145719,6,0,P|84:196|176:272,1,187.5
424,76,146404,2,0,P|420:144|384:160,1,93.75
403,155,146662,1,0,0:0:0:0:
403,155,146747,1,0,0:0:0:0:
84,168,147090,2,0,P|88:122|124:75,1,93.75
276,84,147433,5,0,0:0:0:0:
198,233,147604,1,0,0:0:0:0:
276,84,147776,1,0,0:0:0:0:
347,158,147947,1,0,0:0:0:0:
177,157,148119,1,0,0:0:0:0:
76,78,148462,2,0,P|47:190|104:251,1,187.5
228,74,148976,2,0,P|268:110|268:158,1,93.75
201,294,149319,1,0,0:0:0:0:
139,150,149490,2,0,P|120:107|118:60,1,93.75
268,72,149833,5,0,0:0:0:0:
191,221,150004,1,0,0:0:0:0:
122,66,150176,1,0,0:0:0:0:
212,142,150347,1,0,0:0:0:0:
58,212,150519,1,0,0:0:0:0:
195,309,150690,1,0,0:0:0:0:
468,72,150862,2,0,P|456:156|428:184,1,93.75
323,90,151204,6,0,P|276:127|271:275,1,187.5
383,217,151719,1,0,0:0:0:0:
383,217,151804,1,0,0:0:0:0:
383,217,151890,2,0,P|440:230|476:278,1,93.75
256,247,152233,2,0,P|253:177|276:139,1,93.75
424,60,152576,5,0,0:0:0:0:
383,223,152747,1,0,0:0:0:0:
284,85,152919,1,0,0:0:0:0:
429,169,153090,1,0,0:0:0:0:
260,182,153262,1,0,0:0:0:0:
328,80,153433,6,0,P|248:84|208:96,1,93.75
80,236,153947,1,0,0:0:0:0:
456,240,154290,1,0,0:0:0:0:
184,308,154633,2,0,L|195:293,4,18.75
288,192,154976,2,0,L|272:216,4,18.75
392,292,155319,6,0,P|432:264|404:196,2,112.500004291535
344,104,155833,1,0,0:0:0:0:
252,256,156004,2,0,L|236:280,5,18.75
416,204,156347,2,0,L|400:228,5,18.75
228,156,156690,5,0,0:0:0:0:
360,288,156862,1,0,0:0:0:0:
364,148,157033,1,0,0:0:0:0:
241,271,157204,1,0,0:0:0:0:
100,116,157376,6,0,L|116:140,5,18.75
300,128,157719,6,0,L|284:152,5,18.75
144,260,158062,5,0,0:0:0:0:
92,80,158233,2,0,L|156:132,2,46.875
296,295,158747,1,0,0:0:0:0:
260,296,158833,1,0,0:0:0:0:
228,284,158919,1,0,0:0:0:0:
200,264,159004,1,0,0:0:0:0:
180,240,159090,1,0,0:0:0:0:
152,212,159176,5,0,0:0:0:0:
136,176,159262,1,0,0:0:0:0:
132,136,159347,1,0,0:0:0:0:
144,100,159433,1,0,0:0:0:0:
164,64,159519,1,0,0:0:0:0:
192,36,159604,1,0,0:0:0:0:
228,24,159690,1,0,0:0:0:0:
268,32,159776,6,0,L|313:98,3,56.2500021457673
324,112,160119,1,0,0:0:0:0:
328,152,160204,1,0,0:0:0:0:
316,188,160290,1,0,0:0:0:0:
296,220,160376,1,0,0:0:0:0:
268,248,160462,1,0,0:0:0:0:
232,264,160547,5,0,0:0:0:0:
192,264,160633,1,0,0:0:0:0:
156,248,160719,1,0,0:0:0:0:
128,220,160804,6,0,L|139:140,3,56.2500021457673
152,128,161147,1,0,0:0:0:0:
180,100,161233,1,0,0:0:0:0:
212,80,161319,1,0,0:0:0:0:
248,64,161404,1,0,0:0:0:0:
288,72,161490,1,0,0:0:0:0:
320,92,161576,5,0,0:0:0:0:
344,124,161662,1,0,0:0:0:0:
356,160,161747,1,0,0:0:0:0:
344,196,161833,1,0,0:0:0:0:
320,228,161919,1,0,0:0:0:0:
284,240,162004,1,0,0:0:0:0:
244,244,162090,1,0,0:0:0:0:
256,192,162176,12,0,163547,0:0:0:0:
104,92,164919,6,0,P|88:152|112:216,1,112.500004291535
256,68,165262,1,0,0:0:0:0:
392,192,165433,2,0,P|377:245|343:290,1,112.500004291535
180,244,165776,1,0,0:0:0:0:
180,244,165862,1,0,0:0:0:0:
180,244,165947,2,0,P|168:296|180:328,1,75
312,248,166290,5,0,0:0:0:0:
176,256,166462,1,0,0:0:0:0:
176,136,166633,1,0,0:0:0:0:
312,128,166804,1,0,0:0:0:0:
172,40,166976,1,0,0:0:0:0:
372,80,167147,2,0,P|376:172|324:204,1,112.500004291535
144,72,167490,6,0,P|104:120|108:188,1,112.500004291535
284,256,167833,1,0,0:0:0:0:
408,128,168004,2,0,P|344:92|280:96,1,112.500004291535
148,112,168347,1,0,0:0:0:0:
264,216,168519,1,0,0:0:0:0:
264,216,168604,1,0,0:0:0:0:
264,216,168690,2,0,P|216:264|168:260,1,112.500004291535
52,153,169033,2,0,P|100:106|155:91,1,112.500004291535
164,224,169376,5,0,0:0:0:0:
332,113,169547,1,0,0:0:0:0:
142,39,169719,1,0,0:0:0:0:
254,207,169890,1,0,0:0:0:0:
52,153,170062,1,0,0:0:0:0:
460,316,170404,6,0,P|385:319|311:307,1,140.625
104,264,171090,1,0,0:0:0:0:
120,236,171176,1,0,0:0:0:0:
136,208,171262,1,0,0:0:0:0:
264,212,171433,2,0,P|240:280|300:356,1,140.625
412,288,171947,1,0,0:0:0:0:
328,140,172119,2,0,P|388:116|424:120,1,75
228,176,172462,1,0,0:0:0:0:
204,268,172633,2,0,P|164:312|120:300,1,75
84,116,173147,6,0,P|160:80|232:88,1,140.625
356,248,173833,1,0,0:0:0:0:
324,228,173919,1,0,0:0:0:0:
284,204,174004,1,0,0:0:0:0:
192,152,174176,1,0,0:0:0:0:
384,68,174519,6,0,P|300:72|252:88,1,93.75
264,132,174862,2,0,P|248:192|196:228,1,93.75
168,192,175204,2,0,P|92:204|56:220,1,93.75
36,284,175547,1,0,0:0:0:0:
288,260,175890,6,0,P|336:216|256:92,1,225.000008583069
266,177,176404,2,0,P|218:205|182:257,1,112.500004291535
190,297,176662,1,0,0:0:0:0:
210,333,176747,2,0,P|262:365|310:353,1,112.500004291535
266,177,177090,1,0,0:0:0:0:
250,85,177262,2,0,P|206:105|174:165,1,112.500004291535
267,271,177604,2,0,P|327:259|367:199,1,112.500004291535
276,180,177947,1,0,0:0:0:0:
384,84,178119,1,0,0:0:0:0:
380,285,178290,1,0,0:0:0:0:
188,72,178633,6,0,P|152:108|160:272,1,225.000008583069
252,188,179147,1,0,0:0:0:0:
388,284,179319,2,0,P|424:228|424:160,1,112.500004291535
428,183,179576,1,0,0:0:0:0:
428,183,179662,1,0,0:0:0:0:
160,100,180004,6,0,P|116:148|116:192,1,112.500004291535
236,176,180347,1,0,0:0:0:0:
252,296,180519,2,0,P|316:276|336:236,1,112.500004291535
320,92,180862,2,0,P|268:60|208:68,1,112.500004291535
61,203,181376,5,0,0:0:0:0:
74,240,181461,1,0,0:0:0:0:
93,274,181547,1,0,0:0:0:0:
121,301,181633,1,0,0:0:0:0:
158,313,181718,1,0,0:0:0:0:
195,300,181804,1,0,0:0:0:0:
204,264,181890,5,0,0:0:0:0:
190,227,181976,1,0,0:0:0:0:
188,192,182061,1,0,0:0:0:0:
218,168,182147,1,0,0:0:0:0:
256,168,182233,1,0,0:0:0:0:
290,189,182318,1,0,0:0:0:0:
319,214,182404,2,0,L|342:272,3,56.2500021457673
431,165,182747,6,0,L|388:117,3,56.2500021457673
361,94,183090,1,0,0:0:0:0:
324,107,183175,1,0,0:0:0:0:
301,138,183261,1,0,0:0:0:0:
285,174,183347,1,0,0:0:0:0:
266,209,183432,1,0,0:0:0:0:
234,228,183518,5,0,0:0:0:0:
201,208,183604,1,0,0:0:0:0:
183,174,183690,1,0,0:0:0:0:
169,137,183775,1,0,0:0:0:0:
141,113,183861,1,0,0:0:0:0:
113,138,183947,1,0,0:0:0:0:
105,176,184032,1,0,0:0:0:0:
110,215,184118,1,0,0:0:0:0:
127,251,184204,1,0,0:0:0:0:
152,281,184290,1,0,0:0:0:0:
183,305,184375,1,0,0:0:0:0:
220,310,184462,2,0,L|257:259,3,56.2500021457673
194,151,184804,2,0,L|254:134,3,56.2500021457673
416,186,185147,2,0,L|386:240,3,56.2500021457673
80,308,186862,6,0,L|80:196,1,112.500004291535
184,312,187204,2,0,L|184:200,1,112.500004291535
292,316,187547,2,0,L|292:204,1,112.500004291535
160,116,187890,5,0,0:0:0:0:
320,116,188062,1,0,0:0:0:0:
184,196,188233,1,0,0:0:0:0:
240,36,188404,2,0,P|304:40|360:56,1,112.500004291535
192,112,188747,1,0,0:0:0:0:
272,192,188919,6,0,L|197:192,1,75
128,280,189262,2,0,L|203:280,1,75
389,263,189604,2,0,B|440:235|440:235|464:187,1,112.500004291535
372,44,189947,2,0,B|348:92|348:92|369:146,1,112.500004291535
280,288,190290,5,0,0:0:0:0:
128,216,190462,1,0,0:0:0:0:
280,144,190633,1,0,0:0:0:0:
124,80,190804,1,0,0:0:0:0:
240,239,190976,2,0,P|206:314|71:317,1,225.000008583069
128,216,191490,1,0,0:0:0:0:
49,152,191662,2,0,P|74:123|109:114,1,75
220,145,192004,2,0,P|232:109|219:75,1,75
364,52,192347,6,0,P|454:109|450:216,1,225.000008583069
343,289,192862,1,0,0:0:0:0:
495,359,193033,6,0,L|495:242,1,112.500004291535
349,173,193376,2,0,L|440:103,1,112.500004291535
438,104,193719,1,0,0:0:0:0:
243,50,193890,5,0,0:0:0:0:
243,253,194062,1,0,0:0:0:0:
133,158,194233,1,0,0:0:0:0:
334,159,194404,1,0,0:0:0:0:
151,70,194576,1,0,0:0:0:0:
243,253,194747,1,0,0:0:0:0:
151,70,194919,1,0,0:0:0:0:
20,32,195090,6,0,P|20:108|120:224,1,225.000008583069
272,272,195604,1,0,0:0:0:0:
92,100,195947,1,0,0:0:0:0:
408,80,196290,2,0,L|376:108,4,28.1250010728836
224,72,196633,1,0,0:0:0:0:
180,224,196804,1,0,0:0:0:0:
324,160,196976,1,0,0:0:0:0:
168,132,197147,1,0,0:0:0:0:
232,244,197319,1,0,0:0:0:0:
264,92,197490,2,0,P|200:88|160:124,1,112.500004291535
96,260,197833,6,0,L|176:268,3,56.2500021457673
176,252,198176,1,0,0:0:0:0:
196,232,198262,1,0,0:0:0:0:
212,208,198347,1,0,0:0:0:0:
216,180,198433,1,0,0:0:0:0:
224,152,198519,1,0,0:0:0:0:
240,128,198604,1,0,0:0:0:0:
264,112,198690,1,0,0:0:0:0:
292,112,198776,1,0,0:0:0:0:
320,124,198862,6,0,L|380:180,3,56.2500021457673
364,192,199204,1,0,0:0:0:0:
360,220,199290,1,0,0:0:0:0:
352,248,199376,1,0,0:0:0:0:
336,268,199462,1,0,0:0:0:0:
312,284,199547,1,0,0:0:0:0:
284,292,199633,1,0,0:0:0:0:
256,300,199719,1,0,0:0:0:0:
228,304,199804,1,0,0:0:0:0:
200,304,199890,1,0,0:0:0:0:
172,300,199976,1,0,0:0:0:0:
148,284,200062,1,0,0:0:0:0:
124,268,200147,1,0,0:0:0:0:
108,244,200233,1,0,0:0:0:0:
340,88,200576,5,0,0:0:0:0:
356,112,200662,1,0,0:0:0:0:
364,140,200747,1,0,0:0:0:0:
360,168,200833,1,0,0:0:0:0:
348,196,200919,1,0,0:0:0:0:
328,216,201004,1,0,0:0:0:0:
300,224,201090,1,0,0:0:0:0:
272,232,201176,1,0,0:0:0:0:
244,232,201262,1,0,0:0:0:0:
216,224,201347,1,0,0:0:0:0:
192,208,201433,1,0,0:0:0:0:
168,192,201519,1,0,0:0:0:0:
144,172,201604,1,0,0:0:0:0:
420,192,201947,6,0,L|460:122,3,56.2500021457673
376,196,202290,6,0,L|336:126,3,56.2500021457673
384,112,202633,6,0,L|464:112,3,56.2500021457673
296,112,202976,1,0,0:0:0:0:
68,332,203319,2,0,P|76:260|100:224,1,112.500004291535,0|0,2:0|2:0,2:0:0:0:
264,188,203662,2,0,P|336:196|364:224,1,112.500004291535,0|0,2:0|2:0,2:0:0:0:
196,296,204004,2,0,P|196:228|160:172,1,112.500004291535,0|0,2:0|2:0,2:0:0:0:
36,144,204347,2,0,P|96:108|148:112,1,112.500004291535,0|0,2:0|2:0,2:0:0:0:
252,216,204690,2,0,P|344:244|392:232,1,112.500004291535,0|0,2:0|2:0,2:0:0:0:
388,88,205033,2,0,P|320:40|256:36,1,112.500004291535,0|0,2:0|2:0,2:0:0:0:
376,168,205376,2,0,P|372:228|312:256,1,112.500004291535,0|0,2:0|2:0,2:0:0:0:
188,188,205719,1,0,2:0:0:0:
288,64,205890,1,0,2:0:0:0:
344,212,206062,6,0,P|316:284|276:296,1,112.500004291535,0|0,2:0|2:0,2:0:0:0:
144,228,206404,2,0,P|120:168|152:96,1,112.500004291535,0|0,2:0|2:0,2:0:0:0:
288,116,206747,2,0,P|348:160|372:232,1,112.500004291535,0|0,2:0|2:0,2:0:0:0:
228,268,207090,2,0,P|292:216|304:184,1,112.500004291535,0|0,2:0|2:0,2:0:0:0:
256,192,207433,12,0,208462,2:0:0:0:
