osu file format v14

[General]
AudioFilename: audio.mp3
AudioLeadIn: 0
PreviewTime: 87780
Countdown: 0
SampleSet: Normal
StackLeniency: 0.7
Mode: 1
LetterboxInBreaks: 0
WidescreenStoryboard: 0

[Editor]
Bookmarks: 1371,12342,23314,34285,45257,56228,61714,78171
DistanceSpacing: 0.8
BeatDivisor: 4
GridSize: 32
TimelineZoom: 1.6

[Metadata]
Title:I Will Pick You Up (feat. Tamika)
TitleUnicode:I Will Pick You Up (feat. Tamika)
Artist:S3RL
ArtistUnicode:S3RL
Creator:Nishizumi
Version:Oni
Source:osu!
Tags:Featured Artist FA Drum Circle Nao Tomori Naotoshi
BeatmapID:1920741
BeatmapSetID:919704

[Difficulty]
HPDrainRate:6
CircleSize:5
OverallDifficulty:6
ApproachRate:5
SliderMultiplier:1.4
SliderTickRate:1

[Events]
//Background and Video events
0,0,"sdakjfdsafasdKILLMENAO.jpg",0,80
//Break Periods
2,12551,19380
2,111294,120865
//Storyboard Layer 0 (Background)
//Storyboard Layer 1 (Fail)
//Storyboard Layer 2 (Pass)
//Storyboard Layer 3 (Foreground)
//Storyboard Sound Samples

[TimingPoints]
9,342.857142857143,4,1,0,50,1,8
351,-125,4,1,0,60,0,0
694,-125,4,1,0,70,0,0
1037,-125,4,1,0,90,0,0
1380,342.857142857143,4,1,0,90,1,0
1380,-125,4,1,0,90,0,8
45265,-111.111111111111,4,1,0,90,0,0
56237,-117.647058823529,4,1,0,90,0,0
61722,-111.111111111111,4,1,0,90,0,0
67208,-100,4,1,0,100,0,1
87780,-100,4,1,0,100,0,0
89151,-100,4,1,0,100,0,1
111094,-100,4,1,0,100,0,0
111180,-125,4,1,0,70,0,0
133037,-111.111111111111,4,1,0,90,0,0
144008,-117.647058823529,4,1,0,90,0,0
149494,-111.111111111111,4,1,0,90,0,0
152237,-111.111111111111,4,1,0,70,0,0
152580,-114.942528735632,4,1,0,70,0,0
152922,-119.047619047619,4,1,0,70,0,0
153265,-123.456790123457,4,1,0,70,0,0
154979,-133.333333333333,4,1,0,90,0,0
175551,-111.111111111111,4,1,0,90,0,0
176922,-90.9090909090909,4,1,0,100,0,1
197494,-90.9090909090909,4,1,0,100,0,0
198865,-90.9090909090909,4,1,0,100,0,1
219437,-90.9090909090909,4,1,0,80,0,0

[HitObjects]
256,192,9,12,0,1037,0:0:0:0:
256,192,1380,5,4,0:0:0:0:
256,192,4122,1,0,0:0:0:0:
256,192,6865,1,8,0:0:0:0:
256,192,9608,1,8,0:0:0:0:
256,192,10980,1,8,0:0:0:0:
256,192,12351,1,4,0:0:0:0:
256,192,20580,5,4,0:0:0:0:
256,192,23322,1,12,0:0:0:0:
256,192,24694,1,8,0:0:0:0:
256,192,25037,1,0,0:0:0:0:
256,192,25380,1,0,0:0:0:0:
256,192,25722,1,0,0:0:0:0:
256,192,26065,1,8,0:0:0:0:
256,192,27437,1,0,0:0:0:0:
256,192,27780,1,8,0:0:0:0:
256,192,28122,1,0,0:0:0:0:
256,192,28465,1,0,0:0:0:0:
256,192,28808,1,8,0:0:0:0:
256,192,29837,1,0,0:0:0:0:
256,192,30180,1,8,0:0:0:0:
256,192,30351,1,8,0:0:0:0:
256,192,30694,1,0,0:0:0:0:
256,192,31037,1,0,0:0:0:0:
256,192,31208,1,0,0:0:0:0:
256,192,31551,1,8,0:0:0:0:
256,192,32580,1,0,0:0:0:0:
256,192,32922,1,8,0:0:0:0:
256,192,33265,1,8,0:0:0:0:
256,192,33608,1,0,0:0:0:0:
256,192,33951,1,8,0:0:0:0:
256,192,34294,1,0,0:0:0:0:
256,192,34465,1,0,0:0:0:0:
256,192,34808,1,0,0:0:0:0:
256,192,34980,1,8,0:0:0:0:
256,192,35665,1,0,0:0:0:0:
256,192,36008,1,8,0:0:0:0:
256,192,36351,1,8,0:0:0:0:
256,192,36694,1,8,0:0:0:0:
256,192,37037,1,0,0:0:0:0:
256,192,37380,1,0,0:0:0:0:
256,192,37551,1,0,0:0:0:0:
256,192,37722,1,8,0:0:0:0:
256,192,38408,1,8,0:0:0:0:
256,192,38751,1,8,0:0:0:0:
256,192,39094,1,0,0:0:0:0:
256,192,39437,1,0,0:0:0:0:
256,192,39780,1,8,0:0:0:0:
256,192,40808,1,0,0:0:0:0:
256,192,41151,1,8,0:0:0:0:
256,192,41322,1,8,0:0:0:0:
256,192,41665,1,0,0:0:0:0:
256,192,42008,1,0,0:0:0:0:
256,192,42180,1,0,0:0:0:0:
256,192,42522,1,8,0:0:0:0:
256,192,45265,1,4,0:0:0:0:
256,192,45437,1,0,0:0:0:0:
256,192,45608,1,8,0:0:0:0:
256,192,45780,1,0,0:0:0:0:
256,192,45951,1,0,0:0:0:0:
256,192,46294,1,8,0:0:0:0:
256,192,46637,1,0,0:0:0:0:
256,192,46808,1,0,0:0:0:0:
256,192,46980,1,8,0:0:0:0:
256,192,47151,1,0,0:0:0:0:
256,192,47322,1,0,0:0:0:0:
256,192,47494,1,0,0:0:0:0:
256,192,47665,1,8,0:0:0:0:
256,192,48008,1,0,0:0:0:0:
256,192,48180,1,0,0:0:0:0:
256,192,48351,1,8,0:0:0:0:
256,192,48522,1,0,0:0:0:0:
256,192,48694,1,0,0:0:0:0:
256,192,49037,1,8,0:0:0:0:
256,192,49208,1,8,0:0:0:0:
256,192,49380,1,0,0:0:0:0:
256,192,49551,1,0,0:0:0:0:
256,192,49722,1,8,0:0:0:0:
256,192,49894,1,0,0:0:0:0:
256,192,50065,1,0,0:0:0:0:
256,192,50237,1,8,0:0:0:0:
256,192,50408,1,8,0:0:0:0:
256,192,50751,1,0,0:0:0:0:
256,192,50922,1,0,0:0:0:0:
256,192,51094,1,8,0:0:0:0:
256,192,51265,1,0,0:0:0:0:
256,192,51437,1,0,0:0:0:0:
256,192,51608,1,8,0:0:0:0:
256,192,51780,1,8,0:0:0:0:
256,192,52122,1,0,0:0:0:0:
256,192,52294,1,0,0:0:0:0:
256,192,52465,1,8,0:0:0:0:
256,192,52637,1,8,0:0:0:0:
256,192,52808,1,0,0:0:0:0:
256,192,52980,1,8,0:0:0:0:
256,192,53151,1,8,0:0:0:0:
256,192,53494,1,0,0:0:0:0:
256,192,53665,1,0,0:0:0:0:
256,192,53837,1,8,0:0:0:0:
256,192,54008,1,0,0:0:0:0:
256,192,54180,1,0,0:0:0:0:
256,192,54351,1,0,0:0:0:0:
256,192,54522,1,8,0:0:0:0:
256,192,54694,1,8,0:0:0:0:
256,192,54865,1,0,0:0:0:0:
256,192,55037,1,0,0:0:0:0:
256,192,55208,1,8,0:0:0:0:
256,192,55380,1,0,0:0:0:0:
256,192,55551,1,0,0:0:0:0:
256,192,55722,1,8,0:0:0:0:
256,192,55894,1,8,0:0:0:0:
256,192,56237,1,4,0:0:0:0:
256,192,56580,1,0,0:0:0:0:
256,192,56751,1,8,0:0:0:0:
256,192,56922,1,0,0:0:0:0:
256,192,57265,1,0,0:0:0:0:
256,192,57437,1,8,0:0:0:0:
256,192,57608,1,0,0:0:0:0:
256,192,57780,1,0,0:0:0:0:
256,192,57951,1,8,0:0:0:0:
256,192,58122,1,8,0:0:0:0:
256,192,58294,1,0,0:0:0:0:
256,192,58637,1,8,0:0:0:0:
256,192,58980,1,8,0:0:0:0:
256,192,59322,1,0,0:0:0:0:
256,192,59494,1,0,0:0:0:0:
256,192,59665,1,8,0:0:0:0:
256,192,60008,1,0,0:0:0:0:
256,192,60180,1,8,0:0:0:0:
256,192,60351,1,0,0:0:0:0:
256,192,60522,1,8,0:0:0:0:
256,192,60694,1,0,0:0:0:0:
256,192,60865,1,0,0:0:0:0:
256,192,61037,1,8,0:0:0:0:
256,192,61380,1,8,0:0:0:0:
256,192,61722,1,8,0:0:0:0:
256,192,61894,1,8,0:0:0:0:
256,192,62065,1,0,0:0:0:0:
256,192,62237,1,0,0:0:0:0:
256,192,62408,1,8,0:0:0:0:
256,192,62580,1,0,0:0:0:0:
256,192,62665,1,0,0:0:0:0:
256,192,62751,1,8,0:0:0:0:
256,192,62922,1,8,0:0:0:0:
256,192,63094,1,0,0:0:0:0:
256,192,63265,1,8,0:0:0:0:
256,192,63437,1,0,0:0:0:0:
256,192,63608,1,0,0:0:0:0:
256,192,63780,1,8,0:0:0:0:
256,192,63951,1,0,0:0:0:0:
256,192,64037,1,0,0:0:0:0:
256,192,64122,1,8,0:0:0:0:
256,192,64294,1,8,0:0:0:0:
256,192,64465,1,4,0:0:0:0:
256,192,65837,1,8,0:0:0:0:
256,192,66180,1,8,0:0:0:0:
256,192,66522,1,8,0:0:0:0:
256,192,66865,1,12,0:0:0:0:
256,192,67208,1,4,0:0:0:0:
256,192,67380,1,0,0:0:0:0:
256,192,67551,1,8,0:0:0:0:
256,192,67722,1,0,0:0:0:0:
256,192,67894,1,8,0:0:0:0:
256,192,67980,1,8,0:0:0:0:
256,192,68065,1,0,0:0:0:0:
256,192,68237,1,0,0:0:0:0:
256,192,68408,1,8,0:0:0:0:
256,192,68580,1,0,0:0:0:0:
256,192,68751,1,8,0:0:0:0:
256,192,68837,1,8,0:0:0:0:
256,192,68922,1,0,0:0:0:0:
256,192,69094,1,8,0:0:0:0:
256,192,69265,1,0,0:0:0:0:
256,192,69351,1,0,0:0:0:0:
256,192,69437,1,8,0:0:0:0:
256,192,69608,1,0,0:0:0:0:
256,192,69951,1,8,0:0:0:0:
256,192,70122,1,0,0:0:0:0:
256,192,70208,1,0,0:0:0:0:
256,192,70294,1,8,0:0:0:0:
256,192,70465,1,0,0:0:0:0:
256,192,70637,1,8,0:0:0:0:
256,192,70722,1,8,0:0:0:0:
256,192,70808,1,0,0:0:0:0:
256,192,70980,1,0,0:0:0:0:
256,192,71151,1,8,0:0:0:0:
256,192,71322,1,0,0:0:0:0:
256,192,71494,1,8,0:0:0:0:
256,192,71580,1,8,0:0:0:0:
256,192,71665,1,8,0:0:0:0:
256,192,71837,1,0,0:0:0:0:
256,192,72008,1,8,0:0:0:0:
256,192,72180,1,8,0:0:0:0:
256,192,72351,1,0,0:0:0:0:
256,192,72694,1,8,0:0:0:0:
256,192,72865,1,0,0:0:0:0:
256,192,73037,1,8,0:0:0:0:
256,192,73122,1,8,0:0:0:0:
256,192,73208,1,0,0:0:0:0:
256,192,73380,1,8,0:0:0:0:
256,192,73551,1,0,0:0:0:0:
256,192,73722,1,0,0:0:0:0:
256,192,73808,1,0,0:0:0:0:
256,192,73894,1,8,0:0:0:0:
256,192,74065,1,0,0:0:0:0:
256,192,74237,1,8,0:0:0:0:
256,192,74322,1,8,0:0:0:0:
256,192,74408,1,0,0:0:0:0:
256,192,74580,1,8,0:0:0:0:
256,192,74751,1,0,0:0:0:0:
256,192,74922,1,0,0:0:0:0:
256,192,75094,1,8,0:0:0:0:
256,192,75437,1,0,0:0:0:0:
256,192,75608,1,0,0:0:0:0:
256,192,75694,1,0,0:0:0:0:
256,192,75780,1,8,0:0:0:0:
256,192,75951,1,0,0:0:0:0:
256,192,76037,1,0,0:0:0:0:
256,192,76122,1,8,0:0:0:0:
256,192,76294,1,8,0:0:0:0:
256,192,76465,1,0,0:0:0:0:
256,192,76637,1,8,0:0:0:0:
256,192,76808,1,0,0:0:0:0:
256,192,76894,1,0,0:0:0:0:
256,192,76980,1,8,0:0:0:0:
256,192,77151,1,0,0:0:0:0:
256,192,77322,1,8,0:0:0:0:
256,192,77408,1,8,0:0:0:0:
256,192,77494,1,0,0:0:0:0:
256,192,77665,1,8,0:0:0:0:
256,192,77837,1,0,0:0:0:0:
256,192,78180,1,12,0:0:0:0:
256,192,78351,1,0,0:0:0:0:
256,192,78437,1,0,0:0:0:0:
256,192,78522,1,8,0:0:0:0:
256,192,78694,1,0,0:0:0:0:
256,192,78865,1,8,0:0:0:0:
256,192,78951,1,8,0:0:0:0:
256,192,79037,1,8,0:0:0:0:
256,192,79208,1,0,0:0:0:0:
256,192,79380,1,8,0:0:0:0:
256,192,79551,1,0,0:0:0:0:
256,192,79722,1,8,0:0:0:0:
256,192,79808,1,8,0:0:0:0:
256,192,79894,1,0,0:0:0:0:
256,192,80065,1,8,0:0:0:0:
256,192,80237,1,0,0:0:0:0:
256,192,80408,1,8,0:0:0:0:
256,192,80580,1,0,0:0:0:0:
256,192,80922,1,8,0:0:0:0:
256,192,81094,1,0,0:0:0:0:
256,192,81265,1,8,0:0:0:0:
256,192,81351,1,8,0:0:0:0:
256,192,81437,1,0,0:0:0:0:
256,192,81608,1,8,0:0:0:0:
256,192,81780,1,0,0:0:0:0:
256,192,81951,1,0,0:0:0:0:
256,192,82037,1,0,0:0:0:0:
256,192,82122,1,8,0:0:0:0:
256,192,82294,1,0,0:0:0:0:
256,192,82465,1,8,0:0:0:0:
256,192,82637,1,0,0:0:0:0:
256,192,82808,1,8,0:0:0:0:
256,192,82894,1,8,0:0:0:0:
256,192,82980,1,8,0:0:0:0:
256,192,83151,1,0,0:0:0:0:
256,192,83322,1,8,0:0:0:0:
256,192,83665,1,0,0:0:0:0:
256,192,83837,1,0,0:0:0:0:
256,192,84008,1,8,0:0:0:0:
256,192,84094,1,8,0:0:0:0:
256,192,84180,1,0,0:0:0:0:
256,192,84351,1,8,0:0:0:0:
256,192,84522,1,0,0:0:0:0:
256,192,84608,1,0,0:0:0:0:
256,192,84694,1,0,0:0:0:0:
256,192,84865,1,8,0:0:0:0:
256,192,85037,1,0,0:0:0:0:
256,192,85208,1,8,0:0:0:0:
256,192,85380,1,8,0:0:0:0:
256,192,85551,1,0,0:0:0:0:
256,192,85637,1,0,0:0:0:0:
256,192,85722,1,8,0:0:0:0:
256,192,85894,1,0,0:0:0:0:
256,192,86065,1,8,0:0:0:0:
256,192,86408,1,0,0:0:0:0:
256,192,86580,1,0,0:0:0:0:
256,192,86665,1,0,0:0:0:0:
256,192,86751,1,8,0:0:0:0:
256,192,86922,1,0,0:0:0:0:
256,192,87008,1,0,0:0:0:0:
256,192,87094,1,8,0:0:0:0:
256,192,87265,1,8,0:0:0:0:
256,192,87437,1,0,0:0:0:0:
256,192,87608,1,8,0:0:0:0:
256,192,89151,1,4,0:0:0:0:
256,192,89322,1,0,0:0:0:0:
256,192,89494,1,8,0:0:0:0:
256,192,89665,1,0,0:0:0:0:
256,192,89751,1,0,0:0:0:0:
256,192,89837,1,0,0:0:0:0:
256,192,90008,1,8,0:0:0:0:
256,192,90180,1,0,0:0:0:0:
256,192,90265,1,0,0:0:0:0:
256,192,90351,1,8,0:0:0:0:
256,192,90522,1,0,0:0:0:0:
256,192,90694,1,8,0:0:0:0:
256,192,90865,1,0,0:0:0:0:
256,192,91037,1,0,0:0:0:0:
256,192,91122,1,0,0:0:0:0:
256,192,91208,1,8,0:0:0:0:
256,192,91380,1,8,0:0:0:0:
256,192,91551,1,0,0:0:0:0:
256,192,91894,1,8,0:0:0:0:
256,192,92065,1,0,0:0:0:0:
256,192,92151,1,0,0:0:0:0:
256,192,92237,1,8,0:0:0:0:
256,192,92408,1,0,0:0:0:0:
256,192,92580,1,8,0:0:0:0:
256,192,92665,1,8,0:0:0:0:
256,192,92751,1,8,0:0:0:0:
256,192,92922,1,0,0:0:0:0:
256,192,93094,1,8,0:0:0:0:
256,192,93265,1,0,0:0:0:0:
256,192,93437,1,0,0:0:0:0:
256,192,93522,1,0,0:0:0:0:
256,192,93608,1,8,0:0:0:0:
256,192,93780,1,0,0:0:0:0:
256,192,93951,1,8,0:0:0:0:
256,192,94037,1,8,0:0:0:0:
256,192,94122,1,0,0:0:0:0:
256,192,94208,1,0,0:0:0:0:
256,192,94294,1,8,0:0:0:0:
256,192,94465,1,8,0:0:0:0:
256,192,94637,1,0,0:0:0:0:
256,192,94980,1,8,0:0:0:0:
256,192,95151,1,0,0:0:0:0:
256,192,95322,1,8,0:0:0:0:
256,192,95408,1,8,0:0:0:0:
256,192,95494,1,0,0:0:0:0:
256,192,95665,1,0,0:0:0:0:
256,192,95837,1,8,0:0:0:0:
256,192,96008,1,0,0:0:0:0:
256,192,96094,1,0,0:0:0:0:
256,192,96180,1,8,0:0:0:0:
256,192,96351,1,0,0:0:0:0:
256,192,96522,1,8,0:0:0:0:
256,192,96608,1,8,0:0:0:0:
256,192,96694,1,0,0:0:0:0:
256,192,96865,1,0,0:0:0:0:
256,192,97037,1,8,0:0:0:0:
256,192,97380,1,0,0:0:0:0:
256,192,97551,1,0,0:0:0:0:
256,192,97637,1,0,0:0:0:0:
256,192,97722,1,8,0:0:0:0:
256,192,97894,1,0,0:0:0:0:
256,192,98065,1,8,0:0:0:0:
256,192,98151,1,8,0:0:0:0:
256,192,98237,1,0,0:0:0:0:
256,192,98408,1,0,0:0:0:0:
256,192,98580,1,8,0:0:0:0:
256,192,98751,1,0,0:0:0:0:
256,192,98922,1,8,0:0:0:0:
256,192,99008,1,8,0:0:0:0:
256,192,99094,1,0,0:0:0:0:
256,192,99265,1,8,0:0:0:0:
256,192,99437,1,0,0:0:0:0:
256,192,99522,1,0,0:0:0:0:
256,192,99608,1,8,0:0:0:0:
256,192,99694,1,8,0:0:0:0:
256,192,99780,1,0,0:0:0:0:
256,192,99951,1,8,0:0:0:0:
256,192,100122,1,4,0:0:0:0:
256,192,100465,1,8,0:0:0:0:
256,192,100637,1,8,0:0:0:0:
256,192,100722,1,8,0:0:0:0:
256,192,100808,1,0,0:0:0:0:
256,192,100980,1,0,0:0:0:0:
256,192,101151,1,8,0:0:0:0:
256,192,101322,1,8,0:0:0:0:
256,192,101494,1,0,0:0:0:0:
256,192,101580,1,0,0:0:0:0:
256,192,101665,1,0,0:0:0:0:
256,192,101837,1,8,0:0:0:0:
256,192,102008,1,0,0:0:0:0:
256,192,102180,1,8,0:0:0:0:
256,192,102265,1,8,0:0:0:0:
256,192,102351,1,0,0:0:0:0:
256,192,102522,1,8,0:0:0:0:
256,192,102865,1,0,0:0:0:0:
256,192,103037,1,8,0:0:0:0:
256,192,103208,1,0,0:0:0:0:
256,192,103380,1,8,0:0:0:0:
256,192,103465,1,8,0:0:0:0:
256,192,103551,1,0,0:0:0:0:
256,192,103722,1,8,0:0:0:0:
256,192,103894,1,0,0:0:0:0:
256,192,103980,1,0,0:0:0:0:
256,192,104065,1,8,0:0:0:0:
256,192,104237,1,0,0:0:0:0:
256,192,104408,1,8,0:0:0:0:
256,192,104494,1,8,0:0:0:0:
256,192,104580,1,8,0:0:0:0:
256,192,104751,1,0,0:0:0:0:
256,192,104922,1,8,0:0:0:0:
256,192,105094,1,0,0:0:0:0:
256,192,105180,1,0,0:0:0:0:
256,192,105265,1,8,0:0:0:0:
256,192,105351,1,8,0:0:0:0:
128,352,105437,1,8,0:0:0:0:
128,352,105608,1,0,0:0:0:0:
256,192,105951,1,8,0:0:0:0:
256,192,106122,1,0,0:0:0:0:
256,192,106208,1,0,0:0:0:0:
256,192,106294,1,8,0:0:0:0:
256,192,106465,1,0,0:0:0:0:
256,192,106637,1,8,0:0:0:0:
256,192,106808,1,8,0:0:0:0:
256,192,106980,1,0,0:0:0:0:
256,192,107065,1,0,0:0:0:0:
256,192,107151,1,8,0:0:0:0:
256,192,107322,1,0,0:0:0:0:
256,192,107494,1,8,0:0:0:0:
256,192,107580,1,8,0:0:0:0:
256,192,107665,1,8,0:0:0:0:
256,192,107837,1,0,0:0:0:0:
256,192,108008,1,8,0:0:0:0:
256,192,108351,1,0,0:0:0:0:
256,192,108522,1,0,0:0:0:0:
256,192,108608,1,0,0:0:0:0:
256,192,108694,1,8,0:0:0:0:
256,192,108865,1,0,0:0:0:0:
256,192,109037,1,8,0:0:0:0:
256,192,109122,1,8,0:0:0:0:
256,192,109208,1,0,0:0:0:0:
256,192,109294,1,0,0:0:0:0:
256,192,109380,1,8,0:0:0:0:
256,192,109551,1,8,0:0:0:0:
256,192,110751,1,8,0:0:0:0:
128,352,111094,5,4,0:0:0:0:
256,192,122065,5,4,0:0:0:0:
256,192,124808,1,0,0:0:0:0:
256,192,127551,1,8,0:0:0:0:
256,192,130294,1,8,0:0:0:0:
256,192,131665,12,0,132694,0:0:0:0:
256,192,133037,5,4,0:0:0:0:
256,192,133208,1,0,0:0:0:0:
256,192,133380,1,8,0:0:0:0:
256,192,133551,1,0,0:0:0:0:
256,192,133722,1,0,0:0:0:0:
256,192,134065,1,8,0:0:0:0:
256,192,134408,1,0,0:0:0:0:
256,192,134580,1,0,0:0:0:0:
256,192,134751,1,8,0:0:0:0:
256,192,134922,1,0,0:0:0:0:
256,192,135094,1,0,0:0:0:0:
256,192,135265,1,0,0:0:0:0:
256,192,135437,1,8,0:0:0:0:
256,192,135780,1,0,0:0:0:0:
256,192,135951,1,0,0:0:0:0:
256,192,136122,1,8,0:0:0:0:
256,192,136294,1,0,0:0:0:0:
256,192,136465,1,0,0:0:0:0:
256,192,136808,1,8,0:0:0:0:
256,192,136980,1,8,0:0:0:0:
256,192,137151,1,0,0:0:0:0:
256,192,137322,1,0,0:0:0:0:
256,192,137494,1,8,0:0:0:0:
256,192,137665,1,0,0:0:0:0:
256,192,137837,1,0,0:0:0:0:
256,192,138008,1,8,0:0:0:0:
256,192,138180,1,8,0:0:0:0:
256,192,138522,1,0,0:0:0:0:
256,192,138694,1,0,0:0:0:0:
256,192,138865,1,8,0:0:0:0:
256,192,139037,1,0,0:0:0:0:
256,192,139208,1,0,0:0:0:0:
256,192,139380,1,8,0:0:0:0:
256,192,139551,1,8,0:0:0:0:
256,192,139894,1,0,0:0:0:0:
256,192,140065,1,0,0:0:0:0:
256,192,140237,1,8,0:0:0:0:
256,192,140408,1,8,0:0:0:0:
256,192,140580,1,0,0:0:0:0:
256,192,140751,1,8,0:0:0:0:
256,192,140922,1,8,0:0:0:0:
256,192,141265,1,0,0:0:0:0:
256,192,141437,1,0,0:0:0:0:
256,192,141608,1,8,0:0:0:0:
256,192,141780,1,0,0:0:0:0:
256,192,141951,1,0,0:0:0:0:
256,192,142122,1,0,0:0:0:0:
256,192,142294,1,8,0:0:0:0:
256,192,142465,1,8,0:0:0:0:
256,192,142637,1,0,0:0:0:0:
256,192,142808,1,0,0:0:0:0:
256,192,142980,1,8,0:0:0:0:
256,192,143151,1,0,0:0:0:0:
256,192,143322,1,0,0:0:0:0:
256,192,143494,1,8,0:0:0:0:
256,192,143665,1,8,0:0:0:0:
256,192,144008,1,4,0:0:0:0:
256,192,144351,1,0,0:0:0:0:
256,192,144522,1,8,0:0:0:0:
256,192,144694,1,0,0:0:0:0:
256,192,145037,1,0,0:0:0:0:
256,192,145208,1,8,0:0:0:0:
256,192,145380,1,0,0:0:0:0:
256,192,145551,1,0,0:0:0:0:
256,192,145722,1,8,0:0:0:0:
256,192,145894,1,8,0:0:0:0:
256,192,146065,1,0,0:0:0:0:
256,192,146408,1,8,0:0:0:0:
256,192,146751,1,8,0:0:0:0:
256,192,147094,1,0,0:0:0:0:
256,192,147265,1,0,0:0:0:0:
256,192,147437,1,8,0:0:0:0:
256,192,147780,1,0,0:0:0:0:
256,192,147951,1,8,0:0:0:0:
256,192,148122,1,0,0:0:0:0:
256,192,148294,1,8,0:0:0:0:
256,192,148465,1,0,0:0:0:0:
256,192,148637,1,0,0:0:0:0:
256,192,148808,1,8,0:0:0:0:
256,192,149151,1,8,0:0:0:0:
256,192,149494,1,8,0:0:0:0:
256,192,149665,1,8,0:0:0:0:
256,192,149837,1,0,0:0:0:0:
256,192,150008,1,0,0:0:0:0:
256,192,150180,1,8,0:0:0:0:
256,192,150351,1,0,0:0:0:0:
256,192,150437,1,0,0:0:0:0:
256,192,150522,1,8,0:0:0:0:
256,192,150694,1,8,0:0:0:0:
256,192,150865,1,0,0:0:0:0:
256,192,151037,1,8,0:0:0:0:
256,192,151208,1,0,0:0:0:0:
256,192,151380,1,0,0:0:0:0:
256,192,151551,1,8,0:0:0:0:
256,192,151722,1,0,0:0:0:0:
256,192,151808,1,0,0:0:0:0:
256,192,151894,1,8,0:0:0:0:
256,192,152065,1,8,0:0:0:0:
256,192,152237,1,0,0:0:0:0:
256,192,152580,1,0,0:0:0:0:
256,192,152922,1,0,0:0:0:0:
256,192,153265,1,0,0:0:0:0:
256,192,154637,1,0,0:0:0:0:
256,192,154980,1,12,0:0:0:0:
256,192,155322,1,0,0:0:0:0:
256,192,155665,1,0,0:0:0:0:
256,192,156008,1,0,0:0:0:0:
256,192,156180,1,8,0:0:0:0:
256,192,156522,1,0,0:0:0:0:
256,192,156694,1,8,0:0:0:0:
256,192,156865,1,0,0:0:0:0:
256,192,157208,1,0,0:0:0:0:
256,192,157380,1,8,0:0:0:0:
256,192,157722,1,0,0:0:0:0:
256,192,158065,1,8,0:0:0:0:
256,192,158408,1,8,0:0:0:0:
256,192,158751,1,0,0:0:0:0:
256,192,158922,1,8,0:0:0:0:
256,192,159265,1,8,0:0:0:0:
256,192,159437,1,0,0:0:0:0:
256,192,159608,1,8,0:0:0:0:
256,192,159951,1,8,0:0:0:0:
256,192,160122,1,0,0:0:0:0:
256,192,160465,1,8,0:0:0:0:
256,192,160808,1,0,0:0:0:0:
256,192,161151,1,0,0:0:0:0:
256,192,161494,1,0,0:0:0:0:
256,192,161665,1,8,0:0:0:0:
256,192,162008,1,8,0:0:0:0:
256,192,162180,1,8,0:0:0:0:
256,192,162351,1,0,0:0:0:0:
256,192,162694,1,0,0:0:0:0:
256,192,162865,1,8,0:0:0:0:
256,192,163208,1,0,0:0:0:0:
256,192,163551,1,8,0:0:0:0:
256,192,163894,1,8,0:0:0:0:
256,192,164237,1,0,0:0:0:0:
256,192,164408,1,8,0:0:0:0:
256,192,164751,1,0,0:0:0:0:
256,192,164922,1,0,0:0:0:0:
256,192,165094,1,8,0:0:0:0:
256,192,165437,1,0,0:0:0:0:
256,192,165608,1,8,0:0:0:0:
256,192,165951,1,4,0:0:0:0:
256,192,168351,1,8,0:0:0:0:
256,192,168694,1,0,0:0:0:0:
256,192,171094,1,8,0:0:0:0:
256,192,171437,1,0,0:0:0:0:
256,192,173837,1,8,0:0:0:0:
256,192,174180,1,4,0:0:0:0:
256,192,175551,1,8,0:0:0:0:
256,192,175894,1,8,0:0:0:0:
256,192,176237,1,8,0:0:0:0:
256,192,176580,1,8,0:0:0:0:
256,192,176922,1,4,0:0:0:0:
256,192,177094,1,0,0:0:0:0:
256,192,177265,1,8,0:0:0:0:
256,192,177437,1,0,0:0:0:0:
256,192,177522,1,0,0:0:0:0:
256,192,177608,1,0,0:0:0:0:
256,192,177780,1,8,0:0:0:0:
256,192,177951,1,0,0:0:0:0:
256,192,178037,1,0,0:0:0:0:
256,192,178122,1,8,0:0:0:0:
256,192,178294,1,0,0:0:0:0:
256,192,178465,1,8,0:0:0:0:
256,192,178637,1,0,0:0:0:0:
256,192,178808,1,8,0:0:0:0:
256,192,178894,1,8,0:0:0:0:
256,192,178980,1,0,0:0:0:0:
256,192,179151,1,0,0:0:0:0:
256,192,179322,1,8,0:0:0:0:
256,192,179408,1,8,0:0:0:0:
256,192,179494,1,0,0:0:0:0:
256,192,179580,1,0,0:0:0:0:
256,192,179665,1,8,0:0:0:0:
256,192,179837,1,0,0:0:0:0:
256,192,179922,1,0,0:0:0:0:
256,192,180008,1,8,0:0:0:0:
256,192,180180,1,0,0:0:0:0:
256,192,180351,1,8,0:0:0:0:
256,192,180437,1,8,0:0:0:0:
256,192,180522,1,8,0:0:0:0:
256,192,180694,1,0,0:0:0:0:
256,192,180865,1,8,0:0:0:0:
256,192,181037,1,0,0:0:0:0:
256,192,181208,1,0,0:0:0:0:
256,192,181294,1,0,0:0:0:0:
256,192,181380,1,8,0:0:0:0:
256,192,181551,1,8,0:0:0:0:
256,192,181722,1,0,0:0:0:0:
256,192,181808,1,0,0:0:0:0:
256,192,181894,1,0,0:0:0:0:
256,192,181980,1,0,0:0:0:0:
256,192,182065,1,8,0:0:0:0:
256,192,182237,1,8,0:0:0:0:
256,192,182408,1,0,0:0:0:0:
256,192,182751,1,8,0:0:0:0:
256,192,182922,1,0,0:0:0:0:
256,192,183094,1,8,0:0:0:0:
256,192,183180,1,8,0:0:0:0:
256,192,183265,1,0,0:0:0:0:
256,192,183437,1,0,0:0:0:0:
256,192,183608,1,8,0:0:0:0:
256,192,183780,1,0,0:0:0:0:
256,192,183865,1,0,0:0:0:0:
256,192,183951,1,8,0:0:0:0:
256,192,184122,1,0,0:0:0:0:
256,192,184294,1,8,0:0:0:0:
256,192,184380,1,8,0:0:0:0:
256,192,184465,1,0,0:0:0:0:
256,192,184637,1,0,0:0:0:0:
256,192,184808,1,8,0:0:0:0:
256,192,184894,1,8,0:0:0:0:
256,192,184980,1,8,0:0:0:0:
256,192,185065,1,8,0:0:0:0:
256,192,185151,1,0,0:0:0:0:
256,192,185322,1,0,0:0:0:0:
256,192,185408,1,0,0:0:0:0:
256,192,185494,1,8,0:0:0:0:
256,192,185665,1,0,0:0:0:0:
256,192,185837,1,8,0:0:0:0:
256,192,185922,1,8,0:0:0:0:
256,192,186008,1,0,0:0:0:0:
256,192,186180,1,0,0:0:0:0:
256,192,186351,1,8,0:0:0:0:
256,192,186522,1,0,0:0:0:0:
256,192,186694,1,8,0:0:0:0:
256,192,186780,1,8,0:0:0:0:
256,192,186865,1,0,0:0:0:0:
256,192,187037,1,8,0:0:0:0:
256,192,187208,1,0,0:0:0:0:
256,192,187294,1,0,0:0:0:0:
256,192,187380,1,8,0:0:0:0:
256,192,187465,1,8,0:0:0:0:
256,192,187551,1,0,0:0:0:0:
256,192,187722,1,8,0:0:0:0:
256,192,187894,1,4,0:0:0:0:
256,192,188237,1,8,0:0:0:0:
256,192,188408,1,8,0:0:0:0:
256,192,188494,1,8,0:0:0:0:
256,192,188580,1,0,0:0:0:0:
256,192,188751,1,0,0:0:0:0:
256,192,188922,1,8,0:0:0:0:
256,192,189094,1,8,0:0:0:0:
256,192,189265,1,0,0:0:0:0:
256,192,189351,1,0,0:0:0:0:
256,192,189437,1,0,0:0:0:0:
256,192,189608,1,8,0:0:0:0:
256,192,189780,1,0,0:0:0:0:
256,192,189951,1,8,0:0:0:0:
256,192,190037,1,8,0:0:0:0:
256,192,190122,1,0,0:0:0:0:
256,192,190294,1,8,0:0:0:0:
256,192,190380,1,8,0:0:0:0:
256,192,190465,1,8,0:0:0:0:
256,192,190551,1,8,0:0:0:0:
256,192,190637,1,0,0:0:0:0:
256,192,190808,1,8,0:0:0:0:
256,192,190980,1,0,0:0:0:0:
256,192,191151,1,8,0:0:0:0:
256,192,191237,1,8,0:0:0:0:
256,192,191322,1,0,0:0:0:0:
256,192,191494,1,8,0:0:0:0:
256,192,191665,1,0,0:0:0:0:
256,192,191751,1,0,0:0:0:0:
256,192,191837,1,8,0:0:0:0:
256,192,192008,1,0,0:0:0:0:
256,192,192180,1,0,0:0:0:0:
256,192,192265,1,0,0:0:0:0:
256,192,192351,1,8,0:0:0:0:
256,192,192522,1,8,0:0:0:0:
256,192,192694,1,0,0:0:0:0:
256,192,192780,1,0,0:0:0:0:
256,192,192865,1,0,0:0:0:0:
256,192,192951,1,0,0:0:0:0:
256,192,193037,1,8,0:0:0:0:
256,192,193208,1,8,0:0:0:0:
256,192,193380,1,0,0:0:0:0:
256,192,193722,1,8,0:0:0:0:
256,192,193894,1,0,0:0:0:0:
256,192,193980,1,0,0:0:0:0:
256,192,194065,1,8,0:0:0:0:
256,192,194237,1,0,0:0:0:0:
256,192,194408,1,8,0:0:0:0:
256,192,194580,1,8,0:0:0:0:
256,192,194751,1,0,0:0:0:0:
256,192,194837,1,0,0:0:0:0:
256,192,194922,1,8,0:0:0:0:
256,192,195094,1,0,0:0:0:0:
256,192,195265,1,8,0:0:0:0:
256,192,195351,1,8,0:0:0:0:
256,192,195437,1,8,0:0:0:0:
256,192,195608,1,0,0:0:0:0:
256,192,195780,1,8,0:0:0:0:
256,192,195865,1,8,0:0:0:0:
256,192,195951,1,8,0:0:0:0:
256,192,196037,1,8,0:0:0:0:
256,192,196122,1,0,0:0:0:0:
256,192,196294,1,0,0:0:0:0:
256,192,196380,1,0,0:0:0:0:
256,192,196465,1,8,0:0:0:0:
256,192,196637,1,0,0:0:0:0:
256,192,196808,1,8,0:0:0:0:
256,192,196894,1,8,0:0:0:0:
256,192,196980,1,0,0:0:0:0:
256,192,197065,1,0,0:0:0:0:
256,192,197151,1,8,0:0:0:0:
256,192,197322,1,8,0:0:0:0:
256,192,198865,1,4,0:0:0:0:
256,192,199037,1,0,0:0:0:0:
256,192,199122,1,0,0:0:0:0:
256,192,199208,1,8,0:0:0:0:
256,192,199380,1,0,0:0:0:0:
256,192,199551,1,8,0:0:0:0:
256,192,199637,1,8,0:0:0:0:
256,192,199722,1,0,0:0:0:0:
256,192,199808,1,0,0:0:0:0:
256,192,199894,1,8,0:0:0:0:
256,192,200065,1,8,0:0:0:0:
256,192,200237,1,0,0:0:0:0:
256,192,200408,1,8,0:0:0:0:
256,192,200494,1,8,0:0:0:0:
256,192,200580,1,0,0:0:0:0:
256,192,200751,1,8,0:0:0:0:
256,192,200922,1,0,0:0:0:0:
256,192,201008,1,0,0:0:0:0:
256,192,201094,1,8,0:0:0:0:
256,192,201265,1,0,0:0:0:0:
256,192,201351,1,0,0:0:0:0:
256,192,201437,1,0,0:0:0:0:
256,192,201522,1,0,0:0:0:0:
256,192,201608,1,8,0:0:0:0:
256,192,201780,1,0,0:0:0:0:
256,192,201865,1,0,0:0:0:0:
256,192,201951,1,8,0:0:0:0:
256,192,202122,1,0,0:0:0:0:
256,192,202294,1,8,0:0:0:0:
256,192,202380,1,8,0:0:0:0:
256,192,202465,1,0,0:0:0:0:
256,192,202637,1,0,0:0:0:0:
256,192,202808,1,8,0:0:0:0:
256,192,202980,1,0,0:0:0:0:
256,192,203151,1,8,0:0:0:0:
256,192,203237,1,8,0:0:0:0:
256,192,203322,1,8,0:0:0:0:
256,192,203494,1,0,0:0:0:0:
256,192,203580,1,0,0:0:0:0:
256,192,203665,1,8,0:0:0:0:
256,192,203751,1,0,0:0:0:0:
256,192,203837,1,8,0:0:0:0:
256,192,204008,1,0,0:0:0:0:
256,192,204351,1,8,0:0:0:0:
256,192,204522,1,0,0:0:0:0:
256,192,204694,1,8,0:0:0:0:
256,192,204780,1,8,0:0:0:0:
256,192,204865,1,0,0:0:0:0:
256,192,205037,1,8,0:0:0:0:
256,192,205208,1,0,0:0:0:0:
256,192,205380,1,0,0:0:0:0:
256,192,205465,1,0,0:0:0:0:
256,192,205551,1,8,0:0:0:0:
256,192,205722,1,0,0:0:0:0:
256,192,205894,1,8,0:0:0:0:
256,192,205980,1,8,0:0:0:0:
256,192,206065,1,0,0:0:0:0:
256,192,206151,1,0,0:0:0:0:
256,192,206237,1,8,0:0:0:0:
256,192,206408,1,0,0:0:0:0:
256,192,206580,1,0,0:0:0:0:
256,192,206751,1,8,0:0:0:0:
256,192,206837,1,8,0:0:0:0:
256,192,206922,1,8,0:0:0:0:
256,192,207008,1,8,0:0:0:0:
256,192,207094,1,0,0:0:0:0:
256,192,207265,1,0,0:0:0:0:
256,192,207351,1,0,0:0:0:0:
256,192,207437,1,8,0:0:0:0:
256,192,207608,1,0,0:0:0:0:
256,192,207694,1,0,0:0:0:0:
256,192,207780,1,8,0:0:0:0:
256,192,207951,1,8,0:0:0:0:
256,192,208122,1,0,0:0:0:0:
256,192,208294,1,8,0:0:0:0:
256,192,208465,1,0,0:0:0:0:
256,192,208551,1,0,0:0:0:0:
256,192,208637,1,8,0:0:0:0:
256,192,208808,1,0,0:0:0:0:
256,192,208980,1,8,0:0:0:0:
256,192,209065,1,8,0:0:0:0:
256,192,209151,1,0,0:0:0:0:
256,192,209237,1,0,0:0:0:0:
256,192,209322,1,8,0:0:0:0:
256,192,209494,1,0,0:0:0:0:
256,192,209837,1,12,0:0:0:0:
256,192,210008,1,0,0:0:0:0:
256,192,210094,1,0,0:0:0:0:
256,192,210180,1,8,0:0:0:0:
256,192,210351,1,0,0:0:0:0:
256,192,210522,1,8,0:0:0:0:
256,192,210608,1,0,0:0:0:0:
256,192,210694,1,8,0:0:0:0:
256,192,210780,1,8,0:0:0:0:
256,192,210865,1,0,0:0:0:0:
256,192,211037,1,8,0:0:0:0:
256,192,211208,1,0,0:0:0:0:
256,192,211380,1,8,0:0:0:0:
256,192,211465,1,8,0:0:0:0:
256,192,211551,1,0,0:0:0:0:
256,192,211722,1,8,0:0:0:0:
256,192,211894,1,0,0:0:0:0:
256,192,211980,1,0,0:0:0:0:
256,192,212065,1,8,0:0:0:0:
256,192,212237,1,0,0:0:0:0:
256,192,212322,1,0,0:0:0:0:
256,192,212408,1,0,0:0:0:0:
256,192,212494,1,0,0:0:0:0:
256,192,212580,1,8,0:0:0:0:
256,192,212751,1,0,0:0:0:0:
256,192,212922,1,8,0:0:0:0:
256,192,213008,1,8,0:0:0:0:
256,192,213094,1,0,0:0:0:0:
256,192,213265,1,8,0:0:0:0:
256,192,213437,1,0,0:0:0:0:
256,192,213608,1,0,0:0:0:0:
256,192,213694,1,0,0:0:0:0:
256,192,213780,1,8,0:0:0:0:
256,192,213951,1,0,0:0:0:0:
256,192,214122,1,8,0:0:0:0:
256,192,214294,1,0,0:0:0:0:
256,192,214465,1,8,0:0:0:0:
256,192,214551,1,8,0:0:0:0:
256,192,214637,1,8,0:0:0:0:
256,192,214808,1,0,0:0:0:0:
256,192,214980,1,8,0:0:0:0:
256,192,215322,1,0,0:0:0:0:
256,192,215494,1,0,0:0:0:0:
256,192,215665,1,8,0:0:0:0:
256,192,215751,1,8,0:0:0:0:
256,192,215837,1,0,0:0:0:0:
256,192,215922,1,0,0:0:0:0:
256,192,216008,1,8,0:0:0:0:
256,192,216180,1,0,0:0:0:0:
256,192,216265,1,0,0:0:0:0:
256,192,216351,1,0,0:0:0:0:
256,192,216522,1,8,0:0:0:0:
256,192,216694,1,0,0:0:0:0:
256,192,216865,1,8,0:0:0:0:
256,192,217037,1,8,0:0:0:0:
256,192,217208,1,0,0:0:0:0:
256,192,217294,1,0,0:0:0:0:
256,192,217380,1,8,0:0:0:0:
256,192,217551,1,0,0:0:0:0:
256,192,217722,1,8,0:0:0:0:
256,192,217808,1,8,0:0:0:0:
256,192,217894,1,8,0:0:0:0:
256,192,217980,1,8,0:0:0:0:
256,192,218065,1,0,0:0:0:0:
256,192,218237,1,0,0:0:0:0:
256,192,218322,1,0,0:0:0:0:
256,192,218408,1,8,0:0:0:0:
256,192,218580,1,0,0:0:0:0:
256,192,218665,1,0,0:0:0:0:
256,192,218751,1,8,0:0:0:0:
256,192,218922,1,8,0:0:0:0:
256,192,219094,1,0,0:0:0:0:
256,192,219265,1,8,0:0:0:0:
256,192,219437,1,8,0:0:0:0:
256,192,220465,1,8,0:0:0:0:
256,192,220808,1,0,0:0:0:0:
