osu file format v14

[General]
AudioFilename: audio.mp3
AudioLeadIn: 0
PreviewTime: 87780
Countdown: 0
SampleSet: Normal
StackLeniency: 0.7
Mode: 1
LetterboxInBreaks: 0
WidescreenStoryboard: 1

[Editor]
Bookmarks: 1371,12342,23314,34285,45257,56228,61714,78171
DistanceSpacing: 0.8
BeatDivisor: 4
GridSize: 32
TimelineZoom: 1.9

[Metadata]
Title:I Will Pick You Up (feat. Tamika)
TitleUnicode:I Will Pick You Up (feat. Tamika)
Artist:S3RL
ArtistUnicode:S3RL
Creator:Nishizumi
Version:Kantan
Source:osu!
Tags:Featured Artist FA Drum Circle Nao Tomori Naotoshi
BeatmapID:1920739
BeatmapSetID:919704

[Difficulty]
HPDrainRate:7
CircleSize:5
OverallDifficulty:3
ApproachRate:5
SliderMultiplier:1.4
SliderTickRate:1

[Events]
//Background and Video events
0,0,"sdakjfdsafasdKILLMENAO.jpg",0,80
//Break Periods
2,12551,19380
2,111294,120865
//Storyboard Layer 0 (Background)
//Storyboard Layer 1 (Fail)
//Storyboard Layer 2 (Pass)
//Storyboard Layer 3 (Foreground)
//Storyboard Layer 4 (Overlay)
//Storyboard Sound Samples

[TimingPoints]
9,342.857142857143,4,1,0,50,1,8
351,-100,4,1,0,60,0,0
694,-100,4,1,0,70,0,0
1037,-100,4,1,0,90,0,0
1380,342.857142857143,4,1,0,90,1,0
1380,-100,4,1,0,90,0,8
67208,-100,4,1,0,100,0,1
87780,-100,4,1,0,100,0,0
89151,-100,4,1,0,100,0,1
111094,-100,4,1,0,100,0,0
111180,-100,4,1,0,70,0,0
133037,-100,4,1,0,90,0,0
152237,-100,4,1,0,70,0,0
154979,-100,4,1,0,90,0,0
176922,-100,4,1,0,100,0,1
197494,-100,4,1,0,100,0,0
198865,-100,4,1,0,100,0,1
219437,-100,4,1,0,80,0,0

[HitObjects]
256,192,9,12,0,1037,0:0:0:0:
256,192,1380,5,4,0:0:0:0:
256,192,4122,5,8,0:0:0:0:
256,192,6865,5,0,0:0:0:0:
256,192,9608,1,8,0:0:0:0:
256,192,12351,1,4,0:0:0:0:
256,192,20580,5,4,0:0:0:0:
256,192,23322,1,12,0:0:0:0:
256,192,24694,1,8,0:0:0:0:
256,192,25380,1,0,0:0:0:0:
256,192,26065,1,8,0:0:0:0:
256,192,27437,1,0,0:0:0:0:
256,192,28122,1,8,0:0:0:0:
256,192,28808,1,0,0:0:0:0:
256,192,29837,1,0,0:0:0:0:
256,192,30180,1,8,0:0:0:0:
256,192,30865,1,0,0:0:0:0:
256,192,31551,1,8,0:0:0:0:
256,192,34294,1,0,0:0:0:0:
256,192,35665,1,8,0:0:0:0:
256,192,36351,1,8,0:0:0:0:
256,192,37037,1,0,0:0:0:0:
256,192,38408,1,8,0:0:0:0:
256,192,39094,1,0,0:0:0:0:
256,192,39780,1,8,0:0:0:0:
256,192,40808,1,0,0:0:0:0:
256,192,41151,1,8,0:0:0:0:
256,192,41837,1,0,0:0:0:0:
256,192,42522,1,8,0:0:0:0:
256,192,45265,1,4,0:0:0:0:
256,192,45951,1,0,0:0:0:0:
256,192,46637,1,8,0:0:0:0:
256,192,46980,1,8,0:0:0:0:
256,192,47322,1,0,0:0:0:0:
256,192,48008,1,8,0:0:0:0:
256,192,48694,1,0,0:0:0:0:
256,192,49380,1,0,0:0:0:0:
256,192,50751,1,8,0:0:0:0:
256,192,51437,1,0,0:0:0:0:
256,192,52122,1,0,0:0:0:0:
256,192,52465,1,8,0:0:0:0:
256,192,52808,1,0,0:0:0:0:
256,192,53494,1,8,0:0:0:0:
256,192,54180,1,0,0:0:0:0:
256,192,54865,1,8,0:0:0:0:
256,192,56237,1,4,0:0:0:0:
256,192,56922,1,0,0:0:0:0:
256,192,57608,1,0,0:0:0:0:
256,192,57951,1,0,0:0:0:0:
256,192,58294,1,8,0:0:0:0:
256,192,58637,1,8,0:0:0:0:
256,192,58980,1,0,0:0:0:0:
256,192,59665,1,0,0:0:0:0:
256,192,60351,1,8,0:0:0:0:
256,192,61037,1,8,0:0:0:0:
256,192,61722,12,0,64122,0:0:0:0:
256,192,64465,5,4,0:0:0:0:
256,192,67208,5,4,0:0:0:0:
256,192,67551,1,8,0:0:0:0:
256,192,67894,1,0,0:0:0:0:
256,192,68580,1,8,0:0:0:0:
256,192,69265,1,0,0:0:0:0:
256,192,69608,1,0,0:0:0:0:
256,192,69951,1,8,0:0:0:0:
256,192,71322,1,0,0:0:0:0:
256,192,72008,1,8,0:0:0:0:
256,192,72351,1,0,0:0:0:0:
256,192,72694,1,8,0:0:0:0:
256,192,73380,1,0,0:0:0:0:
256,192,74065,1,8,0:0:0:0:
256,192,74751,1,0,0:0:0:0:
256,192,75094,1,0,0:0:0:0:
256,192,75437,1,8,0:0:0:0:
256,192,76122,1,0,0:0:0:0:
256,192,76808,1,8,0:0:0:0:
256,192,78180,5,4,0:0:0:0:
256,192,78522,1,8,0:0:0:0:
256,192,78865,1,0,0:0:0:0:
256,192,79551,1,8,0:0:0:0:
256,192,80237,1,0,0:0:0:0:
256,192,80580,1,0,0:0:0:0:
256,192,80922,1,8,0:0:0:0:
256,192,82294,1,0,0:0:0:0:
256,192,82980,1,8,0:0:0:0:
256,192,83322,1,0,0:0:0:0:
256,192,83665,1,8,0:0:0:0:
256,192,84351,1,0,0:0:0:0:
256,192,85037,1,8,0:0:0:0:
256,192,85722,1,0,0:0:0:0:
256,192,86065,1,0,0:0:0:0:
256,192,86408,1,8,0:0:0:0:
256,192,87094,1,0,0:0:0:0:
256,192,87780,1,8,0:0:0:0:
256,192,89151,1,4,0:0:0:0:
256,192,89837,1,8,0:0:0:0:
256,192,90522,1,0,0:0:0:0:
256,192,90865,1,8,0:0:0:0:
256,192,91208,1,0,0:0:0:0:
256,192,91551,1,0,0:0:0:0:
256,192,91894,1,8,0:0:0:0:
256,192,93265,5,0,0:0:0:0:
256,192,93951,1,0,0:0:0:0:
256,192,94294,1,0,0:0:0:0:
256,192,94637,1,8,0:0:0:0:
256,192,95322,1,0,0:0:0:0:
256,192,96008,1,8,0:0:0:0:
256,192,96351,1,8,0:0:0:0:
256,192,96694,1,0,0:0:0:0:
256,192,97037,1,0,0:0:0:0:
256,192,97380,1,8,0:0:0:0:
256,192,98751,1,8,0:0:0:0:
256,192,99437,1,8,0:0:0:0:
256,192,100122,1,4,0:0:0:0:
256,192,100808,1,8,0:0:0:0:
256,192,101494,1,8,0:0:0:0:
256,192,101837,1,8,0:0:0:0:
256,192,102180,1,0,0:0:0:0:
256,192,102522,1,8,0:0:0:0:
256,192,102865,1,0,0:0:0:0:
256,192,104237,1,0,0:0:0:0:
256,192,104922,1,0,0:0:0:0:
256,192,105265,1,0,0:0:0:0:
128,352,105608,1,8,0:0:0:0:
256,192,106294,1,0,0:0:0:0:
256,192,106980,1,8,0:0:0:0:
256,192,107322,1,8,0:0:0:0:
256,192,107665,1,0,0:0:0:0:
256,192,108008,1,0,0:0:0:0:
256,192,108351,1,8,0:0:0:0:
256,192,109037,1,0,0:0:0:0:
256,192,109722,1,8,0:0:0:0:
128,352,111094,5,4,0:0:0:0:
256,192,122065,5,4,0:0:0:0:
256,192,124808,1,8,0:0:0:0:
256,192,127551,1,0,0:0:0:0:
256,192,130294,1,8,0:0:0:0:
256,192,133037,5,4,0:0:0:0:
256,192,133722,1,0,0:0:0:0:
256,192,134408,1,8,0:0:0:0:
256,192,134751,1,8,0:0:0:0:
256,192,135094,1,0,0:0:0:0:
256,192,135780,1,8,0:0:0:0:
256,192,136465,1,0,0:0:0:0:
256,192,137151,1,0,0:0:0:0:
256,192,138522,1,8,0:0:0:0:
256,192,139208,1,0,0:0:0:0:
256,192,139894,1,0,0:0:0:0:
256,192,140237,1,8,0:0:0:0:
256,192,140580,1,0,0:0:0:0:
256,192,141265,1,8,0:0:0:0:
256,192,141951,1,0,0:0:0:0:
256,192,142637,1,8,0:0:0:0:
256,192,144008,1,4,0:0:0:0:
256,192,144694,1,0,0:0:0:0:
256,192,145380,1,0,0:0:0:0:
256,192,145722,1,0,0:0:0:0:
256,192,146065,1,8,0:0:0:0:
256,192,146408,1,8,0:0:0:0:
256,192,146751,1,0,0:0:0:0:
256,192,147437,1,0,0:0:0:0:
256,192,148122,1,8,0:0:0:0:
256,192,148808,1,8,0:0:0:0:
256,192,149494,12,0,151894,0:0:0:0:
254,187,152237,5,0,0:0:0:0:
256,192,154980,5,12,0:0:0:0:
256,192,155665,1,0,0:0:0:0:
256,192,156351,1,0,0:0:0:0:
256,192,157037,1,8,0:0:0:0:
256,192,157380,1,8,0:0:0:0:
256,192,157722,1,0,0:0:0:0:
256,192,158408,1,0,0:0:0:0:
256,192,159094,1,8,0:0:0:0:
256,192,160465,1,8,0:0:0:0:
256,192,161151,1,0,0:0:0:0:
256,192,161837,1,0,0:0:0:0:
256,192,162180,1,0,0:0:0:0:
256,192,162522,1,8,0:0:0:0:
256,192,163208,1,0,0:0:0:0:
256,192,163894,1,0,0:0:0:0:
256,192,164580,1,8,0:0:0:0:
256,192,164922,1,8,0:0:0:0:
256,192,165265,1,0,0:0:0:0:
256,192,165951,1,4,0:0:0:0:
256,192,168694,5,0,0:0:0:0:
256,192,171437,1,0,0:0:0:0:
256,192,174180,1,4,0:0:0:0:
256,192,176922,1,4,0:0:0:0:
256,192,177608,1,8,0:0:0:0:
256,192,178294,1,0,0:0:0:0:
256,192,178637,1,8,0:0:0:0:
256,192,178980,1,0,0:0:0:0:
256,192,179322,1,0,0:0:0:0:
256,192,179665,1,8,0:0:0:0:
256,192,180351,1,8,0:0:0:0:
256,192,181037,5,0,0:0:0:0:
256,192,181722,1,0,0:0:0:0:
256,192,182065,1,0,0:0:0:0:
256,192,182408,1,8,0:0:0:0:
256,192,183780,1,8,0:0:0:0:
256,192,184465,1,0,0:0:0:0:
256,192,184808,1,0,0:0:0:0:
256,192,185151,1,8,0:0:0:0:
256,192,185837,1,0,0:0:0:0:
256,192,186522,1,8,0:0:0:0:
256,192,186865,1,0,0:0:0:0:
256,192,187208,1,8,0:0:0:0:
256,192,187551,1,8,0:0:0:0:
256,192,187894,1,4,0:0:0:0:
256,192,189265,1,8,0:0:0:0:
256,192,189951,1,0,0:0:0:0:
256,192,190294,1,8,0:0:0:0:
256,192,190637,1,0,0:0:0:0:
256,192,191322,1,0,0:0:0:0:
256,192,192008,1,8,0:0:0:0:
256,192,192351,1,8,0:0:0:0:
256,192,192694,1,0,0:0:0:0:
256,192,193037,1,0,0:0:0:0:
128,352,193380,1,8,0:0:0:0:
256,192,194751,1,8,0:0:0:0:
256,192,195437,1,0,0:0:0:0:
256,192,195780,1,0,0:0:0:0:
256,192,196122,1,8,0:0:0:0:
256,192,196808,1,0,0:0:0:0:
256,192,197494,1,8,0:0:0:0:
256,192,198865,5,4,0:0:0:0:
256,192,199208,1,8,0:0:0:0:
256,192,199551,1,0,0:0:0:0:
256,192,200237,1,8,0:0:0:0:
256,192,200922,1,0,0:0:0:0:
256,192,201265,1,0,0:0:0:0:
256,192,201608,1,8,0:0:0:0:
256,192,202980,1,0,0:0:0:0:
256,192,203665,1,8,0:0:0:0:
256,192,204008,1,0,0:0:0:0:
256,192,204351,1,8,0:0:0:0:
256,192,205037,1,0,0:0:0:0:
256,192,205722,1,8,0:0:0:0:
256,192,206065,1,8,0:0:0:0:
256,192,206408,1,0,0:0:0:0:
256,192,206751,1,0,0:0:0:0:
256,192,207094,1,8,0:0:0:0:
256,192,207780,1,0,0:0:0:0:
256,192,208465,1,8,0:0:0:0:
256,192,209837,5,4,0:0:0:0:
256,192,210180,1,8,0:0:0:0:
256,192,210522,1,0,0:0:0:0:
256,192,211208,1,8,0:0:0:0:
256,192,211894,1,0,0:0:0:0:
256,192,212237,1,0,0:0:0:0:
256,192,212580,1,8,0:0:0:0:
256,192,213951,1,0,0:0:0:0:
256,192,214637,1,8,0:0:0:0:
256,192,214980,1,0,0:0:0:0:
256,192,215322,1,8,0:0:0:0:
256,192,216008,1,0,0:0:0:0:
256,192,216694,1,8,0:0:0:0:
256,192,217037,1,8,0:0:0:0:
256,192,217380,1,0,0:0:0:0:
256,192,217722,1,0,0:0:0:0:
256,192,218065,1,8,0:0:0:0:
256,192,218751,1,0,0:0:0:0:
256,192,219437,1,8,0:0:0:0:
256,192,220808,1,0,0:0:0:0:
