osu file format v14

[General]
AudioFilename: audio.mp3
AudioLeadIn: 0
PreviewTime: -1
Countdown: 0
SampleSet: None
StackLeniency: 0.7
Mode: 0
LetterboxInBreaks: 0
StoryFireInFront: 0
WidescreenStoryboard: 0
SamplesMatchPlaybackRate: 1

[Editor]
DistanceSpacing: 0.8
BeatDivisor: 2
GridSize: 32
TimelineZoom: 1

[Metadata]
Title:Genre Police (feat. Lexi)
TitleUnicode:Genre Police (feat. Lexi)
Artist:S3RL
ArtistUnicode:S3RL
Creator:Evianle
Version:Normal
Source:
Tags:
BeatmapID:1534524
BeatmapSetID:726800

[Difficulty]
HPDrainRate:6
CircleSize:5
OverallDifficulty:7
ApproachRate:9
SliderMultiplier:1.4
SliderTickRate:1

[Events]
//Background and Video events
//Break Periods
//Storyboard Layer 0 (Background)
//Storyboard Layer 1 (Fail)
//Storyboard Layer 2 (Pass)
//Storyboard Layer 3 (Foreground)
//Storyboard Sound Samples

[TimingPoints]
0,375,4,2,0,100,1,0

[Colours]
Combo1 : 163,35,35
Combo2 : 34,244,255

[HitObjects]
256,192,0,12,0,2250,0:0:0:0:
256,192,3000,5,0,0:0:0:0:
96,64,3187,1,0,0:0:0:0:
320,64,3375,1,0,0:0:0:0:
256,192,3562,1,0,0:0:0:0:
160,224,3750,1,0,0:0:0:0:
192,256,3937,1,0,0:0:0:0:
192,64,4125,1,0,0:0:0:0:
320,64,4500,1,0,0:0:0:0:
320,192,4875,1,0,0:0:0:0:
160,192,5250,1,0,0:0:0:0:
128,64,6000,1,0,0:0:0:0:
288,64,6375,1,0,0:0:0:0:
160,160,6750,1,0,0:0:0:0:
288,160,7125,1,0,0:0:0:0:
352,256,7500,1,0,0:0:0:0:
288,256,7687,1,0,0:0:0:0:
224,256,7875,1,0,0:0:0:0:
160,256,8062,1,0,0:0:0:0:
96,256,8250,1,0,0:0:0:0:
160,192,8625,1,0,0:0:0:0:
224,96,9000,1,0,0:0:0:0:
352,96,9375,1,0,0:0:0:0:
384,192,9750,1,0,0:0:0:0:
320,288,10125,1,0,0:0:0:0:
224,288,10500,5,0,0:0:0:0:
192,192,10875,1,0,0:0:0:0:
256,192,11062,1,0,0:0:0:0:
320,192,11250,1,0,0:0:0:0:
224,320,12000,2,0,L|320:320,1,70
288,96,12375,2,0,L|192:96,1,70
32,192,12750,2,0,L|128:192,1,70
480,192,13125,2,0,L|384:192,1,70
256,192,13500,12,0,14250,0:0:0:0:
224,192,14437,5,0,0:0:0:0:
224,256,14625,1,0,0:0:0:0:
224,256,14812,1,0,0:0:0:0:
160,256,15000,1,0,0:0:0:0:
256,256,15187,1,0,0:0:0:0:
352,256,15562,2,0,L|512:256,1,140
480,96,16500,2,0,L|288:160,1,140
32,192,16875,2,0,L|128:192,2,70
128,64,18000,1,0,0:0:0:0:
352,64,18375,1,0,0:0:0:0:
352,288,18750,1,0,0:0:0:0:
128,288,19125,1,0,0:0:0:0:
64,192,19500,2,0,L|512:192,1,420
128,128,21000,1,0,0:0:0:0:
160,96,21187,1,0,0:0:0:0:
192,64,21375,1,0,0:0:0:0:
256,64,21562,1,0,0:0:0:0:
320,64,21750,1,0,0:0:0:0:
352,96,21937,1,0,0:0:0:0:
384,128,22125,1,0,0:0:0:0:
384,256,22312,1,0,0:0:0:0:
352,288,22500,1,0,0:0:0:0:
320,320,22687,1,0,0:0:0:0:
256,320,22875,1,0,0:0:0:0:
192,320,23062,1,0,0:0:0:0:
160,288,23250,1,0,0:0:0:0:
128,256,23437,1,0,0:0:0:0:
0,32,24000,1,0,0:0:0:0:
480,32,24375,1,0,0:0:0:0:
0,352,24750,1,0,0:0:0:0:
480,352,25125,1,0,0:0:0:0:
256,192,25500,1,0,0:0:0:0:
64,192,26250,2,0,L|512:192,1,420
96,96,27750,1,0,0:0:0:0:
192,64,27937,1,0,0:0:0:0:
160,160,28125,1,0,0:0:0:0:
352,160,28312,1,0,0:0:0:0:
320,64,28500,1,0,0:0:0:0:
384,96,28687,2,0,L|480:96,1,70
128,224,29250,1,0,0:0:0:0:
192,256,29437,1,0,0:0:0:0:
128,288,29625,1,0,0:0:0:0:
384,224,30000,1,0,0:0:0:0:
320,256,30187,1,0,0:0:0:0:
384,288,30375,1,0,0:0:0:0:
224,224,30750,2,0,P|160:128|288:224,1,490
256,160,32250,1,0,0:0:0:0:
