osu file format v14

[General]
AudioFilename: audio.mp3
AudioLeadIn: 0
PreviewTime: 178397
Countdown: 0
SampleSet: None
StackLeniency: 0.7
Mode: 0
LetterboxInBreaks: 0
EpilepsyWarning: 1
CountdownOffset: 3
WidescreenStoryboard: 1

[Editor]
DistanceSpacing: 1.6
BeatDivisor: 4
GridSize: 8
TimelineZoom: 2.000006

[Metadata]
Title:Flame Princess
TitleUnicode:Flame Princess
Artist:S3RL
ArtistUnicode:S3RL
Creator:seselis1
Version:Insane
Source:
Tags:serl s3rl flame princess adventure time
BeatmapID:1123480
BeatmapSetID:529901

[Difficulty]
HPDrainRate:5
CircleSize:4
OverallDifficulty:6.5
ApproachRate:9
SliderMultiplier:1.70000000596046
SliderTickRate:2

[Events]
//Background and Video events
0,0,"FP.png",0,0
//Break Periods
2,69568,77855
2,90825,99797
2,146368,154312
2,201225,202483
//Storyboard Layer 0 (Background)
//Storyboard Layer 1 (Fail)
//Storyboard Layer 2 (Pass)
//Storyboard Layer 3 (Foreground)
Sprite,Foreground,Centre,"FP.jpg",320,240 M,0,11750,,320,240 S,0,11750,,0.4632258 C,0,11750,,190,190,190 F,0,11750,12455,0,1 F,0,12455,22740,1,0.9957447 F,0,22740,23426,0.9957447,0
//Storyboard Sound Samples

[TimingPoints]
12455,342.857142857143,4,3,0,100,1,0
12455,-100,4,1,4,80,0,0
23426,-100,4,1,4,80,0,0
33883,-100,4,1,0,30,0,0
34055,-100,4,1,0,55,0,0
34226,-100,4,1,0,79,0,0
45369,-200,4,1,0,79,0,0
46397,-80,4,1,0,80,0,1
46997,-80,4,1,0,20,0,1
47083,-80,4,1,0,80,0,1
47683,-80,4,1,0,20,0,1
47769,-80,4,1,0,80,0,1
48369,-80,4,1,0,20,0,1
48455,-80,4,1,0,80,0,1
49055,-80,4,1,0,20,0,1
49140,-80,4,1,0,80,0,1
49740,-80,4,1,0,20,0,1
49826,-80,4,1,0,80,0,1
50255,-80,4,1,0,20,0,1
50340,-80,4,1,0,80,0,1
50426,-80,4,1,0,20,0,1
50512,-80,4,1,0,80,0,1
51112,-80,4,1,0,20,0,1
51197,-80,4,1,0,80,0,1
51797,-80,4,1,0,20,0,1
51883,-80,4,1,0,80,0,1
53855,-80,4,1,0,20,0,1
53940,-80,4,1,0,80,0,1
54540,-80,4,1,0,20,0,1
54626,-80,4,1,0,80,0,1
55912,-80,4,1,0,20,0,1
55997,-80,4,1,0,80,0,1
56597,-80,4,1,0,20,0,1
56683,-80,4,1,0,80,0,1
57112,-80,4,1,0,20,0,1
57197,-100,4,1,0,93,0,0
79655,-100,4,1,0,60,0,0
101597,-100,4,3,0,80,0,1
102369,-100,4,3,0,20,0,1
102455,-100,4,3,0,80,0,1
105969,-100,4,3,0,20,0,1
106055,-100,4,3,0,80,0,1
107340,-100,4,3,0,20,0,1
107426,-100,4,3,0,80,0,1
107855,-100,4,3,0,20,0,1
107940,-100,4,3,0,80,0,1
108283,-100,4,3,0,80,0,1
110597,-100,4,3,0,20,0,1
110683,-100,4,3,0,80,0,1
111455,-100,4,3,0,20,0,1
111540,-100,4,3,0,80,0,1
112226,-100,4,3,0,50,0,1
112483,-100,4,3,0,20,0,1
112569,-100,4,3,0,80,0,1
114197,-100,4,3,0,20,0,1
114283,-100,4,3,0,80,0,1
114626,-100,4,3,0,60,0,1
115312,-100,4,3,0,80,0,1
116083,-100,4,3,0,20,0,1
116169,-100,4,3,0,80,0,1
117283,-100,4,3,0,20,0,1
117369,-100,4,3,0,60,0,1
117540,-100,4,3,0,60,0,1
117626,-100,4,3,0,5,0,1
117712,-100,4,3,0,60,0,1
117797,-100,4,3,0,5,0,1
117883,-100,4,3,0,60,0,1
118055,-100,4,3,0,80,0,1
118312,-100,4,3,0,20,0,1
118397,-100,4,3,0,80,0,1
118826,-100,4,3,0,20,0,1
118912,-100,4,3,0,80,0,1
120026,-100,4,3,0,20,0,1
120112,-100,4,3,0,60,0,1
120797,-100,4,3,0,60,0,1
123369,-100,4,1,0,50,0,0
134512,-133.333333333333,4,1,0,72,0,0
145397,-200,4,1,0,72,0,0
156112,-100,4,1,0,70,0,0
156369,-100,4,1,0,20,0,0
156455,-100,4,1,0,70,0,0
157397,-100,4,1,0,20,0,0
157483,-100,4,1,0,70,0,0
158255,-100,4,1,0,20,0,0
158340,-100,4,1,0,70,0,0
158769,-100,4,1,0,20,0,0
158855,-100,4,1,0,70,0,0
159112,-100,4,1,0,20,0,0
159197,-100,4,1,0,70,0,0
160140,-100,4,1,0,20,0,0
160226,-100,4,1,0,70,0,0
161426,-100,4,1,0,20,0,0
161512,-100,4,1,0,70,0,0
162883,-100,4,1,0,20,0,0
162969,-100,4,1,0,70,0,0
163740,-100,4,1,0,20,0,0
163826,-100,4,1,0,70,0,0
164255,-100,4,1,0,20,0,0
164340,-100,4,1,0,70,0,0
164597,-100,4,1,0,20,0,0
164683,-100,4,1,0,70,0,0
166055,-117.647058823529,4,1,0,70,0,0
178397,-80,4,1,0,80,0,1
178655,-80,4,1,0,20,0,1
178740,-80,4,1,0,80,0,1
179340,-80,4,1,0,20,0,1
179426,-80,4,1,0,80,0,1
180026,-80,4,1,0,20,0,1
180112,-80,4,1,0,80,0,1
180712,-80,4,1,0,20,0,1
180797,-80,4,1,0,80,0,1
181397,-80,4,1,0,20,0,1
181483,-80,4,1,0,80,0,1
182083,-80,4,1,0,20,0,1
182169,-80,4,1,0,80,0,1
183455,-80,4,1,0,20,0,1
183540,-80,4,1,0,80,0,1
185512,-80,4,1,0,20,0,1
185597,-80,4,1,0,80,0,1
186197,-80,4,1,0,20,0,1
186283,-80,4,1,0,80,0,1
186883,-80,4,1,0,20,0,1
186969,-80,4,1,0,80,0,1
187569,-80,4,1,0,20,0,1
187655,-80,4,1,0,80,0,1
188255,-80,4,1,0,20,0,1
188340,-80,4,1,0,80,0,1
188855,-100,4,1,0,92,0,0
199912,-133.333333333333,4,1,0,92,0,0
200255,-200,4,1,0,92,0,0
203083,-86.9565217391304,4,1,0,72,0,0
220655,-86.9565217391304,4,1,0,20,0,0
220740,-86.9565217391304,4,1,0,72,0,0
220826,-86.9565217391304,4,1,0,20,0,0

[Colours]
Combo1 : 255,0,0
Combo2 : 255,255,128
Combo3 : 255,108,108
Combo4 : 255,128,0

[HitObjects]
368,192,12454,5,4,0:0:0:0:
380,200,12540,1,0,0:0:0:0:
224,80,12797,1,8,0:0:0:0:
128,168,12969,1,4,0:0:0:0:
120,176,13054,1,0,0:0:0:0:
304,120,13312,2,8,B|352:112|384:96|384:96|396:132|432:184,1,170.000000596046
344,192,13826,5,4,0:0:0:0:
288,40,13997,1,4,0:0:0:0:
416,24,14169,1,4,0:0:0:0:
488,128,14340,1,4,0:0:0:0:
496,136,14426,1,0,0:0:0:0:
304,120,14683,2,8,B|260:112|220:114|220:114|200:156|193:211,1,170.000000596046
280,200,15197,37,4,0:0:0:0:
288,208,15283,1,0,0:0:0:0:
152,72,15540,1,8,0:0:0:0:
48,144,15712,1,4,0:0:0:0:
40,152,15797,1,0,0:0:0:0:
232,136,16054,2,8,B|276:120|304:94|304:94|328:128|371:169,1,170.000000596046,4|4,0:0|0:0,0:0:0:0:
288,192,16569,5,4,0:0:0:0:
208,56,16740,1,4,0:0:0:0:
328,16,16912,1,4,0:0:0:0:
416,104,17083,1,4,0:0:0:0:
424,112,17169,1,0,0:0:0:0:
208,56,17426,2,8,B|168:32|125:31|125:31|96:56|76:115,1,170.000000596046
40,224,17940,37,4,0:0:0:0:
32,236,18026,1,0,0:0:0:0:
192,136,18283,1,8,0:0:0:0:
160,264,18455,1,4,0:0:0:0:
156,276,18540,1,0,0:0:0:0:
304,144,18797,2,8,B|340:116|363:85|363:85|396:112|436:132,1,170.000000596046
376,184,19312,5,4,0:0:0:0:
256,80,19483,1,4,0:0:0:0:
360,8,19655,1,4,0:0:0:0:
472,64,19826,1,4,0:0:0:0:
484,68,19912,1,0,0:0:0:0:
304,144,20169,2,8,B|264:168|240:200|240:200|252:236|288:280,1,170.000000596046
336,216,20683,37,4,0:0:0:0:
344,208,20769,1,0,0:0:0:0:
208,344,21026,1,8,0:0:0:0:
336,344,21197,1,4,0:0:0:0:
348,344,21283,1,0,0:0:0:0:
176,256,21540,2,8,B|160:216|132:183|132:183|168:160|196:127,1,170.000000596046
232,200,22055,5,4,0:0:0:0:
136,80,22226,1,4,0:0:0:0:
56,176,22397,1,4,0:0:0:0:
104,296,22569,1,4,0:0:0:0:
116,308,22655,1,0,0:0:0:0:
128,320,22740,2,0,B|180:360|216:316|248:300|296:336,1,170.000000596046
388,304,23426,37,4,0:0:0:0:
376,296,23512,1,0,0:0:0:0:
224,184,23769,1,8,0:0:0:0:
352,176,23940,1,4,0:0:0:0:
344,188,24026,1,0,0:0:0:0:
184,304,24283,1,8,0:0:0:0:
112,200,24454,1,8,0:0:0:0:
112,328,24626,1,8,0:0:0:0:
16,248,24797,5,4,0:0:0:0:
24,120,24969,1,4,0:0:0:0:
152,104,25140,1,4,0:0:0:0:
251,190,25312,2,0,P|247:281|169:299,1,170.000000596046
192,232,25826,1,8,0:0:0:0:
328,280,25997,1,8,0:0:0:0:
416,184,26169,37,4,0:0:0:0:
408,176,26254,1,0,0:0:0:0:
280,32,26512,1,8,0:0:0:0:
408,48,26683,2,0,B|356:104|356:104|356:112|356:112|348:104|348:104|348:112|348:112|280:184,1,170.000000596046
192,232,27197,1,4,0:0:0:0:
320,232,27369,1,4,0:0:0:0:
280,352,27540,5,4,0:0:0:0:
152,360,27712,1,4,0:0:0:0:
80,256,27883,1,4,0:0:0:0:
144,144,28055,2,0,P|219:92|280:143,1,170.000000596046
212,168,28569,1,8,0:0:0:0:
192,24,28740,1,8,0:0:0:0:
80,88,28912,37,4,0:0:0:0:
80,100,28997,1,0,0:0:0:0:
120,288,29254,1,8,0:0:0:0:
8,224,29426,1,8,0:0:0:0:
20,220,29512,1,8,0:0:0:0:
208,176,29769,1,8,0:0:0:0:
264,288,29940,1,8,0:0:0:0:
280,160,30112,1,8,0:0:0:0:
392,216,30283,5,4,0:0:0:0:
336,328,30454,1,4,0:0:0:0:
208,352,30626,1,4,0:0:0:0:
104,288,30797,2,0,P|92:197|160:164,1,170.000000596046
156,236,31312,1,8,0:0:0:0:
12,196,31483,1,8,0:0:0:0:
88,80,31654,37,4,0:0:0:0:
100,84,31740,1,0,0:0:0:0:
272,160,31997,1,8,0:0:0:0:
151,163,32169,2,0,B|185:106|185:106|183:98|183:98|193:104|193:104|191:96|191:96|230:31,1,170.000000596046
144,24,32683,1,8,0:0:0:0:
296,88,32854,1,12,0:0:0:0:
136,312,33883,5,4,0:0:0:0:
141,306,33969,1,0,0:0:0:0:
147,301,34055,1,4,0:0:0:0:
228,204,34226,1,4,0:0:0:0:
232,200,34397,38,6,B|296:112|296:112|296:144|328:176,1,170.000000596046
424,240,34912,5,4,0:0:0:0:
488,200,35083,2,0,P|456:168|408:168,1,85.000000298023
336,264,35426,1,4,0:0:0:0:
372,108,35597,1,0,0:0:0:0:
336,264,35769,38,2,P|264:312|192:272,1,170.000000596046
160,152,36283,5,4,0:0:0:0:
112,272,36455,1,0,0:0:0:0:
160,128,36626,1,0,0:0:0:0:
264,240,36797,1,4,0:0:0:0:
96,184,36969,1,0,0:0:0:0:
296,116,37140,38,0,P|232:164|157:124,1,170.000000596046
120,8,37655,5,4,0:0:0:0:
224,88,37826,1,0,0:0:0:0:
80,112,37997,1,0,0:0:0:0:
200,16,38169,1,4,0:0:0:0:
159,127,38340,1,0,0:0:0:0:
40,40,38512,37,4,0:0:0:0:
56,200,38683,2,4,P|96:216|120:256,1,85.000000298023,4|0,0:0|0:0,0:0:0:0:
159,127,39026,1,4,0:0:0:0:
48,280,39197,2,4,P|67:335|106:351,1,85.000000298023,4|0,0:0|0:0,0:0:0:0:
208,304,39540,1,0,0:0:0:0:
208,304,39883,6,6,B|114:247|114:247|147:243|176:210,1,170.000000596046
256,128,40397,1,0,0:0:0:0:
48,120,40569,2,4,P|88:136|112:176,1,85.000000298023,4|0,0:0|0:0,0:0:0:0:
48,280,40912,1,4,0:0:0:0:
192,184,41083,1,6,0:0:0:0:
32,304,41255,38,6,B|8:336|14:360|14:360|56:328|120:334,1,170.000000596046
248,344,41769,5,4,0:0:0:0:
112,256,41940,1,0,0:0:0:0:
208,176,42112,1,0,0:0:0:0:
144,328,42283,1,4,0:0:0:0:
328,200,42454,1,6,0:0:0:0:
117,333,42626,38,6,B|56:368|0:336|0:336|40:312|40:272,1,170.000000596046
176,291,43140,5,4,0:0:0:0:
230,240,43312,2,0,P|199:213|157:212,1,85.000000298023
117,333,43655,2,0,P|148:360|190:361,1,85.000000298023
326,309,43997,37,0,0:0:0:0:
251,311,44226,5,0,0:0:0:0:
176,291,44455,5,0,0:0:0:0:
156,212,44683,2,0,B|162:148|162:148|183:124,1,85.000000298023
267,42,45026,2,0,B|261:105|261:105|240:129,1,85.000000298023
156,212,45369,38,2,B|127:240|82:204|70:173|123:176|157:171|126:212|123:234|81:244,1,170.000000596046
376,152,46740,6,8,B|381:191|381:191|366:281|366:281|372:337,1,159.375000558793
376,344,47083,1,8,0:0:0:0:
456,168,47255,1,0,0:0:0:0:
296,272,47426,2,0,P|244:335|169:322,1,159.375000558793
152,304,47769,1,8,0:0:0:0:
120,112,47940,1,0,0:0:0:0:
312,136,48112,6,0,P|363:199|438:186,1,159.375000558793
456,168,48454,1,8,0:0:0:0:
312,136,48626,2,0,B|164:107|242:273|104:271,1,265.625000931322
80,264,49140,1,8,0:0:0:0:
144,80,49312,1,0,0:0:0:0:
288,208,49483,38,0,P|364:232|419:166,1,159.375000558793
426,143,49826,1,8,0:0:0:0:
440,22,49997,2,0,P|366:40|350:169,1,212.500000745058
480,304,50512,2,8,P|456:360|392:352,1,106.250000372529,8|0,0:0|0:0,0:0:0:0:
288,208,50854,6,8,P|280:152|192:112,1,159.375000558793
160,120,51197,1,8,0:0:0:0:
8,224,51369,2,0,B|77:358|175:158|264:334,1,265.625000931322
256,320,51883,37,8,0:0:0:0:
80,200,52054,1,0,0:0:0:0:
168,336,52226,5,0,0:0:0:0:
424,240,52569,1,0,0:0:0:0:
216,56,52912,1,0,0:0:0:0:
312,344,53255,1,0,0:0:0:0:
181,144,53597,38,8,B|147:164|147:164|59:189|59:189|11:218,1,159.375000558793
8,224,53940,1,8,0:0:0:0:
304,184,54112,2,8,P|193:104|266:18,1,265.625000931322
288,24,54626,5,8,0:0:0:0:
128,0,54797,1,0,0:0:0:0:
272,104,54969,1,8,0:0:0:0:
472,360,55312,37,8,0:0:0:0:
464,216,55483,2,0,B|429:362|285:191|242:383,1,265.625000931322
232,361,55997,6,8,P|185:365|159:308,1,106.250000372529,8|0,0:0|0:0,0:0:0:0:
152,128,56340,2,8,P|152:208|248:248,1,159.375000558793
248,264,56683,1,8,0:0:0:0:
360,72,56854,2,0,P|328:142|254:167,1,159.375000558793
216,168,57197,21,8,0:0:0:0:
208,16,57369,1,8,0:0:0:0:
360,32,57540,1,8,0:0:0:0:
362,212,57712,38,10,P|298:224|210:156,1,170.000000596046,14|14,0:0|0:0,0:0:0:0:
476,196,58226,5,0,0:0:0:0:
384,296,58397,1,8,0:0:0:0:
468,204,58569,1,0,0:0:0:0:
376,300,58740,1,8,0:0:0:0:
240,288,58912,1,0,0:0:0:0:
176,168,59083,38,10,P|168:124|256:32,1,170.000000596046
120,288,59597,5,0,0:0:0:0:
72,168,59769,1,8,0:0:0:0:
200,240,59940,1,0,0:0:0:0:
96,168,60112,1,8,0:0:0:0:
8,256,60283,1,0,0:0:0:0:
96,168,60454,38,10,P|180:115|235:151,1,170.000000596046
160,328,60969,5,0,0:0:0:0:
167,193,61140,1,8,0:0:0:0:
114,322,61312,1,0,0:0:0:0:
205,222,61483,1,8,0:0:0:0:
86,283,61654,1,0,0:0:0:0:
223,262,61826,37,8,0:0:0:0:
87,237,61997,1,0,0:0:0:0:
352,288,62340,1,0,0:0:0:0:
362,85,62512,2,0,P|321:112|315:163,1,85.000000298023
320,362,62854,2,0,P|348:322|349:277,1,85.000000298023
313,146,63197,2,2,P|300:236|355:289,1,170.000000596046
196,119,63712,5,8,0:0:0:0:
212,259,63883,1,0,0:0:0:0:
200,128,64054,1,8,0:0:0:0:
214,270,64226,1,0,0:0:0:0:
351,287,64397,1,8,0:0:0:0:
403,155,64569,38,10,P|359:67|292:58,1,170.000000596046
488,144,65083,5,8,0:0:0:0:
328,136,65254,2,0,P|296:143|254:192,2,85.000000298023
488,144,65769,1,8,0:0:0:0:
375,256,65940,38,10,P|310:260|266:152,1,170.000000596046
392,96,66454,5,0,0:0:0:0:
375,256,66626,2,0,P|379:284|432:320,1,85.000000298023
336,192,66969,1,0,0:0:0:0:
392,96,67140,1,0,0:0:0:0:
456,208,67312,37,0,0:0:0:0:
499,139,67540,5,0,0:0:0:0:
465,59,67769,5,0,0:0:0:0:
392,96,67997,2,0,P|312:128|240:72,1,170.000000596046
160,208,68683,38,2,B|151:234|147:249|166:264|147:289|188:309|207:307|229:313|239:300|245:274|245:254|254:221|147:178|105:317|235:358,1,340.000001192092
432,80,79655,37,0,0:0:0:0:
328,24,79826,1,0,0:0:0:0:
392,176,79997,1,0,0:0:0:0:
304,88,80169,1,0,0:0:0:0:
320,248,80340,1,0,0:0:0:0:
264,144,80512,1,0,0:0:0:0:
217,271,80683,1,0,0:0:0:0:
192,160,80855,1,0,0:0:0:0:
64,192,81026,6,0,B|48:240|48:240|64:288,1,85.000000298023
208,352,81369,2,0,B|224:304|224:304|208:256,1,85.000000298023
48,184,81712,2,0,B|32:232|32:232|48:280,1,85.000000298023
224,360,82055,2,0,B|240:312|240:312|224:264,1,85.000000298023
48,184,82397,37,0,0:0:0:0:
152,240,82569,1,0,0:0:0:0:
38,264,82740,1,0,0:0:0:0:
152,160,82912,1,0,0:0:0:0:
240,208,83083,1,0,0:0:0:0:
152,240,83255,1,0,0:0:0:0:
248,136,83426,1,0,0:0:0:0:
328,192,83597,1,0,0:0:0:0:
240,208,83769,6,0,P|200:192|176:144,1,85.000000298023
161,6,84112,2,0,P|201:22|225:70,1,85.000000298023
224,224,84455,2,0,P|184:208|160:160,1,85.000000298023
184,0,84797,2,0,P|224:16|248:64,1,85.000000298023
224,224,85140,38,0,B|197:265|197:265|143:313|143:313|112:360,1,170.000000596046
224,224,85826,6,0,B|250:182|250:182|304:134|304:134|335:87,1,170.000000596046
448,256,86512,37,8,0:0:0:0:
408,133,86684,1,0,0:0:0:0:
484,222,86855,1,8,0:0:0:0:
372,164,87026,1,0,0:0:0:0:
487,174,87198,1,8,0:0:0:0:
366,215,87369,1,0,0:0:0:0:
456,138,87541,1,8,0:0:0:0:
399,250,87712,1,0,0:0:0:0:
353,331,87883,6,0,B|311:304|311:304|263:250|263:250|216:219,1,170.000000596046
93,115,88569,38,0,B|134:141|134:141|182:195|182:195|229:226,1,170.000000596046
88,200,89083,1,0,0:0:0:0:
256,192,89254,12,0,90625,0:0:0:0:
256,192,101597,21,4,0:0:0:0:
336,88,101769,1,0,0:0:0:0:
176,296,101940,1,0,0:0:0:0:
384,232,102112,2,0,P|356:299|274:299,1,127.500000447035
312,240,102455,1,4,0:0:0:0:
432,320,102626,1,4,0:0:0:0:
444,332,102712,1,0,0:0:0:0:
224,232,102969,5,8,0:0:0:0:
229,273,103054,1,0,0:0:0:0:
258,303,103140,1,0,0:0:0:0:
299,312,103226,1,0,0:0:0:0:
336,304,103312,2,8,B|367:299|388:269|380:248|380:248|401:222|380:176|333:163,1,170.000000596046
240,120,103826,1,4,0:0:0:0:
368,96,103997,2,8,P|417:93|453:58,1,85.000000298023,8|0,0:0|0:0,0:0:0:0:
232,40,104340,38,4,B|184:40|159:92,2,85.000000298023,4|0|4,0:0|0:0|0:0,0:0:0:0:
284,179,104855,2,0,P|244:155|244:107,1,85.000000298023
352,208,105197,1,4,0:0:0:0:
232,256,105369,1,4,0:0:0:0:
216,256,105454,1,0,0:0:0:0:
400,296,105712,6,4,P|468:304|508:245,1,127.500000447035
510,235,106055,2,8,B|518:200|505:171|483:167|483:167|472:136|421:131|386:163,1,170.000000596046
432,223,106569,1,4,0:0:0:0:
384,72,106740,2,8,P|367:33|332:11,1,85.000000298023,8|0,0:0|0:0,0:0:0:0:
252,124,107083,38,4,P|232:192|276:264,1,127.500000447035,4|4,3:3|0:3,0:3:0:0:
278,270,107426,1,4,0:3:0:0:
372,356,107597,2,4,P|432:320|400:248,1,127.500000447035,4|4,0:3|0:3,0:3:0:0:
400,240,107940,1,4,0:3:0:0:
278,270,108112,1,4,0:0:0:0:
264,272,108197,1,0,0:0:0:0:
432,168,108455,5,8,0:0:0:0:
473,169,108540,1,0,0:0:0:0:
502,140,108626,1,0,0:0:0:0:
501,98,108712,1,0,0:0:0:0:
490,66,108797,2,8,B|479:33|447:16|427:26|427:26|399:9|356:35|348:84,1,170.000000596046
336,184,109312,1,4,0:0:0:0:
356,58,109483,2,8,P|323:52|272:88,1,85.000000298023,8|0,0:0|0:0,0:0:0:0:
216,192,109826,37,4,0:0:0:0:
264,296,109997,1,0,0:0:0:0:
332,128,110169,1,0,0:0:0:0:
248,32,110340,2,4,P|270:122|328:120,1,127.500000447035
332,128,110683,1,4,0:0:0:0:
216,184,110854,1,4,0:0:0:0:
204,192,110940,1,0,0:0:0:0:
392,248,111197,6,8,P|417:281|496:248,1,127.500000447035
504,232,111540,2,8,B|524:206|520:169|500:159|500:159|500:126|453:104|409:126,1,170.000000596046
440,192,112055,1,4,0:0:0:0:
432,48,112226,2,2,B|406:16|406:16|360:8|312:16,1,127.500000447035,2|2,3:0|3:0,3:0:0:0:
288,24,112569,38,4,P|242:79|261:140,1,127.500000447035
272,152,112912,1,0,0:0:0:0:
392,120,113083,1,4,0:0:0:0:
365,88,113168,1,0,0:0:0:0:
326,94,113254,1,0,0:0:0:0:
192,192,113426,1,4,0:0:0:0:
312,240,113597,1,4,0:0:0:0:
324,248,113683,1,0,0:0:0:0:
152,328,113940,6,8,P|109:352|35:315,1,127.500000447035
26,302,114283,2,8,B|10:283|1:250|18:244|18:244|7:232|38:195|66:194,1,127.500000447035
80,192,114626,1,2,0:0:0:0:
208,192,114797,1,2,0:0:0:0:
96,272,114969,1,2,0:0:0:0:
152,120,115140,1,2,0:0:0:0:
280,120,115312,37,4,0:0:0:0:
368,216,115483,1,0,0:0:0:0:
152,120,115654,1,0,0:0:0:0:
200,272,115826,2,0,P|139:249|149:166,1,127.500000447035
200,200,116169,1,4,0:0:0:0:
96,304,116340,1,4,0:0:0:0:
84,312,116426,1,0,0:0:0:0:
273,210,116683,5,8,0:0:0:0:
312,219,116768,1,0,0:0:0:0:
336,187,116854,1,0,0:0:0:0:
318,151,116940,1,0,0:0:0:0:
285,138,117026,2,8,B|277:128|232:136|230:153|230:153|213:145|199:178|199:202,1,127.500000447035
200,232,117369,2,0,P|178:273|138:282,3,85.000000298023,2|2|2|2,0:0|0:0|0:0|0:0,0:0:0:0:
72,192,118055,38,4,P|60:135|113:63,1,127.500000447035
112,56,118397,1,4,0:0:0:0:
240,96,118569,2,4,P|252:153|199:225,1,127.500000447035
200,232,118911,1,4,0:0:0:0:
80,280,119083,1,4,0:0:0:0:
64,280,119169,1,0,0:0:0:0:
256,304,119426,5,8,0:0:0:0:
279,339,119511,1,0,0:0:0:0:
319,353,119597,1,0,0:0:0:0:
359,340,119683,1,0,0:0:0:0:
384,312,119769,2,8,B|397:309|415:264|394:256|394:256|409:245|385:217|363:208,1,127.500000447035
324,270,120112,1,2,0:0:0:0:
470,324,120283,1,2,0:0:0:0:
486,191,120454,1,2,0:0:0:0:
352,136,120626,1,2,0:0:0:0:
248,201,120797,38,14,B|224:192|224:192|184:137,1,85.000000298023,14|2,0:0|0:0,0:0:0:0:
293,78,121140,2,14,B|317:87|317:87|357:142,1,85.000000298023,14|2,0:0|0:0,0:0:0:0:
200,264,121483,6,14,B|176:255|176:255|136:200,1,85.000000298023,14|2,0:0|0:0,0:0:0:0:
347,18,121826,2,14,B|371:27|371:27|411:82,1,85.000000298023,14|2,0:0|0:0,0:0:0:0:
256,192,122169,12,0,123198,0:0:0:0:
456,144,123540,6,0,L|496:224,1,85.000000298023
368,192,123883,2,0,L|385:279,1,85.000000298023
264,240,124226,2,0,L|258:329,1,85.000000298023
152,256,124569,2,0,L|123:340,1,85.000000298023
72,200,124912,6,0,B|48:112|48:112|72:56,1,127.500000447035
80,56,125254,1,0,0:0:0:0:
224,32,125426,2,0,P|157:61|160:147,1,170.000000596046
304,88,125940,1,0,0:0:0:0:
224,208,126112,1,0,0:0:0:0:
304,88,126283,38,0,B|352:16|352:16|408:8,1,127.500000447035
424,16,126626,1,0,0:0:0:0:
304,88,126797,2,0,B|272:152|304:192|304:192|328:168|368:168,1,170.000000596046
496,216,127312,2,0,P|455:201|430:145,1,85.000000298023
424,16,127654,6,0,P|468:34|505:111,1,127.500000447035
504,136,127997,1,0,0:0:0:0:
357,168,128169,2,0,B|309:172|309:172|248:120|172:145,1,170.000000596046
104,184,128683,37,0,0:0:0:0:
232,217,128854,1,0,0:0:0:0:
120,280,129026,1,0,0:0:0:0:
357,168,129369,1,0,0:0:0:0:
135,90,129712,2,0,P|156:125|195:139,1,85.000000298023
348,85,130055,2,0,P|306:85|274:112,1,85.000000298023
220,229,130397,6,0,P|268:189|340:213,1,127.500000447035
348,221,130740,1,0,0:0:0:0:
220,229,130912,2,0,P|136:176|196:101,1,212.500000745058
224,96,131426,1,0,0:0:0:0:
327,201,131597,1,0,0:0:0:0:
224,96,131769,38,0,L|169:16,1,85.000000298023
64,120,132112,1,0,0:0:0:0:
224,96,132283,2,0,B|271:91|271:91|333:144|408:118,1,170.000000596046
248,168,132797,6,0,P|226:209|190:241,1,85.000000298023
224,96,133140,1,0,0:0:0:0:
384,328,133483,2,0,B|424:360|472:336|472:336|464:304|464:248,1,170.000000596046
320,280,133997,5,8,0:0:0:0:
320,192,134169,1,8,0:0:0:0:
392,240,134340,1,8,0:0:0:0:
244,244,134512,22,10,P|260:188|324:196,1,127.500005310774
320,280,135026,21,8,0:0:0:0:
244,244,135197,2,0,L|180:206,1,63.7500026553869
112,144,135540,1,8,0:0:0:0:
120,256,135712,1,0,0:0:0:0:
184,128,135883,22,10,P|191:70|128:53,1,127.500005310774
112,144,136397,21,8,0:0:0:0:
120,256,136569,2,0,P|96:288|56:304,1,63.7500026553869
48,192,136912,1,8,0:0:0:0:
189,211,137083,1,0,0:0:0:0:
112,144,137255,22,10,P|88:88|160:64,1,127.500005310774
240,96,137769,21,8,0:0:0:0:
189,211,137940,2,0,L|244:263,1,63.7500026553869
312,176,138283,1,8,0:0:0:0:
304,288,138455,1,4,0:0:0:0:
128,264,138626,21,0,0:0:0:0:
235,254,138797,1,0,0:0:0:0:
376,88,139140,21,8,0:0:0:0:
312,176,139312,1,8,0:0:0:0:
464,24,139655,1,8,0:0:0:0:
312,176,139997,21,8,0:0:0:0:
152,24,140340,1,8,0:0:0:0:
128,128,140512,21,0,0:0:0:0:
232,152,140683,2,0,P|207:186|168:200,1,63.7500026553869
88,232,141026,1,8,0:0:0:0:
128,128,141197,1,0,0:0:0:0:
188,195,141369,22,10,B|204:243|244:267|244:267|260:243|276:243,1,127.500005310774
368,208,141883,21,8,0:0:0:0:
408,312,142055,2,0,P|368:328|336:312,1,63.7500026553869
268,244,142397,1,8,0:0:0:0:
280,352,142569,1,0,0:0:0:0:
190,289,142740,22,10,B|156:251|155:204|155:204|184:202|192:188,1,127.500005310774
120,104,143255,21,8,0:0:0:0:
187,194,143426,2,0,P|232:208|262:193,1,63.7500026553869
352,176,143769,1,8,0:0:0:0:
228,136,143940,1,0,0:0:0:0:
284,265,144112,21,0,0:0:0:0:
340,308,144340,5,0,0:0:0:0:
414,298,144569,21,0,0:0:0:0:
451,232,144797,37,0,0:0:0:0:
376,160,145140,1,0,0:0:0:0:
354,238,145483,22,2,B|325:216|325:216|312:197|312:197|297:194|297:194|284:175|284:175|268:172|268:172|256:153|256:153|220:130,1,170.000000596046
112,320,156112,38,8,P|176:320|172:244,1,127.500000447035,8|0,0:0|0:0,0:0:0:0:
176,184,156455,2,0,B|128:144|176:64|248:80|288:128|256:192|256:192|232:248|272:288|344:296|384:224|328:176,1,467.500001639127
336,104,157483,38,8,P|336:88|360:56,3,42.5000001490115
408,8,157826,2,8,B|432:-32|488:-8|488:32|464:56|464:56|424:80|432:104|440:144,1,212.500000745058,8|0,0:0|0:0,0:0:0:0:
440,208,158340,2,0,B|435:228|427:252|467:276|467:276|491:300|491:340|435:364|411:324,1,212.500000745058
344,280,158854,6,8,P|296:256|216:284,1,127.500000447035,8|0,0:0|0:0,0:0:0:0:
144,288,159197,2,0,B|104:272|88:232|88:232|88:152|120:120|176:128|216:168|200:240|152:248|80:224|80:224|48:184|56:128,1,467.500001639127
72,72,160226,38,8,P|85:56|112:48,3,42.5000001490115
184,24,160569,2,0,B|208:8|264:16|280:32|304:56|264:112|248:136|272:192|344:216|416:192|440:152|456:96|424:64|408:56,1,425.000001490115,8|0,0:0|0:0,0:0:0:0:
376,44,161512,5,0,0:0:0:0:
348,64,161597,1,8,0:0:0:0:
352,96,161683,1,8,0:0:0:0:
440,272,161940,37,0,0:0:0:0:
467,302,162025,1,0,0:0:0:0:
459,341,162111,1,0,0:0:0:0:
419,352,162197,1,0,0:0:0:0:
388,325,162282,1,0,0:0:0:0:
359,295,162368,1,0,0:0:0:0:
317,295,162454,5,8,0:0:0:0:
224,328,162626,2,8,P|144:320|112:288,1,127.500000447035,8|0,0:0|0:0,0:0:0:0:
80,216,162969,38,8,P|81:191|107:160,3,42.5000001490115
160,128,163312,2,8,B|184:101|220:104|252:143|252:143|279:167|299:177|344:159|341:109,1,212.500000745058,8|0,0:0|0:0,0:0:0:0:
286,66,163826,2,0,B|253:65|233:94|244:143|244:143|246:180|240:201|198:225|160:191,1,212.500000745058
160,128,164340,2,0,P|168:80|80:64,1,127.500000447035
80,47,164683,5,0,0:0:0:0:
64,123,164855,1,0,0:0:0:0:
104,186,165026,1,0,0:0:0:0:
179,203,165197,1,0,0:0:0:0:
144,6,165369,37,0,0:0:0:0:
219,23,165540,1,0,0:0:0:0:
259,87,165712,1,0,0:0:0:0:
243,162,165883,1,0,0:0:0:0:
179,203,166055,2,4,P|80:176|232:32,1,433.500009788274
488,96,167426,5,8,0:0:0:0:
400,184,167597,1,8,0:0:0:0:
312,96,167769,1,8,0:0:0:0:
468,164,167940,1,8,0:0:0:0:
328,164,168112,1,8,0:0:0:0:
440,44,168283,1,8,0:0:0:0:
400,184,168454,1,8,0:0:0:0:
360,44,168626,1,8,0:0:0:0:
488,96,168797,37,8,0:0:0:0:
328,164,168969,1,8,0:0:0:0:
468,164,169140,1,8,0:0:0:0:
360,44,169312,2,8,B|412:104|412:104|416:72|444:40,1,144.500003262758
371,332,170169,5,4,0:0:0:0:
487,249,170340,1,4,0:0:0:0:
338,249,170512,1,4,0:0:0:0:
462,332,170683,1,4,0:0:0:0:
413,192,170854,1,4,0:0:0:0:
371,332,171026,1,4,0:0:0:0:
487,249,171197,2,4,P|481:231|448:206,3,36.1250008156895
413,192,171540,37,4,0:0:0:0:
462,332,171712,1,4,0:0:0:0:
338,249,171883,1,4,0:0:0:0:
468,216,172055,2,4,P|480:231|486:248,6,36.1250008156895
158,234,172912,6,8,P|174:225|192:224,2,36.1250008156895
32,328,173254,1,8,0:0:0:0:
192,296,173426,1,8,0:0:0:0:
56,216,173597,2,8,P|40:207|22:205,3,36.1250008156895
104,240,173940,1,8,0:0:0:0:
208,48,174283,38,4,P|224:32|264:16,2,36.1250008156895
96,160,174626,1,4,0:0:0:0:
144,8,174797,1,4,0:0:0:0:
216,152,174969,2,4,P|232:164|256:168,2,36.1250008156895
84,60,175312,2,4,P|66:50|28:56,2,36.1250008156895
216,152,175655,22,0,P|232:176|232:200,2,36.1250008156895
336,184,175997,2,0,P|318:207|296:215,2,36.1250008156895
336,304,176340,22,0,P|308:295|292:277,2,36.1250008156895
216,352,176683,1,0,0:0:0:0:
211,316,176768,1,0,0:0:0:0:
229,286,176854,1,0,0:0:0:0:
128,248,177026,21,0,0:0:0:0:
156,226,177111,1,0,0:0:0:0:
191,226,177197,1,0,0:0:0:0:
165,107,177369,5,0,0:0:0:0:
197,121,177454,1,0,0:0:0:0:
215,151,177540,1,0,0:0:0:0:
224,176,178397,38,8,B|229:215|229:215|214:305|214:305|220:361,1,159.375000558793
232,360,178740,1,8,0:0:0:0:
64,272,178912,1,0,0:0:0:0:
160,112,179083,6,8,P|216:80|304:152,1,159.375000558793
304,152,179426,1,8,0:0:0:0:
440,16,179597,1,0,0:0:0:0:
304,192,179769,38,8,P|256:240|152:208,1,159.375000558793
144,208,180112,1,8,0:0:0:0:
304,192,180283,2,0,B|454:183|354:337|491:354,1,265.625000931322
512,352,180797,5,8,0:0:0:0:
320,272,180969,1,0,0:0:0:0:
496,200,181140,2,8,P|488:112|408:96,1,159.375000558793
400,96,181483,1,8,0:0:0:0:
320,272,181655,2,0,P|208:256|248:136,1,265.625000931322
272,144,182169,37,8,0:0:0:0:
97,126,182340,1,0,0:0:0:0:
295,176,182512,1,8,0:0:0:0:
104,80,182683,1,0,0:0:0:0:
272,211,182855,5,8,0:0:0:0:
72,56,183026,2,0,B|-72:144|128:192|-8:312,1,265.625000931322
0,320,183540,37,8,0:0:0:0:
104,128,183712,1,0,0:0:0:0:
223,166,183883,2,0,B|273:190|273:190|335:166,1,106.250000372529
168,64,184226,2,0,B|120:40|120:40|56:64,1,106.250000372529
223,166,184569,2,0,B|273:150|273:150|302:86,1,106.250000372529
168,64,184912,2,0,B|120:80|120:80|88:143,1,106.250000372529
176,304,185255,6,8,B|211:320|211:320|302:332|302:332|354:354,1,159.375000558793
360,360,185597,1,8,0:0:0:0:
265,250,185769,2,8,P|248:144|384:160,1,265.625000931322
392,168,186283,37,8,0:0:0:0:
272,16,186454,1,0,0:0:0:0:
312,192,186626,2,8,B|336:223|336:223|410:276|410:276|445:319,1,159.375000558793
432,328,186969,1,8,0:0:0:0:
440,152,187140,2,0,B|446:301|261:177|272:373,1,265.625000931322
264,352,187654,6,8,P|232:368|184:320,1,106.250000372529,8|0,1:1|1:1,1:1:0:0:
128,176,187997,2,8,P|192:224|176:320,1,159.375000558793
184,327,188340,1,8,0:0:0:0:
56,200,188512,2,8,P|64:128|144:104,1,159.375000558793,8|0,0:0|0:0,0:0:0:0:
168,112,188854,21,8,0:0:0:0:
280,192,189026,21,8,0:0:0:0:
128,176,189197,37,8,0:0:0:0:
280,192,189369,22,2,B|304:200|316:176|316:176|336:168|336:168|344:148|344:148|360:136|360:136|368:116|368:116|392:104|376:72,1,170.000000596046
416,216,189883,21,0,0:0:0:0:
352,336,190054,1,8,0:0:0:0:
480,360,190226,1,0,0:0:0:0:
360,264,190397,1,8,0:0:0:0:
504,224,190569,1,0,0:0:0:0:
408,128,190740,22,2,B|383:133|373:108|373:108|354:99|354:99|348:78|348:78|333:65|333:65|326:44|326:44|304:30|322:0,1,170.000000596046
280,136,191254,21,0,0:0:0:0:
240,264,191426,1,8,0:0:0:0:
360,200,191597,1,0,0:0:0:0:
224,192,191769,1,8,0:0:0:0:
232,56,191940,1,0,0:0:0:0:
368,48,192112,22,2,B|392:42|402:67|402:67|421:76|421:76|427:97|427:97|442:110|442:110|449:131|449:131|471:145|453:175,1,170.000000596046
328,208,192626,21,0,0:0:0:0:
256,89,192797,1,8,0:0:0:0:
153,178,192969,1,0,0:0:0:0:
327,122,193140,1,8,0:0:0:0:
225,212,193312,1,0,0:0:0:0:
415,209,193483,21,8,0:0:0:0:
286,257,193654,2,0,P|249:283|200:283,1,85.000000298023
225,212,193997,1,0,0:0:0:0:
353,300,194169,2,0,P|395:339|404:381,1,85.000000298023
225,212,194512,2,0,P|272:179|315:179,1,85.000000298023
286,257,194855,2,0,P|248:328|160:336,1,170.000000596046
152,208,195369,21,0,0:0:0:0:
88,352,195540,1,8,0:0:0:0:
48,224,195712,1,0,0:0:0:0:
168,280,195883,1,8,0:0:0:0:
232,160,196055,1,0,0:0:0:0:
96,144,196226,22,2,B|70:152|63:126|63:126|45:114|45:114|35:97|35:97|17:85|17:85|13:64|13:64|-8:48|3:26,1,170.000000596046
0,176,196740,21,0,0:0:0:0:
96,48,196912,1,8,0:0:0:0:
224,88,197083,1,0,0:0:0:0:
96,144,197254,1,8,0:0:0:0:
184,16,197426,21,0,0:0:0:0:
200,176,197597,22,2,B|194:201|219:211|219:211|228:230|228:230|249:236|249:236|262:251|262:251|283:258|283:258|297:280|327:262,1,170.000000596046
360,136,198112,21,0,0:0:0:0:
401,246,198283,1,8,0:0:0:0:
431,113,198454,1,0,0:0:0:0:
305,185,198626,1,8,0:0:0:0:
269,57,198797,1,0,0:0:0:0:
409,9,198969,21,0,0:0:0:0:
472,11,199197,5,0,0:0:0:0:
509,60,199426,21,0,0:0:0:0:
512,125,199655,2,0,P|488:161|424:182,1,85.000000298023
431,113,199997,2,0,P|385:134|362:158,1,63.7500026553869
389,215,200340,38,2,P|305:171|317:98,1,170.000000596046
210,237,203083,37,0,0:0:0:0:
301,146,203255,1,0,0:0:0:0:
256,255,203426,1,0,0:0:0:0:
256,128,203597,1,0,0:0:0:0:
301,237,203769,1,0,0:0:0:0:
210,146,203940,1,0,0:0:0:0:
319,192,204112,1,0,0:0:0:0:
192,192,204283,1,0,0:0:0:0:
301,237,204455,38,0,P|341:245|397:189,1,97.7500022071598,0|0,0:0|0:0,0:0:0:0:
352,72,204797,2,0,P|312:64|256:120,1,97.7500022071598,0|0,0:0|0:0,0:0:0:0:
301,237,205140,2,0,P|341:245|397:189,1,97.7500022071598,0|0,0:0|0:0,0:0:0:0:
352,72,205483,2,0,P|312:64|256:120,1,97.7500022071598
224,216,205826,5,0,0:0:0:0:
192,104,205997,1,0,0:0:0:0:
224,216,206169,1,0,0:0:0:0:
112,192,206340,1,0,0:0:0:0:
224,216,206512,1,0,0:0:0:0:
144,296,206683,1,0,0:0:0:0:
224,216,206855,1,0,0:0:0:0:
248,328,207026,1,0,0:0:0:0:
224,216,207197,38,0,P|216:160|248:112,1,97.7500022071598
360,48,207540,2,0,P|400:56|408:112,1,97.7500022071598
315,217,207883,2,0,P|259:229|209:202,1,97.7500022071598
144,96,208226,2,0,P|152:56|208:48,1,97.7500022071598
307,145,208569,5,0,0:0:0:0:
419,169,208741,1,0,0:0:0:0:
315,217,208912,1,0,0:0:0:0:
427,241,209083,1,0,0:0:0:0:
307,145,209255,1,0,0:0:0:0:
419,169,209426,1,0,0:0:0:0:
315,217,209598,1,0,0:0:0:0:
427,241,209769,1,0,0:0:0:0:
307,145,209940,38,0,P|288:192|320:216,1,97.7500022071598
348,80,210283,2,0,P|286:64|228:99,1,97.7500022071598,0|0,0:0|0:0,0:0:0:0:
408,224,210626,2,0,P|416:168|376:152,1,97.7500022071598
360,296,210969,2,0,P|423:311|481:276,1,97.7500022071598
386,151,211312,5,0,0:0:0:0:
305,242,211483,1,0,0:0:0:0:
212,176,211655,1,0,0:0:0:0:
376,226,211826,1,0,0:0:0:0:
234,245,211997,1,0,0:0:0:0:
327,105,212169,1,0,0:0:0:0:
305,242,212340,1,0,0:0:0:0:
256,119,212512,1,0,0:0:0:0:
400,152,212683,38,0,B|456:152|456:152|488:96,1,97.7500022071598
352,40,213026,2,0,B|408:40|408:40|416:96,1,97.7500022071598
424,232,213369,2,0,B|424:288|424:288|368:320,1,97.7500022071598
312,184,213712,2,0,B|312:240|312:240|368:248,1,97.7500022071598
504,240,214055,5,0,0:0:0:0:
296,32,214397,21,0,0:0:0:0:
387,308,214740,37,0,0:0:0:0:
424,16,215083,21,0,0:0:0:0:
112,136,215426,5,0,0:0:0:0:
48,40,215597,1,0,0:0:0:0:
168,96,215768,1,0,0:0:0:0:
104,0,215940,1,0,0:0:0:0:
112,136,216111,1,0,0:0:0:0:
0,88,216283,1,0,0:0:0:0:
64,184,216454,1,0,0:0:0:0:
48,40,216626,1,0,0:0:0:0:
132,87,216797,38,0,P|87:68|35:28,1,97.7500022071598
158,210,217140,2,0,P|113:191|48:184,1,97.7500022071598,0|0,0:0|0:0,0:0:0:0:
284,159,217483,2,0,P|239:140|174:129,1,97.7500022071598,0|0,0:0|0:0,0:0:0:0:
295,338,217826,2,0,P|250:319|198:279,1,97.7500022071598,0|0,0:0|0:0,0:0:0:0:
352,208,218169,5,0,0:0:0:0:
456,152,218340,1,0,0:0:0:0:
400,256,218512,1,0,0:0:0:0:
496,320,218683,1,0,0:0:0:0:
376,320,218855,1,0,0:0:0:0:
496,320,219026,1,0,0:0:0:0:
400,256,219197,1,0,0:0:0:0:
456,152,219369,1,0,0:0:0:0:
352,208,219540,37,0,0:0:0:0:
48,48,219883,21,0,0:0:0:0:
80,336,220226,5,0,0:0:0:0:
368,72,220569,22,4,L|395:31,1,48.8750011035799,4|12,2:0|2:0,2:0:0:0:
456,64,220740,6,0,L|483:23,1,48.8750011035799,4|8,2:0|2:0,2:0:0:0:
256,192,220912,12,0,222283,0:0:0:0:
