osu file format v14

[General]
AudioFilename: audio.mp3
AudioLeadIn: 0
PreviewTime: 142704
Countdown: 0
SampleSet: Normal
StackLeniency: 0.7
Mode: 0
LetterboxInBreaks: 0
WidescreenStoryboard: 1

[Editor]
Bookmarks: 11631,16260,21574,33574,39402,48831,49174,55859,88088,99402,110888,121345,142602
DistanceSpacing: 1
BeatDivisor: 2
GridSize: 8
TimelineZoom: 1.400001

[Metadata]
Title:Feel The Melody (feat. Sara)
TitleUnicode:Feel The Melody (feat. Sara)
Artist:S3RL
ArtistUnicode:S3RL
Creator:Sh0keR
Version:Melody
Source:
Tags:
BeatmapID:1179521
BeatmapSetID:557281

[Difficulty]
HPDrainRate:7
CircleSize:4
OverallDifficulty:8
ApproachRate:9
SliderMultiplier:1.8
SliderTickRate:1

[Events]
//Background and Video events
0,0,"maxresdef222ault.jpg",0,0
//Break Periods
2,77316,87831
//Storyboard Layer 0 (Background)
//Storyboard Layer 1 (Fail)
//Storyboard Layer 2 (Pass)
//Storyboard Layer 3 (Foreground)
//Storyboard Sound Samples

[TimingPoints]
660,342.857142857143,4,2,0,50,1,0
21231,-100,4,2,0,80,0,0
33540,-100,4,2,0,80,0,0
33574,342.857142857143,4,1,0,90,1,1
55688,-100,4,2,0,50,0,0
88088,-100,4,2,0,60,0,0
99402,-100,4,3,0,90,0,0
110888,-100,4,1,0,30,0,0
121345,-100,4,1,0,90,0,1
164031,-100,4,1,0,90,0,0

[HitObjects]
304,232,11631,5,0,0:0:0:0:
304,232,12145,2,0,P|206:212|176:140,1,180
264,152,12660,1,0,0:0:0:0:
352,168,12831,1,0,0:0:0:0:
376,256,13002,1,0,0:0:0:0:
320,328,13174,2,0,P|200:328|160:272,1,180
352,96,16260,6,0,P|408:177|344:250,1,180
224,192,16774,1,0,0:0:0:0:
142,155,16945,1,0,0:0:0:0:
64,192,17117,2,0,P|126:259|228:262,1,180
320,224,17631,6,0,P|320:128|232:60,1,180
175,55,18145,1,0,0:0:0:0:
96,128,18317,1,0,0:0:0:0:
160,192,18488,1,0,0:0:0:0:
276,165,18660,2,0,P|253:65|151:38,1,180
352,96,21574,6,0,P|352:192|320:192,1,90
192,192,21917,2,0,P|128:128|128:96,1,90
224,96,22260,1,0,0:0:0:0:
40,224,22602,6,0,P|126:288|256:255,1,180
342,224,23117,2,0,B|385:128|385:128|342:128|299:128|299:96|299:31,1,180
169,96,23631,2,0,B|161:196,1,90
251,198,23974,1,0,0:0:0:0:
328,152,24145,1,0,0:0:0:0:
354,238,24317,1,0,0:0:0:0:
274,279,24488,6,0,P|178:343|114:311,1,180
96,256,25002,1,0,0:0:0:0:
96,160,25174,1,0,0:0:0:0:
160,96,25345,2,0,B|256:128|352:96,1,180
338,194,25860,2,0,P|275:266|181:235,1,180
159,172,26374,1,0,0:0:0:0:
248,80,26545,1,0,0:0:0:0:
256,80,26717,2,0,B|352:80|352:80|320:80|352:144|416:112,1,180
390,120,27231,6,0,P|475:176|411:208,1,180
312,267,27745,1,0,0:0:0:0:
248,202,27917,1,0,0:0:0:0:
251,112,28088,6,0,L|411:208,1,180
320,256,28602,2,0,B|128:192,1,180
211,133,29117,1,8,0:0:0:0:
299,147,29288,1,8,0:0:0:0:
376,224,29460,1,0,0:0:0:0:
280,272,29631,2,0,L|376:232,1,90
393,125,29974,6,0,B|393:221|329:221|361:253|393:285|297:285|265:285,1,180
235,256,30488,2,0,B|171:192|203:224|203:160,1,90
215,123,30831,2,0,B|265:207|251:223|199:217|251:293,1,180
192,320,31345,2,0,P|96:320|32:224,1,180
93,167,31860,1,0,0:0:0:0:
169,120,32031,1,0,0:0:0:0:
245,167,32202,1,0,0:0:0:0:
352,96,33574,6,0,P|384:192|320:256,1,180
214,232,34088,1,0,0:0:0:0:
119,149,34259,1,0,0:0:0:0:
233,95,34431,1,0,0:0:0:0:
343,125,34602,2,0,P|279:189|183:189,1,180
104,79,35116,1,0,0:0:0:0:
96,32,35459,6,0,B|128:128|96:160|64:160|64:192|128:224,1,180
219,215,35974,1,0,0:0:0:0:
335,168,36145,1,0,0:0:0:0:
255,70,36316,1,0,0:0:0:0:
255,70,36488,2,0,P|127:134|127:230,1,180
371,160,37174,1,0,0:0:0:0:
437,53,37345,1,0,0:0:0:0:
311,62,37516,1,0,0:0:0:0:
248,172,37688,2,0,P|184:236|88:204,1,180
192,128,38202,6,0,B|288:96|320:96|320:160|320:192,1,180
192,224,38716,1,0,0:0:0:0:
93,151,38888,1,0,0:0:0:0:
52,239,39059,2,0,B|57:353|222:308,1,180
280,287,39574,6,0,P|376:223|376:191,1,90
346,132,39916,1,0,0:0:0:0:
234,191,40088,1,0,0:0:0:0:
357,214,40259,1,0,0:0:0:0:
448,175,40431,2,0,P|416:79|317:50,1,180
224,96,40945,6,0,B|160:160|192:192|224:192|224:192|192:224|192:256,1,180
316,272,41459,2,0,P|380:211|382:172,1,90
332,101,41802,1,0,0:0:0:0:
241,188,41973,1,0,0:0:0:0:
145,271,42145,1,0,0:0:0:0:
320,256,42316,6,0,P|416:224|384:160,1,180
261,125,42831,1,0,0:0:0:0:
143,207,43002,1,0,0:0:0:0:
256,224,43174,2,0,P|352:224|416:160,1,180
310,66,43688,6,0,B|255:25|191:59,1,90
147,168,44031,1,0,0:0:0:0:
277,228,44202,1,0,0:0:0:0:
406,163,44374,1,0,0:0:0:0:
352,128,44545,2,0,B|256:128|288:96|256:96|224:128|224:160|192:160,1,180
64,256,45059,6,0,P|192:256|224:224,1,180
269,106,45574,1,0,0:0:0:0:
340,209,45745,1,0,0:0:0:0:
220,233,45916,2,0,B|124:169|124:233|156:169|156:169|188:169|156:137|156:105,1,180
308,59,46431,6,0,B|401:127|326:236,1,180
239,137,46945,1,0,0:0:0:0:
139,213,47116,1,0,0:0:0:0:
265,222,47288,1,0,0:0:0:0:
385,187,47459,2,0,P|385:91|321:91,1,180
192,128,47974,1,0,0:0:0:0:
128,224,48145,1,0,0:0:0:0:
218,246,48316,1,0,0:0:0:0:
342,224,48488,1,0,0:0:0:0:
296,106,48659,1,0,0:0:0:0:
89,67,49002,6,0,B|121:163|89:163|57:163|89:195|89:195|121:195|121:227|121:227|89:259,1,180
237,259,49516,1,0,0:0:0:0:
343,191,49688,1,0,0:0:0:0:
273,86,49859,1,0,0:0:0:0:
155,132,50031,2,0,B|123:196|123:228|155:260|187:260|219:260,1,180
352,128,50545,6,0,B|320:224|288:224|288:224|288:256,1,90
200,265,50888,1,0,0:0:0:0:
93,197,51059,1,0,0:0:0:0:
201,131,51231,1,0,0:0:0:0:
325,116,51402,2,0,P|293:212|261:212,1,90
224,256,51745,6,0,B|160:192|160:192|96:192|96:192|160:160,1,180
224,64,52259,1,0,0:0:0:0:
335,123,52431,1,0,0:0:0:0:
255,209,52602,1,0,0:0:0:0:
128,192,52774,2,0,B|192:96|224:96|288:128,1,180
416,192,53288,6,0,P|352:256|320:256,1,90
281,153,53631,1,0,0:0:0:0:
234,269,53802,1,0,0:0:0:0:
357,254,53974,1,0,0:0:0:0:
444,163,54145,2,0,L|273:52,1,180
160,224,55002,5,8,0:0:0:0:
231,119,55174,1,8,0:0:0:0:
341,178,55345,1,8,0:0:0:0:
279,287,55516,1,4,0:0:0:0:
96,64,56202,6,0,B|128:160|96:192|160:256,1,180
224,256,56716,1,0,0:0:0:0:
320,255,56888,2,0,P|432:210|451:154,1,180
352,128,57402,1,0,0:0:0:0:
256,128,57574,2,0,L|96:224,1,180
82,170,58259,6,2,B|149:298|316:388|473:201|419:69,1,540,0|0,0:0|0:0,0:0:0:0:
320,64,59631,2,0,B|224:64|222:94|222:94|192:64|150:66,1,180
320,288,60316,1,0,0:0:0:0:
384,128,60659,1,0,0:0:0:0:
192,96,61002,1,4,0:0:0:0:
96,192,61688,6,0,B|160:256|224:288|256:256,1,180
320,224,62202,1,0,0:0:0:0:
320,96,62374,2,0,P|256:96|192:192,1,180
352,256,63059,1,0,0:0:0:0:
192,320,63402,1,0,0:0:0:0:
427,151,63745,6,2,B|360:23|193:-67|36:120|90:252,1,540,0|0,0:0|0:0,0:0:0:0:
213,260,65116,2,0,B|309:260|311:230|311:230|341:260|383:258,1,180
141,120,65802,1,0,0:0:0:0:
267,248,66145,1,0,0:0:0:0:
408,88,66488,2,0,L|440:288,1,180
160,96,67174,6,0,B|160:192|128:192|128:192|160:224|192:224,1,180
320,96,67859,2,0,P|384:192|288:192,1,180
192,192,68545,1,0,0:0:0:0:
352,256,68888,1,0,0:0:0:0:
352,64,69231,1,0,0:0:0:0:
96,64,69916,6,0,B|192:128|160:128|128:128|224:160|256:160,1,180
241,158,70602,2,0,B|145:222|177:222|209:190|113:286|145:190|145:190|113:254,1,180
64,288,71288,1,0,0:0:0:0:
160,128,71631,1,0,0:0:0:0:
288,256,71974,2,0,P|384:192|352:128,1,180
224,64,72659,6,0,B|128:96|128:160|192:192,1,180
288,192,73345,2,0,P|384:160|384:192,1,180
256,256,74031,2,0,B|160:224|96:224|96:160|128:160,1,180
128,96,74716,5,8,0:0:0:0:
128,96,74802,1,8,0:0:0:0:
128,96,74888,2,0,L|192:160,1,90
293,161,75231,2,0,L|363:97,1,90
256,64,75574,1,8,0:0:0:0:
256,64,75659,1,8,0:0:0:0:
256,64,75745,2,0,P|224:96|192:128,1,90
256,192,76174,12,0,77116,0:0:0:0:
320,96,88431,6,0,B|352:128|288:192|256:192|224:160|192:160,1,180
160,96,88945,2,0,P|256:192|224:256,1,180
170,260,89459,1,0,0:0:0:0:
112,190,89631,1,0,0:0:0:0:
197,108,89802,1,0,0:0:0:0:
197,108,89974,2,0,P|293:108|293:140,1,90
64,256,90316,6,0,B|224:320|160:288|224:256,1,180
224,160,90830,1,0,0:0:0:0:
320,128,91002,1,0,0:0:0:0:
416,192,91174,2,0,L|256:96,1,180
160,64,91688,2,0,P|128:160|192:224,1,180
256,160,92202,1,0,0:0:0:0:
344,141,92374,1,0,0:0:0:0:
457,224,92545,2,0,P|361:256|297:192,1,180
192,96,93059,6,0,B|128:160|128:224|160:224|160:288|192:288,1,180
250,239,93574,1,0,0:0:0:0:
327,193,93745,1,0,0:0:0:0:
216,96,93916,2,0,B|112:128|64:80|64:200,1,180
82,214,94431,6,0,P|120:280|240:280,1,180
288,240,94945,1,0,0:0:0:0:
364,176,95116,2,0,B|428:112|364:144|371:59,1,90
374,100,95459,1,0,0:0:0:0:
64,272,95802,6,0,B|60:155,1,90
135,80,96145,1,0,0:0:0:0:
258,103,96316,1,0,0:0:0:0:
365,144,96488,1,0,0:0:0:0:
365,144,96659,2,0,P|301:208|160:160,1,180
102,108,97174,2,0,P|70:204|102:300,1,180
192,256,97688,1,0,0:0:0:0:
288,256,97859,1,0,0:0:0:0:
384,256,98031,1,0,0:0:0:0:
128,96,99402,6,0,P|160:224|224:224,1,180
320,224,99916,2,0,P|288:96|224:96,1,180
176,160,100431,1,8,0:0:0:0:
240,248,100602,1,0,0:0:0:0:
344,272,100774,2,0,P|432:248|448:136,1,180
224,104,101288,6,0,P|232:200|296:256,1,180
291,133,101802,2,8,P|291:229|227:229,1,180,0|0,0:0|0:0,0:0:0:0:
227,229,102316,1,0,0:0:0:0:
32,224,102659,2,0,P|128:256|160:256,1,90
144,168,103002,1,0,0:0:0:0:
232,152,103174,1,0,0:0:0:0:
320,136,103345,1,0,0:0:0:0:
408,152,103516,2,0,P|352:240|264:224,1,180
176,96,104031,6,0,P|264:152|304:224,1,180
376,264,104545,1,0,0:0:0:0:
368,176,104716,1,0,0:0:0:0:
368,176,104888,2,0,L|440:112,1,90
352,88,105231,6,0,P|232:40|176:48,1,180
120,104,105745,1,0,0:0:0:0:
208,136,105916,1,0,0:0:0:0:
296,152,106088,1,0,0:0:0:0:
384,176,106259,2,0,P|320:240|224:240,1,180
96,224,106774,6,0,P|64:128|96:128,1,180
128,48,107288,1,0,0:0:0:0:
192,112,107459,1,0,0:0:0:0:
144,192,107631,1,0,0:0:0:0:
64,224,107802,2,0,L|32:128,1,90
108,79,108145,2,0,P|204:111|268:175,1,180
208,232,108659,1,0,0:0:0:0:
296,240,108831,1,0,0:0:0:0:
344,160,109002,1,0,0:0:0:0:
128,96,109345,5,0,0:0:0:0:
128,96,109516,2,0,P|192:192|256:192,1,180
320,96,110031,1,0,0:0:0:0:
416,160,110202,1,0,0:0:0:0:
288,288,110374,1,0,0:0:0:0:
96,128,110888,6,0,L|160:192,1,90
192,192,111231,1,0,0:0:0:0:
224,192,111402,1,0,0:0:0:0:
256,192,111574,1,0,0:0:0:0:
288,192,111745,1,0,0:0:0:0:
323,192,111916,1,0,0:0:0:0:
416,128,112259,6,0,L|288:192,1,90
288,192,112602,1,0,0:0:0:0:
256,192,112774,1,0,0:0:0:0:
224,192,112945,1,0,0:0:0:0:
192,192,113116,1,0,0:0:0:0:
155,192,113288,1,0,0:0:0:0:
128,160,113459,6,0,P|192:96|256:160,1,180
256,256,113974,1,0,0:0:0:0:
224,288,114145,1,0,0:0:0:0:
192,256,114316,1,0,0:0:0:0:
160,224,114488,1,0,0:0:0:0:
96,160,114831,6,0,P|160:96|224:160,1,180
220,139,115345,2,0,L|255:224,3,90
256,192,116545,12,0,119974,0:0:0:0:
352,96,121345,6,0,B|416:160|384:192|384:192|448:192|384:224|352:256,1,180
288,288,121859,2,0,B|224:224|256:224|224:192|160:192|192:192|224:160,1,180
384,96,122374,1,0,0:0:0:0:
359,255,122545,1,0,0:0:0:0:
224,208,122716,2,0,L|216:96,1,90
360,120,123059,1,0,0:0:0:0:
384,192,123231,6,0,P|288:256|288:224,1,180
167,233,123745,1,0,0:0:0:0:
286,124,123916,1,0,0:0:0:0:
448,224,124088,2,0,B|352:256|288:256|256:256,1,180
128,192,124602,2,0,B|128:128|160:96|192:96,1,90
318,88,124945,1,0,0:0:0:0:
343,247,125116,1,0,0:0:0:0:
186,203,125288,1,0,0:0:0:0:
279,71,125459,2,0,L|388:79,1,90
451,121,125974,6,0,B|504:193|427:293,1,180
296,232,126488,1,8,0:0:0:0:
192,128,126659,1,0,0:0:0:0:
320,64,126831,2,0,L|416:136,1,90
433,67,127174,6,0,P|281:173|281:173,1,180
155,267,127688,1,0,0:0:0:0:
151,105,127859,1,0,0:0:0:0:
305,156,128031,1,0,0:0:0:0:
157,89,128202,2,0,L|272:150,1,90
384,160,128545,6,0,P|352:256|272:260,1,180
128,217,129059,1,0,0:0:0:0:
253,113,129231,1,0,0:0:0:0:
412,85,129402,1,0,0:0:0:0:
254,45,129574,2,0,P|154:113|163:165,1,180
300,236,130088,2,0,P|419:236|456:186,1,180
335,82,130602,1,0,0:0:0:0:
288,237,130774,1,0,0:0:0:0:
167,129,130945,1,4,0:0:0:0:
64,96,131288,6,0,B|160:64|224:128|224:96|224:96|224:64|224:64|256:96,1,180
352,192,131803,1,0,0:0:0:0:
192,224,131974,1,0,0:0:0:0:
64,128,132146,1,0,0:0:0:0:
320,69,132317,2,0,B|441:84|448:202,1,180,8|0,0:0|0:0,0:0:0:0:
288,288,132831,6,0,P|160:288|128:256,1,180
96,128,133345,1,0,0:0:0:0:
256,128,133516,1,0,0:0:0:0:
416,128,133688,1,0,0:0:0:0:
416,192,133859,2,0,P|320:256|288:224,1,180
128,192,134374,6,0,P|128:128|256:96,1,180
383,88,134888,1,0,0:0:0:0:
396,249,135059,1,0,0:0:0:0:
235,226,135231,1,0,0:0:0:0:
224,224,135402,2,0,P|224:128|320:96,1,180
416,160,135916,2,0,B|416:256|448:256|384:224,1,90
254,240,136259,1,0,0:0:0:0:
107,169,136431,2,0,L|203:137,1,90
498,34,136945,6,0,P|530:66|498:98,1,90
384,160,137288,1,0,0:0:0:0:
256,224,137459,1,0,0:0:0:0:
128,160,137631,1,0,0:0:0:0:
384,64,137802,2,0,P|387:194|355:226,1,180
320,192,138316,6,0,P|256:256|160:224,1,180
162,131,138831,1,0,0:0:0:0:
256,78,139002,1,0,0:0:0:0:
359,111,139174,1,0,0:0:0:0:
429,192,139345,1,0,0:0:0:0:
324,219,139516,1,0,0:0:0:0:
224,255,139688,6,0,P|128:224|128:160,1,90
106,120,140031,1,0,0:0:0:0:
230,105,140202,1,0,0:0:0:0:
397,174,140374,2,0,P|333:238|301:238,1,90
160,224,140716,2,0,B|96:192|160:160|192:160|288:160,1,180
384,128,141231,2,0,L|352:217,1,90
192,236,141574,1,0,0:0:0:0:
46,165,141745,1,0,0:0:0:0:
185,83,141916,1,0,0:0:0:0:
192,224,142774,5,4,0:0:0:0:
97,193,142945,1,4,0:0:0:0:
97,94,143116,1,4,0:0:0:0:
224,64,143288,2,0,B|384:96|320:96|352:128|352:160,1,180,4|0,0:0|0:0,0:0:0:0:
297,311,143802,6,0,B|201:247|201:247|233:247|233:215,1,90
82,178,144145,1,0,0:0:0:0:
222,98,144316,1,0,0:0:0:0:
295,201,144488,1,0,0:0:0:0:
295,201,144659,2,0,L|115:201,1,180
352,64,145174,6,0,B|384:160|352:160|352:160|384:192|384:192,1,180
256,256,145688,2,0,B|224:224|224:192|224:160|160:160|224:128|224:96|224:64,1,180
221,91,146202,1,0,0:0:0:0:
221,91,146374,2,0,P|128:160|160:224,1,180
286,276,146888,1,0,0:0:0:0:
413,177,147059,1,0,0:0:0:0:
261,117,147231,2,0,P|204:106|96:170,1,180
406,59,147916,6,0,P|436:141|403:223,1,180
283,113,148431,1,0,0:0:0:0:
373,246,148602,1,0,0:0:0:0:
210,251,148774,2,0,L|142:149,1,90
64,127,149116,6,0,P|86:212|162:256,1,180
324,234,149631,1,0,0:0:0:0:
215,114,149802,1,0,0:0:0:0:
377,111,149974,1,0,0:0:0:0:
234,186,150145,1,0,0:0:0:0:
128,192,150316,2,0,P|64:64|128:32,1,180
192,96,150831,6,0,B|288:64|320:96|320:96|352:128,1,180
243,249,151345,1,0,0:0:0:0:
160,224,151516,2,0,P|35:205|7:126,1,180
272,45,152031,2,0,B|336:109|336:109|368:77|400:109|400:141,1,180
334,274,152545,1,0,0:0:0:0:
160,224,152716,2,0,P|96:160|160:128,1,180
256,128,153231,5,0,0:0:0:0:
352,192,153402,1,8,0:0:0:0:
288,320,153574,1,0,0:0:0:0:
352,192,153745,1,8,0:0:0:0:
256,128,153916,1,0,0:0:0:0:
448,256,154088,1,8,0:0:0:0:
256,256,154259,6,0,P|160:256|128:160,1,180
192,96,154774,2,0,L|256:160,1,90
160,256,155116,1,0,0:0:0:0:
256,160,155288,1,0,0:0:0:0:
373,62,155459,2,0,L|413:156,1,90
407,299,155802,1,0,0:0:0:0:
290,198,155974,1,0,0:0:0:0:
192,64,156145,6,0,P|96:96|96:192,1,180
224,192,156659,1,0,0:0:0:0:
384,192,156831,1,0,0:0:0:0:
256,192,157002,2,0,P|160:192|224:128,1,180
288,64,157516,2,0,B|288:192|320:192|320:224|288:224|288:224|288:256,1,180
192,192,158031,1,0,0:0:0:0:
64,160,158202,1,0,0:0:0:0:
160,64,158374,2,0,P|288:96|288:128,1,180
192,224,158888,6,0,B|266:305|364:231,1,180
497,210,159402,1,0,0:0:0:0:
340,165,159574,1,0,0:0:0:0:
183,126,159745,2,0,P|74:222|106:286,1,180
319,268,160259,2,0,B|255:172|223:204|255:140|287:140|287:140|287:108,1,180
384,96,160774,1,0,0:0:0:0:
256,96,160945,1,0,0:0:0:0:
149,161,161116,1,0,0:0:0:0:
248,239,161288,1,0,0:0:0:0:
250,113,161459,1,8,0:0:0:0:
320,128,161631,6,0,P|416:160|416:192,1,90
384,256,161974,1,0,0:0:0:0:
256,256,162145,1,0,0:0:0:0:
108,216,162316,2,0,P|90:123|119:113,1,90
212,81,162659,2,0,L|305:110,1,90
446,147,163002,2,0,P|435:243|358:262,1,180
160,224,163516,5,0,0:0:0:0:
256,120,163688,1,0,0:0:0:0:
392,168,163859,1,0,0:0:0:0:
