osu file format v14

[General]
AudioFilename: Douglas - FM-200 S3RL Remix.mp3
AudioLeadIn: 0
PreviewTime: 130367
Countdown: 0
SampleSet: None
StackLeniency: 0.7
Mode: 3
LetterboxInBreaks: 0
EpilepsyWarning: 1
SpecialStyle: 0
WidescreenStoryboard: 1

[Editor]
DistanceSpacing: 0.8
BeatDivisor: 4
GridSize: 8
TimelineZoom: 2.5

[Metadata]
Title:Douglas - FM200 S3RL Remix
TitleUnicode:Douglas - FM200 S3RL Remix
Artist:S3RL
ArtistUnicode:S3RL
Creator:FelipeLink
Version:4K Endurance
Source:
Tags:s3rl douglas remix fm200 Marathon Arcwinolivirus Bemmo roko100789
BeatmapID:773017
BeatmapSetID:350647

[Difficulty]
HPDrainRate:8
CircleSize:4
OverallDifficulty:8
ApproachRate:5
SliderMultiplier:1.4
SliderTickRate:1

[Events]
//Background and Video events
0,0,"FM200RED.jpg",0,0
//Break Periods
//Storyboard Layer 0 (Background)
//Storyboard Layer 1 (Fail)
//Storyboard Layer 2 (Pass)
//Storyboard Layer 3 (Foreground)
//Storyboard Sound Samples

[TimingPoints]
87,342.857142857143,4,3,0,30,1,0
242816,-100,4,3,0,30,0,1
286701,-100,4,3,0,30,0,0

[HitObjects]
64,192,87,5,0,0:0:0:0:
320,192,87,1,0,0:0:0:0:
448,192,87,1,0,0:0:0:0:
192,192,172,1,0,0:0:0:0:
320,192,258,5,0,0:0:0:0:
448,192,344,1,0,0:0:0:0:
192,192,429,1,0,0:0:0:0:
64,192,429,1,0,0:0:0:0:
448,192,515,1,0,0:0:0:0:
320,192,601,1,0,0:0:0:0:
192,192,687,1,0,0:0:0:0:
320,192,772,1,0,0:0:0:0:
448,192,772,1,0,0:0:0:0:
64,192,858,1,0,0:0:0:0:
448,192,944,1,0,0:0:0:0:
320,192,1029,1,0,0:0:0:0:
192,192,1115,1,0,0:0:0:0:
64,192,1115,1,0,0:0:0:0:
448,192,1201,1,0,0:0:0:0:
64,192,1287,1,0,0:0:0:0:
192,192,1372,1,0,0:0:0:0:
320,192,1458,1,0,0:0:0:0:
448,192,1458,1,0,0:0:0:0:
64,192,1544,1,0,0:0:0:0:
192,192,1629,1,0,0:0:0:0:
320,192,1715,1,0,0:0:0:0:
192,192,1801,1,0,0:0:0:0:
64,192,1801,1,0,0:0:0:0:
448,192,1887,1,0,0:0:0:0:
64,192,1972,1,0,0:0:0:0:
192,192,2058,1,0,0:0:0:0:
320,192,2144,1,0,0:0:0:0:
448,192,2144,1,0,0:0:0:0:
192,192,2229,1,0,0:0:0:0:
64,192,2315,1,0,0:0:0:0:
192,192,2401,1,0,0:0:0:0:
448,192,2487,1,0,0:0:0:0:
320,192,2487,1,0,0:0:0:0:
64,192,2572,1,0,0:0:0:0:
448,192,2658,1,0,0:0:0:0:
320,192,2744,1,0,0:0:0:0:
64,192,2829,1,0,0:0:0:0:
192,192,2829,1,0,0:0:0:0:
320,192,2915,1,0,0:0:0:0:
448,192,3001,1,0,0:0:0:0:
320,192,3087,1,0,0:0:0:0:
192,192,3172,1,0,0:0:0:0:
64,192,3172,1,0,0:0:0:0:
448,192,3258,1,0,0:0:0:0:
192,192,3344,1,0,0:0:0:0:
64,192,3429,1,0,0:0:0:0:
320,192,3515,1,0,0:0:0:0:
448,192,3515,1,0,0:0:0:0:
192,192,3601,1,0,0:0:0:0:
320,192,3687,1,0,0:0:0:0:
448,192,3772,1,0,0:0:0:0:
192,192,3858,1,0,0:0:0:0:
64,192,3858,1,0,0:0:0:0:
320,192,3944,1,0,0:0:0:0:
192,192,4029,1,0,0:0:0:0:
64,192,4115,1,0,0:0:0:0:
320,192,4201,1,0,0:0:0:0:
448,192,4201,1,0,0:0:0:0:
192,192,4287,1,0,0:0:0:0:
320,192,4372,1,0,0:0:0:0:
64,192,4458,1,0,0:0:0:0:
448,192,4544,1,0,0:0:0:0:
320,192,4544,1,0,0:0:0:0:
192,192,4629,1,0,0:0:0:0:
448,192,4715,1,0,0:0:0:0:
320,192,4801,1,0,0:0:0:0:
64,192,4887,1,0,0:0:0:0:
192,192,4887,1,0,0:0:0:0:
448,192,4972,1,0,0:0:0:0:
192,192,5058,1,0,0:0:0:0:
320,192,5144,1,0,0:0:0:0:
192,192,5229,1,0,0:0:0:0:
64,192,5229,1,0,0:0:0:0:
448,192,5315,1,0,0:0:0:0:
192,192,5401,1,0,0:0:0:0:
64,192,5487,1,0,0:0:0:0:
320,192,5572,1,0,0:0:0:0:
448,192,5572,1,0,0:0:0:0:
192,192,5658,1,0,0:0:0:0:
448,192,5744,1,0,0:0:0:0:
64,192,5829,1,0,0:0:0:0:
448,192,5915,1,0,0:0:0:0:
320,192,5915,1,0,0:0:0:0:
192,192,6001,1,0,0:0:0:0:
320,192,6087,1,0,0:0:0:0:
448,192,6172,1,0,0:0:0:0:
64,192,6258,1,0,0:0:0:0:
192,192,6258,1,0,0:0:0:0:
320,192,6344,1,0,0:0:0:0:
64,192,6429,1,0,0:0:0:0:
192,192,6515,1,0,0:0:0:0:
448,192,6601,1,0,0:0:0:0:
320,192,6601,1,0,0:0:0:0:
64,192,6687,1,0,0:0:0:0:
448,192,6772,1,0,0:0:0:0:
320,192,6858,1,0,0:0:0:0:
64,192,6944,1,0,0:0:0:0:
192,192,6944,1,0,0:0:0:0:
320,192,7029,1,0,0:0:0:0:
448,192,7115,1,0,0:0:0:0:
320,192,7201,1,0,0:0:0:0:
192,192,7287,1,0,0:0:0:0:
64,192,7287,1,0,0:0:0:0:
448,192,7372,1,0,0:0:0:0:
64,192,7458,1,0,0:0:0:0:
192,192,7544,1,0,0:0:0:0:
320,192,7629,1,0,0:0:0:0:
448,192,7629,1,0,0:0:0:0:
64,192,7715,1,0,0:0:0:0:
448,192,7801,1,0,0:0:0:0:
192,192,7887,1,0,0:0:0:0:
448,192,7972,1,0,0:0:0:0:
320,192,7972,1,0,0:0:0:0:
64,192,8058,1,0,0:0:0:0:
448,192,8144,1,0,0:0:0:0:
320,192,8229,1,0,0:0:0:0:
64,192,8315,1,0,0:0:0:0:
192,192,8315,1,0,0:0:0:0:
448,192,8401,1,0,0:0:0:0:
64,192,8487,1,0,0:0:0:0:
192,192,8572,1,0,0:0:0:0:
448,192,8658,1,0,0:0:0:0:
320,192,8658,1,0,0:0:0:0:
192,192,8744,1,0,0:0:0:0:
64,192,8829,1,0,0:0:0:0:
192,192,8915,1,0,0:0:0:0:
320,192,9001,1,0,0:0:0:0:
448,192,9001,1,0,0:0:0:0:
64,192,9087,1,0,0:0:0:0:
448,192,9172,1,0,0:0:0:0:
320,192,9258,1,0,0:0:0:0:
192,192,9344,1,0,0:0:0:0:
64,192,9344,1,0,0:0:0:0:
320,192,9429,1,0,0:0:0:0:
448,192,9515,1,0,0:0:0:0:
320,192,9601,1,0,0:0:0:0:
64,192,9687,1,0,0:0:0:0:
192,192,9687,1,0,0:0:0:0:
448,192,9772,1,0,0:0:0:0:
192,192,9858,1,0,0:0:0:0:
64,192,9944,1,0,0:0:0:0:
448,192,10029,1,0,0:0:0:0:
320,192,10029,1,0,0:0:0:0:
192,192,10115,1,0,0:0:0:0:
320,192,10201,1,0,0:0:0:0:
64,192,10287,1,0,0:0:0:0:
320,192,10372,1,0,0:0:0:0:
448,192,10372,1,0,0:0:0:0:
64,192,10458,1,0,0:0:0:0:
192,192,10544,1,0,0:0:0:0:
64,192,10629,1,0,0:0:0:0:
192,192,10715,1,0,0:0:0:0:
64,192,10801,1,0,0:0:0:0:
192,192,10887,1,0,0:0:0:0:
320,192,10972,1,0,0:0:0:0:
64,192,11058,1,0,0:0:0:0:
192,192,11058,1,0,0:0:0:0:
448,192,11058,1,0,0:0:0:0:
320,192,11144,1,0,0:0:0:0:
64,192,11229,1,0,0:0:0:0:
320,192,11315,1,0,0:0:0:0:
448,192,11401,1,0,0:0:0:0:
64,192,11401,1,0,0:0:0:0:
192,192,11487,1,0,0:0:0:0:
448,192,11572,1,0,0:0:0:0:
320,192,11658,1,0,0:0:0:0:
64,192,11744,1,0,0:0:0:0:
192,192,11744,1,0,0:0:0:0:
448,192,11829,1,0,0:0:0:0:
192,192,11915,1,0,0:0:0:0:
64,192,12001,1,0,0:0:0:0:
448,192,12087,1,0,0:0:0:0:
320,192,12087,1,0,0:0:0:0:
192,192,12172,1,0,0:0:0:0:
448,192,12258,1,0,0:0:0:0:
320,192,12344,1,0,0:0:0:0:
64,192,12429,1,0,0:0:0:0:
192,192,12429,1,0,0:0:0:0:
448,192,12515,1,0,0:0:0:0:
192,192,12601,1,0,0:0:0:0:
320,192,12687,1,0,0:0:0:0:
448,192,12772,1,0,0:0:0:0:
64,192,12772,1,0,0:0:0:0:
192,192,12858,1,0,0:0:0:0:
448,192,12944,1,0,0:0:0:0:
320,192,13029,1,0,0:0:0:0:
192,192,13115,1,0,0:0:0:0:
448,192,13115,1,0,0:0:0:0:
64,192,13201,1,0,0:0:0:0:
320,192,13287,1,0,0:0:0:0:
64,192,13372,1,0,0:0:0:0:
448,192,13458,1,0,0:0:0:0:
320,192,13458,1,0,0:0:0:0:
192,192,13544,1,0,0:0:0:0:
448,192,13629,1,0,0:0:0:0:
64,192,13715,1,0,0:0:0:0:
320,192,13801,1,0,0:0:0:0:
192,192,13801,1,0,0:0:0:0:
448,192,13887,1,0,0:0:0:0:
64,192,13972,1,0,0:0:0:0:
320,192,14058,1,0,0:0:0:0:
192,192,14144,1,0,0:0:0:0:
448,192,14144,1,0,0:0:0:0:
64,192,14229,1,0,0:0:0:0:
320,192,14315,1,0,0:0:0:0:
192,192,14401,1,0,0:0:0:0:
448,192,14487,1,0,0:0:0:0:
64,192,14487,1,0,0:0:0:0:
192,192,14572,1,0,0:0:0:0:
448,192,14658,1,0,0:0:0:0:
192,192,14744,1,0,0:0:0:0:
64,192,14829,1,0,0:0:0:0:
448,192,14829,1,0,0:0:0:0:
320,192,14915,1,0,0:0:0:0:
64,192,15001,1,0,0:0:0:0:
192,192,15087,1,0,0:0:0:0:
448,192,15172,1,0,0:0:0:0:
320,192,15172,1,0,0:0:0:0:
64,192,15258,1,0,0:0:0:0:
320,192,15344,1,0,0:0:0:0:
192,192,15429,1,0,0:0:0:0:
448,192,15515,1,0,0:0:0:0:
320,192,15515,1,0,0:0:0:0:
64,192,15601,1,0,0:0:0:0:
448,192,15687,1,0,0:0:0:0:
320,192,15772,1,0,0:0:0:0:
192,192,15858,1,0,0:0:0:0:
64,192,15858,1,0,0:0:0:0:
448,192,15944,1,0,0:0:0:0:
192,192,16029,1,0,0:0:0:0:
320,192,16115,1,0,0:0:0:0:
448,192,16201,1,0,0:0:0:0:
64,192,16201,1,0,0:0:0:0:
192,192,16287,1,0,0:0:0:0:
448,192,16372,1,0,0:0:0:0:
320,192,16458,1,0,0:0:0:0:
64,192,16544,1,0,0:0:0:0:
192,192,16544,1,0,0:0:0:0:
448,192,16629,1,0,0:0:0:0:
64,192,16715,1,0,0:0:0:0:
192,192,16801,1,0,0:0:0:0:
320,192,16887,1,0,0:0:0:0:
448,192,16887,1,0,0:0:0:0:
64,192,16972,1,0,0:0:0:0:
448,192,17058,1,0,0:0:0:0:
320,192,17144,1,0,0:0:0:0:
192,192,17229,1,0,0:0:0:0:
64,192,17229,1,0,0:0:0:0:
448,192,17315,1,0,0:0:0:0:
192,192,17401,1,0,0:0:0:0:
320,192,17487,1,0,0:0:0:0:
448,192,17572,1,0,0:0:0:0:
64,192,17572,1,0,0:0:0:0:
192,192,17658,1,0,0:0:0:0:
448,192,17744,1,0,0:0:0:0:
192,192,17829,1,0,0:0:0:0:
448,192,17915,1,0,0:0:0:0:
320,192,17915,1,0,0:0:0:0:
64,192,18001,1,0,0:0:0:0:
448,192,18087,1,0,0:0:0:0:
192,192,18172,1,0,0:0:0:0:
448,192,18258,1,0,0:0:0:0:
320,192,18258,1,0,0:0:0:0:
64,192,18344,1,0,0:0:0:0:
320,192,18429,1,0,0:0:0:0:
192,192,18515,1,0,0:0:0:0:
448,192,18601,1,0,0:0:0:0:
320,192,18601,1,0,0:0:0:0:
192,192,18687,1,0,0:0:0:0:
64,192,18687,1,0,0:0:0:0:
192,192,18772,1,0,0:0:0:0:
320,192,18772,1,0,0:0:0:0:
448,192,18858,1,0,0:0:0:0:
64,192,18858,1,0,0:0:0:0:
448,192,18944,1,0,0:0:0:0:
320,192,18944,1,0,0:0:0:0:
192,192,19029,1,0,0:0:0:0:
64,192,19029,1,0,0:0:0:0:
448,192,19115,1,0,0:0:0:0:
320,192,19115,1,0,0:0:0:0:
64,192,19201,1,0,0:0:0:0:
192,192,19201,1,0,0:0:0:0:
448,192,19287,1,0,0:0:0:0:
320,192,19287,1,0,0:0:0:0:
320,192,19372,1,0,0:0:0:0:
192,192,19372,1,0,0:0:0:0:
192,192,19458,1,0,0:0:0:0:
64,192,19458,1,0,0:0:0:0:
448,192,19544,1,0,0:0:0:0:
320,192,19544,1,0,0:0:0:0:
64,192,19629,1,0,0:0:0:0:
448,192,19629,1,0,0:0:0:0:
320,192,19715,1,0,0:0:0:0:
192,192,19715,1,0,0:0:0:0:
320,192,19801,1,0,0:0:0:0:
448,192,19801,1,0,0:0:0:0:
192,192,19887,1,0,0:0:0:0:
64,192,19887,1,0,0:0:0:0:
448,192,19972,1,0,0:0:0:0:
320,192,19972,1,0,0:0:0:0:
192,192,20058,1,0,0:0:0:0:
64,192,20058,1,0,0:0:0:0:
320,192,20144,1,0,0:0:0:0:
448,192,20144,1,0,0:0:0:0:
64,192,20229,1,0,0:0:0:0:
192,192,20229,1,0,0:0:0:0:
320,192,20315,1,0,0:0:0:0:
448,192,20315,1,0,0:0:0:0:
64,192,20401,1,0,0:0:0:0:
192,192,20487,1,0,0:0:0:0:
320,192,20572,1,0,0:0:0:0:
448,192,20744,128,0,21001:0:0:0:0:
320,192,21001,128,0,21344:0:0:0:0:
64,192,21344,128,0,21687:0:0:0:0:
192,192,21515,128,0,21858:0:0:0:0:
320,192,21687,128,0,21858:0:0:0:0:
64,192,22029,1,0,0:0:0:0:
448,192,22029,1,0,0:0:0:0:
320,192,22115,1,0,0:0:0:0:
192,192,22201,1,0,0:0:0:0:
448,192,22287,1,0,0:0:0:0:
192,192,22372,1,0,0:0:0:0:
64,192,22372,1,0,0:0:0:0:
448,192,22458,1,0,0:0:0:0:
64,192,22544,1,0,0:0:0:0:
320,192,22629,1,0,0:0:0:0:
448,192,22715,1,0,0:0:0:0:
192,192,22715,1,0,0:0:0:0:
64,192,22801,1,0,0:0:0:0:
448,192,22887,1,0,0:0:0:0:
192,192,22972,1,0,0:0:0:0:
448,192,23058,1,0,0:0:0:0:
64,192,23058,1,0,0:0:0:0:
320,192,23144,1,0,0:0:0:0:
192,192,23229,1,0,0:0:0:0:
448,192,23315,1,0,0:0:0:0:
64,192,23401,1,0,0:0:0:0:
320,192,23401,1,0,0:0:0:0:
192,192,23487,1,0,0:0:0:0:
448,192,23572,1,0,0:0:0:0:
64,192,23658,1,0,0:0:0:0:
448,192,23744,1,0,0:0:0:0:
320,192,23744,1,0,0:0:0:0:
192,192,23829,1,0,0:0:0:0:
448,192,23915,1,0,0:0:0:0:
320,192,24001,1,0,0:0:0:0:
64,192,24087,1,0,0:0:0:0:
448,192,24087,1,0,0:0:0:0:
320,192,24172,1,0,0:0:0:0:
192,192,24172,1,0,0:0:0:0:
192,192,24258,1,0,0:0:0:0:
64,192,24258,1,0,0:0:0:0:
448,192,24344,1,0,0:0:0:0:
320,192,24344,1,0,0:0:0:0:
64,192,24429,1,0,0:0:0:0:
192,192,24472,1,0,0:0:0:0:
320,192,24515,1,0,0:0:0:0:
448,192,24558,1,0,0:0:0:0:
64,192,24601,1,0,0:0:0:0:
192,192,24644,1,0,0:0:0:0:
320,192,24687,1,0,0:0:0:0:
448,192,24772,1,0,0:0:0:0:
64,192,24772,1,0,0:0:0:0:
320,192,24858,1,0,0:0:0:0:
192,192,24944,1,0,0:0:0:0:
448,192,24944,1,0,0:0:0:0:
64,192,25029,1,0,0:0:0:0:
192,192,25115,1,0,0:0:0:0:
320,192,25115,1,0,0:0:0:0:
448,192,25201,1,0,0:0:0:0:
320,192,25287,1,0,0:0:0:0:
64,192,25287,1,0,0:0:0:0:
192,192,25372,1,0,0:0:0:0:
64,192,25458,1,0,0:0:0:0:
448,192,25458,1,0,0:0:0:0:
320,192,25544,1,0,0:0:0:0:
192,192,25629,1,0,0:0:0:0:
64,192,25629,1,0,0:0:0:0:
448,192,25715,1,0,0:0:0:0:
320,192,25801,1,0,0:0:0:0:
64,192,25801,1,0,0:0:0:0:
192,192,25887,1,0,0:0:0:0:
320,192,25972,1,0,0:0:0:0:
448,192,25972,1,0,0:0:0:0:
192,192,26058,1,0,0:0:0:0:
64,192,26144,1,0,0:0:0:0:
448,192,26144,1,0,0:0:0:0:
320,192,26229,1,0,0:0:0:0:
192,192,26315,1,0,0:0:0:0:
64,192,26315,1,0,0:0:0:0:
320,192,26401,1,0,0:0:0:0:
448,192,26487,1,0,0:0:0:0:
64,192,26487,1,0,0:0:0:0:
320,192,26572,1,0,0:0:0:0:
192,192,26658,1,0,0:0:0:0:
448,192,26658,1,0,0:0:0:0:
64,192,26744,1,0,0:0:0:0:
192,192,26829,1,0,0:0:0:0:
448,192,26829,1,0,0:0:0:0:
320,192,26915,1,0,0:0:0:0:
192,192,27001,1,0,0:0:0:0:
64,192,27001,1,0,0:0:0:0:
320,192,27087,1,0,0:0:0:0:
192,192,27172,128,0,27429:0:0:0:0:
448,192,27172,128,0,27429:0:0:0:0:
64,192,27258,128,0,27344:0:0:0:0:
320,192,27344,128,0,27429:0:0:0:0:
64,192,27515,1,0,0:0:0:0:
448,192,27515,1,0,0:0:0:0:
192,192,27601,1,0,0:0:0:0:
64,192,27687,1,0,0:0:0:0:
192,192,27772,1,0,0:0:0:0:
448,192,27858,1,0,0:0:0:0:
320,192,27858,1,0,0:0:0:0:
64,192,27944,1,0,0:0:0:0:
448,192,28029,1,0,0:0:0:0:
320,192,28115,1,0,0:0:0:0:
64,192,28201,1,0,0:0:0:0:
192,192,28201,1,0,0:0:0:0:
448,192,28287,1,0,0:0:0:0:
64,192,28372,1,0,0:0:0:0:
192,192,28458,1,0,0:0:0:0:
320,192,28544,1,0,0:0:0:0:
448,192,28544,1,0,0:0:0:0:
64,192,28629,1,0,0:0:0:0:
448,192,28715,1,0,0:0:0:0:
320,192,28801,1,0,0:0:0:0:
192,192,28887,1,0,0:0:0:0:
64,192,28887,1,0,0:0:0:0:
448,192,28972,1,0,0:0:0:0:
192,192,29058,1,0,0:0:0:0:
64,192,29144,1,0,0:0:0:0:
320,192,29229,1,0,0:0:0:0:
448,192,29229,1,0,0:0:0:0:
192,192,29315,1,0,0:0:0:0:
448,192,29401,1,0,0:0:0:0:
320,192,29487,1,0,0:0:0:0:
64,192,29572,1,0,0:0:0:0:
192,192,29572,1,0,0:0:0:0:
448,192,29658,1,0,0:0:0:0:
320,192,29744,1,0,0:0:0:0:
64,192,29829,1,0,0:0:0:0:
320,192,29915,1,0,0:0:0:0:
448,192,29915,1,0,0:0:0:0:
192,192,30001,1,0,0:0:0:0:
448,192,30087,1,0,0:0:0:0:
320,192,30172,1,0,0:0:0:0:
192,192,30258,1,0,0:0:0:0:
64,192,30258,1,0,0:0:0:0:
320,192,30344,1,0,0:0:0:0:
448,192,30429,1,0,0:0:0:0:
192,192,30429,1,0,0:0:0:0:
320,192,30515,1,0,0:0:0:0:
64,192,30515,1,0,0:0:0:0:
192,192,30601,1,0,0:0:0:0:
448,192,30601,1,0,0:0:0:0:
320,192,30687,1,0,0:0:0:0:
64,192,30772,1,0,0:0:0:0:
448,192,30772,1,0,0:0:0:0:
192,192,30858,1,0,0:0:0:0:
320,192,30858,1,0,0:0:0:0:
448,192,30944,1,0,0:0:0:0:
320,192,30944,1,0,0:0:0:0:
64,192,31029,1,0,0:0:0:0:
192,192,31029,1,0,0:0:0:0:
320,192,31115,1,0,0:0:0:0:
448,192,31115,1,0,0:0:0:0:
192,192,31201,1,0,0:0:0:0:
320,192,31201,1,0,0:0:0:0:
64,192,31287,1,0,0:0:0:0:
192,192,31287,1,0,0:0:0:0:
320,192,31372,1,0,0:0:0:0:
448,192,31458,1,0,0:0:0:0:
64,192,31458,1,0,0:0:0:0:
320,192,31544,1,0,0:0:0:0:
64,192,31629,1,0,0:0:0:0:
192,192,31629,1,0,0:0:0:0:
448,192,31672,1,0,0:0:0:0:
320,192,31715,1,0,0:0:0:0:
192,192,31758,1,0,0:0:0:0:
64,192,31801,1,0,0:0:0:0:
448,192,31844,1,0,0:0:0:0:
320,192,31887,1,0,0:0:0:0:
192,192,31929,1,0,0:0:0:0:
64,192,31972,1,0,0:0:0:0:
448,192,32015,1,0,0:0:0:0:
320,192,32058,1,0,0:0:0:0:
192,192,32101,1,0,0:0:0:0:
320,192,32144,1,0,0:0:0:0:
64,192,32144,1,0,0:0:0:0:
448,192,32144,1,0,0:0:0:0:
320,192,32315,1,0,0:0:0:0:
192,192,32315,1,0,0:0:0:0:
64,192,32401,1,0,0:0:0:0:
448,192,32487,1,0,0:0:0:0:
64,192,32572,1,0,0:0:0:0:
448,192,32658,1,0,0:0:0:0:
64,192,32744,1,0,0:0:0:0:
448,192,32829,1,0,0:0:0:0:
64,192,32915,1,0,0:0:0:0:
448,192,33001,128,0,33344:0:0:0:0:
320,192,33001,1,0,0:0:0:0:
64,192,33087,1,0,0:0:0:0:
192,192,33172,1,0,0:0:0:0:
320,192,33258,1,0,0:0:0:0:
64,192,33344,128,0,34029:0:0:0:0:
192,192,33344,1,0,0:0:0:0:
320,192,33429,1,0,0:0:0:0:
448,192,33515,1,0,0:0:0:0:
192,192,33601,1,0,0:0:0:0:
448,192,33687,1,0,0:0:0:0:
320,192,33687,1,0,0:0:0:0:
192,192,33772,1,0,0:0:0:0:
448,192,33858,1,0,0:0:0:0:
192,192,33944,1,0,0:0:0:0:
448,192,34029,128,0,35058:0:0:0:0:
320,192,34029,1,0,0:0:0:0:
192,192,34115,1,0,0:0:0:0:
64,192,34201,1,0,0:0:0:0:
320,192,34287,1,0,0:0:0:0:
64,192,34372,1,0,0:0:0:0:
192,192,34372,1,0,0:0:0:0:
320,192,34458,1,0,0:0:0:0:
192,192,34544,1,0,0:0:0:0:
64,192,34629,1,0,0:0:0:0:
320,192,34715,1,0,0:0:0:0:
192,192,34715,1,0,0:0:0:0:
64,192,34801,1,0,0:0:0:0:
320,192,34887,1,0,0:0:0:0:
192,192,34972,1,0,0:0:0:0:
320,192,35058,1,0,0:0:0:0:
64,192,35058,1,0,0:0:0:0:
192,192,35144,1,0,0:0:0:0:
320,192,35144,1,0,0:0:0:0:
64,192,35229,1,0,0:0:0:0:
448,192,35229,1,0,0:0:0:0:
192,192,35315,1,0,0:0:0:0:
320,192,35315,1,0,0:0:0:0:
448,192,35401,1,0,0:0:0:0:
64,192,35401,128,0,35744:0:0:0:0:
320,192,35487,1,0,0:0:0:0:
192,192,35572,1,0,0:0:0:0:
448,192,35658,1,0,0:0:0:0:
320,192,35744,1,0,0:0:0:0:
192,192,35744,1,0,0:0:0:0:
448,192,35829,1,0,0:0:0:0:
64,192,35915,1,0,0:0:0:0:
192,192,35915,1,0,0:0:0:0:
320,192,36001,1,0,0:0:0:0:
192,192,36087,1,0,0:0:0:0:
64,192,36087,1,0,0:0:0:0:
448,192,36172,1,0,0:0:0:0:
320,192,36258,1,0,0:0:0:0:
64,192,36258,1,0,0:0:0:0:
192,192,36344,1,0,0:0:0:0:
320,192,36429,1,0,0:0:0:0:
448,192,36429,1,0,0:0:0:0:
64,192,36515,1,0,0:0:0:0:
320,192,36601,1,0,0:0:0:0:
192,192,36601,1,0,0:0:0:0:
448,192,36687,1,0,0:0:0:0:
64,192,36772,1,0,0:0:0:0:
320,192,36772,1,0,0:0:0:0:
192,192,36858,1,0,0:0:0:0:
320,192,36944,1,0,0:0:0:0:
448,192,36944,1,0,0:0:0:0:
192,192,37029,1,0,0:0:0:0:
64,192,37115,1,0,0:0:0:0:
320,192,37115,1,0,0:0:0:0:
448,192,37201,1,0,0:0:0:0:
320,192,37287,1,0,0:0:0:0:
192,192,37287,1,0,0:0:0:0:
64,192,37372,1,0,0:0:0:0:
192,192,37458,1,0,0:0:0:0:
320,192,37458,1,0,0:0:0:0:
448,192,37544,1,0,0:0:0:0:
320,192,37629,1,0,0:0:0:0:
64,192,37629,1,0,0:0:0:0:
192,192,37715,1,0,0:0:0:0:
448,192,37801,1,0,0:0:0:0:
320,192,37801,1,0,0:0:0:0:
192,192,37887,1,0,0:0:0:0:
448,192,37972,1,0,0:0:0:0:
64,192,37972,1,0,0:0:0:0:
192,192,38058,1,0,0:0:0:0:
64,192,38144,128,0,38401:0:0:0:0:
448,192,38144,1,0,0:0:0:0:
320,192,38487,1,0,0:0:0:0:
192,192,38487,1,0,0:0:0:0:
448,192,38487,1,0,0:0:0:0:
64,192,38572,1,0,0:0:0:0:
192,192,38658,1,0,0:0:0:0:
320,192,38658,1,0,0:0:0:0:
448,192,38658,1,0,0:0:0:0:
64,192,38744,1,0,0:0:0:0:
192,192,38829,1,0,0:0:0:0:
448,192,38829,1,0,0:0:0:0:
320,192,38915,1,0,0:0:0:0:
448,192,39001,1,0,0:0:0:0:
64,192,39001,1,0,0:0:0:0:
192,192,39001,1,0,0:0:0:0:
320,192,39087,1,0,0:0:0:0:
192,192,39172,1,0,0:0:0:0:
64,192,39172,1,0,0:0:0:0:
448,192,39172,1,0,0:0:0:0:
320,192,39258,1,0,0:0:0:0:
192,192,39344,1,0,0:0:0:0:
64,192,39344,1,0,0:0:0:0:
448,192,39344,1,0,0:0:0:0:
320,192,39429,1,0,0:0:0:0:
192,192,39515,1,0,0:0:0:0:
64,192,39515,1,0,0:0:0:0:
448,192,39515,1,0,0:0:0:0:
320,192,39601,1,0,0:0:0:0:
64,192,39687,1,0,0:0:0:0:
448,192,39772,1,0,0:0:0:0:
320,192,39858,1,0,0:0:0:0:
192,192,39858,1,0,0:0:0:0:
64,192,39858,1,0,0:0:0:0:
448,192,39944,1,0,0:0:0:0:
64,192,40029,1,0,0:0:0:0:
192,192,40029,1,0,0:0:0:0:
320,192,40029,1,0,0:0:0:0:
448,192,40115,1,0,0:0:0:0:
320,192,40201,1,0,0:0:0:0:
64,192,40201,1,0,0:0:0:0:
192,192,40287,1,0,0:0:0:0:
448,192,40372,1,0,0:0:0:0:
320,192,40372,1,0,0:0:0:0:
64,192,40372,1,0,0:0:0:0:
192,192,40458,1,0,0:0:0:0:
64,192,40544,1,0,0:0:0:0:
320,192,40544,1,0,0:0:0:0:
448,192,40544,1,0,0:0:0:0:
192,192,40629,1,0,0:0:0:0:
448,192,40715,1,0,0:0:0:0:
320,192,40715,1,0,0:0:0:0:
64,192,40715,1,0,0:0:0:0:
192,192,40801,1,0,0:0:0:0:
64,192,40887,1,0,0:0:0:0:
320,192,40887,1,0,0:0:0:0:
448,192,40887,1,0,0:0:0:0:
192,192,40972,1,0,0:0:0:0:
448,192,41058,1,0,0:0:0:0:
64,192,41144,1,0,0:0:0:0:
320,192,41229,1,0,0:0:0:0:
192,192,41229,1,0,0:0:0:0:
448,192,41229,1,0,0:0:0:0:
64,192,41315,1,0,0:0:0:0:
448,192,41401,1,0,0:0:0:0:
320,192,41401,1,0,0:0:0:0:
192,192,41401,1,0,0:0:0:0:
64,192,41487,1,0,0:0:0:0:
448,192,41572,1,0,0:0:0:0:
192,192,41572,1,0,0:0:0:0:
320,192,41658,1,0,0:0:0:0:
448,192,41744,1,0,0:0:0:0:
192,192,41744,1,0,0:0:0:0:
64,192,41744,1,0,0:0:0:0:
320,192,41829,1,0,0:0:0:0:
192,192,41915,1,0,0:0:0:0:
64,192,41915,1,0,0:0:0:0:
448,192,41915,1,0,0:0:0:0:
320,192,42001,1,0,0:0:0:0:
192,192,42087,1,0,0:0:0:0:
64,192,42087,1,0,0:0:0:0:
448,192,42087,1,0,0:0:0:0:
320,192,42172,1,0,0:0:0:0:
448,192,42258,1,0,0:0:0:0:
64,192,42258,1,0,0:0:0:0:
192,192,42258,1,0,0:0:0:0:
320,192,42344,1,0,0:0:0:0:
64,192,42429,1,0,0:0:0:0:
320,192,42515,1,0,0:0:0:0:
320,192,42687,128,0,42944:0:0:0:0:
192,192,42944,128,0,43201:0:0:0:0:
192,192,43372,128,0,43629:0:0:0:0:
448,192,43458,128,0,43629:0:0:0:0:
64,192,43629,128,0,43715:0:0:0:0:
320,192,43629,128,0,43801:0:0:0:0:
320,192,43972,1,0,0:0:0:0:
448,192,43972,128,0,44487:0:0:0:0:
192,192,44058,1,0,0:0:0:0:
64,192,44144,1,0,0:0:0:0:
320,192,44229,1,0,0:0:0:0:
192,192,44315,1,0,0:0:0:0:
64,192,44315,1,0,0:0:0:0:
320,192,44401,1,0,0:0:0:0:
64,192,44487,1,0,0:0:0:0:
192,192,44487,128,0,45001:0:0:0:0:
320,192,44572,1,0,0:0:0:0:
448,192,44658,1,0,0:0:0:0:
64,192,44658,1,0,0:0:0:0:
320,192,44744,1,0,0:0:0:0:
64,192,44829,1,0,0:0:0:0:
320,192,44915,1,0,0:0:0:0:
64,192,45001,1,0,0:0:0:0:
448,192,45001,128,0,45344:0:0:0:0:
320,192,45087,1,0,0:0:0:0:
192,192,45172,1,0,0:0:0:0:
64,192,45258,1,0,0:0:0:0:
320,192,45344,128,0,46029:0:0:0:0:
192,192,45344,1,0,0:0:0:0:
64,192,45429,1,0,0:0:0:0:
448,192,45515,1,0,0:0:0:0:
192,192,45601,1,0,0:0:0:0:
64,192,45687,1,0,0:0:0:0:
448,192,45687,1,0,0:0:0:0:
192,192,45772,1,0,0:0:0:0:
448,192,45858,1,0,0:0:0:0:
64,192,45944,1,0,0:0:0:0:
192,192,46029,128,0,46715:0:0:0:0:
448,192,46029,1,0,0:0:0:0:
448,192,46115,1,0,0:0:0:0:
320,192,46201,1,0,0:0:0:0:
320,192,46287,1,0,0:0:0:0:
448,192,46372,1,0,0:0:0:0:
64,192,46372,1,0,0:0:0:0:
320,192,46458,1,0,0:0:0:0:
64,192,46544,1,0,0:0:0:0:
448,192,46629,1,0,0:0:0:0:
64,192,46715,128,0,47229:0:0:0:0:
320,192,46715,1,0,0:0:0:0:
448,192,46801,1,0,0:0:0:0:
192,192,46887,1,0,0:0:0:0:
320,192,46887,1,0,0:0:0:0:
448,192,46972,1,0,0:0:0:0:
320,192,47058,1,0,0:0:0:0:
192,192,47058,1,0,0:0:0:0:
448,192,47144,1,0,0:0:0:0:
192,192,47229,128,0,47744:0:0:0:0:
320,192,47229,1,0,0:0:0:0:
448,192,47315,1,0,0:0:0:0:
320,192,47401,1,0,0:0:0:0:
64,192,47401,1,0,0:0:0:0:
448,192,47487,1,0,0:0:0:0:
320,192,47572,1,0,0:0:0:0:
64,192,47572,1,0,0:0:0:0:
448,192,47658,1,0,0:0:0:0:
320,192,47744,128,0,48087:0:0:0:0:
64,192,47744,1,0,0:0:0:0:
448,192,47829,1,0,0:0:0:0:
64,192,47915,1,0,0:0:0:0:
192,192,48001,1,0,0:0:0:0:
64,192,48087,1,0,0:0:0:0:
448,192,48087,128,0,49115:0:0:0:0:
192,192,48172,1,0,0:0:0:0:
320,192,48258,1,0,0:0:0:0:
64,192,48344,1,0,0:0:0:0:
320,192,48429,1,0,0:0:0:0:
192,192,48429,1,0,0:0:0:0:
64,192,48515,1,0,0:0:0:0:
320,192,48601,1,0,0:0:0:0:
64,192,48687,1,0,0:0:0:0:
320,192,48772,1,0,0:0:0:0:
192,192,48772,1,0,0:0:0:0:
64,192,48858,1,0,0:0:0:0:
320,192,48944,1,0,0:0:0:0:
192,192,49029,1,0,0:0:0:0:
320,192,49115,1,0,0:0:0:0:
64,192,49115,1,0,0:0:0:0:
320,192,49287,1,0,0:0:0:0:
192,192,49287,1,0,0:0:0:0:
320,192,49458,1,0,0:0:0:0:
448,192,49458,128,0,49801:0:0:0:0:
64,192,49544,1,0,0:0:0:0:
192,192,49629,1,0,0:0:0:0:
320,192,49715,1,0,0:0:0:0:
192,192,49801,128,0,49972:0:0:0:0:
64,192,49801,1,0,0:0:0:0:
320,192,49887,1,0,0:0:0:0:
448,192,49972,1,0,0:0:0:0:
64,192,49972,128,0,50487:0:0:0:0:
320,192,50058,1,0,0:0:0:0:
448,192,50144,1,0,0:0:0:0:
192,192,50144,1,0,0:0:0:0:
320,192,50229,1,0,0:0:0:0:
192,192,50315,1,0,0:0:0:0:
448,192,50401,1,0,0:0:0:0:
320,192,50487,1,0,0:0:0:0:
192,192,50487,128,0,50829:0:0:0:0:
448,192,50572,1,0,0:0:0:0:
320,192,50658,1,0,0:0:0:0:
64,192,50744,1,0,0:0:0:0:
320,192,50829,128,0,51515:0:0:0:0:
448,192,50829,1,0,0:0:0:0:
64,192,50915,1,0,0:0:0:0:
192,192,51001,1,0,0:0:0:0:
448,192,51087,1,0,0:0:0:0:
192,192,51172,1,0,0:0:0:0:
64,192,51172,1,0,0:0:0:0:
448,192,51258,1,0,0:0:0:0:
192,192,51344,1,0,0:0:0:0:
64,192,51429,1,0,0:0:0:0:
448,192,51515,128,0,51858:0:0:0:0:
192,192,51515,1,0,0:0:0:0:
192,192,51601,1,0,0:0:0:0:
64,192,51687,1,0,0:0:0:0:
64,192,51772,1,0,0:0:0:0:
192,192,51858,128,0,52201:0:0:0:0:
320,192,51858,1,0,0:0:0:0:
64,192,51944,1,0,0:0:0:0:
448,192,52029,1,0,0:0:0:0:
64,192,52115,1,0,0:0:0:0:
320,192,52201,128,0,52715:0:0:0:0:
448,192,52201,1,0,0:0:0:0:
64,192,52287,1,0,0:0:0:0:
448,192,52372,1,0,0:0:0:0:
64,192,52458,1,0,0:0:0:0:
448,192,52544,1,0,0:0:0:0:
192,192,52544,1,0,0:0:0:0:
64,192,52629,1,0,0:0:0:0:
192,192,52715,128,0,53229:0:0:0:0:
448,192,52715,1,0,0:0:0:0:
64,192,52801,1,0,0:0:0:0:
448,192,52887,1,0,0:0:0:0:
320,192,52887,1,0,0:0:0:0:
64,192,52972,1,0,0:0:0:0:
448,192,53058,1,0,0:0:0:0:
64,192,53144,1,0,0:0:0:0:
320,192,53229,128,0,53572:0:0:0:0:
448,192,53229,1,0,0:0:0:0:
64,192,53315,1,0,0:0:0:0:
448,192,53401,1,0,0:0:0:0:
192,192,53487,1,0,0:0:0:0:
448,192,53572,128,0,54172:0:0:0:0:
64,192,53572,1,0,0:0:0:0:
192,192,53658,1,0,0:0:0:0:
320,192,53744,1,0,0:0:0:0:
64,192,53829,1,0,0:0:0:0:
320,192,53915,1,0,0:0:0:0:
192,192,53915,1,0,0:0:0:0:
64,192,54001,1,0,0:0:0:0:
320,192,54087,1,0,0:0:0:0:
192,192,54172,1,0,0:0:0:0:
64,192,54258,1,0,0:0:0:0:
320,192,54258,1,0,0:0:0:0:
192,192,54344,1,0,0:0:0:0:
192,192,54429,1,0,0:0:0:0:
320,192,54515,1,0,0:0:0:0:
320,192,54601,1,0,0:0:0:0:
64,192,54687,1,0,0:0:0:0:
64,192,54772,1,0,0:0:0:0:
192,192,54858,1,0,0:0:0:0:
448,192,54944,128,0,55287:0:0:0:0:
320,192,54944,1,0,0:0:0:0:
64,192,54944,1,0,0:0:0:0:
192,192,55029,1,0,0:0:0:0:
64,192,55115,1,0,0:0:0:0:
320,192,55201,1,0,0:0:0:0:
192,192,55287,128,0,55458:0:0:0:0:
64,192,55287,1,0,0:0:0:0:
448,192,55458,1,0,0:0:0:0:
64,192,55458,128,0,55972:0:0:0:0:
320,192,55544,1,0,0:0:0:0:
192,192,55629,1,0,0:0:0:0:
448,192,55629,1,0,0:0:0:0:
320,192,55715,1,0,0:0:0:0:
192,192,55801,1,0,0:0:0:0:
320,192,55887,1,0,0:0:0:0:
192,192,55972,128,0,56315:0:0:0:0:
448,192,55972,1,0,0:0:0:0:
320,192,56058,1,0,0:0:0:0:
64,192,56144,1,0,0:0:0:0:
320,192,56229,1,0,0:0:0:0:
448,192,56315,128,0,57001:0:0:0:0:
64,192,56315,1,0,0:0:0:0:
320,192,56401,1,0,0:0:0:0:
64,192,56487,1,0,0:0:0:0:
320,192,56572,1,0,0:0:0:0:
64,192,56658,1,0,0:0:0:0:
192,192,56658,1,0,0:0:0:0:
320,192,56744,1,0,0:0:0:0:
64,192,56829,1,0,0:0:0:0:
192,192,56915,1,0,0:0:0:0:
320,192,57001,128,0,57344:0:0:0:0:
64,192,57001,1,0,0:0:0:0:
448,192,57087,1,0,0:0:0:0:
192,192,57087,1,0,0:0:0:0:
64,192,57172,1,0,0:0:0:0:
448,192,57258,1,0,0:0:0:0:
192,192,57258,1,0,0:0:0:0:
192,192,57344,128,0,57687:0:0:0:0:
64,192,57344,1,0,0:0:0:0:
448,192,57429,1,0,0:0:0:0:
320,192,57515,1,0,0:0:0:0:
64,192,57601,1,0,0:0:0:0:
448,192,57687,1,0,0:0:0:0:
320,192,57687,128,0,58201:0:0:0:0:
64,192,57772,1,0,0:0:0:0:
448,192,57858,1,0,0:0:0:0:
192,192,57944,1,0,0:0:0:0:
64,192,58029,1,0,0:0:0:0:
448,192,58115,1,0,0:0:0:0:
192,192,58201,128,0,58715:0:0:0:0:
64,192,58201,1,0,0:0:0:0:
448,192,58287,1,0,0:0:0:0:
320,192,58372,1,0,0:0:0:0:
64,192,58372,1,0,0:0:0:0:
448,192,58458,1,0,0:0:0:0:
320,192,58544,1,0,0:0:0:0:
64,192,58629,1,0,0:0:0:0:
448,192,58715,128,0,59058:0:0:0:0:
320,192,58715,1,0,0:0:0:0:
64,192,58801,1,0,0:0:0:0:
320,192,58887,1,0,0:0:0:0:
64,192,58972,1,0,0:0:0:0:
320,192,59058,128,0,60429:0:0:0:0:
192,192,59058,1,0,0:0:0:0:
64,192,59144,1,0,0:0:0:0:
448,192,59229,1,0,0:0:0:0:
192,192,59315,1,0,0:0:0:0:
64,192,59401,1,0,0:0:0:0:
448,192,59401,1,0,0:0:0:0:
192,192,59487,1,0,0:0:0:0:
448,192,59572,1,0,0:0:0:0:
192,192,59658,1,0,0:0:0:0:
64,192,59744,1,0,0:0:0:0:
448,192,59744,1,0,0:0:0:0:
192,192,59829,1,0,0:0:0:0:
448,192,59915,1,0,0:0:0:0:
64,192,60001,1,0,0:0:0:0:
192,192,60087,1,0,0:0:0:0:
448,192,60087,1,0,0:0:0:0:
64,192,60172,1,0,0:0:0:0:
448,192,60258,1,0,0:0:0:0:
64,192,60344,1,0,0:0:0:0:
192,192,60429,128,0,60772:0:0:0:0:
448,192,60429,1,0,0:0:0:0:
64,192,60515,1,0,0:0:0:0:
320,192,60601,1,0,0:0:0:0:
448,192,60687,1,0,0:0:0:0:
320,192,60772,128,0,60944:0:0:0:0:
64,192,60772,1,0,0:0:0:0:
192,192,60858,1,0,0:0:0:0:
448,192,60944,128,0,61458:0:0:0:0:
64,192,60944,1,0,0:0:0:0:
192,192,61029,1,0,0:0:0:0:
320,192,61115,1,0,0:0:0:0:
64,192,61115,1,0,0:0:0:0:
192,192,61201,1,0,0:0:0:0:
320,192,61287,1,0,0:0:0:0:
64,192,61372,1,0,0:0:0:0:
192,192,61458,128,0,61801:0:0:0:0:
320,192,61458,1,0,0:0:0:0:
64,192,61544,1,0,0:0:0:0:
448,192,61629,1,0,0:0:0:0:
64,192,61715,1,0,0:0:0:0:
320,192,61801,128,0,62487:0:0:0:0:
448,192,61801,1,0,0:0:0:0:
64,192,61887,1,0,0:0:0:0:
192,192,61972,1,0,0:0:0:0:
448,192,62058,1,0,0:0:0:0:
64,192,62144,1,0,0:0:0:0:
192,192,62144,1,0,0:0:0:0:
448,192,62229,1,0,0:0:0:0:
192,192,62315,1,0,0:0:0:0:
64,192,62401,1,0,0:0:0:0:
192,192,62487,1,0,0:0:0:0:
448,192,62487,128,0,63172:0:0:0:0:
64,192,62572,1,0,0:0:0:0:
320,192,62658,1,0,0:0:0:0:
192,192,62658,1,0,0:0:0:0:
64,192,62744,1,0,0:0:0:0:
192,192,62829,1,0,0:0:0:0:
320,192,62829,1,0,0:0:0:0:
64,192,62915,1,0,0:0:0:0:
320,192,63001,1,0,0:0:0:0:
192,192,63087,1,0,0:0:0:0:
64,192,63172,128,0,63687:0:0:0:0:
320,192,63172,1,0,0:0:0:0:
192,192,63258,1,0,0:0:0:0:
320,192,63344,1,0,0:0:0:0:
448,192,63429,1,0,0:0:0:0:
320,192,63515,1,0,0:0:0:0:
192,192,63515,1,0,0:0:0:0:
448,192,63601,1,0,0:0:0:0:
192,192,63687,128,0,64201:0:0:0:0:
448,192,63772,1,0,0:0:0:0:
320,192,63858,1,0,0:0:0:0:
64,192,63858,1,0,0:0:0:0:
448,192,63944,1,0,0:0:0:0:
320,192,64029,1,0,0:0:0:0:
64,192,64115,1,0,0:0:0:0:
320,192,64201,128,0,64544:0:0:0:0:
448,192,64201,1,0,0:0:0:0:
64,192,64287,1,0,0:0:0:0:
448,192,64372,1,0,0:0:0:0:
192,192,64458,1,0,0:0:0:0:
448,192,64544,128,0,64972:0:0:0:0:
64,192,64544,1,0,0:0:0:0:
192,192,64629,1,0,0:0:0:0:
320,192,64715,1,0,0:0:0:0:
192,192,64801,1,0,0:0:0:0:
64,192,64887,1,0,0:0:0:0:
192,192,64972,1,0,0:0:0:0:
320,192,65058,1,0,0:0:0:0:
448,192,65144,1,0,0:0:0:0:
320,192,65229,1,0,0:0:0:0:
192,192,65315,1,0,0:0:0:0:
64,192,65401,1,0,0:0:0:0:
192,192,65487,1,0,0:0:0:0:
320,192,65572,1,0,0:0:0:0:
192,192,65658,1,0,0:0:0:0:
64,192,65744,1,0,0:0:0:0:
64,192,65829,1,0,0:0:0:0:
192,192,65915,128,0,66258:0:0:0:0:
320,192,66258,128,0,66429:0:0:0:0:
192,192,66429,128,0,66944:0:0:0:0:
64,192,66944,128,0,67287:0:0:0:0:
192,192,67287,128,0,67972:0:0:0:0:
448,192,67972,128,0,68315:0:0:0:0:
320,192,68315,128,0,68658:0:0:0:0:
64,192,68658,128,0,69172:0:0:0:0:
192,192,69172,128,0,69515:0:0:0:0:
448,192,69515,128,0,69687:0:0:0:0:
320,192,69687,128,0,70029:0:0:0:0:
192,192,70029,128,0,71401:0:0:0:0:
64,192,70029,128,0,71401:0:0:0:0:
320,192,71401,128,0,71744:0:0:0:0:
448,192,71744,128,0,71915:0:0:0:0:
192,192,71915,128,0,72429:0:0:0:0:
64,192,72429,128,0,72772:0:0:0:0:
192,192,72772,128,0,73458:0:0:0:0:
320,192,73458,128,0,73801:0:0:0:0:
448,192,73801,128,0,74144:0:0:0:0:
64,192,74144,128,0,75515:0:0:0:0:
320,192,74487,1,0,0:0:0:0:
448,192,74658,128,0,75001:0:0:0:0:
320,192,75001,1,0,0:0:0:0:
192,192,75172,128,0,75515:0:0:0:0:
320,192,75515,128,0,76887:0:0:0:0:
448,192,75515,128,0,76887:0:0:0:0:
64,192,76887,128,0,77915:0:0:0:0:
192,192,77229,128,0,77401:0:0:0:0:
448,192,77401,128,0,77572:0:0:0:0:
192,192,77572,128,0,77744:0:0:0:0:
320,192,77744,128,0,77915:0:0:0:0:
192,192,77915,128,0,78258:0:0:0:0:
448,192,77915,128,0,78429:0:0:0:0:
320,192,78258,128,0,78429:0:0:0:0:
192,192,78601,128,0,78858:0:0:0:0:
320,192,78858,1,0,0:0:0:0:
448,192,78858,128,0,79115:0:0:0:0:
320,192,79287,1,0,0:0:0:0:
192,192,79287,128,0,79629:0:0:0:0:
64,192,79629,1,0,0:0:0:0:
448,192,79629,128,0,79801:0:0:0:0:
192,192,79887,1,0,0:0:0:0:
320,192,79887,128,0,80058:0:0:0:0:
448,192,80058,128,0,80229:0:0:0:0:
64,192,80229,128,0,80744:0:0:0:0:
192,192,80744,128,0,80915:0:0:0:0:
448,192,80915,128,0,81172:0:0:0:0:
320,192,81172,128,0,81429:0:0:0:0:
64,192,81429,128,0,81687:0:0:0:0:
448,192,82372,128,0,83058:0:0:0:0:
320,192,82372,128,0,83058:0:0:0:0:
192,192,83058,128,0,83401:0:0:0:0:
64,192,83401,128,0,83744:0:0:0:0:
192,192,83744,128,0,84515:0:0:0:0:
320,192,84515,128,0,85029:0:0:0:0:
448,192,85029,128,0,87858:0:0:0:0:
192,192,85029,128,0,86487:0:0:0:0:
64,192,86487,128,0,87172:0:0:0:0:
320,192,87858,128,0,88372:0:0:0:0:
64,192,88372,1,0,0:0:0:0:
448,192,88544,1,0,0:0:0:0:
192,192,88715,1,0,0:0:0:0:
320,192,88887,128,0,89144:0:0:0:0:
64,192,89229,1,0,0:0:0:0:
64,192,89315,1,0,0:0:0:0:
448,192,89401,1,0,0:0:0:0:
448,192,89487,1,0,0:0:0:0:
64,192,89572,1,0,0:0:0:0:
192,192,89915,1,0,0:0:0:0:
320,192,89915,1,0,0:0:0:0:
64,192,90258,1,0,0:0:0:0:
192,192,90258,1,0,0:0:0:0:
192,192,90601,1,0,0:0:0:0:
320,192,90601,1,0,0:0:0:0:
192,192,90772,1,0,0:0:0:0:
320,192,90772,1,0,0:0:0:0:
448,192,90944,1,0,0:0:0:0:
192,192,91287,1,0,0:0:0:0:
320,192,91458,1,0,0:0:0:0:
448,192,91629,128,0,91972:0:0:0:0:
192,192,91972,1,0,0:0:0:0:
192,192,92144,1,0,0:0:0:0:
320,192,92315,128,0,92487:0:0:0:0:
64,192,92487,1,0,0:0:0:0:
448,192,92658,1,0,0:0:0:0:
192,192,93001,128,0,93172:0:0:0:0:
64,192,93344,128,0,93772:0:0:0:0:
448,192,93858,128,0,93944:0:0:0:0:
192,192,93858,128,0,93944:0:0:0:0:
64,192,94029,128,0,94287:0:0:0:0:
320,192,94029,128,0,94287:0:0:0:0:
192,192,94372,128,0,94715:0:0:0:0:
320,192,94372,128,0,94715:0:0:0:0:
64,192,94715,128,0,94972:0:0:0:0:
448,192,94715,128,0,94972:0:0:0:0:
192,192,95058,1,0,0:0:0:0:
192,192,95144,1,0,0:0:0:0:
320,192,95229,128,0,95487:0:0:0:0:
192,192,95572,1,0,0:0:0:0:
192,192,95744,1,0,0:0:0:0:
64,192,95915,128,0,96087:0:0:0:0:
448,192,96087,1,0,0:0:0:0:
64,192,96258,1,0,0:0:0:0:
320,192,96429,1,0,0:0:0:0:
320,192,96515,1,0,0:0:0:0:
320,192,96601,1,0,0:0:0:0:
64,192,96772,128,0,97029:0:0:0:0:
64,192,97115,128,0,97372:0:0:0:0:
64,192,97458,128,0,97715:0:0:0:0:
64,192,97801,128,0,98058:0:0:0:0:
64,192,98144,128,0,98401:0:0:0:0:
64,192,98487,128,0,98744:0:0:0:0:
64,192,98829,128,0,99087:0:0:0:0:
64,192,99172,128,0,99429:0:0:0:0:
64,192,99515,128,0,99772:0:0:0:0:
64,192,99858,128,0,100115:0:0:0:0:
64,192,100201,128,0,100458:0:0:0:0:
64,192,100544,128,0,100801:0:0:0:0:
192,192,100887,1,0,0:0:0:0:
320,192,100972,1,0,0:0:0:0:
192,192,101229,1,0,0:0:0:0:
64,192,101229,1,0,0:0:0:0:
320,192,101315,1,0,0:0:0:0:
448,192,101315,1,0,0:0:0:0:
192,192,101401,1,0,0:0:0:0:
64,192,101401,1,0,0:0:0:0:
320,192,101572,1,0,0:0:0:0:
192,192,101572,1,0,0:0:0:0:
448,192,105687,128,0,108001:0:0:0:0:
320,192,106029,128,0,108001:0:0:0:0:
192,192,106715,128,0,108001:0:0:0:0:
64,192,107401,128,0,108001:0:0:0:0:
192,192,108429,1,0,0:0:0:0:
320,192,108429,1,0,0:0:0:0:
64,192,108429,1,0,0:0:0:0:
64,192,108772,1,0,0:0:0:0:
448,192,108772,1,0,0:0:0:0:
320,192,108772,1,0,0:0:0:0:
192,192,109115,1,0,0:0:0:0:
320,192,109115,1,0,0:0:0:0:
320,192,109458,1,0,0:0:0:0:
192,192,109458,1,0,0:0:0:0:
192,192,109629,1,0,0:0:0:0:
320,192,109629,1,0,0:0:0:0:
64,192,109801,1,0,0:0:0:0:
448,192,109801,1,0,0:0:0:0:
64,192,109972,1,0,0:0:0:0:
448,192,109972,1,0,0:0:0:0:
192,192,110015,1,0,0:0:0:0:
320,192,110058,1,0,0:0:0:0:
448,192,110101,1,0,0:0:0:0:
64,192,110144,1,0,0:0:0:0:
192,192,110144,1,0,0:0:0:0:
448,192,110315,1,0,0:0:0:0:
64,192,110315,1,0,0:0:0:0:
320,192,110358,1,0,0:0:0:0:
192,192,110401,1,0,0:0:0:0:
64,192,110444,1,0,0:0:0:0:
320,192,110487,1,0,0:0:0:0:
448,192,110487,1,0,0:0:0:0:
320,192,110658,1,0,0:0:0:0:
192,192,110658,1,0,0:0:0:0:
64,192,110829,1,0,0:0:0:0:
192,192,110829,1,0,0:0:0:0:
192,192,111172,1,0,0:0:0:0:
320,192,111172,1,0,0:0:0:0:
64,192,111172,1,0,0:0:0:0:
448,192,111515,1,0,0:0:0:0:
320,192,111515,1,0,0:0:0:0:
320,192,111687,1,0,0:0:0:0:
448,192,111687,1,0,0:0:0:0:
64,192,111858,1,0,0:0:0:0:
192,192,111858,1,0,0:0:0:0:
320,192,111858,1,0,0:0:0:0:
448,192,112029,1,0,0:0:0:0:
320,192,112029,1,0,0:0:0:0:
192,192,112201,1,0,0:0:0:0:
320,192,112201,1,0,0:0:0:0:
448,192,112372,1,0,0:0:0:0:
64,192,112372,1,0,0:0:0:0:
192,192,112544,1,0,0:0:0:0:
320,192,112544,1,0,0:0:0:0:
448,192,112887,1,0,0:0:0:0:
320,192,112887,1,0,0:0:0:0:
448,192,113058,1,0,0:0:0:0:
320,192,113058,1,0,0:0:0:0:
192,192,113229,1,0,0:0:0:0:
64,192,113229,1,0,0:0:0:0:
320,192,113572,1,0,0:0:0:0:
192,192,113572,1,0,0:0:0:0:
448,192,113915,1,0,0:0:0:0:
320,192,113915,1,0,0:0:0:0:
192,192,113915,1,0,0:0:0:0:
64,192,114087,1,0,0:0:0:0:
192,192,114087,1,0,0:0:0:0:
448,192,114087,1,0,0:0:0:0:
448,192,114258,1,0,0:0:0:0:
320,192,114258,1,0,0:0:0:0:
192,192,114258,1,0,0:0:0:0:
320,192,114601,1,0,0:0:0:0:
192,192,114601,1,0,0:0:0:0:
64,192,114944,1,0,0:0:0:0:
192,192,114944,1,0,0:0:0:0:
64,192,115115,1,0,0:0:0:0:
192,192,115115,1,0,0:0:0:0:
320,192,115287,1,0,0:0:0:0:
448,192,115287,1,0,0:0:0:0:
64,192,115458,1,0,0:0:0:0:
448,192,115458,1,0,0:0:0:0:
320,192,115501,1,0,0:0:0:0:
192,192,115544,1,0,0:0:0:0:
64,192,115587,1,0,0:0:0:0:
448,192,115629,1,0,0:0:0:0:
320,192,115629,1,0,0:0:0:0:
64,192,115801,1,0,0:0:0:0:
448,192,115801,1,0,0:0:0:0:
192,192,115844,1,0,0:0:0:0:
320,192,115887,1,0,0:0:0:0:
448,192,115929,1,0,0:0:0:0:
64,192,115972,1,0,0:0:0:0:
192,192,115972,1,0,0:0:0:0:
192,192,116144,1,0,0:0:0:0:
448,192,116144,1,0,0:0:0:0:
64,192,116315,1,0,0:0:0:0:
320,192,116315,1,0,0:0:0:0:
192,192,116658,1,0,0:0:0:0:
320,192,116658,1,0,0:0:0:0:
448,192,116658,1,0,0:0:0:0:
64,192,117001,1,0,0:0:0:0:
192,192,117001,1,0,0:0:0:0:
64,192,117172,1,0,0:0:0:0:
192,192,117172,1,0,0:0:0:0:
320,192,117344,1,0,0:0:0:0:
448,192,117344,1,0,0:0:0:0:
192,192,117344,1,0,0:0:0:0:
192,192,117515,1,0,0:0:0:0:
64,192,117515,1,0,0:0:0:0:
320,192,117687,1,0,0:0:0:0:
448,192,117687,1,0,0:0:0:0:
320,192,117858,1,0,0:0:0:0:
192,192,117858,1,0,0:0:0:0:
448,192,118029,1,0,0:0:0:0:
64,192,118029,1,0,0:0:0:0:
320,192,118072,1,0,0:0:0:0:
192,192,118115,1,0,0:0:0:0:
64,192,118158,1,0,0:0:0:0:
448,192,118201,1,0,0:0:0:0:
320,192,118244,1,0,0:0:0:0:
192,192,118287,1,0,0:0:0:0:
448,192,118372,1,0,0:0:0:0:
320,192,118372,1,0,0:0:0:0:
320,192,118544,1,0,0:0:0:0:
192,192,118544,1,0,0:0:0:0:
64,192,118715,1,0,0:0:0:0:
192,192,118715,1,0,0:0:0:0:
192,192,119058,1,0,0:0:0:0:
320,192,119058,1,0,0:0:0:0:
64,192,119401,1,0,0:0:0:0:
192,192,119401,1,0,0:0:0:0:
320,192,119401,1,0,0:0:0:0:
64,192,119744,1,0,0:0:0:0:
192,192,119744,1,0,0:0:0:0:
320,192,119744,1,0,0:0:0:0:
192,192,120087,1,0,0:0:0:0:
320,192,120087,1,0,0:0:0:0:
448,192,120087,1,0,0:0:0:0:
448,192,120429,1,0,0:0:0:0:
320,192,120429,1,0,0:0:0:0:
64,192,120429,1,0,0:0:0:0:
320,192,120601,1,0,0:0:0:0:
448,192,120601,1,0,0:0:0:0:
64,192,120772,1,0,0:0:0:0:
192,192,120772,1,0,0:0:0:0:
320,192,120772,1,0,0:0:0:0:
64,192,120944,1,0,0:0:0:0:
448,192,120944,1,0,0:0:0:0:
192,192,120987,1,0,0:0:0:0:
320,192,121029,1,0,0:0:0:0:
448,192,121072,1,0,0:0:0:0:
192,192,121115,1,0,0:0:0:0:
64,192,121115,1,0,0:0:0:0:
320,192,121115,1,0,0:0:0:0:
448,192,121287,1,0,0:0:0:0:
64,192,121287,1,0,0:0:0:0:
320,192,121329,1,0,0:0:0:0:
192,192,121372,1,0,0:0:0:0:
64,192,121415,1,0,0:0:0:0:
448,192,121458,1,0,0:0:0:0:
320,192,121458,1,0,0:0:0:0:
192,192,121458,1,0,0:0:0:0:
320,192,121629,1,0,0:0:0:0:
192,192,121629,1,0,0:0:0:0:
448,192,121801,1,0,0:0:0:0:
192,192,121801,1,0,0:0:0:0:
64,192,121801,1,0,0:0:0:0:
64,192,122144,1,0,0:0:0:0:
448,192,122144,1,0,0:0:0:0:
320,192,122144,1,0,0:0:0:0:
320,192,122487,1,0,0:0:0:0:
448,192,122487,1,0,0:0:0:0:
64,192,122487,1,0,0:0:0:0:
320,192,122658,1,0,0:0:0:0:
192,192,122658,1,0,0:0:0:0:
192,192,122829,1,0,0:0:0:0:
64,192,122829,1,0,0:0:0:0:
448,192,122829,1,0,0:0:0:0:
192,192,123001,1,0,0:0:0:0:
320,192,123001,1,0,0:0:0:0:
448,192,123172,1,0,0:0:0:0:
320,192,123172,1,0,0:0:0:0:
64,192,123172,1,0,0:0:0:0:
64,192,123344,1,0,0:0:0:0:
320,192,123344,1,0,0:0:0:0:
192,192,123515,1,0,0:0:0:0:
448,192,123515,1,0,0:0:0:0:
320,192,123515,1,0,0:0:0:0:
320,192,123858,1,0,0:0:0:0:
448,192,123858,1,0,0:0:0:0:
64,192,123858,1,0,0:0:0:0:
320,192,124029,1,0,0:0:0:0:
448,192,124029,1,0,0:0:0:0:
192,192,124201,1,0,0:0:0:0:
64,192,124201,1,0,0:0:0:0:
320,192,124201,1,0,0:0:0:0:
320,192,124544,1,0,0:0:0:0:
448,192,124544,1,0,0:0:0:0:
192,192,124544,1,0,0:0:0:0:
64,192,124887,1,0,0:0:0:0:
192,192,124887,1,0,0:0:0:0:
320,192,124887,1,0,0:0:0:0:
64,192,125229,1,0,0:0:0:0:
192,192,125229,1,0,0:0:0:0:
448,192,125229,1,0,0:0:0:0:
192,192,125572,1,0,0:0:0:0:
448,192,125572,1,0,0:0:0:0:
320,192,125572,1,0,0:0:0:0:
320,192,125915,1,0,0:0:0:0:
192,192,125915,1,0,0:0:0:0:
192,192,126087,1,0,0:0:0:0:
320,192,126087,1,0,0:0:0:0:
192,192,126258,1,0,0:0:0:0:
64,192,126258,1,0,0:0:0:0:
448,192,126258,1,0,0:0:0:0:
320,192,126301,1,0,0:0:0:0:
192,192,126344,1,0,0:0:0:0:
64,192,126387,1,0,0:0:0:0:
448,192,126429,1,0,0:0:0:0:
320,192,126472,1,0,0:0:0:0:
192,192,126515,1,0,0:0:0:0:
64,192,126558,1,0,0:0:0:0:
448,192,126601,1,0,0:0:0:0:
320,192,126601,1,0,0:0:0:0:
192,192,126601,1,0,0:0:0:0:
448,192,126772,1,0,0:0:0:0:
64,192,126772,1,0,0:0:0:0:
320,192,126815,1,0,0:0:0:0:
192,192,126858,1,0,0:0:0:0:
64,192,126901,1,0,0:0:0:0:
448,192,126944,1,0,0:0:0:0:
192,192,126944,1,0,0:0:0:0:
320,192,126944,1,0,0:0:0:0:
320,192,127287,1,0,0:0:0:0:
448,192,127287,1,0,0:0:0:0:
64,192,127287,1,0,0:0:0:0:
192,192,127629,1,0,0:0:0:0:
64,192,127629,1,0,0:0:0:0:
320,192,127629,1,0,0:0:0:0:
64,192,127972,1,0,0:0:0:0:
320,192,127972,1,0,0:0:0:0:
448,192,127972,1,0,0:0:0:0:
192,192,128144,1,0,0:0:0:0:
448,192,128144,1,0,0:0:0:0:
448,192,128315,1,0,0:0:0:0:
64,192,128315,1,0,0:0:0:0:
320,192,128315,1,0,0:0:0:0:
64,192,128658,1,0,0:0:0:0:
192,192,128658,1,0,0:0:0:0:
448,192,128658,1,0,0:0:0:0:
64,192,129001,1,0,0:0:0:0:
192,192,129001,1,0,0:0:0:0:
320,192,129001,1,0,0:0:0:0:
448,192,129129,1,0,0:0:0:0:
320,192,129172,1,0,0:0:0:0:
192,192,129215,1,0,0:0:0:0:
64,192,129258,1,0,0:0:0:0:
448,192,129344,1,0,0:0:0:0:
448,192,129515,1,0,0:0:0:0:
320,192,129515,1,0,0:0:0:0:
192,192,129687,128,0,130244:0:0:0:0:
64,192,129687,128,0,130244:0:0:0:0:
320,192,130244,1,0,0:0:0:0:
448,192,130372,1,0,0:0:0:0:
64,192,130372,1,0,0:0:0:0:
192,192,130372,1,0,0:0:0:0:
320,192,130458,1,0,0:0:0:0:
64,192,130544,1,0,0:0:0:0:
192,192,130629,1,0,0:0:0:0:
64,192,130715,1,0,0:0:0:0:
448,192,130715,1,0,0:0:0:0:
320,192,130715,1,0,0:0:0:0:
192,192,130801,1,0,0:0:0:0:
448,192,130887,1,0,0:0:0:0:
320,192,130972,1,0,0:0:0:0:
448,192,131058,1,0,0:0:0:0:
64,192,131058,1,0,0:0:0:0:
192,192,131058,1,0,0:0:0:0:
320,192,131144,1,0,0:0:0:0:
64,192,131229,1,0,0:0:0:0:
192,192,131315,1,0,0:0:0:0:
448,192,131401,1,0,0:0:0:0:
64,192,131401,1,0,0:0:0:0:
320,192,131401,1,0,0:0:0:0:
192,192,131487,1,0,0:0:0:0:
448,192,131572,1,0,0:0:0:0:
320,192,131572,1,0,0:0:0:0:
192,192,131658,1,0,0:0:0:0:
448,192,131744,1,0,0:0:0:0:
64,192,131744,1,0,0:0:0:0:
320,192,131744,1,0,0:0:0:0:
192,192,131829,1,0,0:0:0:0:
64,192,131915,1,0,0:0:0:0:
192,192,131958,1,0,0:0:0:0:
320,192,132001,1,0,0:0:0:0:
448,192,132044,1,0,0:0:0:0:
192,192,132087,1,0,0:0:0:0:
64,192,132087,1,0,0:0:0:0:
320,192,132087,1,0,0:0:0:0:
448,192,132172,1,0,0:0:0:0:
64,192,132258,1,0,0:0:0:0:
192,192,132301,1,0,0:0:0:0:
448,192,132344,1,0,0:0:0:0:
320,192,132387,1,0,0:0:0:0:
192,192,132429,1,0,0:0:0:0:
64,192,132429,1,0,0:0:0:0:
448,192,132472,1,0,0:0:0:0:
320,192,132515,1,0,0:0:0:0:
192,192,132558,1,0,0:0:0:0:
64,192,132601,1,0,0:0:0:0:
448,192,132644,1,0,0:0:0:0:
320,192,132687,1,0,0:0:0:0:
192,192,132729,1,0,0:0:0:0:
320,192,132772,1,0,0:0:0:0:
64,192,132772,1,0,0:0:0:0:
448,192,132772,1,0,0:0:0:0:
192,192,132858,1,0,0:0:0:0:
448,192,132944,1,0,0:0:0:0:
64,192,133029,1,0,0:0:0:0:
192,192,133115,1,0,0:0:0:0:
320,192,133115,1,0,0:0:0:0:
448,192,133115,1,0,0:0:0:0:
64,192,133201,1,0,0:0:0:0:
448,192,133287,1,0,0:0:0:0:
320,192,133372,1,0,0:0:0:0:
192,192,133458,1,0,0:0:0:0:
64,192,133458,1,0,0:0:0:0:
448,192,133458,1,0,0:0:0:0:
320,192,133544,1,0,0:0:0:0:
64,192,133629,1,0,0:0:0:0:
192,192,133629,1,0,0:0:0:0:
448,192,133715,1,0,0:0:0:0:
320,192,133801,1,0,0:0:0:0:
64,192,133801,1,0,0:0:0:0:
192,192,133801,1,0,0:0:0:0:
448,192,133887,1,0,0:0:0:0:
192,192,133972,1,0,0:0:0:0:
320,192,134058,1,0,0:0:0:0:
192,192,134144,1,0,0:0:0:0:
64,192,134144,1,0,0:0:0:0:
448,192,134144,1,0,0:0:0:0:
320,192,134229,1,0,0:0:0:0:
64,192,134315,1,0,0:0:0:0:
448,192,134315,1,0,0:0:0:0:
192,192,134401,1,0,0:0:0:0:
448,192,134487,1,0,0:0:0:0:
320,192,134487,1,0,0:0:0:0:
64,192,134487,1,0,0:0:0:0:
192,192,134572,1,0,0:0:0:0:
448,192,134658,1,0,0:0:0:0:
64,192,134744,1,0,0:0:0:0:
320,192,134829,1,0,0:0:0:0:
448,192,134829,1,0,0:0:0:0:
192,192,134829,1,0,0:0:0:0:
64,192,134915,1,0,0:0:0:0:
192,192,135001,1,0,0:0:0:0:
320,192,135001,1,0,0:0:0:0:
64,192,135087,1,0,0:0:0:0:
192,192,135172,1,0,0:0:0:0:
320,192,135172,1,0,0:0:0:0:
448,192,135172,1,0,0:0:0:0:
64,192,135258,1,0,0:0:0:0:
448,192,135344,1,0,0:0:0:0:
320,192,135429,1,0,0:0:0:0:
192,192,135515,1,0,0:0:0:0:
64,192,135515,1,0,0:0:0:0:
448,192,135515,1,0,0:0:0:0:
320,192,135601,1,0,0:0:0:0:
64,192,135687,1,0,0:0:0:0:
448,192,135772,1,0,0:0:0:0:
320,192,135858,1,0,0:0:0:0:
64,192,135858,1,0,0:0:0:0:
192,192,135858,1,0,0:0:0:0:
448,192,135944,1,0,0:0:0:0:
320,192,136029,1,0,0:0:0:0:
64,192,136029,1,0,0:0:0:0:
192,192,136115,1,0,0:0:0:0:
448,192,136201,1,0,0:0:0:0:
320,192,136201,1,0,0:0:0:0:
64,192,136201,1,0,0:0:0:0:
192,192,136287,1,0,0:0:0:0:
320,192,136372,1,0,0:0:0:0:
64,192,136458,1,0,0:0:0:0:
320,192,136544,1,0,0:0:0:0:
448,192,136544,1,0,0:0:0:0:
192,192,136544,1,0,0:0:0:0:
64,192,136629,1,0,0:0:0:0:
448,192,136715,1,0,0:0:0:0:
320,192,136801,1,0,0:0:0:0:
192,192,136887,1,0,0:0:0:0:
64,192,136887,1,0,0:0:0:0:
448,192,136887,1,0,0:0:0:0:
320,192,136972,1,0,0:0:0:0:
192,192,137058,1,0,0:0:0:0:
64,192,137058,1,0,0:0:0:0:
448,192,137144,1,0,0:0:0:0:
320,192,137229,1,0,0:0:0:0:
192,192,137229,1,0,0:0:0:0:
64,192,137229,1,0,0:0:0:0:
448,192,137315,1,0,0:0:0:0:
64,192,137401,1,0,0:0:0:0:
320,192,137401,1,0,0:0:0:0:
192,192,137487,1,0,0:0:0:0:
64,192,137572,1,0,0:0:0:0:
320,192,137572,1,0,0:0:0:0:
448,192,137572,1,0,0:0:0:0:
192,192,137658,1,0,0:0:0:0:
64,192,137744,1,0,0:0:0:0:
448,192,137744,1,0,0:0:0:0:
320,192,137829,1,0,0:0:0:0:
192,192,137915,1,0,0:0:0:0:
64,192,137915,1,0,0:0:0:0:
448,192,137915,1,0,0:0:0:0:
320,192,138001,1,0,0:0:0:0:
64,192,138087,1,0,0:0:0:0:
192,192,138087,1,0,0:0:0:0:
448,192,138129,1,0,0:0:0:0:
320,192,138172,1,0,0:0:0:0:
192,192,138215,1,0,0:0:0:0:
64,192,138258,1,0,0:0:0:0:
448,192,138258,1,0,0:0:0:0:
320,192,138258,1,0,0:0:0:0:
192,192,138344,1,0,0:0:0:0:
448,192,138429,1,0,0:0:0:0:
320,192,138515,1,0,0:0:0:0:
192,192,138601,1,0,0:0:0:0:
64,192,138601,1,0,0:0:0:0:
448,192,138601,1,0,0:0:0:0:
320,192,138687,5,0,0:0:0:0:
64,192,138772,1,0,0:0:0:0:
320,192,138858,1,0,0:0:0:0:
448,192,138944,1,0,0:0:0:0:
64,192,138944,1,0,0:0:0:0:
192,192,138944,1,0,0:0:0:0:
320,192,139029,1,0,0:0:0:0:
192,192,139115,1,0,0:0:0:0:
64,192,139115,1,0,0:0:0:0:
448,192,139201,1,0,0:0:0:0:
192,192,139287,1,0,0:0:0:0:
320,192,139287,1,0,0:0:0:0:
64,192,139287,1,0,0:0:0:0:
448,192,139372,1,0,0:0:0:0:
192,192,139458,1,0,0:0:0:0:
64,192,139458,1,0,0:0:0:0:
320,192,139544,1,0,0:0:0:0:
192,192,139629,1,0,0:0:0:0:
64,192,139629,1,0,0:0:0:0:
448,192,139629,1,0,0:0:0:0:
320,192,139715,1,0,0:0:0:0:
192,192,139801,1,0,0:0:0:0:
64,192,139801,1,0,0:0:0:0:
320,192,139887,1,0,0:0:0:0:
64,192,139972,1,0,0:0:0:0:
448,192,139972,1,0,0:0:0:0:
192,192,140015,1,0,0:0:0:0:
320,192,140058,1,0,0:0:0:0:
448,192,140101,1,0,0:0:0:0:
64,192,140144,1,0,0:0:0:0:
192,192,140187,1,0,0:0:0:0:
320,192,140229,1,0,0:0:0:0:
448,192,140272,1,0,0:0:0:0:
64,192,140315,1,0,0:0:0:0:
192,192,140358,1,0,0:0:0:0:
320,192,140401,1,0,0:0:0:0:
448,192,140444,1,0,0:0:0:0:
64,192,140487,1,0,0:0:0:0:
192,192,140572,1,0,0:0:0:0:
448,192,140658,128,0,140915:0:0:0:0:
448,192,141001,128,0,141344:0:0:0:0:
64,192,141344,1,0,0:0:0:0:
192,192,141344,1,0,0:0:0:0:
320,192,141344,1,0,0:0:0:0:
64,192,141515,1,0,0:0:0:0:
192,192,141515,1,0,0:0:0:0:
320,192,141515,1,0,0:0:0:0:
64,192,141687,1,0,0:0:0:0:
192,192,141687,1,0,0:0:0:0:
320,192,141687,1,0,0:0:0:0:
448,192,142029,1,0,0:0:0:0:
320,192,142029,1,0,0:0:0:0:
192,192,142029,1,0,0:0:0:0:
64,192,142029,1,0,0:0:0:0:
64,192,142115,1,0,0:0:0:0:
448,192,142201,1,0,0:0:0:0:
192,192,142287,1,0,0:0:0:0:
448,192,142372,1,0,0:0:0:0:
320,192,142372,1,0,0:0:0:0:
64,192,142372,1,0,0:0:0:0:
192,192,142458,1,0,0:0:0:0:
64,192,142544,1,0,0:0:0:0:
448,192,142544,1,0,0:0:0:0:
320,192,142629,1,0,0:0:0:0:
320,192,142715,1,0,0:0:0:0:
192,192,142715,1,0,0:0:0:0:
64,192,142715,1,0,0:0:0:0:
448,192,142715,1,0,0:0:0:0:
192,192,142801,1,0,0:0:0:0:
448,192,142887,1,0,0:0:0:0:
320,192,142887,1,0,0:0:0:0:
64,192,142972,1,0,0:0:0:0:
320,192,143058,1,0,0:0:0:0:
192,192,143058,1,0,0:0:0:0:
448,192,143058,1,0,0:0:0:0:
64,192,143058,1,0,0:0:0:0:
192,192,143144,1,0,0:0:0:0:
448,192,143229,1,0,0:0:0:0:
320,192,143272,1,0,0:0:0:0:
192,192,143315,1,0,0:0:0:0:
64,192,143358,1,0,0:0:0:0:
192,192,143401,1,0,0:0:0:0:
320,192,143401,1,0,0:0:0:0:
448,192,143401,1,0,0:0:0:0:
448,192,143487,1,0,0:0:0:0:
64,192,143572,1,0,0:0:0:0:
192,192,143615,1,0,0:0:0:0:
320,192,143658,1,0,0:0:0:0:
448,192,143701,1,0,0:0:0:0:
320,192,143744,1,0,0:0:0:0:
192,192,143744,1,0,0:0:0:0:
64,192,143744,1,0,0:0:0:0:
448,192,143829,1,0,0:0:0:0:
320,192,143915,1,0,0:0:0:0:
192,192,144001,1,0,0:0:0:0:
64,192,144087,1,0,0:0:0:0:
192,192,144087,1,0,0:0:0:0:
320,192,144087,1,0,0:0:0:0:
448,192,144087,1,0,0:0:0:0:
448,192,144172,1,0,0:0:0:0:
64,192,144258,1,0,0:0:0:0:
192,192,144344,1,0,0:0:0:0:
320,192,144429,1,0,0:0:0:0:
448,192,144429,1,0,0:0:0:0:
64,192,144429,1,0,0:0:0:0:
192,192,144515,1,0,0:0:0:0:
320,192,144601,1,0,0:0:0:0:
448,192,144601,1,0,0:0:0:0:
192,192,144687,1,0,0:0:0:0:
192,192,144772,1,0,0:0:0:0:
64,192,144772,1,0,0:0:0:0:
320,192,144772,1,0,0:0:0:0:
448,192,144772,1,0,0:0:0:0:
64,192,144858,1,0,0:0:0:0:
448,192,144944,1,0,0:0:0:0:
320,192,145029,1,0,0:0:0:0:
192,192,145115,1,0,0:0:0:0:
64,192,145115,1,0,0:0:0:0:
448,192,145115,1,0,0:0:0:0:
64,192,145201,1,0,0:0:0:0:
192,192,145287,1,0,0:0:0:0:
448,192,145287,1,0,0:0:0:0:
320,192,145372,1,0,0:0:0:0:
64,192,145458,1,0,0:0:0:0:
192,192,145458,1,0,0:0:0:0:
320,192,145458,1,0,0:0:0:0:
448,192,145458,1,0,0:0:0:0:
64,192,145544,1,0,0:0:0:0:
448,192,145629,1,0,0:0:0:0:
320,192,145715,1,0,0:0:0:0:
192,192,145801,1,0,0:0:0:0:
64,192,145801,1,0,0:0:0:0:
448,192,145801,1,0,0:0:0:0:
320,192,145887,1,0,0:0:0:0:
192,192,145972,1,0,0:0:0:0:
64,192,145972,1,0,0:0:0:0:
448,192,146058,1,0,0:0:0:0:
64,192,146144,1,0,0:0:0:0:
192,192,146144,1,0,0:0:0:0:
320,192,146144,1,0,0:0:0:0:
448,192,146144,1,0,0:0:0:0:
64,192,146229,1,0,0:0:0:0:
448,192,146315,1,0,0:0:0:0:
320,192,146401,1,0,0:0:0:0:
192,192,146487,1,0,0:0:0:0:
64,192,146487,1,0,0:0:0:0:
448,192,146487,1,0,0:0:0:0:
64,192,146572,1,0,0:0:0:0:
448,192,146658,1,0,0:0:0:0:
192,192,146744,1,0,0:0:0:0:
64,192,146829,1,0,0:0:0:0:
192,192,146829,1,0,0:0:0:0:
320,192,146829,1,0,0:0:0:0:
448,192,146829,1,0,0:0:0:0:
448,192,146915,1,0,0:0:0:0:
64,192,147001,1,0,0:0:0:0:
192,192,147087,1,0,0:0:0:0:
320,192,147172,1,0,0:0:0:0:
448,192,147172,1,0,0:0:0:0:
64,192,147172,1,0,0:0:0:0:
192,192,147258,1,0,0:0:0:0:
448,192,147344,1,0,0:0:0:0:
320,192,147429,1,0,0:0:0:0:
64,192,147515,1,0,0:0:0:0:
192,192,147515,1,0,0:0:0:0:
320,192,147515,1,0,0:0:0:0:
448,192,147515,1,0,0:0:0:0:
64,192,147601,1,0,0:0:0:0:
448,192,147687,1,0,0:0:0:0:
320,192,147772,1,0,0:0:0:0:
192,192,147858,1,0,0:0:0:0:
64,192,147858,1,0,0:0:0:0:
448,192,147858,1,0,0:0:0:0:
320,192,147944,1,0,0:0:0:0:
192,192,148029,1,0,0:0:0:0:
64,192,148029,1,0,0:0:0:0:
448,192,148115,1,0,0:0:0:0:
64,192,148201,1,0,0:0:0:0:
192,192,148201,1,0,0:0:0:0:
320,192,148201,1,0,0:0:0:0:
448,192,148201,1,0,0:0:0:0:
64,192,148287,1,0,0:0:0:0:
448,192,148372,1,0,0:0:0:0:
320,192,148415,1,0,0:0:0:0:
192,192,148458,1,0,0:0:0:0:
64,192,148501,1,0,0:0:0:0:
192,192,148544,1,0,0:0:0:0:
320,192,148544,1,0,0:0:0:0:
448,192,148544,1,0,0:0:0:0:
64,192,148629,1,0,0:0:0:0:
192,192,148715,1,0,0:0:0:0:
320,192,148758,1,0,0:0:0:0:
448,192,148801,1,0,0:0:0:0:
64,192,148844,1,0,0:0:0:0:
192,192,148887,1,0,0:0:0:0:
320,192,148887,1,0,0:0:0:0:
448,192,148887,1,0,0:0:0:0:
64,192,148972,1,0,0:0:0:0:
320,192,149058,1,0,0:0:0:0:
192,192,149144,1,0,0:0:0:0:
192,192,149229,1,0,0:0:0:0:
64,192,149229,1,0,0:0:0:0:
320,192,149229,1,0,0:0:0:0:
448,192,149229,1,0,0:0:0:0:
64,192,149315,1,0,0:0:0:0:
448,192,149401,1,0,0:0:0:0:
192,192,149487,1,0,0:0:0:0:
64,192,149572,1,0,0:0:0:0:
192,192,149572,1,0,0:0:0:0:
320,192,149572,1,0,0:0:0:0:
448,192,149572,1,0,0:0:0:0:
448,192,149658,1,0,0:0:0:0:
320,192,149744,1,0,0:0:0:0:
64,192,149829,1,0,0:0:0:0:
192,192,149915,1,0,0:0:0:0:
320,192,149915,1,0,0:0:0:0:
448,192,149915,1,0,0:0:0:0:
64,192,150001,1,0,0:0:0:0:
448,192,150087,1,0,0:0:0:0:
192,192,150087,1,0,0:0:0:0:
320,192,150172,1,0,0:0:0:0:
64,192,150258,1,0,0:0:0:0:
192,192,150258,1,0,0:0:0:0:
320,192,150258,1,0,0:0:0:0:
448,192,150258,1,0,0:0:0:0:
64,192,150344,1,0,0:0:0:0:
448,192,150429,1,0,0:0:0:0:
320,192,150515,1,0,0:0:0:0:
448,192,150601,1,0,0:0:0:0:
192,192,150601,1,0,0:0:0:0:
64,192,150601,1,0,0:0:0:0:
64,192,150687,1,0,0:0:0:0:
448,192,150772,1,0,0:0:0:0:
320,192,150858,1,0,0:0:0:0:
192,192,150944,1,0,0:0:0:0:
64,192,150944,1,0,0:0:0:0:
448,192,150944,1,0,0:0:0:0:
320,192,150987,1,0,0:0:0:0:
192,192,151029,1,0,0:0:0:0:
64,192,151072,1,0,0:0:0:0:
448,192,151115,1,0,0:0:0:0:
320,192,151158,1,0,0:0:0:0:
192,192,151201,1,0,0:0:0:0:
64,192,151244,1,0,0:0:0:0:
192,192,151308,1,0,0:0:0:0:
320,192,151308,1,0,0:0:0:0:
448,192,151479,1,0,0:0:0:0:
64,192,151479,1,0,0:0:0:0:
192,192,151629,128,0,152229:0:0:0:0:
320,192,151629,128,0,152229:0:0:0:0:
448,192,152315,1,0,0:0:0:0:
320,192,152315,1,0,0:0:0:0:
192,192,152315,1,0,0:0:0:0:
64,192,152315,1,0,0:0:0:0:
192,192,152401,1,0,0:0:0:0:
448,192,152487,1,0,0:0:0:0:
320,192,152487,1,0,0:0:0:0:
192,192,152572,1,0,0:0:0:0:
64,192,152572,1,0,0:0:0:0:
448,192,152658,1,0,0:0:0:0:
320,192,152658,1,0,0:0:0:0:
64,192,152744,1,0,0:0:0:0:
192,192,152744,1,0,0:0:0:0:
320,192,152744,1,0,0:0:0:0:
448,192,152829,1,0,0:0:0:0:
320,192,152915,1,0,0:0:0:0:
64,192,153001,1,0,0:0:0:0:
320,192,153001,1,0,0:0:0:0:
192,192,153001,1,0,0:0:0:0:
448,192,153001,1,0,0:0:0:0:
448,192,153087,1,0,0:0:0:0:
64,192,153172,1,0,0:0:0:0:
192,192,153172,1,0,0:0:0:0:
448,192,153258,1,0,0:0:0:0:
320,192,153258,1,0,0:0:0:0:
64,192,153344,1,0,0:0:0:0:
192,192,153344,1,0,0:0:0:0:
448,192,153429,1,0,0:0:0:0:
320,192,153429,1,0,0:0:0:0:
192,192,153429,1,0,0:0:0:0:
64,192,153515,1,0,0:0:0:0:
448,192,153601,1,0,0:0:0:0:
64,192,153687,1,0,0:0:0:0:
192,192,153687,1,0,0:0:0:0:
320,192,153687,1,0,0:0:0:0:
448,192,153687,1,0,0:0:0:0:
64,192,153772,1,0,0:0:0:0:
448,192,153858,1,0,0:0:0:0:
320,192,153858,1,0,0:0:0:0:
192,192,153944,1,0,0:0:0:0:
64,192,153944,1,0,0:0:0:0:
448,192,154029,1,0,0:0:0:0:
320,192,154029,1,0,0:0:0:0:
192,192,154115,1,0,0:0:0:0:
64,192,154115,1,0,0:0:0:0:
320,192,154115,1,0,0:0:0:0:
448,192,154201,1,0,0:0:0:0:
320,192,154287,1,0,0:0:0:0:
320,192,154372,1,0,0:0:0:0:
64,192,154372,1,0,0:0:0:0:
448,192,154372,1,0,0:0:0:0:
192,192,154372,1,0,0:0:0:0:
192,192,154458,1,0,0:0:0:0:
64,192,154544,1,0,0:0:0:0:
448,192,154544,1,0,0:0:0:0:
320,192,154629,1,0,0:0:0:0:
192,192,154629,1,0,0:0:0:0:
64,192,154715,1,0,0:0:0:0:
448,192,154715,1,0,0:0:0:0:
192,192,154801,1,0,0:0:0:0:
320,192,154801,1,0,0:0:0:0:
448,192,154801,1,0,0:0:0:0:
64,192,154887,1,0,0:0:0:0:
448,192,154972,1,0,0:0:0:0:
320,192,155058,1,0,0:0:0:0:
448,192,155058,1,0,0:0:0:0:
192,192,155058,1,0,0:0:0:0:
64,192,155058,1,0,0:0:0:0:
64,192,155144,1,0,0:0:0:0:
448,192,155229,1,0,0:0:0:0:
192,192,155229,1,0,0:0:0:0:
64,192,155315,1,0,0:0:0:0:
320,192,155315,1,0,0:0:0:0:
448,192,155401,1,0,0:0:0:0:
192,192,155401,1,0,0:0:0:0:
64,192,155487,1,0,0:0:0:0:
320,192,155487,1,0,0:0:0:0:
448,192,155487,1,0,0:0:0:0:
192,192,155572,1,0,0:0:0:0:
448,192,155658,1,0,0:0:0:0:
64,192,155744,1,0,0:0:0:0:
192,192,155744,1,0,0:0:0:0:
320,192,155744,1,0,0:0:0:0:
448,192,155744,1,0,0:0:0:0:
64,192,155829,1,0,0:0:0:0:
448,192,155915,1,0,0:0:0:0:
320,192,155915,1,0,0:0:0:0:
64,192,156001,1,0,0:0:0:0:
192,192,156001,1,0,0:0:0:0:
448,192,156087,1,0,0:0:0:0:
320,192,156087,1,0,0:0:0:0:
192,192,156172,1,0,0:0:0:0:
64,192,156172,1,0,0:0:0:0:
320,192,156172,1,0,0:0:0:0:
448,192,156258,1,0,0:0:0:0:
320,192,156344,1,0,0:0:0:0:
192,192,156429,1,0,0:0:0:0:
320,192,156429,1,0,0:0:0:0:
64,192,156429,1,0,0:0:0:0:
448,192,156429,1,0,0:0:0:0:
64,192,156515,1,0,0:0:0:0:
320,192,156601,1,0,0:0:0:0:
192,192,156601,1,0,0:0:0:0:
64,192,156687,1,0,0:0:0:0:
448,192,156687,1,0,0:0:0:0:
320,192,156772,1,0,0:0:0:0:
192,192,156772,1,0,0:0:0:0:
64,192,156858,1,0,0:0:0:0:
448,192,156858,1,0,0:0:0:0:
192,192,156858,1,0,0:0:0:0:
320,192,156944,1,0,0:0:0:0:
192,192,157029,1,0,0:0:0:0:
64,192,157115,1,0,0:0:0:0:
192,192,157115,1,0,0:0:0:0:
320,192,157115,1,0,0:0:0:0:
448,192,157115,1,0,0:0:0:0:
320,192,157201,1,0,0:0:0:0:
64,192,157287,1,0,0:0:0:0:
192,192,157287,1,0,0:0:0:0:
320,192,157372,1,0,0:0:0:0:
448,192,157372,1,0,0:0:0:0:
64,192,157458,1,0,0:0:0:0:
192,192,157458,1,0,0:0:0:0:
320,192,157544,1,0,0:0:0:0:
448,192,157544,1,0,0:0:0:0:
64,192,157544,1,0,0:0:0:0:
192,192,157629,1,0,0:0:0:0:
64,192,157715,1,0,0:0:0:0:
192,192,157801,1,0,0:0:0:0:
320,192,157801,1,0,0:0:0:0:
448,192,157801,1,0,0:0:0:0:
64,192,157801,1,0,0:0:0:0:
448,192,157887,1,0,0:0:0:0:
192,192,157972,1,0,0:0:0:0:
64,192,157972,1,0,0:0:0:0:
448,192,158058,1,0,0:0:0:0:
320,192,158058,1,0,0:0:0:0:
192,192,158144,1,0,0:0:0:0:
64,192,158144,1,0,0:0:0:0:
448,192,158229,1,0,0:0:0:0:
320,192,158229,1,0,0:0:0:0:
64,192,158229,1,0,0:0:0:0:
192,192,158315,1,0,0:0:0:0:
320,192,158401,1,0,0:0:0:0:
448,192,158487,1,0,0:0:0:0:
320,192,158487,1,0,0:0:0:0:
192,192,158487,1,0,0:0:0:0:
64,192,158487,1,0,0:0:0:0:
192,192,158572,1,0,0:0:0:0:
64,192,158658,1,0,0:0:0:0:
448,192,158658,1,0,0:0:0:0:
192,192,158744,1,0,0:0:0:0:
320,192,158744,1,0,0:0:0:0:
64,192,158829,1,0,0:0:0:0:
448,192,158829,1,0,0:0:0:0:
320,192,158915,1,0,0:0:0:0:
192,192,158915,1,0,0:0:0:0:
64,192,158915,1,0,0:0:0:0:
448,192,159001,1,0,0:0:0:0:
192,192,159087,1,0,0:0:0:0:
448,192,159172,1,0,0:0:0:0:
64,192,159172,1,0,0:0:0:0:
320,192,159172,1,0,0:0:0:0:
192,192,159172,1,0,0:0:0:0:
64,192,159258,1,0,0:0:0:0:
320,192,159344,1,0,0:0:0:0:
448,192,159344,1,0,0:0:0:0:
192,192,159429,1,0,0:0:0:0:
64,192,159429,1,0,0:0:0:0:
320,192,159515,1,0,0:0:0:0:
448,192,159515,1,0,0:0:0:0:
192,192,159601,1,0,0:0:0:0:
64,192,159601,1,0,0:0:0:0:
320,192,159601,1,0,0:0:0:0:
448,192,159687,1,0,0:0:0:0:
192,192,159772,1,0,0:0:0:0:
320,192,159858,1,0,0:0:0:0:
64,192,159858,1,0,0:0:0:0:
192,192,159858,1,0,0:0:0:0:
448,192,159858,1,0,0:0:0:0:
64,192,159944,1,0,0:0:0:0:
320,192,160029,1,0,0:0:0:0:
192,192,160029,1,0,0:0:0:0:
448,192,160115,1,0,0:0:0:0:
64,192,160115,1,0,0:0:0:0:
320,192,160201,1,0,0:0:0:0:
192,192,160201,1,0,0:0:0:0:
448,192,160287,1,0,0:0:0:0:
64,192,160287,1,0,0:0:0:0:
192,192,160287,1,0,0:0:0:0:
320,192,160372,1,0,0:0:0:0:
192,192,160458,1,0,0:0:0:0:
320,192,160544,1,0,0:0:0:0:
448,192,160544,1,0,0:0:0:0:
192,192,160544,1,0,0:0:0:0:
64,192,160544,1,0,0:0:0:0:
448,192,160629,1,0,0:0:0:0:
320,192,160715,1,0,0:0:0:0:
64,192,160715,1,0,0:0:0:0:
448,192,160801,1,0,0:0:0:0:
192,192,160801,1,0,0:0:0:0:
64,192,160887,1,0,0:0:0:0:
320,192,160887,1,0,0:0:0:0:
448,192,160972,1,0,0:0:0:0:
192,192,160972,1,0,0:0:0:0:
320,192,160972,1,0,0:0:0:0:
64,192,161058,1,0,0:0:0:0:
192,192,161144,1,0,0:0:0:0:
320,192,161229,1,0,0:0:0:0:
64,192,161229,1,0,0:0:0:0:
192,192,161229,1,0,0:0:0:0:
448,192,161229,1,0,0:0:0:0:
448,192,161315,1,0,0:0:0:0:
64,192,161401,1,0,0:0:0:0:
192,192,161401,1,0,0:0:0:0:
448,192,161487,1,0,0:0:0:0:
320,192,161487,1,0,0:0:0:0:
64,192,161572,1,0,0:0:0:0:
192,192,161572,1,0,0:0:0:0:
320,192,161658,1,0,0:0:0:0:
448,192,161658,1,0,0:0:0:0:
64,192,161658,1,0,0:0:0:0:
192,192,161744,1,0,0:0:0:0:
64,192,161829,1,0,0:0:0:0:
320,192,161915,1,0,0:0:0:0:
448,192,161915,1,0,0:0:0:0:
192,192,161915,1,0,0:0:0:0:
64,192,161915,1,0,0:0:0:0:
448,192,162001,1,0,0:0:0:0:
192,192,162087,1,0,0:0:0:0:
64,192,162087,1,0,0:0:0:0:
320,192,162172,1,0,0:0:0:0:
448,192,162172,1,0,0:0:0:0:
64,192,162258,1,0,0:0:0:0:
192,192,162258,1,0,0:0:0:0:
320,192,162344,1,0,0:0:0:0:
448,192,162344,1,0,0:0:0:0:
192,192,162344,1,0,0:0:0:0:
64,192,162429,1,0,0:0:0:0:
320,192,162515,1,0,0:0:0:0:
320,192,162601,1,0,0:0:0:0:
448,192,162601,1,0,0:0:0:0:
192,192,162601,1,0,0:0:0:0:
64,192,162601,1,0,0:0:0:0:
448,192,162687,1,0,0:0:0:0:
192,192,162772,1,0,0:0:0:0:
320,192,162772,1,0,0:0:0:0:
64,192,162858,1,0,0:0:0:0:
448,192,162858,1,0,0:0:0:0:
320,192,162944,1,0,0:0:0:0:
192,192,162944,1,0,0:0:0:0:
448,192,163029,1,0,0:0:0:0:
64,192,163029,1,0,0:0:0:0:
192,192,163029,1,0,0:0:0:0:
320,192,163115,1,0,0:0:0:0:
64,192,163201,1,0,0:0:0:0:
64,192,163287,1,0,0:0:0:0:
192,192,163287,1,0,0:0:0:0:
320,192,163287,1,0,0:0:0:0:
448,192,163287,1,0,0:0:0:0:
448,192,163372,1,0,0:0:0:0:
192,192,163458,1,0,0:0:0:0:
64,192,163458,1,0,0:0:0:0:
448,192,163544,1,0,0:0:0:0:
320,192,163544,1,0,0:0:0:0:
64,192,163629,1,0,0:0:0:0:
192,192,163629,1,0,0:0:0:0:
448,192,163715,1,0,0:0:0:0:
320,192,163715,1,0,0:0:0:0:
192,192,163715,1,0,0:0:0:0:
64,192,163801,1,0,0:0:0:0:
448,192,163887,1,0,0:0:0:0:
320,192,163972,1,0,0:0:0:0:
64,192,163972,1,0,0:0:0:0:
192,192,163972,1,0,0:0:0:0:
448,192,163972,1,0,0:0:0:0:
64,192,164058,1,0,0:0:0:0:
448,192,164144,1,0,0:0:0:0:
192,192,164144,1,0,0:0:0:0:
320,192,164229,1,0,0:0:0:0:
64,192,164229,1,0,0:0:0:0:
448,192,164315,1,0,0:0:0:0:
192,192,164315,1,0,0:0:0:0:
320,192,164401,1,0,0:0:0:0:
64,192,164401,1,0,0:0:0:0:
192,192,164401,1,0,0:0:0:0:
448,192,164487,1,0,0:0:0:0:
64,192,164572,1,0,0:0:0:0:
192,192,164658,1,0,0:0:0:0:
320,192,164658,1,0,0:0:0:0:
64,192,164658,1,0,0:0:0:0:
448,192,164658,1,0,0:0:0:0:
448,192,164744,1,0,0:0:0:0:
320,192,164829,1,0,0:0:0:0:
192,192,164829,1,0,0:0:0:0:
448,192,164915,1,0,0:0:0:0:
64,192,164915,1,0,0:0:0:0:
320,192,165001,1,0,0:0:0:0:
192,192,165001,1,0,0:0:0:0:
64,192,165087,1,0,0:0:0:0:
448,192,165087,1,0,0:0:0:0:
192,192,165087,1,0,0:0:0:0:
320,192,165172,1,0,0:0:0:0:
192,192,165258,1,0,0:0:0:0:
64,192,165344,1,0,0:0:0:0:
320,192,165344,1,0,0:0:0:0:
192,192,165344,1,0,0:0:0:0:
448,192,165344,1,0,0:0:0:0:
320,192,165429,1,0,0:0:0:0:
64,192,165515,1,0,0:0:0:0:
448,192,165515,1,0,0:0:0:0:
192,192,165601,1,0,0:0:0:0:
320,192,165601,1,0,0:0:0:0:
64,192,165687,1,0,0:0:0:0:
448,192,165687,1,0,0:0:0:0:
192,192,165772,1,0,0:0:0:0:
320,192,165772,1,0,0:0:0:0:
64,192,165772,1,0,0:0:0:0:
448,192,165858,1,0,0:0:0:0:
192,192,165944,1,0,0:0:0:0:
64,192,166029,1,0,0:0:0:0:
448,192,166029,1,0,0:0:0:0:
192,192,166029,1,0,0:0:0:0:
320,192,166029,1,0,0:0:0:0:
64,192,166115,1,0,0:0:0:0:
448,192,166201,1,0,0:0:0:0:
320,192,166201,1,0,0:0:0:0:
64,192,166287,1,0,0:0:0:0:
192,192,166287,1,0,0:0:0:0:
448,192,166372,1,0,0:0:0:0:
320,192,166372,1,0,0:0:0:0:
64,192,166458,1,0,0:0:0:0:
192,192,166458,1,0,0:0:0:0:
320,192,166458,1,0,0:0:0:0:
448,192,166544,1,0,0:0:0:0:
64,192,166629,1,0,0:0:0:0:
192,192,166715,1,0,0:0:0:0:
448,192,166715,1,0,0:0:0:0:
64,192,166715,1,0,0:0:0:0:
320,192,166715,1,0,0:0:0:0:
320,192,166801,1,0,0:0:0:0:
448,192,166887,1,0,0:0:0:0:
64,192,166887,1,0,0:0:0:0:
192,192,166972,1,0,0:0:0:0:
320,192,166972,1,0,0:0:0:0:
64,192,167058,1,0,0:0:0:0:
448,192,167058,1,0,0:0:0:0:
192,192,167144,1,0,0:0:0:0:
320,192,167144,1,0,0:0:0:0:
64,192,167144,1,0,0:0:0:0:
448,192,167229,1,0,0:0:0:0:
192,192,167315,1,0,0:0:0:0:
320,192,167401,1,0,0:0:0:0:
64,192,167401,1,0,0:0:0:0:
192,192,167401,1,0,0:0:0:0:
448,192,167401,1,0,0:0:0:0:
448,192,167487,1,0,0:0:0:0:
64,192,167572,1,0,0:0:0:0:
320,192,167572,1,0,0:0:0:0:
192,192,167658,1,0,0:0:0:0:
448,192,167658,1,0,0:0:0:0:
320,192,167744,1,0,0:0:0:0:
64,192,167744,1,0,0:0:0:0:
192,192,167829,1,0,0:0:0:0:
448,192,167829,1,0,0:0:0:0:
320,192,167829,1,0,0:0:0:0:
64,192,167915,1,0,0:0:0:0:
192,192,168001,1,0,0:0:0:0:
320,192,168087,1,0,0:0:0:0:
64,192,168087,1,0,0:0:0:0:
192,192,168087,1,0,0:0:0:0:
448,192,168087,1,0,0:0:0:0:
448,192,168172,1,0,0:0:0:0:
320,192,168258,1,0,0:0:0:0:
192,192,168258,1,0,0:0:0:0:
64,192,168344,1,0,0:0:0:0:
448,192,168344,1,0,0:0:0:0:
320,192,168429,1,0,0:0:0:0:
192,192,168429,1,0,0:0:0:0:
64,192,168515,1,0,0:0:0:0:
448,192,168515,1,0,0:0:0:0:
320,192,168515,1,0,0:0:0:0:
192,192,168601,1,0,0:0:0:0:
320,192,168687,1,0,0:0:0:0:
64,192,168772,1,0,0:0:0:0:
448,192,168772,1,0,0:0:0:0:
192,192,168772,1,0,0:0:0:0:
320,192,168772,1,0,0:0:0:0:
64,192,168858,1,0,0:0:0:0:
320,192,168944,1,0,0:0:0:0:
192,192,168944,1,0,0:0:0:0:
448,192,169029,1,0,0:0:0:0:
64,192,169029,1,0,0:0:0:0:
320,192,169115,1,0,0:0:0:0:
192,192,169115,1,0,0:0:0:0:
64,192,169201,1,0,0:0:0:0:
448,192,169201,1,0,0:0:0:0:
320,192,169201,1,0,0:0:0:0:
192,192,169287,1,0,0:0:0:0:
320,192,169372,1,0,0:0:0:0:
64,192,169458,1,0,0:0:0:0:
192,192,169458,1,0,0:0:0:0:
320,192,169458,1,0,0:0:0:0:
448,192,169458,1,0,0:0:0:0:
64,192,169544,1,0,0:0:0:0:
448,192,169629,1,0,0:0:0:0:
320,192,169629,1,0,0:0:0:0:
64,192,169715,1,0,0:0:0:0:
192,192,169715,1,0,0:0:0:0:
448,192,169801,1,0,0:0:0:0:
320,192,169801,1,0,0:0:0:0:
192,192,169887,1,0,0:0:0:0:
64,192,169887,1,0,0:0:0:0:
448,192,169887,1,0,0:0:0:0:
320,192,169972,1,0,0:0:0:0:
64,192,170058,1,0,0:0:0:0:
448,192,170144,1,0,0:0:0:0:
320,192,170144,1,0,0:0:0:0:
192,192,170144,1,0,0:0:0:0:
64,192,170144,1,0,0:0:0:0:
320,192,170229,1,0,0:0:0:0:
448,192,170315,1,0,0:0:0:0:
64,192,170315,1,0,0:0:0:0:
192,192,170401,1,0,0:0:0:0:
320,192,170401,1,0,0:0:0:0:
64,192,170487,1,0,0:0:0:0:
448,192,170487,1,0,0:0:0:0:
320,192,170572,1,0,0:0:0:0:
192,192,170572,1,0,0:0:0:0:
64,192,170572,1,0,0:0:0:0:
448,192,170658,1,0,0:0:0:0:
192,192,170744,1,0,0:0:0:0:
448,192,170829,1,0,0:0:0:0:
320,192,170829,1,0,0:0:0:0:
64,192,170829,1,0,0:0:0:0:
192,192,170829,1,0,0:0:0:0:
448,192,170915,1,0,0:0:0:0:
64,192,171001,1,0,0:0:0:0:
192,192,171001,1,0,0:0:0:0:
320,192,171087,1,0,0:0:0:0:
448,192,171087,1,0,0:0:0:0:
192,192,171172,1,0,0:0:0:0:
64,192,171172,1,0,0:0:0:0:
320,192,171258,1,0,0:0:0:0:
448,192,171258,1,0,0:0:0:0:
64,192,171258,1,0,0:0:0:0:
192,192,171344,1,0,0:0:0:0:
64,192,171429,1,0,0:0:0:0:
192,192,171515,1,0,0:0:0:0:
448,192,171515,1,0,0:0:0:0:
64,192,171515,1,0,0:0:0:0:
320,192,171515,1,0,0:0:0:0:
320,192,171601,1,0,0:0:0:0:
448,192,171687,1,0,0:0:0:0:
64,192,171687,1,0,0:0:0:0:
320,192,171772,1,0,0:0:0:0:
192,192,171772,1,0,0:0:0:0:
64,192,171858,1,0,0:0:0:0:
448,192,171858,1,0,0:0:0:0:
320,192,171944,1,0,0:0:0:0:
192,192,171944,1,0,0:0:0:0:
448,192,171944,1,0,0:0:0:0:
64,192,172029,1,0,0:0:0:0:
320,192,172115,1,0,0:0:0:0:
64,192,172201,1,0,0:0:0:0:
448,192,172201,1,0,0:0:0:0:
192,192,172201,1,0,0:0:0:0:
320,192,172201,1,0,0:0:0:0:
192,192,172287,1,0,0:0:0:0:
448,192,172372,1,0,0:0:0:0:
320,192,172372,1,0,0:0:0:0:
192,192,172458,1,0,0:0:0:0:
64,192,172458,1,0,0:0:0:0:
320,192,172544,1,0,0:0:0:0:
448,192,172544,1,0,0:0:0:0:
192,192,172629,1,0,0:0:0:0:
64,192,172629,1,0,0:0:0:0:
448,192,172629,1,0,0:0:0:0:
320,192,172715,1,0,0:0:0:0:
448,192,172801,1,0,0:0:0:0:
64,192,172887,1,0,0:0:0:0:
192,192,172929,1,0,0:0:0:0:
320,192,172972,1,0,0:0:0:0:
448,192,173015,1,0,0:0:0:0:
320,192,173058,1,0,0:0:0:0:
192,192,173115,1,0,0:0:0:0:
64,192,173172,1,0,0:0:0:0:
448,192,173229,1,0,0:0:0:0:
192,192,173229,1,0,0:0:0:0:
320,192,173287,1,0,0:0:0:0:
192,192,173344,1,0,0:0:0:0:
448,192,173401,1,0,0:0:0:0:
64,192,173401,1,0,0:0:0:0:
320,192,173458,1,0,0:0:0:0:
192,192,173515,1,0,0:0:0:0:
64,192,173572,1,0,0:0:0:0:
448,192,173572,1,0,0:0:0:0:
320,192,173629,1,0,0:0:0:0:
192,192,173687,1,0,0:0:0:0:
64,192,173744,1,0,0:0:0:0:
448,192,173801,1,0,0:0:0:0:
320,192,173858,1,0,0:0:0:0:
64,192,173915,1,0,0:0:0:0:
192,192,173915,1,0,0:0:0:0:
448,192,173972,1,0,0:0:0:0:
320,192,174029,1,0,0:0:0:0:
192,192,174087,1,0,0:0:0:0:
64,192,174087,1,0,0:0:0:0:
64,192,174258,1,0,0:0:0:0:
448,192,174258,1,0,0:0:0:0:
320,192,174344,1,0,0:0:0:0:
64,192,174429,1,0,0:0:0:0:
320,192,174515,1,0,0:0:0:0:
448,192,174601,1,0,0:0:0:0:
192,192,174601,1,0,0:0:0:0:
64,192,174687,1,0,0:0:0:0:
320,192,174772,1,0,0:0:0:0:
192,192,174858,1,0,0:0:0:0:
320,192,174944,1,0,0:0:0:0:
448,192,174944,1,0,0:0:0:0:
64,192,175029,1,0,0:0:0:0:
448,192,175115,1,0,0:0:0:0:
320,192,175201,1,0,0:0:0:0:
192,192,175287,1,0,0:0:0:0:
64,192,175287,1,0,0:0:0:0:
320,192,175372,1,0,0:0:0:0:
64,192,175458,1,0,0:0:0:0:
192,192,175544,1,0,0:0:0:0:
320,192,175629,1,0,0:0:0:0:
448,192,175629,1,0,0:0:0:0:
64,192,175715,1,0,0:0:0:0:
192,192,175801,1,0,0:0:0:0:
448,192,175887,1,0,0:0:0:0:
320,192,175972,1,0,0:0:0:0:
192,192,175972,1,0,0:0:0:0:
64,192,176058,1,0,0:0:0:0:
320,192,176144,1,0,0:0:0:0:
448,192,176229,1,0,0:0:0:0:
64,192,176315,1,0,0:0:0:0:
192,192,176315,1,0,0:0:0:0:
320,192,176315,1,0,0:0:0:0:
64,192,176401,1,0,0:0:0:0:
192,192,176401,1,0,0:0:0:0:
320,192,176487,1,0,0:0:0:0:
448,192,176487,1,0,0:0:0:0:
320,192,176572,1,0,0:0:0:0:
448,192,176572,1,0,0:0:0:0:
192,192,176658,1,0,0:0:0:0:
64,192,176658,1,0,0:0:0:0:
320,192,176658,1,0,0:0:0:0:
448,192,176701,1,0,0:0:0:0:
320,192,176744,1,0,0:0:0:0:
192,192,176787,1,0,0:0:0:0:
64,192,176829,1,0,0:0:0:0:
192,192,176915,1,0,0:0:0:0:
448,192,177001,1,0,0:0:0:0:
320,192,177001,1,0,0:0:0:0:
64,192,177087,1,0,0:0:0:0:
192,192,177172,1,0,0:0:0:0:
448,192,177172,1,0,0:0:0:0:
320,192,177258,1,0,0:0:0:0:
192,192,177344,1,0,0:0:0:0:
64,192,177344,1,0,0:0:0:0:
320,192,177429,1,0,0:0:0:0:
448,192,177515,1,0,0:0:0:0:
64,192,177515,1,0,0:0:0:0:
320,192,177601,1,0,0:0:0:0:
192,192,177687,1,0,0:0:0:0:
448,192,177687,1,0,0:0:0:0:
64,192,177772,1,0,0:0:0:0:
192,192,177858,1,0,0:0:0:0:
320,192,177858,1,0,0:0:0:0:
448,192,177944,1,0,0:0:0:0:
192,192,178029,1,0,0:0:0:0:
64,192,178029,1,0,0:0:0:0:
320,192,178115,1,0,0:0:0:0:
192,192,178201,1,0,0:0:0:0:
448,192,178201,1,0,0:0:0:0:
64,192,178287,1,0,0:0:0:0:
192,192,178372,1,0,0:0:0:0:
448,192,178372,1,0,0:0:0:0:
320,192,178458,1,0,0:0:0:0:
192,192,178544,1,0,0:0:0:0:
64,192,178544,1,0,0:0:0:0:
320,192,178629,1,0,0:0:0:0:
448,192,178715,1,0,0:0:0:0:
64,192,178715,1,0,0:0:0:0:
320,192,178801,1,0,0:0:0:0:
192,192,178887,1,0,0:0:0:0:
64,192,178887,1,0,0:0:0:0:
448,192,178972,1,0,0:0:0:0:
192,192,179058,1,0,0:0:0:0:
320,192,179058,1,0,0:0:0:0:
64,192,179144,1,0,0:0:0:0:
192,192,179229,1,0,0:0:0:0:
320,192,179315,1,0,0:0:0:0:
448,192,179401,128,0,179658:0:0:0:0:
192,192,179401,128,0,179658:0:0:0:0:
64,192,179487,128,0,179572:0:0:0:0:
320,192,179572,128,0,179658:0:0:0:0:
64,192,179744,1,0,0:0:0:0:
192,192,179744,1,0,0:0:0:0:
448,192,179829,1,0,0:0:0:0:
320,192,179915,1,0,0:0:0:0:
64,192,180001,1,0,0:0:0:0:
448,192,180087,1,0,0:0:0:0:
192,192,180087,1,0,0:0:0:0:
320,192,180087,1,0,0:0:0:0:
64,192,180172,1,0,0:0:0:0:
320,192,180258,1,0,0:0:0:0:
192,192,180344,1,0,0:0:0:0:
320,192,180429,1,0,0:0:0:0:
448,192,180429,1,0,0:0:0:0:
64,192,180515,1,0,0:0:0:0:
192,192,180601,1,0,0:0:0:0:
320,192,180687,1,0,0:0:0:0:
448,192,180772,1,0,0:0:0:0:
64,192,180772,1,0,0:0:0:0:
192,192,180772,1,0,0:0:0:0:
320,192,180858,1,0,0:0:0:0:
64,192,180944,1,0,0:0:0:0:
320,192,181029,1,0,0:0:0:0:
192,192,181115,1,0,0:0:0:0:
64,192,181115,1,0,0:0:0:0:
448,192,181201,1,0,0:0:0:0:
192,192,181287,1,0,0:0:0:0:
448,192,181372,1,0,0:0:0:0:
320,192,181458,1,0,0:0:0:0:
192,192,181458,1,0,0:0:0:0:
64,192,181458,1,0,0:0:0:0:
448,192,181544,1,0,0:0:0:0:
192,192,181629,1,0,0:0:0:0:
448,192,181715,1,0,0:0:0:0:
64,192,181801,1,0,0:0:0:0:
192,192,181801,1,0,0:0:0:0:
320,192,181801,1,0,0:0:0:0:
192,192,181887,1,0,0:0:0:0:
64,192,181887,1,0,0:0:0:0:
320,192,181972,1,0,0:0:0:0:
448,192,181972,1,0,0:0:0:0:
320,192,182058,1,0,0:0:0:0:
448,192,182058,1,0,0:0:0:0:
192,192,182144,1,0,0:0:0:0:
320,192,182144,1,0,0:0:0:0:
448,192,182144,1,0,0:0:0:0:
64,192,182187,1,0,0:0:0:0:
192,192,182229,1,0,0:0:0:0:
320,192,182272,1,0,0:0:0:0:
448,192,182315,1,0,0:0:0:0:
320,192,182401,1,0,0:0:0:0:
192,192,182487,1,0,0:0:0:0:
64,192,182487,1,0,0:0:0:0:
320,192,182572,1,0,0:0:0:0:
448,192,182658,1,0,0:0:0:0:
64,192,182658,1,0,0:0:0:0:
320,192,182744,1,0,0:0:0:0:
192,192,182829,1,0,0:0:0:0:
64,192,182829,1,0,0:0:0:0:
448,192,182829,1,0,0:0:0:0:
320,192,182915,1,0,0:0:0:0:
192,192,183001,1,0,0:0:0:0:
448,192,183001,1,0,0:0:0:0:
64,192,183087,1,0,0:0:0:0:
448,192,183172,1,0,0:0:0:0:
320,192,183172,1,0,0:0:0:0:
192,192,183258,1,0,0:0:0:0:
64,192,183258,1,0,0:0:0:0:
320,192,183344,1,0,0:0:0:0:
448,192,183344,1,0,0:0:0:0:
192,192,183429,1,0,0:0:0:0:
64,192,183429,1,0,0:0:0:0:
448,192,183515,1,0,0:0:0:0:
320,192,183515,1,0,0:0:0:0:
192,192,183601,1,0,0:0:0:0:
64,192,183601,1,0,0:0:0:0:
192,192,183687,1,0,0:0:0:0:
64,192,183687,1,0,0:0:0:0:
192,192,183772,1,0,0:0:0:0:
64,192,183772,1,0,0:0:0:0:
448,192,183858,128,0,184115:0:0:0:0:
192,192,184115,128,0,184458:0:0:0:0:
64,192,184458,128,0,184715:0:0:0:0:
448,192,184715,128,0,184887:0:0:0:0:
192,192,184887,128,0,185058:0:0:0:0:
64,192,184887,128,0,185058:0:0:0:0:
192,192,185229,1,0,0:0:0:0:
320,192,185229,1,0,0:0:0:0:
448,192,185229,1,0,0:0:0:0:
64,192,185315,1,0,0:0:0:0:
448,192,185401,1,0,0:0:0:0:
320,192,185487,1,0,0:0:0:0:
64,192,185572,1,0,0:0:0:0:
448,192,185572,1,0,0:0:0:0:
192,192,185572,1,0,0:0:0:0:
320,192,185658,1,0,0:0:0:0:
192,192,185744,1,0,0:0:0:0:
64,192,185829,1,0,0:0:0:0:
192,192,185915,1,0,0:0:0:0:
320,192,185915,1,0,0:0:0:0:
448,192,185915,1,0,0:0:0:0:
320,192,186001,1,0,0:0:0:0:
64,192,186087,1,0,0:0:0:0:
448,192,186172,1,0,0:0:0:0:
192,192,186258,1,0,0:0:0:0:
64,192,186258,1,0,0:0:0:0:
320,192,186258,1,0,0:0:0:0:
448,192,186344,1,0,0:0:0:0:
320,192,186429,1,0,0:0:0:0:
192,192,186515,1,0,0:0:0:0:
64,192,186601,1,0,0:0:0:0:
448,192,186601,1,0,0:0:0:0:
320,192,186601,1,0,0:0:0:0:
192,192,186687,1,0,0:0:0:0:
448,192,186772,1,0,0:0:0:0:
320,192,186858,1,0,0:0:0:0:
64,192,186944,1,0,0:0:0:0:
448,192,186944,1,0,0:0:0:0:
192,192,186944,1,0,0:0:0:0:
320,192,187029,1,0,0:0:0:0:
64,192,187115,1,0,0:0:0:0:
192,192,187201,1,0,0:0:0:0:
448,192,187287,1,0,0:0:0:0:
320,192,187287,1,0,0:0:0:0:
64,192,187287,1,0,0:0:0:0:
192,192,187372,1,0,0:0:0:0:
448,192,187458,1,0,0:0:0:0:
64,192,187544,1,0,0:0:0:0:
448,192,187629,1,0,0:0:0:0:
320,192,187629,1,0,0:0:0:0:
192,192,187629,1,0,0:0:0:0:
192,192,187715,1,0,0:0:0:0:
64,192,187715,1,0,0:0:0:0:
448,192,187801,1,0,0:0:0:0:
320,192,187801,1,0,0:0:0:0:
64,192,187887,1,0,0:0:0:0:
192,192,187887,1,0,0:0:0:0:
320,192,187972,1,0,0:0:0:0:
448,192,187972,1,0,0:0:0:0:
64,192,187972,1,0,0:0:0:0:
192,192,188058,1,0,0:0:0:0:
448,192,188144,1,0,0:0:0:0:
320,192,188229,1,0,0:0:0:0:
64,192,188315,1,0,0:0:0:0:
448,192,188315,1,0,0:0:0:0:
192,192,188315,1,0,0:0:0:0:
320,192,188401,1,0,0:0:0:0:
64,192,188487,1,0,0:0:0:0:
192,192,188572,1,0,0:0:0:0:
448,192,188658,1,0,0:0:0:0:
320,192,188658,1,0,0:0:0:0:
64,192,188744,1,0,0:0:0:0:
448,192,188829,1,0,0:0:0:0:
192,192,188915,1,0,0:0:0:0:
320,192,189001,1,0,0:0:0:0:
64,192,189001,1,0,0:0:0:0:
448,192,189001,1,0,0:0:0:0:
192,192,189087,1,0,0:0:0:0:
320,192,189172,1,0,0:0:0:0:
448,192,189258,1,0,0:0:0:0:
192,192,189344,1,0,0:0:0:0:
64,192,189344,1,0,0:0:0:0:
320,192,189344,1,0,0:0:0:0:
448,192,189429,1,0,0:0:0:0:
192,192,189515,1,0,0:0:0:0:
64,192,189601,1,0,0:0:0:0:
320,192,189687,1,0,0:0:0:0:
448,192,189687,1,0,0:0:0:0:
192,192,189772,1,0,0:0:0:0:
64,192,189858,1,0,0:0:0:0:
192,192,189944,1,0,0:0:0:0:
320,192,190029,1,0,0:0:0:0:
448,192,190029,1,0,0:0:0:0:
64,192,190029,1,0,0:0:0:0:
192,192,190115,1,0,0:0:0:0:
320,192,190115,1,0,0:0:0:0:
448,192,190201,1,0,0:0:0:0:
64,192,190201,1,0,0:0:0:0:
192,192,190287,1,0,0:0:0:0:
320,192,190287,1,0,0:0:0:0:
320,192,190372,1,0,0:0:0:0:
448,192,190372,1,0,0:0:0:0:
192,192,190372,1,0,0:0:0:0:
64,192,190458,1,0,0:0:0:0:
192,192,190458,1,0,0:0:0:0:
320,192,190544,1,0,0:0:0:0:
448,192,190544,1,0,0:0:0:0:
192,192,190629,1,0,0:0:0:0:
64,192,190629,1,0,0:0:0:0:
320,192,190715,1,0,0:0:0:0:
448,192,190715,1,0,0:0:0:0:
64,192,190715,1,0,0:0:0:0:
192,192,190801,1,0,0:0:0:0:
448,192,190887,1,0,0:0:0:0:
320,192,190887,1,0,0:0:0:0:
192,192,190972,1,0,0:0:0:0:
64,192,191058,1,0,0:0:0:0:
448,192,191058,1,0,0:0:0:0:
320,192,191058,1,0,0:0:0:0:
192,192,191144,1,0,0:0:0:0:
64,192,191229,1,0,0:0:0:0:
448,192,191229,1,0,0:0:0:0:
192,192,191315,1,0,0:0:0:0:
320,192,191401,1,0,0:0:0:0:
64,192,191401,1,0,0:0:0:0:
448,192,191487,1,0,0:0:0:0:
192,192,191572,1,0,0:0:0:0:
320,192,191572,1,0,0:0:0:0:
64,192,191658,1,0,0:0:0:0:
192,192,191744,1,0,0:0:0:0:
448,192,191744,1,0,0:0:0:0:
320,192,191829,1,0,0:0:0:0:
64,192,191915,1,0,0:0:0:0:
192,192,191915,1,0,0:0:0:0:
448,192,192001,1,0,0:0:0:0:
320,192,192087,1,0,0:0:0:0:
192,192,192087,1,0,0:0:0:0:
64,192,192172,1,0,0:0:0:0:
320,192,192258,1,0,0:0:0:0:
192,192,192258,1,0,0:0:0:0:
448,192,192344,1,0,0:0:0:0:
320,192,192429,1,0,0:0:0:0:
64,192,192429,1,0,0:0:0:0:
192,192,192515,1,0,0:0:0:0:
320,192,192601,1,0,0:0:0:0:
448,192,192601,1,0,0:0:0:0:
64,192,192687,1,0,0:0:0:0:
320,192,192772,1,0,0:0:0:0:
448,192,192772,1,0,0:0:0:0:
192,192,192858,1,0,0:0:0:0:
64,192,192944,1,0,0:0:0:0:
448,192,192944,1,0,0:0:0:0:
320,192,193029,1,0,0:0:0:0:
64,192,193115,1,0,0:0:0:0:
192,192,193115,1,0,0:0:0:0:
448,192,193201,1,0,0:0:0:0:
320,192,193201,1,0,0:0:0:0:
64,192,193287,1,0,0:0:0:0:
192,192,193287,1,0,0:0:0:0:
320,192,193372,1,0,0:0:0:0:
448,192,193372,1,0,0:0:0:0:
64,192,193458,1,0,0:0:0:0:
192,192,193458,1,0,0:0:0:0:
192,192,193544,1,0,0:0:0:0:
320,192,193544,1,0,0:0:0:0:
64,192,193629,1,0,0:0:0:0:
448,192,193629,1,0,0:0:0:0:
320,192,193715,1,0,0:0:0:0:
192,192,193715,1,0,0:0:0:0:
192,192,193801,1,0,0:0:0:0:
64,192,193801,1,0,0:0:0:0:
448,192,193887,1,0,0:0:0:0:
320,192,193887,1,0,0:0:0:0:
192,192,193972,1,0,0:0:0:0:
320,192,193972,1,0,0:0:0:0:
320,192,194058,1,0,0:0:0:0:
64,192,194058,1,0,0:0:0:0:
448,192,194144,1,0,0:0:0:0:
192,192,194144,1,0,0:0:0:0:
64,192,194229,1,0,0:0:0:0:
448,192,194229,1,0,0:0:0:0:
192,192,194315,1,0,0:0:0:0:
320,192,194315,1,0,0:0:0:0:
64,192,194401,1,0,0:0:0:0:
192,192,194401,1,0,0:0:0:0:
448,192,194487,1,0,0:0:0:0:
320,192,194487,1,0,0:0:0:0:
320,192,194572,1,0,0:0:0:0:
192,192,194572,1,0,0:0:0:0:
192,192,194658,1,0,0:0:0:0:
448,192,194658,1,0,0:0:0:0:
64,192,194744,1,0,0:0:0:0:
320,192,194744,1,0,0:0:0:0:
448,192,194829,1,0,0:0:0:0:
192,192,194829,1,0,0:0:0:0:
448,192,194915,1,0,0:0:0:0:
320,192,194915,1,0,0:0:0:0:
64,192,195001,1,0,0:0:0:0:
192,192,195001,1,0,0:0:0:0:
64,192,195087,1,0,0:0:0:0:
192,192,195087,1,0,0:0:0:0:
320,192,195172,1,0,0:0:0:0:
448,192,195172,1,0,0:0:0:0:
320,192,195258,1,0,0:0:0:0:
448,192,195258,1,0,0:0:0:0:
192,192,195344,1,0,0:0:0:0:
64,192,195344,1,0,0:0:0:0:
192,192,195429,1,0,0:0:0:0:
64,192,195429,1,0,0:0:0:0:
448,192,195515,1,0,0:0:0:0:
320,192,195515,1,0,0:0:0:0:
64,192,195601,1,0,0:0:0:0:
192,192,195601,1,0,0:0:0:0:
64,192,195687,1,0,0:0:0:0:
192,192,195687,1,0,0:0:0:0:
64,192,195772,1,0,0:0:0:0:
192,192,195772,1,0,0:0:0:0:
448,192,196201,128,0,196544:0:0:0:0:
320,192,196201,1,0,0:0:0:0:
64,192,196287,1,0,0:0:0:0:
192,192,196372,1,0,0:0:0:0:
64,192,196458,1,0,0:0:0:0:
320,192,196544,128,0,196715:0:0:0:0:
192,192,196544,1,0,0:0:0:0:
64,192,196629,1,0,0:0:0:0:
192,192,196715,128,0,197229:0:0:0:0:
448,192,196715,1,0,0:0:0:0:
320,192,196801,1,0,0:0:0:0:
64,192,196887,1,0,0:0:0:0:
320,192,196972,1,0,0:0:0:0:
448,192,197058,1,0,0:0:0:0:
320,192,197144,1,0,0:0:0:0:
64,192,197229,128,0,197572:0:0:0:0:
448,192,197229,1,0,0:0:0:0:
320,192,197315,1,0,0:0:0:0:
192,192,197401,1,0,0:0:0:0:
320,192,197487,1,0,0:0:0:0:
192,192,197572,128,0,198258:0:0:0:0:
448,192,197572,1,0,0:0:0:0:
320,192,197658,1,0,0:0:0:0:
64,192,197744,1,0,0:0:0:0:
320,192,197829,1,0,0:0:0:0:
448,192,197915,1,0,0:0:0:0:
320,192,198001,1,0,0:0:0:0:
448,192,198087,1,0,0:0:0:0:
64,192,198172,1,0,0:0:0:0:
320,192,198258,128,0,198944:0:0:0:0:
448,192,198258,1,0,0:0:0:0:
192,192,198344,1,0,0:0:0:0:
448,192,198429,1,0,0:0:0:0:
64,192,198515,1,0,0:0:0:0:
192,192,198601,1,0,0:0:0:0:
64,192,198687,1,0,0:0:0:0:
192,192,198772,1,0,0:0:0:0:
448,192,198858,1,0,0:0:0:0:
64,192,198944,128,0,199458:0:0:0:0:
192,192,198944,1,0,0:0:0:0:
448,192,199029,1,0,0:0:0:0:
192,192,199115,1,0,0:0:0:0:
448,192,199201,1,0,0:0:0:0:
320,192,199287,1,0,0:0:0:0:
448,192,199372,1,0,0:0:0:0:
192,192,199458,128,0,199972:0:0:0:0:
320,192,199458,1,0,0:0:0:0:
64,192,199544,1,0,0:0:0:0:
320,192,199629,1,0,0:0:0:0:
448,192,199715,1,0,0:0:0:0:
320,192,199801,1,0,0:0:0:0:
64,192,199887,1,0,0:0:0:0:
320,192,199972,128,0,200315:0:0:0:0:
448,192,199972,1,0,0:0:0:0:
192,192,200058,1,0,0:0:0:0:
448,192,200144,1,0,0:0:0:0:
64,192,200229,1,0,0:0:0:0:
192,192,200315,128,0,201687:0:0:0:0:
448,192,200315,1,0,0:0:0:0:
64,192,200401,1,0,0:0:0:0:
320,192,200487,1,0,0:0:0:0:
448,192,200572,1,0,0:0:0:0:
320,192,200658,1,0,0:0:0:0:
448,192,200744,1,0,0:0:0:0:
320,192,200829,1,0,0:0:0:0:
64,192,200915,1,0,0:0:0:0:
320,192,201001,1,0,0:0:0:0:
448,192,201087,1,0,0:0:0:0:
320,192,201172,1,0,0:0:0:0:
64,192,201258,1,0,0:0:0:0:
320,192,201344,1,0,0:0:0:0:
64,192,201429,1,0,0:0:0:0:
320,192,201515,1,0,0:0:0:0:
448,192,201601,1,0,0:0:0:0:
320,192,201687,128,0,202029:0:0:0:0:
64,192,201687,1,0,0:0:0:0:
448,192,202029,128,0,202201:0:0:0:0:
192,192,202201,128,0,202372:0:0:0:0:
192,192,202544,128,0,202715:0:0:0:0:
64,192,202715,128,0,203058:0:0:0:0:
192,192,203058,128,0,203315:0:0:0:0:
192,192,203401,128,0,203744:0:0:0:0:
320,192,203744,128,0,204001:0:0:0:0:
320,192,204087,128,0,204429:0:0:0:0:
192,192,204429,128,0,204772:0:0:0:0:
320,192,204772,128,0,204944:0:0:0:0:
192,192,204944,128,0,205115:0:0:0:0:
192,192,205287,128,0,205458:0:0:0:0:
320,192,205458,128,0,205715:0:0:0:0:
192,192,205801,128,0,207087:0:0:0:0:
64,192,205801,128,0,207087:0:0:0:0:
448,192,205801,128,0,207087:0:0:0:0:
64,192,207172,128,0,208201:0:0:0:0:
192,192,207515,128,0,207687:0:0:0:0:
448,192,207687,128,0,207858:0:0:0:0:
192,192,207858,128,0,208029:0:0:0:0:
320,192,208029,128,0,208201:0:0:0:0:
448,192,208201,128,0,208715:0:0:0:0:
192,192,208201,128,0,208544:0:0:0:0:
320,192,208544,128,0,208715:0:0:0:0:
192,192,208887,128,0,209144:0:0:0:0:
448,192,209144,128,0,209401:0:0:0:0:
320,192,209144,1,0,0:0:0:0:
192,192,209572,128,0,209915:0:0:0:0:
320,192,209572,1,0,0:0:0:0:
448,192,209915,128,0,210087:0:0:0:0:
64,192,209915,1,0,0:0:0:0:
320,192,210172,128,0,210344:0:0:0:0:
192,192,210172,1,0,0:0:0:0:
448,192,210344,128,0,210515:0:0:0:0:
64,192,210515,128,0,211029:0:0:0:0:
192,192,211029,128,0,211201:0:0:0:0:
448,192,211201,128,0,211458:0:0:0:0:
320,192,211458,128,0,211715:0:0:0:0:
64,192,211715,128,0,211972:0:0:0:0:
448,192,212658,128,0,213344:0:0:0:0:
320,192,212658,128,0,213344:0:0:0:0:
192,192,213344,128,0,213687:0:0:0:0:
64,192,213687,128,0,214029:0:0:0:0:
192,192,214029,128,0,214801:0:0:0:0:
320,192,214801,128,0,215487:0:0:0:0:
192,192,215487,128,0,216772:0:0:0:0:
448,192,215487,128,0,218144:0:0:0:0:
64,192,216772,128,0,217458:0:0:0:0:
64,192,218144,128,0,218572:0:0:0:0:
320,192,218572,128,0,219172:0:0:0:0:
192,192,219172,128,0,219687:0:0:0:0:
64,192,219687,128,0,219944:0:0:0:0:
192,192,219944,1,0,0:0:0:0:
448,192,220029,1,0,0:0:0:0:
320,192,220087,1,0,0:0:0:0:
192,192,220144,1,0,0:0:0:0:
64,192,220201,1,0,0:0:0:0:
448,192,220258,1,0,0:0:0:0:
320,192,220315,1,0,0:0:0:0:
192,192,220372,1,0,0:0:0:0:
64,192,220429,1,0,0:0:0:0:
448,192,220487,1,0,0:0:0:0:
320,192,220544,1,0,0:0:0:0:
192,192,220601,1,0,0:0:0:0:
64,192,220658,1,0,0:0:0:0:
448,192,220715,1,0,0:0:0:0:
320,192,220772,1,0,0:0:0:0:
192,192,220829,1,0,0:0:0:0:
320,192,220887,1,0,0:0:0:0:
64,192,220887,1,0,0:0:0:0:
448,192,220887,1,0,0:0:0:0:
192,192,220972,1,0,0:0:0:0:
64,192,221058,1,0,0:0:0:0:
192,192,221144,1,0,0:0:0:0:
320,192,221229,1,0,0:0:0:0:
448,192,221229,1,0,0:0:0:0:
192,192,221315,1,0,0:0:0:0:
64,192,221401,1,0,0:0:0:0:
320,192,221487,1,0,0:0:0:0:
192,192,221572,1,0,0:0:0:0:
448,192,221572,1,0,0:0:0:0:
64,192,221658,1,0,0:0:0:0:
448,192,221744,1,0,0:0:0:0:
320,192,221829,1,0,0:0:0:0:
192,192,221915,1,0,0:0:0:0:
64,192,221915,1,0,0:0:0:0:
320,192,222001,1,0,0:0:0:0:
448,192,222087,1,0,0:0:0:0:
192,192,222087,1,0,0:0:0:0:
64,192,222172,1,0,0:0:0:0:
448,192,222258,1,0,0:0:0:0:
320,192,222258,1,0,0:0:0:0:
192,192,222344,1,0,0:0:0:0:
448,192,222429,1,0,0:0:0:0:
64,192,222429,1,0,0:0:0:0:
320,192,222515,1,0,0:0:0:0:
64,192,222601,1,0,0:0:0:0:
192,192,222601,1,0,0:0:0:0:
448,192,222687,1,0,0:0:0:0:
320,192,222772,1,0,0:0:0:0:
64,192,222772,1,0,0:0:0:0:
192,192,222858,1,0,0:0:0:0:
320,192,222944,1,0,0:0:0:0:
448,192,222944,1,0,0:0:0:0:
192,192,223029,1,0,0:0:0:0:
64,192,223115,1,0,0:0:0:0:
448,192,223115,1,0,0:0:0:0:
192,192,223158,1,0,0:0:0:0:
320,192,223201,1,0,0:0:0:0:
448,192,223244,1,0,0:0:0:0:
192,192,223287,1,0,0:0:0:0:
64,192,223287,1,0,0:0:0:0:
320,192,223372,1,0,0:0:0:0:
64,192,223458,1,0,0:0:0:0:
448,192,223544,1,0,0:0:0:0:
320,192,223629,1,0,0:0:0:0:
192,192,223629,1,0,0:0:0:0:
64,192,223715,1,0,0:0:0:0:
192,192,223801,1,0,0:0:0:0:
320,192,223887,1,0,0:0:0:0:
64,192,223972,1,0,0:0:0:0:
448,192,223972,1,0,0:0:0:0:
320,192,224058,1,0,0:0:0:0:
192,192,224144,1,0,0:0:0:0:
64,192,224144,1,0,0:0:0:0:
320,192,224229,1,0,0:0:0:0:
64,192,224315,1,0,0:0:0:0:
448,192,224315,1,0,0:0:0:0:
192,192,224401,1,0,0:0:0:0:
320,192,224487,1,0,0:0:0:0:
448,192,224487,1,0,0:0:0:0:
192,192,224572,1,0,0:0:0:0:
448,192,224658,1,0,0:0:0:0:
64,192,224658,1,0,0:0:0:0:
192,192,224744,1,0,0:0:0:0:
448,192,224829,1,0,0:0:0:0:
320,192,224829,1,0,0:0:0:0:
192,192,224915,1,0,0:0:0:0:
64,192,225001,1,0,0:0:0:0:
448,192,225001,1,0,0:0:0:0:
192,192,225087,1,0,0:0:0:0:
448,192,225172,1,0,0:0:0:0:
320,192,225258,1,0,0:0:0:0:
448,192,225344,1,0,0:0:0:0:
64,192,225344,1,0,0:0:0:0:
192,192,225429,1,0,0:0:0:0:
448,192,225515,1,0,0:0:0:0:
64,192,225515,1,0,0:0:0:0:
192,192,225601,1,0,0:0:0:0:
320,192,225687,1,0,0:0:0:0:
448,192,225687,1,0,0:0:0:0:
192,192,225772,1,0,0:0:0:0:
320,192,225858,1,0,0:0:0:0:
192,192,225944,1,0,0:0:0:0:
64,192,226029,1,0,0:0:0:0:
448,192,226029,1,0,0:0:0:0:
320,192,226115,1,0,0:0:0:0:
192,192,226201,1,0,0:0:0:0:
64,192,226287,1,0,0:0:0:0:
448,192,226372,1,0,0:0:0:0:
320,192,226372,1,0,0:0:0:0:
192,192,226458,1,0,0:0:0:0:
64,192,226544,1,0,0:0:0:0:
448,192,226544,1,0,0:0:0:0:
320,192,226629,1,0,0:0:0:0:
192,192,226715,1,0,0:0:0:0:
448,192,226715,1,0,0:0:0:0:
64,192,226801,1,0,0:0:0:0:
192,192,226887,1,0,0:0:0:0:
320,192,226972,1,0,0:0:0:0:
192,192,227058,1,0,0:0:0:0:
448,192,227058,1,0,0:0:0:0:
64,192,227144,1,0,0:0:0:0:
192,192,227229,1,0,0:0:0:0:
320,192,227315,1,0,0:0:0:0:
64,192,227401,1,0,0:0:0:0:
448,192,227401,1,0,0:0:0:0:
320,192,227487,1,0,0:0:0:0:
64,192,227572,1,0,0:0:0:0:
192,192,227572,1,0,0:0:0:0:
320,192,227658,1,0,0:0:0:0:
192,192,227744,1,0,0:0:0:0:
448,192,227744,1,0,0:0:0:0:
64,192,227829,1,0,0:0:0:0:
320,192,227915,1,0,0:0:0:0:
448,192,227915,1,0,0:0:0:0:
192,192,228001,1,0,0:0:0:0:
448,192,228087,1,0,0:0:0:0:
64,192,228087,1,0,0:0:0:0:
320,192,228172,1,0,0:0:0:0:
192,192,228258,1,0,0:0:0:0:
64,192,228258,1,0,0:0:0:0:
448,192,228301,1,0,0:0:0:0:
320,192,228344,1,0,0:0:0:0:
192,192,228387,1,0,0:0:0:0:
448,192,228429,1,0,0:0:0:0:
64,192,228429,1,0,0:0:0:0:
320,192,228515,1,0,0:0:0:0:
448,192,228601,1,0,0:0:0:0:
64,192,228601,1,0,0:0:0:0:
192,192,228644,1,0,0:0:0:0:
320,192,228687,1,0,0:0:0:0:
448,192,228729,1,0,0:0:0:0:
64,192,228772,1,0,0:0:0:0:
192,192,228772,1,0,0:0:0:0:
320,192,228858,1,0,0:0:0:0:
64,192,228944,1,0,0:0:0:0:
448,192,229029,1,0,0:0:0:0:
192,192,229115,1,0,0:0:0:0:
320,192,229115,1,0,0:0:0:0:
448,192,229201,1,0,0:0:0:0:
64,192,229287,1,0,0:0:0:0:
320,192,229372,1,0,0:0:0:0:
64,192,229458,1,0,0:0:0:0:
448,192,229458,1,0,0:0:0:0:
320,192,229544,1,0,0:0:0:0:
64,192,229629,1,0,0:0:0:0:
192,192,229629,1,0,0:0:0:0:
320,192,229715,1,0,0:0:0:0:
64,192,229801,1,0,0:0:0:0:
448,192,229801,1,0,0:0:0:0:
192,192,229887,1,0,0:0:0:0:
320,192,229972,1,0,0:0:0:0:
64,192,229972,1,0,0:0:0:0:
448,192,230058,1,0,0:0:0:0:
192,192,230144,1,0,0:0:0:0:
64,192,230144,1,0,0:0:0:0:
320,192,230229,1,0,0:0:0:0:
64,192,230315,1,0,0:0:0:0:
448,192,230315,1,0,0:0:0:0:
192,192,230401,1,0,0:0:0:0:
448,192,230487,1,0,0:0:0:0:
64,192,230487,1,0,0:0:0:0:
320,192,230529,1,0,0:0:0:0:
192,192,230572,1,0,0:0:0:0:
64,192,230615,1,0,0:0:0:0:
448,192,230658,1,0,0:0:0:0:
320,192,230701,1,0,0:0:0:0:
192,192,230744,1,0,0:0:0:0:
64,192,230787,1,0,0:0:0:0:
320,192,230829,1,0,0:0:0:0:
448,192,230829,1,0,0:0:0:0:
192,192,230915,1,0,0:0:0:0:
448,192,231001,1,0,0:0:0:0:
64,192,231001,1,0,0:0:0:0:
192,192,231087,1,0,0:0:0:0:
320,192,231172,1,0,0:0:0:0:
448,192,231172,1,0,0:0:0:0:
64,192,231172,1,0,0:0:0:0:
192,192,231258,1,0,0:0:0:0:
448,192,231344,1,0,0:0:0:0:
320,192,231344,1,0,0:0:0:0:
192,192,231429,1,0,0:0:0:0:
448,192,231515,1,0,0:0:0:0:
64,192,231515,1,0,0:0:0:0:
192,192,231601,1,0,0:0:0:0:
448,192,231687,1,0,0:0:0:0:
64,192,231687,1,0,0:0:0:0:
320,192,231772,1,0,0:0:0:0:
192,192,231858,1,0,0:0:0:0:
448,192,231858,1,0,0:0:0:0:
64,192,231858,1,0,0:0:0:0:
320,192,231944,1,0,0:0:0:0:
64,192,232029,1,0,0:0:0:0:
320,192,232115,1,0,0:0:0:0:
64,192,232201,1,0,0:0:0:0:
192,192,232201,1,0,0:0:0:0:
448,192,232287,1,0,0:0:0:0:
192,192,232372,1,0,0:0:0:0:
320,192,232458,1,0,0:0:0:0:
448,192,232544,1,0,0:0:0:0:
64,192,232544,1,0,0:0:0:0:
192,192,232629,1,0,0:0:0:0:
320,192,232715,1,0,0:0:0:0:
64,192,232801,1,0,0:0:0:0:
192,192,232887,1,0,0:0:0:0:
320,192,232887,1,0,0:0:0:0:
448,192,232972,1,0,0:0:0:0:
192,192,233058,1,0,0:0:0:0:
320,192,233058,1,0,0:0:0:0:
448,192,233144,1,0,0:0:0:0:
64,192,233229,1,0,0:0:0:0:
320,192,233229,1,0,0:0:0:0:
192,192,233315,1,0,0:0:0:0:
320,192,233401,1,0,0:0:0:0:
448,192,233401,1,0,0:0:0:0:
64,192,233487,1,0,0:0:0:0:
448,192,233572,1,0,0:0:0:0:
320,192,233572,1,0,0:0:0:0:
192,192,233658,1,0,0:0:0:0:
64,192,233744,1,0,0:0:0:0:
448,192,233744,1,0,0:0:0:0:
192,192,233787,1,0,0:0:0:0:
320,192,233829,1,0,0:0:0:0:
448,192,233872,1,0,0:0:0:0:
64,192,233915,1,0,0:0:0:0:
192,192,233915,1,0,0:0:0:0:
320,192,234001,1,0,0:0:0:0:
64,192,234087,1,0,0:0:0:0:
448,192,234087,1,0,0:0:0:0:
320,192,234129,1,0,0:0:0:0:
192,192,234172,1,0,0:0:0:0:
64,192,234215,1,0,0:0:0:0:
448,192,234258,1,0,0:0:0:0:
320,192,234258,1,0,0:0:0:0:
192,192,234344,1,0,0:0:0:0:
448,192,234429,1,0,0:0:0:0:
64,192,234515,1,0,0:0:0:0:
192,192,234601,1,0,0:0:0:0:
320,192,234601,1,0,0:0:0:0:
64,192,234687,1,0,0:0:0:0:
448,192,234772,1,0,0:0:0:0:
192,192,234858,1,0,0:0:0:0:
64,192,234944,1,0,0:0:0:0:
448,192,234944,1,0,0:0:0:0:
320,192,235029,1,0,0:0:0:0:
192,192,235115,1,0,0:0:0:0:
64,192,235115,1,0,0:0:0:0:
320,192,235201,1,0,0:0:0:0:
64,192,235287,1,0,0:0:0:0:
448,192,235287,1,0,0:0:0:0:
192,192,235372,1,0,0:0:0:0:
448,192,235458,1,0,0:0:0:0:
320,192,235544,1,0,0:0:0:0:
192,192,235629,1,0,0:0:0:0:
64,192,235629,1,0,0:0:0:0:
320,192,235715,1,0,0:0:0:0:
448,192,235801,1,0,0:0:0:0:
64,192,235801,1,0,0:0:0:0:
192,192,235887,1,0,0:0:0:0:
64,192,235972,1,0,0:0:0:0:
320,192,235972,1,0,0:0:0:0:
192,192,236058,1,0,0:0:0:0:
320,192,236144,1,0,0:0:0:0:
448,192,236229,1,0,0:0:0:0:
64,192,236315,1,0,0:0:0:0:
320,192,236315,1,0,0:0:0:0:
192,192,236401,1,0,0:0:0:0:
448,192,236487,1,0,0:0:0:0:
320,192,236487,1,0,0:0:0:0:
192,192,236572,1,0,0:0:0:0:
64,192,236658,1,0,0:0:0:0:
320,192,236658,1,0,0:0:0:0:
448,192,236744,1,0,0:0:0:0:
64,192,236829,1,0,0:0:0:0:
192,192,236915,1,0,0:0:0:0:
320,192,237001,1,0,0:0:0:0:
448,192,237001,1,0,0:0:0:0:
64,192,237087,1,0,0:0:0:0:
448,192,237172,1,0,0:0:0:0:
320,192,237258,1,0,0:0:0:0:
64,192,237344,1,0,0:0:0:0:
192,192,237344,1,0,0:0:0:0:
448,192,237429,1,0,0:0:0:0:
192,192,237515,1,0,0:0:0:0:
320,192,237601,1,0,0:0:0:0:
64,192,237687,1,0,0:0:0:0:
448,192,237687,1,0,0:0:0:0:
192,192,237772,1,0,0:0:0:0:
448,192,237858,1,0,0:0:0:0:
64,192,237944,1,0,0:0:0:0:
192,192,238029,1,0,0:0:0:0:
320,192,238029,1,0,0:0:0:0:
448,192,238115,1,0,0:0:0:0:
320,192,238201,1,0,0:0:0:0:
192,192,238287,1,0,0:0:0:0:
64,192,238372,1,0,0:0:0:0:
448,192,238372,1,0,0:0:0:0:
320,192,238458,1,0,0:0:0:0:
448,192,238544,1,0,0:0:0:0:
192,192,238544,1,0,0:0:0:0:
64,192,238629,1,0,0:0:0:0:
448,192,238715,1,0,0:0:0:0:
320,192,238715,1,0,0:0:0:0:
192,192,238801,1,0,0:0:0:0:
448,192,238887,1,0,0:0:0:0:
64,192,238887,1,0,0:0:0:0:
192,192,238929,1,0,0:0:0:0:
320,192,238972,1,0,0:0:0:0:
448,192,239015,1,0,0:0:0:0:
64,192,239058,1,0,0:0:0:0:
192,192,239058,1,0,0:0:0:0:
320,192,239101,1,0,0:0:0:0:
448,192,239144,1,0,0:0:0:0:
448,192,239229,1,0,0:0:0:0:
64,192,239229,1,0,0:0:0:0:
320,192,239272,1,0,0:0:0:0:
192,192,239315,1,0,0:0:0:0:
64,192,239358,1,0,0:0:0:0:
320,192,239401,1,0,0:0:0:0:
448,192,239401,1,0,0:0:0:0:
192,192,239487,1,0,0:0:0:0:
448,192,239572,1,0,0:0:0:0:
320,192,239658,1,0,0:0:0:0:
64,192,239744,1,0,0:0:0:0:
192,192,239744,1,0,0:0:0:0:
320,192,239829,1,0,0:0:0:0:
448,192,239915,1,0,0:0:0:0:
64,192,240001,1,0,0:0:0:0:
448,192,240087,1,0,0:0:0:0:
320,192,240087,1,0,0:0:0:0:
64,192,240172,1,0,0:0:0:0:
192,192,240258,1,0,0:0:0:0:
448,192,240344,1,0,0:0:0:0:
320,192,240429,1,0,0:0:0:0:
64,192,240429,1,0,0:0:0:0:
192,192,240515,1,0,0:0:0:0:
448,192,240601,1,0,0:0:0:0:
320,192,240601,1,0,0:0:0:0:
192,192,240687,1,0,0:0:0:0:
320,192,240772,1,0,0:0:0:0:
64,192,240772,1,0,0:0:0:0:
192,192,240858,1,0,0:0:0:0:
320,192,240944,1,0,0:0:0:0:
448,192,241029,1,0,0:0:0:0:
192,192,241115,1,0,0:0:0:0:
64,192,241115,1,0,0:0:0:0:
448,192,241201,1,0,0:0:0:0:
320,192,241287,1,0,0:0:0:0:
192,192,241372,1,0,0:0:0:0:
448,192,241458,1,0,0:0:0:0:
320,192,241501,1,0,0:0:0:0:
192,192,241544,1,0,0:0:0:0:
64,192,241587,1,0,0:0:0:0:
448,192,241629,1,0,0:0:0:0:
320,192,241672,1,0,0:0:0:0:
192,192,241715,1,0,0:0:0:0:
64,192,241758,1,0,0:0:0:0:
448,192,241801,1,0,0:0:0:0:
320,192,241801,1,0,0:0:0:0:
192,192,241972,1,0,0:0:0:0:
64,192,241972,1,0,0:0:0:0:
64,192,242144,128,0,242658:0:0:0:0:
192,192,242144,128,0,242658:0:0:0:0:
448,192,242144,128,0,242658:0:0:0:0:
64,192,242829,1,0,0:0:0:0:
192,192,242829,1,0,0:0:0:0:
320,192,242829,1,0,0:0:0:0:
448,192,242829,1,0,0:0:0:0:
320,192,242915,1,0,0:0:0:0:
64,192,243001,1,0,0:0:0:0:
192,192,243001,1,0,0:0:0:0:
320,192,243087,1,0,0:0:0:0:
448,192,243087,1,0,0:0:0:0:
64,192,243172,1,0,0:0:0:0:
192,192,243172,1,0,0:0:0:0:
448,192,243258,1,0,0:0:0:0:
320,192,243258,1,0,0:0:0:0:
64,192,243344,1,0,0:0:0:0:
192,192,243429,1,0,0:0:0:0:
448,192,243515,1,0,0:0:0:0:
192,192,243515,1,0,0:0:0:0:
320,192,243515,1,0,0:0:0:0:
64,192,243515,1,0,0:0:0:0:
64,192,243601,1,0,0:0:0:0:
448,192,243687,1,0,0:0:0:0:
320,192,243687,1,0,0:0:0:0:
64,192,243772,1,0,0:0:0:0:
192,192,243772,1,0,0:0:0:0:
448,192,243858,1,0,0:0:0:0:
320,192,243858,1,0,0:0:0:0:
64,192,243944,1,0,0:0:0:0:
192,192,243944,1,0,0:0:0:0:
448,192,244029,1,0,0:0:0:0:
64,192,244115,1,0,0:0:0:0:
448,192,244201,1,0,0:0:0:0:
320,192,244201,1,0,0:0:0:0:
192,192,244201,1,0,0:0:0:0:
64,192,244201,1,0,0:0:0:0:
448,192,244287,1,0,0:0:0:0:
64,192,244372,1,0,0:0:0:0:
192,192,244372,1,0,0:0:0:0:
320,192,244458,1,0,0:0:0:0:
448,192,244458,1,0,0:0:0:0:
64,192,244544,1,0,0:0:0:0:
192,192,244544,1,0,0:0:0:0:
320,192,244629,1,0,0:0:0:0:
448,192,244629,1,0,0:0:0:0:
64,192,244715,1,0,0:0:0:0:
192,192,244801,1,0,0:0:0:0:
192,192,244887,1,0,0:0:0:0:
448,192,244887,1,0,0:0:0:0:
64,192,244887,1,0,0:0:0:0:
320,192,244887,1,0,0:0:0:0:
320,192,244972,1,0,0:0:0:0:
448,192,245058,1,0,0:0:0:0:
64,192,245058,1,0,0:0:0:0:
192,192,245144,1,0,0:0:0:0:
320,192,245144,1,0,0:0:0:0:
448,192,245229,1,0,0:0:0:0:
64,192,245229,1,0,0:0:0:0:
320,192,245315,1,0,0:0:0:0:
192,192,245315,1,0,0:0:0:0:
448,192,245401,1,0,0:0:0:0:
64,192,245487,1,0,0:0:0:0:
192,192,245572,1,0,0:0:0:0:
64,192,245572,1,0,0:0:0:0:
320,192,245572,1,0,0:0:0:0:
448,192,245572,1,0,0:0:0:0:
448,192,245658,1,0,0:0:0:0:
64,192,245744,1,0,0:0:0:0:
320,192,245744,1,0,0:0:0:0:
448,192,245829,1,0,0:0:0:0:
192,192,245829,1,0,0:0:0:0:
64,192,245915,1,0,0:0:0:0:
320,192,245915,1,0,0:0:0:0:
448,192,246001,1,0,0:0:0:0:
192,192,246001,1,0,0:0:0:0:
320,192,246087,1,0,0:0:0:0:
64,192,246172,1,0,0:0:0:0:
448,192,246258,1,0,0:0:0:0:
320,192,246258,1,0,0:0:0:0:
192,192,246258,1,0,0:0:0:0:
64,192,246258,1,0,0:0:0:0:
448,192,246344,1,0,0:0:0:0:
64,192,246429,1,0,0:0:0:0:
192,192,246429,1,0,0:0:0:0:
448,192,246515,1,0,0:0:0:0:
320,192,246515,1,0,0:0:0:0:
64,192,246601,1,0,0:0:0:0:
192,192,246601,1,0,0:0:0:0:
320,192,246687,1,0,0:0:0:0:
448,192,246687,1,0,0:0:0:0:
64,192,246772,1,0,0:0:0:0:
192,192,246858,1,0,0:0:0:0:
320,192,246944,1,0,0:0:0:0:
192,192,246944,1,0,0:0:0:0:
448,192,246944,1,0,0:0:0:0:
64,192,246944,1,0,0:0:0:0:
448,192,247029,1,0,0:0:0:0:
192,192,247115,1,0,0:0:0:0:
320,192,247115,1,0,0:0:0:0:
448,192,247201,1,0,0:0:0:0:
64,192,247201,1,0,0:0:0:0:
192,192,247287,1,0,0:0:0:0:
320,192,247287,1,0,0:0:0:0:
448,192,247372,1,0,0:0:0:0:
64,192,247372,1,0,0:0:0:0:
192,192,247458,1,0,0:0:0:0:
320,192,247544,1,0,0:0:0:0:
448,192,247629,1,0,0:0:0:0:
320,192,247629,1,0,0:0:0:0:
192,192,247629,1,0,0:0:0:0:
64,192,247629,1,0,0:0:0:0:
192,192,247715,1,0,0:0:0:0:
448,192,247801,1,0,0:0:0:0:
320,192,247801,1,0,0:0:0:0:
192,192,247887,1,0,0:0:0:0:
64,192,247887,1,0,0:0:0:0:
448,192,247972,1,0,0:0:0:0:
320,192,247972,1,0,0:0:0:0:
192,192,248058,1,0,0:0:0:0:
64,192,248058,1,0,0:0:0:0:
320,192,248144,1,0,0:0:0:0:
448,192,248229,1,0,0:0:0:0:
320,192,248315,1,0,0:0:0:0:
192,192,248315,1,0,0:0:0:0:
64,192,248315,1,0,0:0:0:0:
448,192,248315,1,0,0:0:0:0:
64,192,248401,1,0,0:0:0:0:
320,192,248487,1,0,0:0:0:0:
448,192,248487,1,0,0:0:0:0:
64,192,248572,1,0,0:0:0:0:
192,192,248572,1,0,0:0:0:0:
320,192,248658,1,0,0:0:0:0:
448,192,248658,1,0,0:0:0:0:
64,192,248744,1,0,0:0:0:0:
192,192,248744,1,0,0:0:0:0:
320,192,248829,1,0,0:0:0:0:
192,192,248915,1,0,0:0:0:0:
64,192,249001,1,0,0:0:0:0:
192,192,249001,1,0,0:0:0:0:
320,192,249001,1,0,0:0:0:0:
448,192,249001,1,0,0:0:0:0:
320,192,249087,1,0,0:0:0:0:
448,192,249172,1,0,0:0:0:0:
64,192,249172,1,0,0:0:0:0:
320,192,249258,1,0,0:0:0:0:
192,192,249258,1,0,0:0:0:0:
448,192,249344,1,0,0:0:0:0:
64,192,249344,1,0,0:0:0:0:
192,192,249429,1,0,0:0:0:0:
320,192,249429,1,0,0:0:0:0:
64,192,249515,1,0,0:0:0:0:
320,192,249601,1,0,0:0:0:0:
64,192,249687,1,0,0:0:0:0:
448,192,249687,1,0,0:0:0:0:
192,192,249687,1,0,0:0:0:0:
320,192,249687,1,0,0:0:0:0:
448,192,249772,1,0,0:0:0:0:
192,192,249858,1,0,0:0:0:0:
64,192,249858,1,0,0:0:0:0:
320,192,249944,1,0,0:0:0:0:
448,192,249944,1,0,0:0:0:0:
192,192,250029,1,0,0:0:0:0:
64,192,250029,1,0,0:0:0:0:
320,192,250115,1,0,0:0:0:0:
448,192,250115,1,0,0:0:0:0:
64,192,250201,1,0,0:0:0:0:
320,192,250287,1,0,0:0:0:0:
192,192,250372,1,0,0:0:0:0:
448,192,250372,1,0,0:0:0:0:
320,192,250372,1,0,0:0:0:0:
64,192,250372,1,0,0:0:0:0:
448,192,250458,1,0,0:0:0:0:
192,192,250544,1,0,0:0:0:0:
320,192,250544,1,0,0:0:0:0:
64,192,250629,1,0,0:0:0:0:
448,192,250629,1,0,0:0:0:0:
192,192,250715,1,0,0:0:0:0:
320,192,250715,1,0,0:0:0:0:
64,192,250801,1,0,0:0:0:0:
448,192,250801,1,0,0:0:0:0:
192,192,250887,1,0,0:0:0:0:
320,192,250972,1,0,0:0:0:0:
192,192,251058,1,0,0:0:0:0:
64,192,251058,1,0,0:0:0:0:
320,192,251058,1,0,0:0:0:0:
448,192,251058,1,0,0:0:0:0:
64,192,251144,1,0,0:0:0:0:
192,192,251229,1,0,0:0:0:0:
448,192,251229,1,0,0:0:0:0:
64,192,251315,1,0,0:0:0:0:
320,192,251315,1,0,0:0:0:0:
448,192,251401,1,0,0:0:0:0:
192,192,251401,1,0,0:0:0:0:
64,192,251487,1,0,0:0:0:0:
320,192,251487,1,0,0:0:0:0:
448,192,251572,1,0,0:0:0:0:
320,192,251658,1,0,0:0:0:0:
192,192,251744,1,0,0:0:0:0:
448,192,251744,1,0,0:0:0:0:
320,192,251744,1,0,0:0:0:0:
64,192,251744,1,0,0:0:0:0:
64,192,251829,1,0,0:0:0:0:
448,192,251915,1,0,0:0:0:0:
320,192,251915,1,0,0:0:0:0:
64,192,252001,1,0,0:0:0:0:
192,192,252001,1,0,0:0:0:0:
448,192,252087,1,0,0:0:0:0:
320,192,252087,1,0,0:0:0:0:
192,192,252172,1,0,0:0:0:0:
64,192,252172,1,0,0:0:0:0:
320,192,252258,1,0,0:0:0:0:
448,192,252344,1,0,0:0:0:0:
192,192,252429,1,0,0:0:0:0:
64,192,252429,1,0,0:0:0:0:
320,192,252429,1,0,0:0:0:0:
448,192,252429,1,0,0:0:0:0:
64,192,252515,1,0,0:0:0:0:
320,192,252601,1,0,0:0:0:0:
448,192,252601,1,0,0:0:0:0:
192,192,252687,1,0,0:0:0:0:
64,192,252687,1,0,0:0:0:0:
448,192,252772,1,0,0:0:0:0:
320,192,252772,1,0,0:0:0:0:
192,192,252858,1,0,0:0:0:0:
64,192,252858,1,0,0:0:0:0:
448,192,252944,1,0,0:0:0:0:
192,192,253029,1,0,0:0:0:0:
320,192,253115,1,0,0:0:0:0:
192,192,253115,1,0,0:0:0:0:
64,192,253115,1,0,0:0:0:0:
448,192,253115,1,0,0:0:0:0:
448,192,253201,1,0,0:0:0:0:
64,192,253201,1,0,0:0:0:0:
320,192,253287,1,0,0:0:0:0:
192,192,253287,1,0,0:0:0:0:
448,192,253372,1,0,0:0:0:0:
64,192,253372,1,0,0:0:0:0:
192,192,253458,1,0,0:0:0:0:
320,192,253458,1,0,0:0:0:0:
64,192,253544,1,0,0:0:0:0:
448,192,253544,1,0,0:0:0:0:
320,192,253629,1,0,0:0:0:0:
192,192,253629,1,0,0:0:0:0:
448,192,253715,1,0,0:0:0:0:
448,192,253801,1,0,0:0:0:0:
320,192,253801,1,0,0:0:0:0:
192,192,253801,1,0,0:0:0:0:
64,192,253801,1,0,0:0:0:0:
64,192,253887,1,0,0:0:0:0:
320,192,253972,1,0,0:0:0:0:
448,192,253972,1,0,0:0:0:0:
64,192,254058,1,0,0:0:0:0:
192,192,254058,1,0,0:0:0:0:
448,192,254144,1,0,0:0:0:0:
320,192,254144,1,0,0:0:0:0:
64,192,254229,1,0,0:0:0:0:
192,192,254229,1,0,0:0:0:0:
448,192,254315,1,0,0:0:0:0:
64,192,254401,1,0,0:0:0:0:
192,192,254487,1,0,0:0:0:0:
448,192,254487,1,0,0:0:0:0:
320,192,254487,1,0,0:0:0:0:
64,192,254487,1,0,0:0:0:0:
448,192,254572,1,0,0:0:0:0:
64,192,254658,1,0,0:0:0:0:
320,192,254658,1,0,0:0:0:0:
192,192,254744,1,0,0:0:0:0:
448,192,254744,1,0,0:0:0:0:
64,192,254829,1,0,0:0:0:0:
320,192,254829,1,0,0:0:0:0:
192,192,254915,1,0,0:0:0:0:
448,192,254915,1,0,0:0:0:0:
64,192,255001,1,0,0:0:0:0:
448,192,255087,1,0,0:0:0:0:
320,192,255172,1,0,0:0:0:0:
192,192,255172,1,0,0:0:0:0:
448,192,255172,1,0,0:0:0:0:
64,192,255172,1,0,0:0:0:0:
64,192,255258,1,0,0:0:0:0:
192,192,255344,1,0,0:0:0:0:
320,192,255344,1,0,0:0:0:0:
64,192,255429,1,0,0:0:0:0:
448,192,255429,1,0,0:0:0:0:
192,192,255515,1,0,0:0:0:0:
320,192,255515,1,0,0:0:0:0:
448,192,255601,1,0,0:0:0:0:
64,192,255601,1,0,0:0:0:0:
192,192,255687,1,0,0:0:0:0:
320,192,255772,1,0,0:0:0:0:
448,192,255858,1,0,0:0:0:0:
192,192,255858,1,0,0:0:0:0:
320,192,255858,1,0,0:0:0:0:
64,192,255858,1,0,0:0:0:0:
192,192,255944,1,0,0:0:0:0:
448,192,256029,1,0,0:0:0:0:
64,192,256029,1,0,0:0:0:0:
320,192,256115,1,0,0:0:0:0:
192,192,256115,1,0,0:0:0:0:
448,192,256201,1,0,0:0:0:0:
64,192,256201,1,0,0:0:0:0:
320,192,256287,1,0,0:0:0:0:
192,192,256287,1,0,0:0:0:0:
64,192,256372,1,0,0:0:0:0:
320,192,256458,1,0,0:0:0:0:
448,192,256544,1,0,0:0:0:0:
64,192,256544,1,0,0:0:0:0:
320,192,256544,1,0,0:0:0:0:
192,192,256544,1,0,0:0:0:0:
448,192,256629,1,0,0:0:0:0:
64,192,256715,1,0,0:0:0:0:
192,192,256715,1,0,0:0:0:0:
448,192,256801,1,0,0:0:0:0:
320,192,256801,1,0,0:0:0:0:
64,192,256887,1,0,0:0:0:0:
192,192,256887,1,0,0:0:0:0:
448,192,256972,1,0,0:0:0:0:
320,192,256972,1,0,0:0:0:0:
64,192,257058,1,0,0:0:0:0:
448,192,257144,1,0,0:0:0:0:
320,192,257229,1,0,0:0:0:0:
64,192,257229,1,0,0:0:0:0:
448,192,257229,1,0,0:0:0:0:
192,192,257229,1,0,0:0:0:0:
192,192,257315,1,0,0:0:0:0:
64,192,257401,1,0,0:0:0:0:
448,192,257401,1,0,0:0:0:0:
320,192,257487,1,0,0:0:0:0:
192,192,257487,1,0,0:0:0:0:
448,192,257572,1,0,0:0:0:0:
64,192,257572,1,0,0:0:0:0:
320,192,257658,1,0,0:0:0:0:
192,192,257658,1,0,0:0:0:0:
64,192,257744,1,0,0:0:0:0:
320,192,257829,1,0,0:0:0:0:
192,192,257915,1,0,0:0:0:0:
448,192,257915,1,0,0:0:0:0:
320,192,257915,1,0,0:0:0:0:
64,192,257915,1,0,0:0:0:0:
64,192,258001,1,0,0:0:0:0:
448,192,258087,1,0,0:0:0:0:
192,192,258087,1,0,0:0:0:0:
320,192,258172,1,0,0:0:0:0:
64,192,258172,1,0,0:0:0:0:
192,192,258258,1,0,0:0:0:0:
448,192,258258,1,0,0:0:0:0:
320,192,258344,1,0,0:0:0:0:
64,192,258344,1,0,0:0:0:0:
448,192,258429,1,0,0:0:0:0:
320,192,258515,1,0,0:0:0:0:
192,192,258601,1,0,0:0:0:0:
448,192,258601,1,0,0:0:0:0:
320,192,258601,1,0,0:0:0:0:
64,192,258601,1,0,0:0:0:0:
64,192,258687,1,0,0:0:0:0:
192,192,258772,1,0,0:0:0:0:
320,192,258772,1,0,0:0:0:0:
448,192,258858,1,0,0:0:0:0:
64,192,258858,1,0,0:0:0:0:
192,192,258944,1,0,0:0:0:0:
320,192,258944,1,0,0:0:0:0:
448,192,259029,1,0,0:0:0:0:
64,192,259029,1,0,0:0:0:0:
320,192,259115,1,0,0:0:0:0:
192,192,259201,1,0,0:0:0:0:
448,192,259287,1,0,0:0:0:0:
64,192,259287,1,0,0:0:0:0:
320,192,259287,1,0,0:0:0:0:
192,192,259287,1,0,0:0:0:0:
448,192,259372,1,0,0:0:0:0:
192,192,259458,1,0,0:0:0:0:
320,192,259458,1,0,0:0:0:0:
64,192,259544,1,0,0:0:0:0:
448,192,259544,1,0,0:0:0:0:
192,192,259629,1,0,0:0:0:0:
320,192,259629,1,0,0:0:0:0:
448,192,259715,1,0,0:0:0:0:
64,192,259715,1,0,0:0:0:0:
320,192,259801,1,0,0:0:0:0:
192,192,259887,1,0,0:0:0:0:
448,192,259972,1,0,0:0:0:0:
320,192,259972,1,0,0:0:0:0:
192,192,259972,1,0,0:0:0:0:
64,192,259972,1,0,0:0:0:0:
448,192,260058,1,0,0:0:0:0:
64,192,260144,1,0,0:0:0:0:
192,192,260144,1,0,0:0:0:0:
448,192,260229,1,0,0:0:0:0:
320,192,260229,1,0,0:0:0:0:
64,192,260315,1,0,0:0:0:0:
192,192,260315,1,0,0:0:0:0:
320,192,260401,1,0,0:0:0:0:
448,192,260401,1,0,0:0:0:0:
192,192,260487,1,0,0:0:0:0:
448,192,260572,1,0,0:0:0:0:
64,192,260658,1,0,0:0:0:0:
192,192,260658,1,0,0:0:0:0:
320,192,260658,1,0,0:0:0:0:
448,192,260658,1,0,0:0:0:0:
192,192,260744,1,0,0:0:0:0:
64,192,260829,1,0,0:0:0:0:
448,192,260829,1,0,0:0:0:0:
320,192,260915,1,0,0:0:0:0:
192,192,260915,1,0,0:0:0:0:
448,192,261001,1,0,0:0:0:0:
64,192,261001,1,0,0:0:0:0:
192,192,261087,1,0,0:0:0:0:
320,192,261087,1,0,0:0:0:0:
64,192,261172,1,0,0:0:0:0:
320,192,261258,1,0,0:0:0:0:
192,192,261344,1,0,0:0:0:0:
448,192,261344,1,0,0:0:0:0:
64,192,261344,1,0,0:0:0:0:
320,192,261344,1,0,0:0:0:0:
192,192,261429,1,0,0:0:0:0:
320,192,261515,1,0,0:0:0:0:
64,192,261515,1,0,0:0:0:0:
192,192,261601,1,0,0:0:0:0:
448,192,261601,1,0,0:0:0:0:
320,192,261687,1,0,0:0:0:0:
64,192,261687,1,0,0:0:0:0:
192,192,261772,1,0,0:0:0:0:
448,192,261772,1,0,0:0:0:0:
64,192,261858,1,0,0:0:0:0:
192,192,261944,1,0,0:0:0:0:
320,192,262029,1,0,0:0:0:0:
448,192,262029,1,0,0:0:0:0:
64,192,262029,1,0,0:0:0:0:
192,192,262029,1,0,0:0:0:0:
448,192,262115,1,0,0:0:0:0:
192,192,262201,1,0,0:0:0:0:
64,192,262201,1,0,0:0:0:0:
320,192,262287,1,0,0:0:0:0:
448,192,262287,1,0,0:0:0:0:
192,192,262372,1,0,0:0:0:0:
64,192,262372,1,0,0:0:0:0:
320,192,262458,1,0,0:0:0:0:
448,192,262458,1,0,0:0:0:0:
64,192,262544,1,0,0:0:0:0:
192,192,262629,1,0,0:0:0:0:
320,192,262715,1,0,0:0:0:0:
448,192,262715,1,0,0:0:0:0:
192,192,262715,1,0,0:0:0:0:
64,192,262715,1,0,0:0:0:0:
448,192,262801,1,0,0:0:0:0:
64,192,262887,1,0,0:0:0:0:
192,192,262887,1,0,0:0:0:0:
448,192,262972,1,0,0:0:0:0:
320,192,262972,1,0,0:0:0:0:
64,192,263058,1,0,0:0:0:0:
192,192,263058,1,0,0:0:0:0:
320,192,263144,1,0,0:0:0:0:
448,192,263144,1,0,0:0:0:0:
192,192,263229,1,0,0:0:0:0:
320,192,263315,1,0,0:0:0:0:
448,192,263401,128,0,263658:0:0:0:0:
64,192,263401,128,0,263658:0:0:0:0:
448,192,263744,128,0,264001:0:0:0:0:
64,192,263744,128,0,264001:0:0:0:0:
192,192,264087,128,0,264344:0:0:0:0:
448,192,264087,128,0,264344:0:0:0:0:
64,192,264429,128,0,264601:0:0:0:0:
320,192,264429,128,0,264601:0:0:0:0:
192,192,264601,128,0,264772:0:0:0:0:
448,192,264601,128,0,264772:0:0:0:0:
320,192,264772,1,0,0:0:0:0:
64,192,264772,1,0,0:0:0:0:
64,192,264858,1,0,0:0:0:0:
448,192,264944,1,0,0:0:0:0:
320,192,265029,1,0,0:0:0:0:
192,192,265115,1,0,0:0:0:0:
64,192,265115,1,0,0:0:0:0:
320,192,265115,1,0,0:0:0:0:
448,192,265115,1,0,0:0:0:0:
64,192,265201,1,0,0:0:0:0:
448,192,265287,1,0,0:0:0:0:
192,192,265372,1,0,0:0:0:0:
64,192,265458,1,0,0:0:0:0:
192,192,265458,1,0,0:0:0:0:
320,192,265458,1,0,0:0:0:0:
448,192,265458,1,0,0:0:0:0:
448,192,265544,1,0,0:0:0:0:
64,192,265629,1,0,0:0:0:0:
320,192,265715,1,0,0:0:0:0:
64,192,265801,1,0,0:0:0:0:
192,192,265801,1,0,0:0:0:0:
320,192,265801,1,0,0:0:0:0:
448,192,265801,1,0,0:0:0:0:
64,192,265887,1,0,0:0:0:0:
448,192,265972,1,0,0:0:0:0:
192,192,265972,1,0,0:0:0:0:
320,192,266058,1,0,0:0:0:0:
64,192,266144,1,0,0:0:0:0:
320,192,266144,1,0,0:0:0:0:
448,192,266144,1,0,0:0:0:0:
192,192,266144,1,0,0:0:0:0:
64,192,266229,1,0,0:0:0:0:
448,192,266315,1,0,0:0:0:0:
192,192,266315,1,0,0:0:0:0:
320,192,266401,1,0,0:0:0:0:
320,192,266487,1,0,0:0:0:0:
64,192,266487,1,0,0:0:0:0:
192,192,266487,1,0,0:0:0:0:
448,192,266487,1,0,0:0:0:0:
192,192,266572,1,0,0:0:0:0:
448,192,266658,1,0,0:0:0:0:
64,192,266658,1,0,0:0:0:0:
320,192,266701,1,0,0:0:0:0:
192,192,266744,1,0,0:0:0:0:
64,192,266787,1,0,0:0:0:0:
192,192,266829,1,0,0:0:0:0:
320,192,266829,1,0,0:0:0:0:
448,192,266829,1,0,0:0:0:0:
64,192,266915,1,0,0:0:0:0:
320,192,267001,1,0,0:0:0:0:
448,192,267001,1,0,0:0:0:0:
64,192,267087,1,0,0:0:0:0:
448,192,267172,1,0,0:0:0:0:
64,192,267172,1,0,0:0:0:0:
192,192,267172,1,0,0:0:0:0:
320,192,267172,1,0,0:0:0:0:
192,192,267258,1,0,0:0:0:0:
448,192,267344,1,0,0:0:0:0:
320,192,267429,1,0,0:0:0:0:
192,192,267515,1,0,0:0:0:0:
64,192,267515,1,0,0:0:0:0:
320,192,267515,1,0,0:0:0:0:
448,192,267515,1,0,0:0:0:0:
64,192,267601,1,0,0:0:0:0:
448,192,267687,1,0,0:0:0:0:
192,192,267772,1,0,0:0:0:0:
64,192,267858,1,0,0:0:0:0:
320,192,267858,1,0,0:0:0:0:
448,192,267858,1,0,0:0:0:0:
192,192,267858,1,0,0:0:0:0:
64,192,267944,1,0,0:0:0:0:
320,192,268029,1,0,0:0:0:0:
448,192,268029,1,0,0:0:0:0:
192,192,268115,1,0,0:0:0:0:
64,192,268201,1,0,0:0:0:0:
192,192,268201,1,0,0:0:0:0:
448,192,268201,1,0,0:0:0:0:
320,192,268201,1,0,0:0:0:0:
448,192,268287,1,0,0:0:0:0:
64,192,268372,1,0,0:0:0:0:
320,192,268458,1,0,0:0:0:0:
448,192,268544,1,0,0:0:0:0:
320,192,268544,1,0,0:0:0:0:
192,192,268544,1,0,0:0:0:0:
64,192,268544,1,0,0:0:0:0:
192,192,268629,1,0,0:0:0:0:
448,192,268715,1,0,0:0:0:0:
64,192,268715,1,0,0:0:0:0:
320,192,268801,1,0,0:0:0:0:
64,192,268887,1,0,0:0:0:0:
192,192,268887,1,0,0:0:0:0:
320,192,268887,1,0,0:0:0:0:
448,192,268887,1,0,0:0:0:0:
64,192,268972,1,0,0:0:0:0:
448,192,269058,1,0,0:0:0:0:
320,192,269144,1,0,0:0:0:0:
64,192,269229,1,0,0:0:0:0:
192,192,269229,1,0,0:0:0:0:
320,192,269229,1,0,0:0:0:0:
448,192,269229,1,0,0:0:0:0:
64,192,269315,1,0,0:0:0:0:
192,192,269401,1,0,0:0:0:0:
320,192,269401,1,0,0:0:0:0:
448,192,269487,1,0,0:0:0:0:
64,192,269572,1,0,0:0:0:0:
192,192,269572,1,0,0:0:0:0:
320,192,269572,1,0,0:0:0:0:
448,192,269572,1,0,0:0:0:0:
64,192,269658,1,0,0:0:0:0:
320,192,269744,1,0,0:0:0:0:
64,192,269829,1,0,0:0:0:0:
64,192,269915,1,0,0:0:0:0:
192,192,269915,1,0,0:0:0:0:
320,192,269915,1,0,0:0:0:0:
448,192,269915,1,0,0:0:0:0:
320,192,270001,1,0,0:0:0:0:
64,192,270087,1,0,0:0:0:0:
448,192,270172,1,0,0:0:0:0:
320,192,270258,1,0,0:0:0:0:
192,192,270258,1,0,0:0:0:0:
64,192,270258,1,0,0:0:0:0:
448,192,270258,1,0,0:0:0:0:
192,192,270344,1,0,0:0:0:0:
64,192,270429,1,0,0:0:0:0:
320,192,270429,1,0,0:0:0:0:
448,192,270515,1,0,0:0:0:0:
64,192,270601,1,0,0:0:0:0:
320,192,270601,1,0,0:0:0:0:
448,192,270601,1,0,0:0:0:0:
192,192,270601,1,0,0:0:0:0:
64,192,270687,1,0,0:0:0:0:
448,192,270772,1,0,0:0:0:0:
192,192,270858,1,0,0:0:0:0:
64,192,270944,1,0,0:0:0:0:
192,192,270944,1,0,0:0:0:0:
320,192,270944,1,0,0:0:0:0:
448,192,270944,1,0,0:0:0:0:
448,192,271029,1,0,0:0:0:0:
192,192,271115,1,0,0:0:0:0:
64,192,271201,1,0,0:0:0:0:
64,192,271287,1,0,0:0:0:0:
192,192,271287,1,0,0:0:0:0:
320,192,271287,1,0,0:0:0:0:
448,192,271287,1,0,0:0:0:0:
320,192,271372,1,0,0:0:0:0:
192,192,271458,1,0,0:0:0:0:
64,192,271458,1,0,0:0:0:0:
448,192,271544,1,0,0:0:0:0:
192,192,271629,1,0,0:0:0:0:
64,192,271629,1,0,0:0:0:0:
320,192,271629,1,0,0:0:0:0:
448,192,271629,1,0,0:0:0:0:
192,192,271715,1,0,0:0:0:0:
448,192,271801,1,0,0:0:0:0:
64,192,271801,1,0,0:0:0:0:
320,192,271844,1,0,0:0:0:0:
192,192,271887,1,0,0:0:0:0:
64,192,271929,1,0,0:0:0:0:
192,192,271972,1,0,0:0:0:0:
320,192,271972,1,0,0:0:0:0:
448,192,271972,1,0,0:0:0:0:
64,192,272058,1,0,0:0:0:0:
448,192,272144,1,0,0:0:0:0:
320,192,272187,1,0,0:0:0:0:
192,192,272229,1,0,0:0:0:0:
64,192,272272,1,0,0:0:0:0:
192,192,272315,1,0,0:0:0:0:
320,192,272315,1,0,0:0:0:0:
448,192,272315,1,0,0:0:0:0:
64,192,272401,1,0,0:0:0:0:
192,192,272444,1,0,0:0:0:0:
320,192,272487,1,0,0:0:0:0:
448,192,272529,1,0,0:0:0:0:
64,192,272572,1,0,0:0:0:0:
192,192,272615,1,0,0:0:0:0:
320,192,272658,1,0,0:0:0:0:
448,192,272658,1,0,0:0:0:0:
64,192,272658,1,0,0:0:0:0:
192,192,272744,1,0,0:0:0:0:
448,192,272829,1,0,0:0:0:0:
64,192,272915,1,0,0:0:0:0:
64,192,273001,1,0,0:0:0:0:
192,192,273001,1,0,0:0:0:0:
320,192,273001,1,0,0:0:0:0:
448,192,273001,1,0,0:0:0:0:
448,192,273087,1,0,0:0:0:0:
192,192,273172,1,0,0:0:0:0:
64,192,273258,1,0,0:0:0:0:
64,192,273344,1,0,0:0:0:0:
192,192,273344,1,0,0:0:0:0:
320,192,273344,1,0,0:0:0:0:
448,192,273344,1,0,0:0:0:0:
192,192,273429,1,0,0:0:0:0:
320,192,273515,1,0,0:0:0:0:
448,192,273515,1,0,0:0:0:0:
64,192,273601,1,0,0:0:0:0:
64,192,273687,1,0,0:0:0:0:
192,192,273687,1,0,0:0:0:0:
320,192,273687,1,0,0:0:0:0:
448,192,273687,1,0,0:0:0:0:
448,192,273772,1,0,0:0:0:0:
64,192,273858,1,0,0:0:0:0:
320,192,273944,1,0,0:0:0:0:
448,192,274029,1,0,0:0:0:0:
192,192,274029,1,0,0:0:0:0:
64,192,274029,1,0,0:0:0:0:
320,192,274029,1,0,0:0:0:0:
448,192,274115,1,0,0:0:0:0:
64,192,274201,1,0,0:0:0:0:
192,192,274201,1,0,0:0:0:0:
320,192,274287,1,0,0:0:0:0:
320,192,274372,1,0,0:0:0:0:
448,192,274372,1,0,0:0:0:0:
64,192,274372,1,0,0:0:0:0:
192,192,274372,1,0,0:0:0:0:
64,192,274458,1,0,0:0:0:0:
192,192,274458,1,0,0:0:0:0:
320,192,274544,1,0,0:0:0:0:
448,192,274544,1,0,0:0:0:0:
64,192,274629,1,0,0:0:0:0:
192,192,274629,1,0,0:0:0:0:
320,192,274715,1,0,0:0:0:0:
448,192,274715,1,0,0:0:0:0:
192,192,274715,1,0,0:0:0:0:
64,192,274715,1,0,0:0:0:0:
448,192,274801,1,0,0:0:0:0:
320,192,274801,1,0,0:0:0:0:
64,192,274887,1,0,0:0:0:0:
192,192,274887,1,0,0:0:0:0:
448,192,274972,1,0,0:0:0:0:
192,192,275058,1,0,0:0:0:0:
320,192,275058,1,0,0:0:0:0:
448,192,275058,1,0,0:0:0:0:
64,192,275058,1,0,0:0:0:0:
64,192,275144,1,0,0:0:0:0:
192,192,275144,1,0,0:0:0:0:
320,192,275229,1,0,0:0:0:0:
448,192,275229,1,0,0:0:0:0:
192,192,275315,1,0,0:0:0:0:
64,192,275315,1,0,0:0:0:0:
320,192,275401,1,0,0:0:0:0:
448,192,275401,1,0,0:0:0:0:
192,192,275401,1,0,0:0:0:0:
64,192,275401,1,0,0:0:0:0:
448,192,275487,1,0,0:0:0:0:
320,192,275487,1,0,0:0:0:0:
192,192,275572,1,0,0:0:0:0:
64,192,275572,1,0,0:0:0:0:
320,192,275658,1,0,0:0:0:0:
448,192,275744,1,0,0:0:0:0:
320,192,275744,1,0,0:0:0:0:
192,192,275744,1,0,0:0:0:0:
64,192,275744,1,0,0:0:0:0:
64,192,275829,1,0,0:0:0:0:
448,192,275915,1,0,0:0:0:0:
192,192,276001,1,0,0:0:0:0:
64,192,276087,1,0,0:0:0:0:
192,192,276087,1,0,0:0:0:0:
320,192,276087,1,0,0:0:0:0:
448,192,276087,1,0,0:0:0:0:
448,192,276172,1,0,0:0:0:0:
192,192,276258,1,0,0:0:0:0:
64,192,276344,1,0,0:0:0:0:
192,192,276429,1,0,0:0:0:0:
320,192,276429,1,0,0:0:0:0:
448,192,276429,1,0,0:0:0:0:
64,192,276429,1,0,0:0:0:0:
320,192,276515,1,0,0:0:0:0:
64,192,276601,1,0,0:0:0:0:
192,192,276687,1,0,0:0:0:0:
192,192,276772,1,0,0:0:0:0:
64,192,276772,1,0,0:0:0:0:
320,192,276772,1,0,0:0:0:0:
448,192,276772,1,0,0:0:0:0:
64,192,276858,1,0,0:0:0:0:
320,192,276944,1,0,0:0:0:0:
448,192,276944,1,0,0:0:0:0:
192,192,277029,1,0,0:0:0:0:
64,192,277115,1,0,0:0:0:0:
192,192,277115,1,0,0:0:0:0:
320,192,277115,1,0,0:0:0:0:
448,192,277115,1,0,0:0:0:0:
320,192,277201,1,0,0:0:0:0:
64,192,277287,1,0,0:0:0:0:
448,192,277287,1,0,0:0:0:0:
192,192,277329,1,0,0:0:0:0:
320,192,277372,1,0,0:0:0:0:
448,192,277415,1,0,0:0:0:0:
320,192,277458,1,0,0:0:0:0:
192,192,277458,1,0,0:0:0:0:
64,192,277458,1,0,0:0:0:0:
448,192,277544,1,0,0:0:0:0:
64,192,277629,1,0,0:0:0:0:
192,192,277672,1,0,0:0:0:0:
320,192,277715,1,0,0:0:0:0:
320,192,277801,1,0,0:0:0:0:
192,192,277801,1,0,0:0:0:0:
64,192,277801,1,0,0:0:0:0:
448,192,277801,1,0,0:0:0:0:
448,192,277887,1,0,0:0:0:0:
64,192,277929,1,0,0:0:0:0:
192,192,277972,1,0,0:0:0:0:
320,192,278015,1,0,0:0:0:0:
448,192,278058,1,0,0:0:0:0:
192,192,278101,1,0,0:0:0:0:
320,192,278144,1,0,0:0:0:0:
64,192,278144,1,0,0:0:0:0:
448,192,278144,1,0,0:0:0:0:
192,192,278229,1,0,0:0:0:0:
448,192,278315,1,0,0:0:0:0:
64,192,278401,1,0,0:0:0:0:
64,192,278487,1,0,0:0:0:0:
192,192,278487,1,0,0:0:0:0:
320,192,278487,1,0,0:0:0:0:
448,192,278487,1,0,0:0:0:0:
448,192,278572,1,0,0:0:0:0:
192,192,278658,1,0,0:0:0:0:
64,192,278744,1,0,0:0:0:0:
192,192,278829,1,0,0:0:0:0:
448,192,278829,1,0,0:0:0:0:
320,192,278829,1,0,0:0:0:0:
64,192,278829,1,0,0:0:0:0:
448,192,278915,1,0,0:0:0:0:
192,192,279001,1,0,0:0:0:0:
64,192,279001,1,0,0:0:0:0:
320,192,279087,1,0,0:0:0:0:
320,192,279172,1,0,0:0:0:0:
192,192,279172,1,0,0:0:0:0:
64,192,279172,1,0,0:0:0:0:
448,192,279172,1,0,0:0:0:0:
64,192,279258,1,0,0:0:0:0:
192,192,279344,1,0,0:0:0:0:
320,192,279344,1,0,0:0:0:0:
448,192,279429,1,0,0:0:0:0:
320,192,279515,1,0,0:0:0:0:
192,192,279515,1,0,0:0:0:0:
64,192,279515,1,0,0:0:0:0:
448,192,279515,1,0,0:0:0:0:
192,192,279601,1,0,0:0:0:0:
64,192,279687,1,0,0:0:0:0:
448,192,279687,1,0,0:0:0:0:
320,192,279772,1,0,0:0:0:0:
192,192,279858,1,0,0:0:0:0:
64,192,279858,1,0,0:0:0:0:
448,192,279858,1,0,0:0:0:0:
320,192,279858,1,0,0:0:0:0:
64,192,279944,1,0,0:0:0:0:
448,192,280029,1,0,0:0:0:0:
192,192,280115,1,0,0:0:0:0:
64,192,280201,1,0,0:0:0:0:
192,192,280201,1,0,0:0:0:0:
320,192,280201,1,0,0:0:0:0:
448,192,280201,1,0,0:0:0:0:
320,192,280287,1,0,0:0:0:0:
192,192,280372,1,0,0:0:0:0:
64,192,280372,1,0,0:0:0:0:
448,192,280458,1,0,0:0:0:0:
192,192,280544,1,0,0:0:0:0:
64,192,280544,1,0,0:0:0:0:
320,192,280544,1,0,0:0:0:0:
448,192,280544,1,0,0:0:0:0:
64,192,280629,1,0,0:0:0:0:
320,192,280715,1,0,0:0:0:0:
448,192,280801,1,0,0:0:0:0:
320,192,280887,1,0,0:0:0:0:
192,192,280887,1,0,0:0:0:0:
64,192,280887,1,0,0:0:0:0:
448,192,280887,1,0,0:0:0:0:
64,192,280972,1,0,0:0:0:0:
448,192,281058,1,0,0:0:0:0:
192,192,281144,1,0,0:0:0:0:
64,192,281229,1,0,0:0:0:0:
192,192,281229,1,0,0:0:0:0:
320,192,281229,1,0,0:0:0:0:
448,192,281229,1,0,0:0:0:0:
448,192,281315,1,0,0:0:0:0:
64,192,281401,1,0,0:0:0:0:
192,192,281487,1,0,0:0:0:0:
320,192,281572,1,0,0:0:0:0:
448,192,281572,1,0,0:0:0:0:
192,192,281572,1,0,0:0:0:0:
64,192,281572,1,0,0:0:0:0:
320,192,281658,1,0,0:0:0:0:
64,192,281744,1,0,0:0:0:0:
448,192,281829,1,0,0:0:0:0:
320,192,281915,1,0,0:0:0:0:
192,192,281915,1,0,0:0:0:0:
64,192,281915,1,0,0:0:0:0:
448,192,281915,1,0,0:0:0:0:
64,192,282001,1,0,0:0:0:0:
448,192,282087,1,0,0:0:0:0:
320,192,282172,1,0,0:0:0:0:
192,192,282258,1,0,0:0:0:0:
64,192,282258,1,0,0:0:0:0:
320,192,282258,1,0,0:0:0:0:
448,192,282258,1,0,0:0:0:0:
64,192,282344,1,0,0:0:0:0:
192,192,282429,1,0,0:0:0:0:
448,192,282429,1,0,0:0:0:0:
320,192,282515,1,0,0:0:0:0:
64,192,282601,1,0,0:0:0:0:
192,192,282601,1,0,0:0:0:0:
320,192,282601,1,0,0:0:0:0:
448,192,282601,1,0,0:0:0:0:
448,192,282687,1,0,0:0:0:0:
320,192,282729,1,0,0:0:0:0:
192,192,282772,1,0,0:0:0:0:
64,192,282815,1,0,0:0:0:0:
448,192,282858,1,0,0:0:0:0:
320,192,282901,1,0,0:0:0:0:
192,192,282944,1,0,0:0:0:0:
64,192,282944,1,0,0:0:0:0:
448,192,282944,1,0,0:0:0:0:
320,192,283029,1,0,0:0:0:0:
64,192,283115,1,0,0:0:0:0:
192,192,283158,1,0,0:0:0:0:
320,192,283201,1,0,0:0:0:0:
448,192,283244,1,0,0:0:0:0:
320,192,283287,1,0,0:0:0:0:
192,192,283287,1,0,0:0:0:0:
64,192,283287,1,0,0:0:0:0:
448,192,283372,1,0,0:0:0:0:
320,192,283458,1,0,0:0:0:0:
192,192,283458,1,0,0:0:0:0:
64,192,283544,1,0,0:0:0:0:
192,192,283629,1,0,0:0:0:0:
320,192,283629,1,0,0:0:0:0:
448,192,283629,1,0,0:0:0:0:
64,192,283629,1,0,0:0:0:0:
448,192,283715,1,0,0:0:0:0:
64,192,283801,1,0,0:0:0:0:
320,192,283887,1,0,0:0:0:0:
448,192,283972,1,0,0:0:0:0:
320,192,283972,1,0,0:0:0:0:
192,192,283972,1,0,0:0:0:0:
64,192,283972,1,0,0:0:0:0:
64,192,284058,1,0,0:0:0:0:
448,192,284144,1,0,0:0:0:0:
192,192,284229,5,0,0:0:0:0:
64,192,284315,1,0,0:0:0:0:
192,192,284315,1,0,0:0:0:0:
320,192,284315,1,0,0:0:0:0:
448,192,284315,1,0,0:0:0:0:
448,192,284401,1,0,0:0:0:0:
192,192,284487,1,0,0:0:0:0:
64,192,284487,1,0,0:0:0:0:
320,192,284572,1,0,0:0:0:0:
320,192,284658,1,0,0:0:0:0:
192,192,284658,1,0,0:0:0:0:
448,192,284658,1,0,0:0:0:0:
64,192,284658,1,0,0:0:0:0:
64,192,284744,1,0,0:0:0:0:
320,192,284829,1,0,0:0:0:0:
448,192,284915,1,0,0:0:0:0:
320,192,285001,1,0,0:0:0:0:
192,192,285001,1,0,0:0:0:0:
64,192,285001,1,0,0:0:0:0:
448,192,285001,1,0,0:0:0:0:
64,192,285087,1,0,0:0:0:0:
192,192,285172,1,0,0:0:0:0:
448,192,285344,5,0,0:0:0:0:
320,192,285387,1,0,0:0:0:0:
192,192,285429,1,0,0:0:0:0:
64,192,285472,1,0,0:0:0:0:
448,192,285515,1,0,0:0:0:0:
320,192,285558,1,0,0:0:0:0:
192,192,285601,1,0,0:0:0:0:
64,192,285644,1,0,0:0:0:0:
448,192,285687,1,0,0:0:0:0:
320,192,285729,1,0,0:0:0:0:
192,192,285772,1,0,0:0:0:0:
320,192,285858,1,0,0:0:0:0:
448,192,285858,1,0,0:0:0:0:
64,192,286029,128,0,286629:0:0:0:0:
192,192,286029,128,0,286629:0:0:0:0:
448,192,286715,1,0,0:0:0:0:
320,192,286715,1,0,0:0:0:0:
192,192,286801,1,0,0:0:0:0:
64,192,286887,1,0,0:0:0:0:
320,192,286972,1,0,0:0:0:0:
192,192,287058,1,0,0:0:0:0:
64,192,287058,1,0,0:0:0:0:
448,192,287144,1,0,0:0:0:0:
64,192,287229,1,0,0:0:0:0:
192,192,287315,1,0,0:0:0:0:
320,192,287401,1,0,0:0:0:0:
448,192,287401,1,0,0:0:0:0:
64,192,287487,1,0,0:0:0:0:
448,192,287572,1,0,0:0:0:0:
320,192,287658,1,0,0:0:0:0:
192,192,287744,1,0,0:0:0:0:
64,192,287744,1,0,0:0:0:0:
448,192,287829,1,0,0:0:0:0:
192,192,287915,1,0,0:0:0:0:
64,192,288001,1,0,0:0:0:0:
192,192,288087,1,0,0:0:0:0:
320,192,288087,1,0,0:0:0:0:
448,192,288172,1,0,0:0:0:0:
192,192,288258,1,0,0:0:0:0:
320,192,288344,1,0,0:0:0:0:
192,192,288429,1,0,0:0:0:0:
448,192,288429,1,0,0:0:0:0:
64,192,288515,1,0,0:0:0:0:
320,192,288601,1,0,0:0:0:0:
192,192,288687,1,0,0:0:0:0:
64,192,288772,1,0,0:0:0:0:
448,192,288772,1,0,0:0:0:0:
320,192,288858,1,0,0:0:0:0:
192,192,288858,1,0,0:0:0:0:
64,192,288944,1,0,0:0:0:0:
192,192,288944,1,0,0:0:0:0:
448,192,289029,1,0,0:0:0:0:
320,192,289029,1,0,0:0:0:0:
64,192,289115,1,0,0:0:0:0:
192,192,289158,1,0,0:0:0:0:
320,192,289201,1,0,0:0:0:0:
448,192,289244,1,0,0:0:0:0:
64,192,289287,1,0,0:0:0:0:
192,192,289329,1,0,0:0:0:0:
320,192,289372,1,0,0:0:0:0:
448,192,289458,1,0,0:0:0:0:
64,192,289458,1,0,0:0:0:0:
192,192,289544,1,0,0:0:0:0:
64,192,289629,1,0,0:0:0:0:
320,192,289629,1,0,0:0:0:0:
448,192,289715,1,0,0:0:0:0:
320,192,289801,1,0,0:0:0:0:
64,192,289801,1,0,0:0:0:0:
192,192,289887,1,0,0:0:0:0:
320,192,289972,1,0,0:0:0:0:
448,192,289972,1,0,0:0:0:0:
64,192,290058,1,0,0:0:0:0:
192,192,290144,1,0,0:0:0:0:
320,192,290144,1,0,0:0:0:0:
448,192,290229,1,0,0:0:0:0:
64,192,290315,1,0,0:0:0:0:
192,192,290315,1,0,0:0:0:0:
320,192,290401,1,0,0:0:0:0:
448,192,290487,1,0,0:0:0:0:
192,192,290487,1,0,0:0:0:0:
64,192,290572,1,0,0:0:0:0:
192,192,290658,1,0,0:0:0:0:
320,192,290658,1,0,0:0:0:0:
448,192,290744,1,0,0:0:0:0:
64,192,290829,1,0,0:0:0:0:
192,192,290829,1,0,0:0:0:0:
320,192,290915,1,0,0:0:0:0:
448,192,291001,1,0,0:0:0:0:
192,192,291001,1,0,0:0:0:0:
64,192,291087,1,0,0:0:0:0:
320,192,291172,1,0,0:0:0:0:
192,192,291172,1,0,0:0:0:0:
448,192,291258,1,0,0:0:0:0:
64,192,291344,1,0,0:0:0:0:
192,192,291344,1,0,0:0:0:0:
320,192,291429,1,0,0:0:0:0:
448,192,291515,1,0,0:0:0:0:
192,192,291515,1,0,0:0:0:0:
64,192,291601,1,0,0:0:0:0:
320,192,291687,1,0,0:0:0:0:
448,192,291687,1,0,0:0:0:0:
64,192,291772,1,0,0:0:0:0:
448,192,291858,128,0,292115:0:0:0:0:
192,192,291858,128,0,292115:0:0:0:0:
64,192,291944,128,0,292029:0:0:0:0:
320,192,292029,128,0,292115:0:0:0:0:
64,192,292201,1,0,0:0:0:0:
192,192,292201,1,0,0:0:0:0:
448,192,292287,1,0,0:0:0:0:
320,192,292372,1,0,0:0:0:0:
64,192,292458,1,0,0:0:0:0:
192,192,292544,1,0,0:0:0:0:
320,192,292544,1,0,0:0:0:0:
448,192,292629,1,0,0:0:0:0:
192,192,292715,1,0,0:0:0:0:
64,192,292801,1,0,0:0:0:0:
192,192,292887,1,0,0:0:0:0:
448,192,292887,1,0,0:0:0:0:
320,192,292972,1,0,0:0:0:0:
64,192,293058,1,0,0:0:0:0:
192,192,293144,1,0,0:0:0:0:
320,192,293229,1,0,0:0:0:0:
448,192,293229,1,0,0:0:0:0:
64,192,293315,1,0,0:0:0:0:
448,192,293401,1,0,0:0:0:0:
320,192,293487,1,0,0:0:0:0:
192,192,293572,1,0,0:0:0:0:
64,192,293572,1,0,0:0:0:0:
448,192,293658,1,0,0:0:0:0:
192,192,293744,1,0,0:0:0:0:
64,192,293829,1,0,0:0:0:0:
192,192,293915,1,0,0:0:0:0:
448,192,293915,1,0,0:0:0:0:
320,192,294001,1,0,0:0:0:0:
64,192,294087,1,0,0:0:0:0:
448,192,294172,1,0,0:0:0:0:
320,192,294258,1,0,0:0:0:0:
64,192,294258,1,0,0:0:0:0:
192,192,294344,1,0,0:0:0:0:
448,192,294429,1,0,0:0:0:0:
64,192,294515,1,0,0:0:0:0:
192,192,294601,1,0,0:0:0:0:
320,192,294601,1,0,0:0:0:0:
448,192,294687,1,0,0:0:0:0:
192,192,294772,1,0,0:0:0:0:
64,192,294858,1,0,0:0:0:0:
448,192,294944,1,0,0:0:0:0:
320,192,294944,1,0,0:0:0:0:
192,192,295029,1,0,0:0:0:0:
64,192,295115,1,0,0:0:0:0:
448,192,295115,1,0,0:0:0:0:
320,192,295201,1,0,0:0:0:0:
192,192,295287,1,0,0:0:0:0:
64,192,295287,1,0,0:0:0:0:
448,192,295372,1,0,0:0:0:0:
64,192,295458,1,0,0:0:0:0:
192,192,295458,1,0,0:0:0:0:
320,192,295544,1,0,0:0:0:0:
448,192,295629,1,0,0:0:0:0:
192,192,295629,1,0,0:0:0:0:
64,192,295715,1,0,0:0:0:0:
192,192,295801,1,0,0:0:0:0:
448,192,295801,1,0,0:0:0:0:
320,192,295887,1,0,0:0:0:0:
192,192,295972,1,0,0:0:0:0:
64,192,295972,1,0,0:0:0:0:
448,192,296058,1,0,0:0:0:0:
320,192,296144,1,0,0:0:0:0:
192,192,296144,1,0,0:0:0:0:
64,192,296229,1,0,0:0:0:0:
192,192,296315,1,0,0:0:0:0:
448,192,296315,1,0,0:0:0:0:
320,192,296358,1,0,0:0:0:0:
192,192,296401,1,0,0:0:0:0:
64,192,296444,1,0,0:0:0:0:
448,192,296487,1,0,0:0:0:0:
320,192,296529,1,0,0:0:0:0:
192,192,296572,1,0,0:0:0:0:
64,192,296615,1,0,0:0:0:0:
320,192,296658,1,0,0:0:0:0:
448,192,296658,1,0,0:0:0:0:
192,192,296829,1,0,0:0:0:0:
64,192,296829,1,0,0:0:0:0:
320,192,297001,1,0,0:0:0:0:
448,192,297001,1,0,0:0:0:0:
192,192,297344,1,0,0:0:0:0:
320,192,297344,1,0,0:0:0:0:
64,192,297687,1,0,0:0:0:0:
448,192,297687,1,0,0:0:0:0:
320,192,297772,1,0,0:0:0:0:
64,192,297858,1,0,0:0:0:0:
192,192,297944,1,0,0:0:0:0:
320,192,298029,1,0,0:0:0:0:
448,192,298029,1,0,0:0:0:0:
64,192,298115,1,0,0:0:0:0:
320,192,298201,1,0,0:0:0:0:
192,192,298287,1,0,0:0:0:0:
64,192,298372,1,0,0:0:0:0:
448,192,298372,1,0,0:0:0:0:
320,192,298458,1,0,0:0:0:0:
192,192,298544,1,0,0:0:0:0:
64,192,298629,1,0,0:0:0:0:
192,192,298715,1,0,0:0:0:0:
448,192,298715,1,0,0:0:0:0:
320,192,298801,1,0,0:0:0:0:
64,192,298887,1,0,0:0:0:0:
448,192,298972,1,0,0:0:0:0:
320,192,299058,1,0,0:0:0:0:
192,192,299058,1,0,0:0:0:0:
64,192,299144,1,0,0:0:0:0:
320,192,299229,1,0,0:0:0:0:
192,192,299315,1,0,0:0:0:0:
320,192,299401,1,0,0:0:0:0:
448,192,299401,1,0,0:0:0:0:
64,192,299487,1,0,0:0:0:0:
448,192,299572,1,0,0:0:0:0:
192,192,299658,1,0,0:0:0:0:
64,192,299744,1,0,0:0:0:0:
448,192,299744,1,0,0:0:0:0:
320,192,299829,1,0,0:0:0:0:
192,192,299829,1,0,0:0:0:0:
192,192,299915,1,0,0:0:0:0:
64,192,299915,1,0,0:0:0:0:
448,192,300001,1,0,0:0:0:0:
64,192,300001,1,0,0:0:0:0:
320,192,300087,1,0,0:0:0:0:
192,192,300129,1,0,0:0:0:0:
64,192,300172,1,0,0:0:0:0:
448,192,300215,1,0,0:0:0:0:
320,192,300258,1,0,0:0:0:0:
192,192,300301,1,0,0:0:0:0:
64,192,300429,1,0,0:0:0:0:
448,192,300429,1,0,0:0:0:0:
192,192,300515,1,0,0:0:0:0:
64,192,300601,1,0,0:0:0:0:
448,192,300601,1,0,0:0:0:0:
320,192,300687,1,0,0:0:0:0:
192,192,300772,1,0,0:0:0:0:
64,192,300772,1,0,0:0:0:0:
320,192,300858,1,0,0:0:0:0:
192,192,300944,1,0,0:0:0:0:
448,192,300944,1,0,0:0:0:0:
64,192,301029,1,0,0:0:0:0:
448,192,301115,1,0,0:0:0:0:
320,192,301115,1,0,0:0:0:0:
192,192,301201,1,0,0:0:0:0:
64,192,301287,1,0,0:0:0:0:
448,192,301287,1,0,0:0:0:0:
320,192,301372,1,0,0:0:0:0:
192,192,301458,1,0,0:0:0:0:
64,192,301458,1,0,0:0:0:0:
448,192,301544,1,0,0:0:0:0:
64,192,301629,1,0,0:0:0:0:
320,192,301629,1,0,0:0:0:0:
192,192,301715,1,0,0:0:0:0:
320,192,301801,1,0,0:0:0:0:
448,192,301801,1,0,0:0:0:0:
64,192,301887,1,0,0:0:0:0:
192,192,301972,1,0,0:0:0:0:
320,192,301972,1,0,0:0:0:0:
448,192,302058,1,0,0:0:0:0:
192,192,302144,1,0,0:0:0:0:
64,192,302144,1,0,0:0:0:0:
448,192,302229,1,0,0:0:0:0:
320,192,302315,1,0,0:0:0:0:
64,192,302315,1,0,0:0:0:0:
192,192,302401,1,0,0:0:0:0:
320,192,302487,1,0,0:0:0:0:
448,192,302487,1,0,0:0:0:0:
64,192,302572,1,0,0:0:0:0:
448,192,302658,1,0,0:0:0:0:
192,192,302658,1,0,0:0:0:0:
320,192,302744,1,0,0:0:0:0:
64,192,302744,1,0,0:0:0:0:
64,192,302829,1,0,0:0:0:0:
192,192,302829,1,0,0:0:0:0:
448,192,303172,1,0,0:0:0:0:
64,192,303172,1,0,0:0:0:0:
320,192,303258,1,0,0:0:0:0:
192,192,303344,1,0,0:0:0:0:
448,192,303429,1,0,0:0:0:0:
320,192,303515,1,0,0:0:0:0:
192,192,303515,1,0,0:0:0:0:
64,192,303601,1,0,0:0:0:0:
448,192,303687,1,0,0:0:0:0:
320,192,303772,1,0,0:0:0:0:
192,192,303858,1,0,0:0:0:0:
64,192,303858,1,0,0:0:0:0:
448,192,303944,1,0,0:0:0:0:
64,192,304029,1,0,0:0:0:0:
192,192,304115,1,0,0:0:0:0:
320,192,304201,1,0,0:0:0:0:
448,192,304201,1,0,0:0:0:0:
64,192,304287,1,0,0:0:0:0:
320,192,304372,1,0,0:0:0:0:
192,192,304458,1,0,0:0:0:0:
64,192,304544,1,0,0:0:0:0:
320,192,304544,1,0,0:0:0:0:
448,192,304629,1,0,0:0:0:0:
192,192,304715,1,0,0:0:0:0:
320,192,304801,1,0,0:0:0:0:
448,192,304887,1,0,0:0:0:0:
64,192,304887,1,0,0:0:0:0:
320,192,304972,1,0,0:0:0:0:
64,192,305058,1,0,0:0:0:0:
192,192,305144,1,0,0:0:0:0:
320,192,305229,1,0,0:0:0:0:
448,192,305229,1,0,0:0:0:0:
64,192,305315,1,0,0:0:0:0:
320,192,305401,1,0,0:0:0:0:
192,192,305487,1,0,0:0:0:0:
64,192,305572,1,0,0:0:0:0:
320,192,305572,1,0,0:0:0:0:
448,192,305658,1,0,0:0:0:0:
320,192,305744,1,0,0:0:0:0:
192,192,305829,1,0,0:0:0:0:
448,192,305915,1,0,0:0:0:0:
64,192,305915,1,0,0:0:0:0:
320,192,306001,1,0,0:0:0:0:
192,192,306087,1,0,0:0:0:0:
64,192,306087,1,0,0:0:0:0:
448,192,306172,1,0,0:0:0:0:
320,192,306258,1,0,0:0:0:0:
64,192,306258,1,0,0:0:0:0:
192,192,306344,1,0,0:0:0:0:
320,192,306429,1,0,0:0:0:0:
448,192,306429,1,0,0:0:0:0:
64,192,306515,1,0,0:0:0:0:
448,192,306601,1,0,0:0:0:0:
320,192,306601,1,0,0:0:0:0:
192,192,306687,1,0,0:0:0:0:
64,192,306772,1,0,0:0:0:0:
448,192,306772,1,0,0:0:0:0:
320,192,306858,1,0,0:0:0:0:
192,192,306944,1,0,0:0:0:0:
64,192,306944,1,0,0:0:0:0:
448,192,307029,1,0,0:0:0:0:
64,192,307115,1,0,0:0:0:0:
192,192,307115,1,0,0:0:0:0:
320,192,307201,1,0,0:0:0:0:
192,192,307372,128,0,307629:0:0:0:0:
64,192,307629,128,0,307972:0:0:0:0:
192,192,307972,128,0,308144:0:0:0:0:
448,192,307972,128,0,308144:0:0:0:0:
320,192,308144,128,0,308315:0:0:0:0:
64,192,308315,128,0,308572:0:0:0:0:
448,192,308658,1,0,0:0:0:0:
192,192,308658,1,0,0:0:0:0:
320,192,308744,1,0,0:0:0:0:
192,192,308829,1,0,0:0:0:0:
64,192,308915,1,0,0:0:0:0:
320,192,309001,1,0,0:0:0:0:
448,192,309001,1,0,0:0:0:0:
192,192,309087,1,0,0:0:0:0:
320,192,309172,1,0,0:0:0:0:
448,192,309258,1,0,0:0:0:0:
64,192,309344,1,0,0:0:0:0:
192,192,309344,1,0,0:0:0:0:
320,192,309429,1,0,0:0:0:0:
192,192,309515,1,0,0:0:0:0:
64,192,309601,1,0,0:0:0:0:
448,192,309687,1,0,0:0:0:0:
320,192,309687,1,0,0:0:0:0:
192,192,309772,1,0,0:0:0:0:
320,192,309858,1,0,0:0:0:0:
448,192,309944,1,0,0:0:0:0:
192,192,310029,1,0,0:0:0:0:
64,192,310029,1,0,0:0:0:0:
320,192,310115,1,0,0:0:0:0:
64,192,310201,1,0,0:0:0:0:
320,192,310287,1,0,0:0:0:0:
448,192,310372,1,0,0:0:0:0:
192,192,310372,1,0,0:0:0:0:
320,192,310458,1,0,0:0:0:0:
64,192,310544,1,0,0:0:0:0:
448,192,310629,1,0,0:0:0:0:
320,192,310715,1,0,0:0:0:0:
192,192,310715,1,0,0:0:0:0:
64,192,310801,1,0,0:0:0:0:
64,192,310887,1,0,0:0:0:0:
320,192,310972,1,0,0:0:0:0:
320,192,311058,1,0,0:0:0:0:
64,192,311101,1,0,0:0:0:0:
192,192,311144,1,0,0:0:0:0:
320,192,311187,1,0,0:0:0:0:
448,192,311229,1,0,0:0:0:0:
448,192,311401,1,0,0:0:0:0:
64,192,311401,1,0,0:0:0:0:
320,192,311487,1,0,0:0:0:0:
192,192,311572,1,0,0:0:0:0:
320,192,311658,1,0,0:0:0:0:
64,192,311744,1,0,0:0:0:0:
448,192,311744,1,0,0:0:0:0:
192,192,311829,1,0,0:0:0:0:
320,192,311915,1,0,0:0:0:0:
64,192,312001,1,0,0:0:0:0:
192,192,312087,1,0,0:0:0:0:
320,192,312087,1,0,0:0:0:0:
448,192,312172,1,0,0:0:0:0:
64,192,312258,1,0,0:0:0:0:
320,192,312344,1,0,0:0:0:0:
192,192,312429,1,0,0:0:0:0:
64,192,312429,1,0,0:0:0:0:
448,192,312515,1,0,0:0:0:0:
64,192,312601,1,0,0:0:0:0:
320,192,312687,1,0,0:0:0:0:
448,192,312772,1,0,0:0:0:0:
192,192,312772,1,0,0:0:0:0:
64,192,312858,1,0,0:0:0:0:
320,192,312944,1,0,0:0:0:0:
192,192,313029,1,0,0:0:0:0:
64,192,313115,1,0,0:0:0:0:
448,192,313115,1,0,0:0:0:0:
320,192,313201,1,0,0:0:0:0:
64,192,313287,1,0,0:0:0:0:
192,192,313372,1,0,0:0:0:0:
320,192,313458,1,0,0:0:0:0:
448,192,313458,1,0,0:0:0:0:
64,192,313544,1,0,0:0:0:0:
448,192,313629,1,0,0:0:0:0:
320,192,313715,1,0,0:0:0:0:
448,192,313801,128,0,314058:0:0:0:0:
192,192,313801,128,0,314058:0:0:0:0:
64,192,313887,128,0,313972:0:0:0:0:
320,192,313972,128,0,314058:0:0:0:0:
64,192,314144,1,0,0:0:0:0:
192,192,314144,1,0,0:0:0:0:
448,192,314229,1,0,0:0:0:0:
64,192,314315,1,0,0:0:0:0:
192,192,314401,1,0,0:0:0:0:
320,192,314487,1,0,0:0:0:0:
448,192,314487,1,0,0:0:0:0:
64,192,314572,1,0,0:0:0:0:
448,192,314658,1,0,0:0:0:0:
320,192,314744,1,0,0:0:0:0:
192,192,314829,1,0,0:0:0:0:
64,192,314829,1,0,0:0:0:0:
448,192,314915,1,0,0:0:0:0:
64,192,315001,1,0,0:0:0:0:
320,192,315087,1,0,0:0:0:0:
192,192,315172,1,0,0:0:0:0:
64,192,315172,1,0,0:0:0:0:
448,192,315258,1,0,0:0:0:0:
320,192,315344,1,0,0:0:0:0:
192,192,315429,1,0,0:0:0:0:
64,192,315515,1,0,0:0:0:0:
448,192,315515,1,0,0:0:0:0:
192,192,315601,1,0,0:0:0:0:
64,192,315687,1,0,0:0:0:0:
192,192,315772,1,0,0:0:0:0:
320,192,315858,1,0,0:0:0:0:
448,192,315858,1,0,0:0:0:0:
64,192,315944,1,0,0:0:0:0:
320,192,316029,1,0,0:0:0:0:
192,192,316115,1,0,0:0:0:0:
64,192,316201,1,0,0:0:0:0:
320,192,316201,1,0,0:0:0:0:
448,192,316287,1,0,0:0:0:0:
192,192,316372,1,0,0:0:0:0:
320,192,316458,1,0,0:0:0:0:
448,192,316544,1,0,0:0:0:0:
64,192,316544,1,0,0:0:0:0:
320,192,316629,1,0,0:0:0:0:
448,192,316715,1,0,0:0:0:0:
320,192,316801,1,0,0:0:0:0:
192,192,316887,1,0,0:0:0:0:
64,192,316887,1,0,0:0:0:0:
448,192,316972,1,0,0:0:0:0:
64,192,317058,1,0,0:0:0:0:
320,192,317144,1,0,0:0:0:0:
192,192,317229,1,0,0:0:0:0:
64,192,317229,1,0,0:0:0:0:
448,192,317315,1,0,0:0:0:0:
64,192,317401,1,0,0:0:0:0:
320,192,317487,1,0,0:0:0:0:
192,192,317572,1,0,0:0:0:0:
64,192,317572,1,0,0:0:0:0:
448,192,317658,1,0,0:0:0:0:
64,192,317744,1,0,0:0:0:0:
192,192,317829,1,0,0:0:0:0:
320,192,317915,1,0,0:0:0:0:
448,192,317915,1,0,0:0:0:0:
64,192,318001,1,0,0:0:0:0:
320,192,318087,1,0,0:0:0:0:
192,192,318172,1,0,0:0:0:0:
64,192,318258,1,0,0:0:0:0:
448,192,318258,1,0,0:0:0:0:
320,192,318301,1,0,0:0:0:0:
192,192,318344,1,0,0:0:0:0:
64,192,318387,1,0,0:0:0:0:
448,192,318429,1,0,0:0:0:0:
320,192,318472,1,0,0:0:0:0:
192,192,318515,1,0,0:0:0:0:
64,192,318558,1,0,0:0:0:0:
448,192,318601,1,0,0:0:0:0:
320,192,318658,1,0,0:0:0:0:
192,192,318715,1,0,0:0:0:0:
64,192,318772,1,0,0:0:0:0:
320,192,318858,1,0,0:0:0:0:
448,192,318944,1,0,0:0:0:0:
192,192,318944,1,0,0:0:0:0:
64,192,319029,1,0,0:0:0:0:
192,192,319115,1,0,0:0:0:0:
64,192,319201,1,0,0:0:0:0:
192,192,319287,1,0,0:0:0:0:
320,192,319287,1,0,0:0:0:0:
64,192,319372,1,0,0:0:0:0:
192,192,319458,1,0,0:0:0:0:
64,192,319544,1,0,0:0:0:0:
192,192,319629,1,0,0:0:0:0:
320,192,319629,1,0,0:0:0:0:
448,192,319629,1,0,0:0:0:0:
64,192,319715,1,0,0:0:0:0:
448,192,319801,1,0,0:0:0:0:
320,192,319887,1,0,0:0:0:0:
192,192,319972,1,0,0:0:0:0:
64,192,319972,1,0,0:0:0:0:
320,192,320058,1,0,0:0:0:0:
64,192,320144,1,0,0:0:0:0:
192,192,320229,1,0,0:0:0:0:
320,192,320315,1,0,0:0:0:0:
448,192,320315,1,0,0:0:0:0:
64,192,320401,1,0,0:0:0:0:
448,192,320487,1,0,0:0:0:0:
320,192,320572,1,0,0:0:0:0:
192,192,320658,1,0,0:0:0:0:
64,192,320658,1,0,0:0:0:0:
448,192,320744,1,0,0:0:0:0:
64,192,320829,1,0,0:0:0:0:
320,192,320915,1,0,0:0:0:0:
192,192,321001,1,0,0:0:0:0:
64,192,321001,1,0,0:0:0:0:
448,192,321087,1,0,0:0:0:0:
192,192,321172,1,0,0:0:0:0:
64,192,321258,1,0,0:0:0:0:
192,192,321344,1,0,0:0:0:0:
320,192,321344,1,0,0:0:0:0:
448,192,321429,1,0,0:0:0:0:
64,192,321515,1,0,0:0:0:0:
192,192,321601,1,0,0:0:0:0:
320,192,321687,1,0,0:0:0:0:
448,192,321687,1,0,0:0:0:0:
192,192,321772,1,0,0:0:0:0:
192,192,321858,1,0,0:0:0:0:
64,192,321944,1,0,0:0:0:0:
64,192,322029,1,0,0:0:0:0:
448,192,322029,1,0,0:0:0:0:
320,192,322072,1,0,0:0:0:0:
192,192,322115,1,0,0:0:0:0:
64,192,322158,1,0,0:0:0:0:
448,192,322201,1,0,0:0:0:0:
320,192,322287,1,0,0:0:0:0:
192,192,322372,1,0,0:0:0:0:
64,192,322372,1,0,0:0:0:0:
448,192,322458,1,0,0:0:0:0:
64,192,322544,1,0,0:0:0:0:
192,192,322629,1,0,0:0:0:0:
320,192,322715,1,0,0:0:0:0:
448,192,322715,1,0,0:0:0:0:
64,192,322801,1,0,0:0:0:0:
448,192,322887,1,0,0:0:0:0:
320,192,322972,1,0,0:0:0:0:
192,192,323058,1,0,0:0:0:0:
64,192,323058,1,0,0:0:0:0:
448,192,323144,1,0,0:0:0:0:
64,192,323229,1,0,0:0:0:0:
320,192,323315,1,0,0:0:0:0:
192,192,323401,1,0,0:0:0:0:
64,192,323401,1,0,0:0:0:0:
448,192,323487,1,0,0:0:0:0:
320,192,323572,1,0,0:0:0:0:
192,192,323658,1,0,0:0:0:0:
320,192,323744,1,0,0:0:0:0:
448,192,323744,1,0,0:0:0:0:
64,192,323829,1,0,0:0:0:0:
320,192,323915,1,0,0:0:0:0:
192,192,324001,1,0,0:0:0:0:
64,192,324087,1,0,0:0:0:0:
320,192,324087,1,0,0:0:0:0:
448,192,324172,1,0,0:0:0:0:
320,192,324258,1,0,0:0:0:0:
64,192,324344,1,0,0:0:0:0:
192,192,324429,1,0,0:0:0:0:
320,192,324429,1,0,0:0:0:0:
448,192,324515,1,0,0:0:0:0:
64,192,324601,1,0,0:0:0:0:
320,192,324687,1,0,0:0:0:0:
192,192,324772,1,0,0:0:0:0:
64,192,324772,1,0,0:0:0:0:
64,192,325115,1,0,0:0:0:0:
448,192,325115,1,0,0:0:0:0:
320,192,325201,1,0,0:0:0:0:
192,192,325287,1,0,0:0:0:0:
64,192,325372,1,0,0:0:0:0:
320,192,325458,1,0,0:0:0:0:
448,192,325458,1,0,0:0:0:0:
192,192,325544,1,0,0:0:0:0:
320,192,325629,1,0,0:0:0:0:
448,192,325715,1,0,0:0:0:0:
192,192,325801,1,0,0:0:0:0:
64,192,325801,1,0,0:0:0:0:
320,192,325887,1,0,0:0:0:0:
192,192,325972,1,0,0:0:0:0:
64,192,326058,1,0,0:0:0:0:
320,192,326144,1,0,0:0:0:0:
448,192,326144,1,0,0:0:0:0:
64,192,326229,1,0,0:0:0:0:
320,192,326315,1,0,0:0:0:0:
192,192,326401,1,0,0:0:0:0:
64,192,326487,1,0,0:0:0:0:
448,192,326487,1,0,0:0:0:0:
320,192,326572,1,0,0:0:0:0:
64,192,326658,1,0,0:0:0:0:
192,192,326744,1,0,0:0:0:0:
320,192,326829,1,0,0:0:0:0:
448,192,326829,1,0,0:0:0:0:
64,192,326915,1,0,0:0:0:0:
320,192,327001,1,0,0:0:0:0:
192,192,327087,1,0,0:0:0:0:
64,192,327172,1,0,0:0:0:0:
320,192,327172,1,0,0:0:0:0:
448,192,327258,1,0,0:0:0:0:
192,192,327344,1,0,0:0:0:0:
64,192,327429,1,0,0:0:0:0:
192,192,327515,1,0,0:0:0:0:
320,192,327515,1,0,0:0:0:0:
448,192,327601,1,0,0:0:0:0:
192,192,327687,1,0,0:0:0:0:
64,192,327772,1,0,0:0:0:0:
320,192,327858,1,0,0:0:0:0:
448,192,327858,1,0,0:0:0:0:
192,192,327944,1,0,0:0:0:0:
64,192,328029,1,0,0:0:0:0:
448,192,328115,5,0,0:0:0:0:
320,192,328201,1,0,0:0:0:0:
192,192,328201,1,0,0:0:0:0:
64,192,328287,1,0,0:0:0:0:
448,192,328372,1,0,0:0:0:0:
192,192,328458,1,0,0:0:0:0:
64,192,328544,1,0,0:0:0:0:
320,192,328544,1,0,0:0:0:0:
448,192,328629,1,0,0:0:0:0:
64,192,328715,1,0,0:0:0:0:
192,192,328801,1,0,0:0:0:0:
320,192,328887,1,0,0:0:0:0:
448,192,328887,1,0,0:0:0:0:
64,192,328972,1,0,0:0:0:0:
192,192,329058,1,0,0:0:0:0:
64,192,329144,1,0,0:0:0:0:
448,192,329229,5,0,0:0:0:0:
320,192,329229,1,0,0:0:0:0:
64,192,329315,128,0,329572:0:0:0:0:
192,192,329315,128,0,329572:0:0:0:0:
448,192,329572,128,0,329915:0:0:0:0:
320,192,329572,128,0,329915:0:0:0:0:
64,192,329915,128,0,330087:0:0:0:0:
448,192,330087,128,0,330258:0:0:0:0:
320,192,330258,128,0,336087:0:0:0:0:
64,192,330258,128,0,336087:0:0:0:0:
