osu file format v14

[General]
AudioFilename: audio.mp3
AudioLeadIn: 0
PreviewTime: -1
Countdown: 1
SampleSet: Normal
StackLeniency: 0.7
Mode: 0
LetterboxInBreaks: 0
WidescreenStoryboard: 0

[Editor]
DistanceSpacing: 0.8
BeatDivisor: 4
GridSize: 32
TimelineZoom: 1

[Metadata]
Title:Click Bait (feat. Gl!Tch)
TitleUnicode:Click Bait (feat. Gl!Tch)
Artist:S3RL
ArtistUnicode:S3RL
Creator:Naz
Version:Insane
Source:
Tags:
BeatmapID:1278346
BeatmapSetID:605042

[Difficulty]
HPDrainRate:6
CircleSize:4
OverallDifficulty:7
ApproachRate:9
SliderMultiplier:1.39999990463257
SliderTickRate:1

[Events]
//Background and Video events
//Break Periods
//Storyboard Layer 0 (Background)
//Storyboard Layer 1 (Fail)
//Storyboard Layer 2 (Pass)
//Storyboard Layer 3 (Foreground)
//Storyboard Sound Samples

[TimingPoints]
94,342.857142857143,4,1,0,100,1,0
38151,-100,4,1,0,100,0,0
39608,-100,4,1,0,100,0,0

[HitObjects]
128,256,5579,6,0,L|192:192,1,69.9999952316283
224,256,5922,2,0,L|256:192,1,69.9999952316283
288,256,6265,2,0,L|320:160,1,69.9999952316283
96,64,6951,2,0,L|160:128,1,69.9999952316283
192,64,7293,2,0,L|224:128,1,69.9999952316283
288,64,7636,2,0,L|288:160,1,69.9999952316283
64,192,8322,2,0,L|160:192,1,69.9999952316283
160,192,8665,2,0,L|256:192,1,69.9999952316283
256,192,9008,2,0,L|352:192,1,69.9999952316283
352,192,9693,2,0,L|256:192,1,69.9999952316283
256,192,10036,2,0,L|160:192,1,69.9999952316283
160,192,10379,2,0,L|64:192,1,69.9999952316283
128,256,11065,2,0,L|192:192,1,74.9999928474425
224,255,11408,2,0,L|263:188,1,69.9999952316285
288,256,11751,2,0,L|316:172,1,69.9999952316285
96,64,12437,2,0,L|160:128,1,74.9999928474425
192,64,12779,2,0,L|230:146,1,69.9999952316285
288,64,13122,2,0,L|288:160,1,74.9999928474425
64,192,13808,2,0,L|160:192,1,74.9999928474425
160,192,14151,2,0,L|256:192,1,74.9999928474425
256,192,14494,2,0,L|352:192,1,74.9999928474425
352,192,15179,2,0,L|256:192,1,74.9999928474425
256,192,15522,2,0,L|160:192,1,74.9999928474425
160,192,15865,2,0,L|64:192,1,74.9999928474425
78,193,16122,1,0,0:0:0:0:
78,193,16208,1,0,0:0:0:0:
324,85,16379,1,0,0:0:0:0:
324,85,16465,1,0,0:0:0:0:
324,85,16551,2,0,P|362:86|406:114,1,69.9999952316283
430,193,16894,2,0,P|428:228|377:247,1,69.9999952316283
319,256,17236,1,0,0:0:0:0:
199,143,17408,1,0,0:0:0:0:
99,277,17579,1,0,0:0:0:0:
88,200,18094,1,0,0:0:0:0:
161,97,18266,1,0,0:0:0:0:
230,84,18436,2,0,L|301:85,1,69.9999952316283
420,95,18779,1,0,0:0:0:0:
440,224,18951,1,0,0:0:0:0:
179,282,19465,2,0,L|104:241,1,69.9999952316283
254,155,19808,1,0,0:0:0:0:
309,285,19979,1,0,0:0:0:0:
115,172,20151,1,0,0:0:0:0:
258,147,20322,1,0,0:0:0:0:
217,86,20836,1,0,0:0:0:0:
231,194,21008,1,0,0:0:0:0:
296,94,21179,1,0,0:0:0:0:
330,183,21351,1,0,0:0:0:0:
372,142,21522,2,0,L|283:131,1,69.9999952316283
69,292,22036,2,0,L|96:218,1,69.9999952316283
131,126,22379,1,0,0:0:0:0:
257,88,22722,2,0,L|345:84,2,69.9999952316283
424,92,23579,1,0,0:0:0:0:
391,198,23751,1,0,0:0:0:0:
239,217,23922,2,0,L|180:167,2,69.9999952316283
107,125,24436,1,0,0:0:0:0:
241,122,24951,1,0,0:0:0:0:
294,231,25122,1,0,0:0:0:0:
127,82,25294,2,0,P|169:57|201:84,1,69.9999952316283
132,144,25636,1,0,0:0:0:0:
86,243,25808,1,0,0:0:0:0:
122,88,26322,2,0,L|199:86,2,69.9999952316283
263,86,26836,2,0,P|344:82|355:144,1,139.999990463257
344,174,27522,2,0,L|247:287,1,139.999990463257
252,280,28036,1,0,0:0:0:0:
252,280,28208,1,0,0:0:0:0:
386,320,28894,2,0,L|247:245,1,139.999990463257
376,169,29408,1,0,0:0:0:0:
254,229,29579,1,0,0:0:0:0:
259,186,30436,1,0,0:0:0:0:
270,92,30608,1,0,0:0:0:0:
259,186,30780,1,0,0:0:0:0:
361,133,30951,1,0,0:0:0:0:
259,186,31123,1,0,0:0:0:0:
345,214,31294,1,0,0:0:0:0:
180,188,31808,2,0,L|260:186,1,69.9999952316283
85,97,32151,1,0,0:0:0:0:
256,182,32322,1,0,0:0:0:0:
386,76,32494,1,0,0:0:0:0:
256,182,32665,1,0,0:0:0:0:
199,199,33008,2,0,P|266:246|321:193,1,139.999990463257
339,200,33522,1,0,0:0:0:0:
413,288,33694,1,0,0:0:0:0:
458,337,34379,2,0,L|316:332,1,139.999990463257
314,225,34894,1,0,0:0:0:0:
219,327,35065,1,0,0:0:0:0:
94,137,35922,1,0,0:0:0:0:
200,247,36094,1,0,0:0:0:0:
294,134,36265,1,0,0:0:0:0:
211,257,36436,1,0,0:0:0:0:
96,148,36608,1,0,0:0:0:0:
196,70,36779,1,0,0:0:0:0:
258,99,37294,2,0,L|256:193,1,69.9999952316283
258,195,37636,2,0,P|308:211|340:192,1,69.9999952316283
363,158,38151,1,0,0:0:0:0:
115,91,38494,1,0,0:0:0:0:
452,78,38836,1,0,0:0:0:0:
179,302,39179,1,0,0:0:0:0:
13,117,39522,1,0,0:0:0:0:
156,150,39865,2,0,B|236:100|322:142|322:142,1,139.999990463257
384,113,40379,1,0,0:0:0:0:
136,225,40551,1,0,0:0:0:0:
409,252,40722,1,0,0:0:0:0:
210,62,40894,1,0,0:0:0:0:
395,184,41236,2,0,P|380:268|317:311,1,139.999990463257
239,286,41751,1,0,0:0:0:0:
348,97,41922,1,0,0:0:0:0:
90,186,42094,1,0,0:0:0:0:
407,174,42265,1,0,0:0:0:0:
103,145,42608,2,0,P|156:88|233:90,1,139.999990463257
357,73,43122,1,0,0:0:0:0:
229,324,43294,1,0,0:0:0:0:
433,108,43465,1,0,0:0:0:0:
117,248,43636,1,0,0:0:0:0:
93,37,43808,1,0,0:0:0:0:
93,37,43894,1,0,0:0:0:0:
93,37,43979,2,0,P|163:71|225:47,1,139.999990463257
446,85,44665,2,0,L|436:96,1,8.74999940395354
179,321,45008,2,0,L|170:319,1,8.74999940395354
129,222,45351,2,0,P|200:175|237:104,1,139.999990463257
465,67,45865,2,0,L|476:67,1,8.74999940395354
353,299,46036,2,0,L|353:286,1,8.74999940395354
72,142,46208,2,0,L|82:132,1,8.74999940395354
112,325,46379,2,0,L|117:319,1,8.74999940395354
418,102,46722,2,0,P|399:175|326:215,1,139.999990463257
139,85,47236,1,0,0:0:0:0:
345,355,47408,2,0,L|349:363,1,8.74999940395354
86,321,47579,1,0,0:0:0:0:
419,106,47751,2,0,L|424:95,1,8.74999940395354
324,117,48094,2,0,P|285:169|189:209,1,139.999990463257
134,172,48608,2,0,L|133:94,3,69.9999952316283
128,128,49465,1,0,0:0:0:0:
416,128,49808,1,0,0:0:0:0:
416,288,50151,1,0,0:0:0:0:
128,288,50322,1,0,0:0:0:0:
416,288,50494,1,0,0:0:0:0:
416,288,51008,1,0,0:0:0:0:
416,125,51179,1,0,0:0:0:0:
416,288,51351,1,0,0:0:0:0:
126,289,51522,1,0,0:0:0:0:
126,125,51694,1,0,0:0:0:0:
416,288,51865,1,0,0:0:0:0:
275,58,52208,2,0,P|203:100|172:179,1,139.999990463257
56,92,52894,2,0,L|138:62,2,69.9999952316285
345,117,53751,2,0,L|378:194,1,69.9999952316285
304,232,54094,1,0,0:0:0:0:
166,167,54265,1,0,0:0:0:0:
472,159,54436,1,0,0:0:0:0:
251,43,54608,1,0,0:0:0:0:
93,130,54951,2,0,P|94:176|59:200,6,69.9999952316285
171,170,56151,1,0,0:0:0:0:
214,162,56322,1,0,0:0:0:0:
302,166,56494,2,0,P|331:207|379:210,5,69.9999952316285
436,201,57522,2,0,L|422:117,1,69.9999952316285
367,86,57865,1,0,0:0:0:0:
179,191,58036,1,0,0:0:0:0:
179,191,58208,2,0,L|229:245,1,69.9999952316285
110,309,58551,1,0,0:0:0:0:
354,304,58722,1,0,0:0:0:0:
224,178,59065,2,0,P|280:141|378:154,2,139.999990463257
160,192,59922,2,0,L|82:197,1,69.9999952316285
256,192,60265,12,0,61465,0:0:0:0:
102,107,61808,6,0,L|111:101,1,8.74999940395356
279,316,62151,2,0,L|280:303,1,8.74999940395356
426,73,62494,2,4,L|426:84,1,8.74999940395356
93,262,62836,2,0,L|91:249,1,8.74999940395356
98,119,63179,2,0,L|263:73,1,139.999990463257
281,89,63694,1,0,0:0:0:0:
334,231,63865,1,0,0:0:0:0:
110,117,64036,1,0,0:0:0:0:
133,260,64208,1,0,0:0:0:0:
413,264,64551,2,0,P|348:300|259:303,1,139.999990463257
231,294,65065,1,0,0:0:0:0:
76,148,65236,1,0,0:0:0:0:
392,199,65408,1,0,0:0:0:0:
245,52,65579,1,0,0:0:0:0:
165,315,65922,2,0,B|178:242|231:259|234:189,1,139.999990463257
94,288,66436,1,0,0:0:0:0:
404,295,66608,1,0,0:0:0:0:
103,170,66779,1,0,0:0:0:0:
321,134,66951,2,0,L|260:86,1,69.9999952316285
64,99,67294,2,0,P|117:98|197:61,2,139.999990463257
435,338,68322,1,0,0:0:0:0:
321,310,68665,2,0,L|177:285,1,139.999990463257
52,290,69179,1,0,0:0:0:0:
286,313,69351,1,0,0:0:0:0:
65,227,69522,1,0,0:0:0:0:
286,313,69694,1,0,0:0:0:0:
173,224,70036,2,0,P|190:163|248:203,1,139.999990463257
244,314,70551,1,0,0:0:0:0:
271,280,70722,1,0,0:0:0:0:
226,214,70894,1,0,0:0:0:0:
267,65,71065,1,0,0:0:0:0:
368,317,71408,2,0,P|440:301|403:256,1,139.999990463257
261,196,71922,2,0,P|227:166|189:175,1,69.9999952316285
104,239,72265,2,0,P|96:289|65:306,1,69.9999952316285
