osu file format v14

[General]
AudioFilename: audio.mp3
AudioLeadIn: 0
PreviewTime: 45182
Countdown: 0
SampleSet: Drum
StackLeniency: 0.4
Mode: 0
LetterboxInBreaks: 0
WidescreenStoryboard: 0

[Editor]
Bookmarks: 89265,123551,178408,189380,217580,233265,293608,338865,360465,404351,426637
DistanceSpacing: 0.3
BeatDivisor: 4
GridSize: 4
TimelineZoom: 1.8

[Metadata]
Title:Classic Mashup 2
TitleUnicode:Classic Mashup 2
Artist:S3RL
ArtistUnicode:S3RL
Creator:Violet-Fox
Version:World Tour
Source:
Tags:Happy Hardcore Drum & Bass Jumps Long Marathon USA Tour
BeatmapID:1055813
BeatmapSetID:496026

[Difficulty]
HPDrainRate:6
CircleSize:4
OverallDifficulty:8
ApproachRate:9.4
SliderMultiplier:1.6
SliderTickRate:1

[Events]
//Background and Video events
0,0,"a0bbe9bba33a2df01487520de16f68b9.jpg",0,0
//Break Periods
//Storyboard Layer 0 (Background)
//Storyboard Layer 1 (Fail)
//Storyboard Layer 2 (Pass)
//Storyboard Layer 3 (Foreground)
//Storyboard Layer 4 (Overlay)
//Storyboard Sound Samples

[TimingPoints]
11668,342.857142857143,4,3,0,100,1,0
11839,-100,4,3,0,50,0,0
12010,-100,4,3,0,80,0,0
28810,-100,4,3,0,70,0,0
30182,-100,4,3,0,90,0,0
34296,-100,4,3,0,50,0,0
35668,-100,4,3,0,80,0,0
41153,-100,4,3,0,70,0,0
42868,-100,4,3,0,80,0,0
43896,-100,4,3,0,100,0,0
45096,-100,4,3,0,50,0,0
46639,-83.3333333333333,4,3,0,50,0,1
57610,-66.6666666666667,4,3,1,100,0,1
65839,-100,4,3,0,100,0,1
67210,-100,4,3,0,70,0,0
68582,-100,4,3,0,90,0,1
73210,-100,4,3,0,70,0,0
74068,-100,4,3,0,70,0,1
78868,-100,4,3,0,70,0,0
79553,-100,4,3,0,70,0,1
87610,-100,4,3,0,70,0,0
89153,-100,4,3,0,100,0,0
101496,-100,4,3,0,90,0,0
101839,-100,4,3,0,80,0,0
102353,-100,4,3,0,70,0,0
102696,-100,4,3,0,60,0,0
103210,-100,4,3,0,50,0,0
103553,-100,4,3,0,40,0,0
104239,-100,4,3,0,60,0,0
105096,-100,4,3,1,80,0,0
107668,-83.3333333333333,4,3,1,70,0,0
109725,-83.3333333333333,4,3,1,70,0,0
110410,-83.3333333333333,4,3,1,90,0,0
111439,-83.3333333333333,4,3,0,70,0,0
112296,-100,4,3,0,80,0,0
117610,-200,4,3,0,80,0,0
117953,-100,4,3,0,80,0,0
123439,-133.333333333333,4,2,0,100,0,0
142639,-100,4,2,0,80,0,0
145382,-76.9230769230769,4,3,0,80,0,0
156696,-100,4,3,0,50,0,0
161839,-100,4,3,1,50,0,0
163553,-100,4,3,1,80,0,0
164582,-100,4,3,1,100,0,0
166468,-100,4,3,0,40,0,0
167325,-66.6666666666667,4,3,0,100,0,1
176925,-66.6666666666667,4,3,0,40,0,1
178296,-66.6666666666667,4,3,1,100,0,1
187896,-100,4,3,0,100,0,0
189268,-133.333333333333,4,3,0,70,0,0
199553,-133.333333333333,4,3,1,100,0,0
209839,-117.647058823529,4,3,0,80,0,0
210868,-55.5555555555556,4,3,0,80,0,0
211725,-83.3333333333333,4,3,0,100,0,1
221153,-83.3333333333333,4,3,1,100,0,1
222182,-83.3333333333333,4,3,0,100,0,1
231782,-133.333333333333,4,3,0,80,0,0
232125,-100,4,3,0,80,0,0
232468,-66.6666666666667,4,3,0,80,0,0
233153,-100,4,3,0,80,0,0
265039,-100,4,3,0,100,0,0
266068,-100,4,3,0,70,0,1
266410,-90.9090909090909,4,3,0,100,0,1
266753,-83.3333333333333,4,3,0,100,0,1
267096,-76.9230769230769,4,3,0,100,0,1
267439,-86.9565217391304,4,3,0,100,0,1
267782,-105.263157894737,4,3,0,100,0,1
268125,-117.647058823529,4,3,0,100,0,1
268468,-200,4,3,0,100,0,1
269153,-100,4,3,0,100,0,1
271553,-100,4,3,0,100,0,1
271896,-90.9090909090909,4,3,0,100,0,1
272239,-83.3333333333333,4,3,0,100,0,1
272582,-76.9230769230769,4,3,0,100,0,1
272925,-71.4285714285714,4,3,0,100,0,1
273268,-66.6666666666667,4,3,0,100,0,1
273610,-58.8235294117647,4,3,0,100,0,1
273953,-54.054054054054,4,3,0,100,0,1
274296,-50,4,3,0,100,0,1
274639,-66.6666666666667,4,3,0,100,0,1
277039,-66.6666666666667,4,3,0,100,0,1
277382,-62.5,4,3,0,100,0,1
277725,-58.8235294117647,4,3,0,100,0,1
278068,-55.5555555555556,4,3,0,100,0,1
278410,-58.8235294117647,4,3,0,100,0,1
278753,-55.5555555555556,4,3,0,100,0,1
279096,-52.6315789473684,4,3,0,100,0,1
279439,-50,4,3,0,100,0,1
279439,-66.6666666666667,4,3,0,100,0,1
279782,-66.6666666666667,4,3,0,100,0,1
280810,-100,4,3,0,100,0,1
282525,-58.8235294117647,4,3,0,100,0,1
283896,-52.6315789473684,4,3,0,100,0,1
284925,-66.6666666666667,4,3,0,100,0,1
285610,-133.333333333333,4,3,0,50,0,1
287668,-100,4,3,0,80,0,1
288010,-100,4,3,0,80,0,0
290925,-66.6666666666667,4,3,0,80,0,0
293496,-133.333333333333,4,3,0,80,0,0
309953,-133.333333333333,4,3,1,60,0,0
311325,-100,4,3,1,85,0,0
312696,-133.333333333333,4,3,1,100,0,0
316125,-100,4,3,0,100,0,0
316810,-83.3333333333333,4,3,0,100,0,1
337382,-100,4,2,0,100,0,0
338753,-200,4,3,0,70,0,0
355210,-133.333333333333,4,3,0,70,0,0
360353,-100,4,3,0,70,0,0
362925,-133.333333333333,4,3,0,70,0,0
377153,-133.333333333333,4,3,1,60,0,0
378525,-133.333333333333,4,3,1,85,0,0
379896,-100,4,3,0,80,0,0
382639,-100,4,3,1,100,0,1
403210,-100,4,3,0,80,0,0
415896,-100,4,3,1,100,0,0
425153,-100,4,3,0,60,0,0
425839,-100,4,3,0,80,0,0
426182,-100,4,3,0,100,0,0
426525,-76.9230769230769,4,3,0,100,0,1
447096,-100,4,3,0,100,0,0
447439,-100,4,3,0,50,0,0

[HitObjects]
84,132,11667,6,0,L|132:172,1,40,8|0,0:2|0:2,0:2:0:0:
172,60,11839,2,0,L|204:108,1,40,8|0,0:2|0:2,0:2:0:0:
320,32,12010,2,0,L|308:84,1,40,8|0,0:2|0:2,0:2:0:0:
256,192,12182,1,0,0:2:0:0:
56,208,12353,6,0,P|76:252|128:280,1,80,12|0,0:2|0:2,0:2:0:0:
176,320,12696,1,0,0:2:0:0:
268,340,12867,2,0,P|336:340|400:260,1,160,2|0,0:2|0:2,0:2:0:0:
48,96,13553,5,0,0:2:0:0:
128,40,13725,2,0,P|164:64|184:128,1,80,0|0,0:2|0:2,0:2:0:0:
184,196,14067,1,0,0:2:0:0:
176,320,14239,2,0,P|101:296|67:226,1,160,2|0,0:2|0:2,0:2:0:0:
424,296,14925,5,0,0:2:0:0:
424,296,15096,2,0,P|396:332|336:344,1,80,8|0,0:2|0:2,0:2:0:0:
256,304,15439,2,0,P|208:328|152:328,1,80,8|0,0:2|0:2,0:2:0:0:
144,224,15782,2,0,P|88:228|48:212,1,80,8|0,0:2|0:2,0:2:0:0:
188,132,16125,1,2,0:2:0:0:
268,220,16296,1,2,0:2:0:0:
111,151,16468,6,0,L|147:231,1,80,0|0,0:2|0:2,0:2:0:0:
302,292,16810,2,0,L|263:209,1,80,0|0,0:2|0:2,0:2:0:0:
348,86,17153,5,0,0:2:0:0:
348,86,17325,2,0,P|372:117|377:157,2,80,2|2|2,0:2|0:2|0:2,0:2:0:0:
248,36,17839,2,0,P|200:32|152:64,1,80,2|2,0:2|0:2,0:2:0:0:
180,172,18182,1,2,0:2:0:0:
300,172,18353,2,0,B|312:224|360:236|360:236|344:268|356:308,1,160,2|0,0:2|0:2,0:2:0:0:
480,352,18867,5,0,0:2:0:0:
452,188,19039,1,0,0:2:0:0:
354,301,19210,2,0,P|322:321|258:301,1,80,0|0,0:2|0:2,0:2:0:0:
136,224,19553,1,0,0:2:0:0:
56,276,19725,2,0,P|36:200|92:136,1,160,4|0,0:2|0:2,0:2:0:0:
248,68,20410,5,0,0:2:0:0:
352,64,20582,2,0,P|340:120|304:148,1,80,2|0,0:2|0:2,0:2:0:0:
384,200,20925,2,0,P|360:232|304:248,1,80,2|0,0:2|0:2,0:2:0:0:
320,336,21267,2,0,P|276:344|224:320,1,80,2|0,0:2|0:2,0:2:0:0:
164,256,21610,1,0,0:2:0:0:
60,156,21782,1,0,0:2:0:0:
60,156,21953,6,0,L|152:200,1,80,0|0,0:2|0:2,0:2:0:0:
325,135,22296,2,0,L|240:100,1,80,0|0,0:2|0:2,0:2:0:0:
242,333,22639,1,2,0:2:0:0:
242,333,22810,5,0,0:2:0:0:
348,320,22982,1,0,0:2:0:0:
376,224,23153,1,0,0:2:0:0:
339,130,23325,6,0,P|299:146|266:194,1,80,4|0,0:1|0:0,0:0:0:0:
242,333,23668,1,0,0:0:0:0:
445,254,23839,2,0,P|413:228|346:234,1,80
348,320,24182,1,0,0:0:0:0:
220,235,24353,1,0,0:0:0:0:
339,130,24525,1,0,0:0:0:0:
172,53,24696,6,0,L|41:80,1,120,4|0,0:0|0:0,0:0:0:0:
37,97,25039,1,2,0:0:0:0:
30,241,25210,2,0,B|74:277|127:256|127:256|134:289|158:309,1,160,4|0,0:0|0:0,0:0:0:0:
348,336,25896,5,0,0:0:0:0:
416,232,26068,2,0,P|378:187|308:172,1,120,4|0,0:0|0:0,0:0:0:0:
224,165,26410,2,0,B|132:153|123:80,1,120,4|0,0:0|0:0,0:0:0:0:
373,34,26753,2,0,L|347:135,1,80,4|0,0:0|0:0,0:0:0:0:
320,256,27096,1,4,0:0:0:0:
96,320,27268,2,0,P|132:340|196:348,1,80,4|0,0:0|0:0,0:0:0:0:
296,340,27610,5,0,0:0:0:0:
356,192,27782,1,0,0:0:0:0:
456,316,27953,1,0,0:0:0:0:
488,160,28125,1,0,0:0:0:0:
380,280,28296,1,0,0:0:0:0:
388,120,28468,2,0,P|328:120|292:144,1,80
212,252,28810,5,0,3:0:0:0:
236,52,28982,1,0,3:0:0:0:
372,196,29153,1,0,3:0:0:0:
148,88,29325,1,0,3:0:0:0:
152,288,29496,1,0,3:0:0:0:
268,124,29668,1,0,3:0:0:0:
268,324,29839,1,0,3:0:0:0:
180,152,30010,1,0,3:0:0:0:
384,312,30182,5,4,3:0:0:0:
164,340,30353,1,4,3:0:0:0:
312,172,30525,1,4,3:0:0:0:
112,268,30696,1,4,3:0:0:0:
336,248,30868,1,4,3:0:0:0:
192,76,31039,1,4,3:0:0:0:
220,296,31210,1,4,3:0:0:0:
408,172,31382,1,4,3:0:0:0:
376,308,31553,5,2,2:0:0:0:
341,317,31638,1,0,2:0:0:0:
306,304,31724,1,0,2:0:0:0:
279,282,31810,1,2,2:0:0:0:
269,248,31895,1,0,2:0:0:0:
264,213,31981,1,0,2:0:0:0:
255,179,32067,1,0,2:0:0:0:
233,153,32153,1,0,2:0:0:0:
199,144,32238,5,2,2:0:0:0:
165,151,32324,1,0,2:0:0:0:
137,171,32410,1,0,2:0:0:0:
119,201,32496,1,0,2:0:0:0:
118,236,32581,1,2,2:0:0:0:
131,268,32667,1,0,2:0:0:0:
154,294,32753,5,2,3:2:0:0:
282,315,32925,1,0,2:2:0:0:
394,262,33096,1,2,2:2:0:0:
445,147,33267,2,0,P|437:103|389:63,1,80,2|0,2:2|2:0,2:0:0:0:
276,48,33610,2,0,B|236:72|224:120|224:120|264:112|264:112|252:136|252:136|280:136|280:136|272:160|272:160|324:152,1,240,0|0,2:2|2:2,2:2:0:0:
244,268,34296,6,0,L|192:248,2,40,6|0|0,0:2|0:2|0:2,0:2:0:0:
44,128,34639,2,0,L|76:156,2,40,6|0|0,0:2|0:2|0:2,0:2:0:0:
271,83,34982,2,0,L|287:35,1,40,6|0,0:2|0:2,0:2:0:0:
219,139,35153,2,0,L|159:155,1,40,6|0,0:2|0:2,0:2:0:0:
299,155,35325,1,6,0:2:0:0:
72,264,35667,6,2,L|152:288,1,80,6|2,0:0|0:0,0:0:0:0:
116,125,36010,2,2,L|176:177,1,80,10|2,0:0|0:0,0:0:0:0:
256,56,36353,2,2,L|285:159,1,80,10|2,0:0|0:0,0:0:0:0:
228,280,36697,1,2,0:0:0:0:
116,125,36868,1,2,0:0:0:0:
392,324,37210,6,0,B|384:330|384:330|377:323|377:323|368:332|368:332|360:323|360:323|351:332|351:332|343:323|343:323|335:332|335:332|327:324|327:324|319:332|319:332|311:324|311:324|307:332|307:332|303:324|303:324|299:332|299:332|291:324|291:324|287:344,1,160
100,300,37725,1,0,0:0:0:0:
344,56,38067,1,0,0:0:0:0:
456,176,38410,6,2,L|352:144,1,80,4|2,0:0|0:0,0:0:0:0:
200,184,38753,2,2,L|276:152,1,80,10|2,0:0|0:0,0:0:0:0:
440,256,39096,2,2,L|365:231,1,80,10|2,0:0|0:0,0:0:0:0:
248,344,39439,1,0,0:0:0:0:
200,152,39610,2,0,L|276:184,1,80,2|0,0:0|0:0,0:0:0:0:
184,288,39953,2,0,L|100:340,1,80,2|0,0:0|0:0,0:0:0:0:
60,220,40296,1,0,0:0:0:0:
92,96,40467,6,0,B|104:96|104:96|104:108|104:108|116:108|116:108|116:120|116:120|128:120|128:120|128:130|128:130|140:132,1,80
180,32,40810,2,0,P|228:48|252:104,1,80
404,92,41153,6,0,L|372:176,1,80,4|0,3:0|3:0,0:0:0:0:
272,152,41496,2,0,L|228:240,1,80,4|0,3:0|3:0,0:0:0:0:
132,240,41839,2,0,L|96:316,1,80,4|0,3:0|3:0,0:0:0:0:
168,108,42182,1,4,3:0:0:0:
340,124,42353,1,4,3:0:0:0:
240,232,42525,1,4,3:0:0:0:
395,121,42696,6,0,B|385:128|385:128|378:118|378:118|368:126|368:126|361:116|361:116|351:124|351:124|345:116|345:116|339:124,1,80,4|4,3:0|3:0,0:0:0:0:
168,108,43039,1,4,3:0:0:0:
96,262,43210,2,0,P|136:254|176:222,1,80,4|4,3:0|3:0,0:0:0:0:
310,54,43553,2,0,B|350:82|338:134,1,80,4|0,3:0|3:0,0:0:0:0:
168,232,43896,5,2,3:0:0:0:
180,264,43981,1,0,3:0:0:0:
206,287,44067,1,0,3:0:0:0:
238,300,44153,1,0,3:0:0:0:
273,305,44238,1,2,3:0:0:0:
307,301,44324,1,0,3:0:0:0:
340,288,44410,1,0,3:0:0:0:
368,268,44495,1,0,3:0:0:0:
391,241,44581,5,2,3:0:0:0:
406,210,44667,1,0,3:0:0:0:
412,175,44753,1,2,3:0:0:0:
407,141,44838,1,0,3:0:0:0:
393,109,44924,1,2,3:0:0:0:
371,82,45010,1,0,3:0:0:0:
340,56,45096,6,0,P|296:40|236:48,1,80,2|0,3:0|3:0,0:0:0:0:
328,188,45439,1,0,3:0:0:0:
168,140,45610,1,0,3:0:0:0:
175,302,45782,1,0,3:0:0:0:
32,276,45953,6,2,L|112:344,1,80,2|2,0:0|0:0,1:0:0:0:
175,302,46296,2,2,L|104:236,1,80,0|0,0:0|0:0,1:0:0:0:
336,312,46639,6,2,P|376:284|396:220,1,95.9999970703126,4|2,3:1|0:0,0:0:0:0:
240,176,46982,2,2,P|224:224|248:280,1,95.9999970703126,8|0,0:0|0:0,0:0:0:0:
396,164,47325,2,2,P|356:132|288:136,1,95.9999970703126,8|0,0:0|0:0,0:0:0:0:
136,292,47668,1,8,0:0:0:0:
96,64,47839,2,0,L|180:144,1,95.9999970703126,0|8,0:0|3:0,0:0:0:0:
408,152,48182,2,2,B|412:160|412:160|396:162|396:162|408:174|408:174|392:178|392:178|404:190|404:190|388:190|388:190|400:206|400:206|384:210|384:210|396:218|396:218|380:222|380:222|392:234|392:234|372:242,1,191.999994140625,2|2,0:0|0:0,1:0:0:0:
192,288,48696,6,2,L|312:276,1,95.9999970703126,8|2,0:0|0:0,1:0:0:0:
452,181,49039,2,2,L|377:241,1,95.9999970703126,8|2,0:0|0:0,1:0:0:0:
284,72,49382,6,2,P|236:52|168:64,1,95.9999970703126,8|2,0:0|0:0,1:0:0:0:
152,188,49725,2,2,P|177:164|240:152,1,95.9999970703126,8|2,0:0|0:0,1:0:0:0:
316,264,50068,2,2,P|276:240|208:244,1,95.9999970703126,8|2,0:0|0:0,1:0:0:0:
132,304,50410,1,8,0:0:0:0:
316,264,50582,2,2,P|276:188|236:168,1,95.9999970703126,0|8,0:0|0:0,1:0:0:0:
148,76,50925,2,2,P|204:64|256:80,1,95.9999970703126,0|8,0:0|0:0,1:0:0:0:
324,136,51268,5,0,0:0:0:0:
64,196,51439,2,2,B|68:184|68:184|75:195|75:195|84:181|84:181|91:195|91:195|100:181|100:181|104:196|104:196|117:181|117:181|124:195|124:195|129:182|129:182|137:196|137:196|146:182|146:182|152:196|152:196|160:180,1,191.999994140625,10|2,0:0|0:0,1:0:0:0:
376,36,52125,6,0,P|408:68|404:148,1,95.9999970703126,8|0,3:0|2:0,1:0:0:0:
332,108,52468,2,0,P|332:153|272:206,1,95.9999970703126,8|0,3:0|2:0,1:0:0:0:
252,128,52810,2,0,P|220:160|140:156,1,95.9999970703126,8|0,3:0|2:0,1:0:0:0:
184,80,53153,1,8,3:0:0:0:
284,232,53325,2,0,L|384:260,1,95.9999970703126,0|8,0:0|0:0,0:0:0:0:
417,115,53668,2,2,B|408:100|408:100|392:112|392:112|380:92|380:92|368:108|368:108|356:88|356:88|336:100|336:100|332:80|332:80|304:84|304:84|296:68|296:68|280:64,1,191.999994140625,2|2,0:0|0:0,1:0:0:0:
116,152,54182,2,2,L|204:192,1,95.9999970703126,8|2,0:0|0:0,1:0:0:0:
180,288,54525,2,2,L|84:312,1,95.9999970703126,8|2,0:0|0:0,1:0:0:0:
284,316,54868,6,2,P|328:308|372:256,1,95.9999970703126,8|2,0:0|0:0,1:0:0:0:
392,120,55210,2,2,P|368:84|304:68,1,95.9999970703126,8|2,0:0|0:0,1:0:0:0:
168,84,55553,2,2,P|146:130|164:174,1,95.9999970703126,8|2,0:0|0:0,1:0:0:0:
324,168,55896,1,8,0:0:0:0:
60,123,56068,2,2,P|50:167|84:221,1,95.9999970703126,0|8,0:0|0:0,1:0:0:0:
152,312,56410,2,2,P|184:326|248:304,1,95.9999970703126,0|8,0:0|0:0,1:0:0:0:
72,212,56753,1,0,0:0:0:0:
408,152,56925,2,2,B|412:160|412:160|396:162|396:162|408:174|408:174|392:178|392:178|404:190|404:190|388:190|388:190|400:206|400:206|384:210|384:210|396:218|396:218|380:222|380:222|392:234|392:234|372:242,1,191.999994140625,8|8,0:0|0:0,1:0:0:0:
144,352,57610,5,8,3:0:0:0:
396,312,57782,1,8,3:0:0:0:
240,168,57953,2,0,P|200:196|200:292,1,120.000004577637,8|0,3:0|0:0,0:0:0:0:
332,352,58296,1,8,3:0:0:0:
444,128,58468,1,8,3:0:0:0:
196,100,58639,2,0,P|152:128|124:208,1,120.000004577637,8|0,3:0|0:0,0:0:0:0:
368,252,58982,5,8,0:0:0:0:
208,180,59153,1,8,0:0:0:0:
76,284,59325,2,0,P|104:336|172:352,1,120.000004577637,8|0,0:0|0:0,0:0:0:0:
344,288,59668,1,8,0:0:0:0:
176,248,59839,1,8,0:0:0:0:
246,106,60010,2,0,P|300:132|314:219,1,120.000004577637,8|0,3:0|0:0,0:0:0:0:
176,248,60353,6,0,L|132:128,1,120.000004577637,8|0,3:0|0:0,0:0:0:0:
28,88,60696,1,8,0:0:0:0:
72,272,60868,1,8,0:0:0:0:
230,206,61039,2,0,B|242:178|242:178|230:158|230:158|246:142|246:142|234:122|234:122|246:106|246:106|246:82,1,120.000004577637,8|0,3:0|0:0,0:0:0:0:
440,88,61382,2,0,B|440:116|408:144|408:144|436:172|412:232,1,120.000004577637,8|0,0:0|0:0,0:0:0:0:
400,304,61725,5,8,0:0:0:0:
224,332,61896,1,4,0:0:0:0:
422,193,62068,5,8,0:0:0:0:
296,319,62239,1,4,0:0:0:0:
400,304,62410,5,8,3:0:0:0:
230,206,62582,1,8,3:0:0:0:
415,231,62753,2,0,P|461:264|467:331,1,120.000004577637
327,195,63096,5,2,0:0:0:0:
435,59,63268,1,0,0:0:0:0:
415,231,63439,1,2,0:0:0:0:
323,83,63610,1,0,0:0:0:0:
239,239,63782,5,2,0:0:0:0:
391,151,63953,1,2,0:0:0:0:
415,311,64125,1,2,0:0:0:0:
275,167,64296,1,0,0:0:0:0:
192,332,64468,6,0,P|140:288|140:216,1,120.000004577637,8|0,3:0|3:0,3:0:0:0:
208,104,64810,1,8,3:0:0:0:
244,240,64982,1,0,3:0:0:0:
128,104,65153,2,0,P|156:40|248:40,1,120.000004577637,8|0,3:0|3:0,3:0:0:0:
328,224,65496,2,0,L|296:348,1,120.000004577637,8|0,3:0|3:0,3:0:0:0:
360,112,65839,5,8,3:0:0:0:
298,340,66010,1,8,3:0:0:0:
220,136,66182,1,8,3:0:0:0:
404,208,66353,1,8,3:0:0:0:
216,336,66525,5,8,3:0:0:0:
292,156,66696,1,8,3:0:0:0:
396,328,66868,1,8,3:0:0:0:
448,136,67039,1,8,3:0:0:0:
248,252,67210,5,0,0:0:0:0:
424,212,67382,2,0,L|352:264,1,80
176,216,67725,1,0,0:0:0:0:
276,117,67896,2,0,B|232:117|192:137|192:137|224:145|256:197,1,160
263,346,68410,5,0,0:0:0:0:
176,216,68582,2,0,P|152:260|144:300,1,80,12|0,0:0|0:0,0:0:0:0:
228,276,68925,2,0,P|244:320|264:348,1,80,8|0,0:0|0:0,0:0:0:0:
312,284,69268,2,0,P|340:316|388:336,1,80,8|0,0:0|0:0,0:0:0:0:
412,160,69610,1,0,0:0:0:0:
228,276,69782,1,0,0:0:0:0:
256,132,69953,6,0,P|296:120|344:120,1,80,12|0,0:0|0:0,0:0:0:0:
316,200,70296,2,0,P|356:216|396:252,1,80,8|0,0:0|0:0,0:0:0:0:
312,284,70639,2,0,P|346:308|369:354,1,80,8|0,0:0|0:0,0:0:0:0:
180,328,70982,1,8,0:0:0:0:
32,272,71153,1,0,0:0:0:0:
184,196,71325,1,8,0:0:0:0:
32,124,71496,1,0,0:0:0:0:
184,52,71668,1,8,0:0:0:0:
115,207,71839,6,0,P|135:243|199:259,1,80,2|8,0:0|0:0,0:0:0:0:
220,128,72182,2,0,P|256:96|308:84,1,80,2|8,0:0|0:0,0:0:0:0:
169,261,72525,1,0,0:0:0:0:
208,356,72696,1,8,0:0:0:0:
268,224,72868,1,0,0:0:0:0:
312,344,73039,1,8,0:0:0:0:
268,224,73210,1,0,0:0:0:0:
156,112,73382,6,0,L|116:156,2,40,0|0|0,1:0|1:0|1:0,1:0:0:0:
136,248,73725,2,0,L|112:296,2,40,0|0|0,1:0|1:0|1:0,1:0:0:0:
244,292,74068,6,0,L|344:292,1,80,8|0,0:0|0:0,0:0:0:0:
348,208,74410,2,0,L|262:208,1,80,8|0,0:0|0:0,0:0:0:0:
312,116,74753,2,0,L|412:116,1,80,8|0,0:0|0:0,0:0:0:0:
224,112,75096,1,8,0:0:0:0:
104,72,75268,1,0,0:0:0:0:
192,180,75439,6,0,L|184:284,1,80,8|0,0:0|0:0,0:0:0:0:
104,252,75782,2,0,L|110:171,1,80,8|0,0:0|0:0,0:0:0:0:
28,160,76125,2,0,L|20:272,1,80,8|0,0:0|0:0,0:0:0:0:
109,343,76468,5,8,0:0:0:0:
185,259,76639,1,0,0:0:0:0:
233,323,76810,1,8,0:0:0:0:
249,195,76982,1,0,0:0:0:0:
104,252,77153,1,8,0:0:0:0:
240,112,77325,2,0,P|280:112|328:156,1,80,0|8,0:0|3:0,0:0:0:0:
272,24,77668,2,0,P|236:24|168:60,1,80,0|8,0:0|3:0,0:0:0:0:
188,160,78010,5,0,0:0:0:0:
108,280,78182,1,8,0:0:0:0:
40,164,78353,2,0,P|60:128|116:108,1,80,0|8,0:0|0:0,0:0:0:0:
192,256,78696,1,0,0:0:0:0:
260,40,78868,5,0,1:0:0:0:
188,160,79039,1,0,1:0:0:0:
360,48,79210,1,0,1:0:0:0:
360,48,79296,1,0,1:0:0:0:
360,48,79382,1,0,1:0:0:0:
424,176,79553,6,0,P|400:212|364:236,1,80,8|0,0:0|0:0,0:0:0:0:
260,256,79896,1,8,3:0:0:0:
141,233,80068,2,0,P|109:209|88:176,1,80,4|8,0:0|0:0,0:0:0:0:
144,324,80410,1,0,3:0:0:0:
260,256,80582,2,0,P|284:224|280:164,1,80,8|0,0:0|0:0,0:0:0:0:
156,76,80925,6,0,B|180:36|248:12,1,80,8|0,3:0|0:0,0:0:0:0:
287,185,81268,1,8,3:0:0:0:
392,72,81439,2,0,B|424:108|433:176,1,80,0|8,3:0|0:0,0:0:0:0:
287,185,81782,1,0,0:0:0:0:
248,320,81953,2,0,B|204:300|170:239,1,80,8|0,3:0|0:0,0:0:0:0:
408,369,82296,6,0,B|452:349|486:288,1,80,8|0,3:0|0:0,0:0:0:0:
287,185,82639,2,0,L|386:242,1,80,8|0,0:0|0:0,0:0:0:0:
320,58,82982,2,0,L|221:115,1,80,8|0,0:0|0:0,0:0:0:0:
408,124,83325,2,0,L|496:100,1,80,8|0,0:0|0:0,0:0:0:0:
356,224,83668,2,0,L|272:248,1,80,8|0,0:0|0:0,0:0:0:0:
100,312,84010,6,0,B|104:300|104:300|112:308|112:308|116:296|116:296|128:304|128:304|132:292|132:292|140:300|140:300|144:288|144:288|152:296|152:296|156:284|156:284|164:292|164:292|168:280|168:280|176:288|176:288|180:276|180:276,1,160,8|8,0:0|0:0,0:0:0:0:
184,188,84525,5,0,0:0:0:0:
264,192,84696,1,8,0:0:0:0:
344,192,84868,1,2,2:0:0:0:
400,100,85039,2,0,L|304:72,1,80,8|0,3:0|0:0,0:0:0:0:
264,192,85382,2,0,L|344:192,1,80,8|0,3:0|0:0,0:0:0:0:
300,308,85725,2,0,L|208:324,1,80,8|0,3:0|0:0,0:0:0:0:
80,248,86068,1,8,0:0:0:0:
212,122,86239,1,0,0:0:0:0:
412,64,86582,6,0,B|380:92|380:92|416:124|420:168|400:216,1,160,2|2,3:0|2:0,2:0:0:0:
288,125,87096,2,0,P|248:133|196:109,1,80
384,92,87439,1,0,0:0:0:0:
315,284,87610,5,0,0:0:0:0:
211,121,87782,2,0,P|154:123|124:136,1,80
168,252,88125,1,0,0:0:0:0:
356,216,88296,2,0,P|320:172|292:156,1,80
168,252,88639,1,0,0:0:0:0:
340,312,88982,1,4,0:0:0:0:
484,153,89153,6,0,L|420:173,1,40,12|0,0:0|0:0,0:0:0:0:
390,61,89325,2,0,L|352:107,1,40
300,160,89496,1,0,0:0:0:0:
136,212,89668,1,0,0:0:0:0:
236,308,89839,1,0,0:0:0:0:
248,116,90010,1,0,0:0:0:0:
136,212,90182,2,0,L|152:252,2,40
160,112,90525,5,8,0:0:0:0:
150,249,90696,1,0,0:0:0:0:
248,116,90868,1,8,0:0:0:0:
236,308,91039,1,0,0:0:0:0:
292,200,91210,5,8,0:0:0:0:
428,168,91382,1,8,0:0:0:0:
312,72,91553,1,8,0:0:0:0:
312,72,91639,1,0,0:0:0:0:
312,72,91725,1,0,0:0:0:0:
176,32,91896,2,0,P|136:36|100:56,1,80,12|0,0:0|0:0,0:0:0:0:
76,76,92153,1,10,0:0:0:0:
52,100,92239,2,0,P|32:128|24:180,1,80,12|8,0:0|0:0,0:0:0:0:
52,264,92582,5,8,0:0:0:0:
232,312,92753,1,8,0:0:0:0:
192,160,92925,1,8,0:0:0:0:
132,316,93096,2,0,L|160:356,1,40,4|0,0:0|0:0,0:0:0:0:
132,208,93268,2,0,L|132:256,1,40,12|0,0:0|0:0,0:0:0:0:
204,240,93439,2,0,P|256:224|280:188,1,80,0|8,0:0|0:0,0:0:0:0:
164,100,93782,1,0,0:0:0:0:
408,120,93953,5,8,0:0:0:0:
271,205,94125,1,8,0:0:0:0:
440,220,94296,1,8,0:0:0:0:
280,128,94468,1,0,0:0:0:0:
232,312,94639,1,2,3:0:0:0:
92,100,94982,1,2,3:0:0:0:
271,205,95325,5,4,3:0:0:0:
312,324,95496,1,4,3:0:0:0:
271,205,95668,1,4,3:0:0:0:
100,112,95839,1,8,0:0:0:0:
100,112,95925,1,0,0:0:0:0:
100,112,96010,2,0,L|48:148,2,40,12|0|0,0:0|0:0|0:0,0:0:0:0:
151,234,96353,1,8,0:0:0:0:
300,124,96525,1,8,0:0:0:0:
400,112,96696,6,0,P|400:156|376:192,1,80,8|8,0:0|0:0,0:0:0:0:
304,248,97039,1,8,0:0:0:0:
208,268,97210,1,0,0:0:0:0:
224,160,97382,1,8,0:0:0:0:
224,160,97467,1,0,0:0:0:0:
224,160,97553,1,0,0:0:0:0:
300,124,97725,5,8,0:0:0:0:
168,60,97896,1,0,0:0:0:0:
176,240,98068,1,8,0:0:0:0:
96,92,98239,1,8,0:0:0:0:
224,160,98410,2,0,P|264:204|264:248,1,80,8|0,0:0|0:0,0:0:0:0:
176,240,98753,5,4,0:0:0:0:
316,120,98925,1,0,0:0:0:0:
316,120,99010,1,0,0:0:0:0:
316,120,99096,1,0,0:0:0:0:
248,300,99268,1,0,0:0:0:0:
120,152,99439,1,0,0:0:0:0:
68,332,99610,1,0,0:0:0:0:
248,300,99782,1,0,0:0:0:0:
84,224,99953,1,0,0:0:0:0:
240,116,100296,5,0,2:0:0:0:
240,116,100468,1,0,2:0:0:0:
240,116,100639,1,0,2:0:0:0:
416,184,100982,5,0,2:0:0:0:
416,184,101153,1,0,2:0:0:0:
416,184,101325,1,0,2:0:0:0:
332,120,101496,6,0,L|304:200,1,80,4|0,0:0|0:0,0:0:0:0:
240,80,101839,2,0,L|212:156,1,80
132,84,102182,1,0,0:0:0:0:
288,344,102353,2,0,L|336:252,1,80
188,344,102696,2,0,L|244:248,1,80
80,336,103039,1,0,0:0:0:0:
68,172,103210,2,0,L|27:241,1,80
224,152,103553,5,0,0:0:0:0:
112,116,103725,1,0,0:0:0:0:
240,48,103896,2,0,P|296:40|336:56,1,80
475,165,104239,6,0,L|388:128,1,80
285,179,104582,2,0,L|376:220,1,80
324,344,104925,1,0,0:0:0:0:
164,324,105096,2,0,P|128:304|112:256,1,80
285,179,105439,1,0,0:0:0:0:
144,36,105610,5,2,2:0:0:0:
32,184,105782,1,2,2:0:0:0:
212,96,105953,1,0,3:0:0:0:
212,96,106039,1,0,3:0:0:0:
212,96,106125,1,0,3:0:0:0:
48,84,106296,1,8,0:0:0:0:
204,172,106468,1,0,0:0:0:0:
32,184,106639,1,8,0:0:0:0:
184,252,106810,1,0,0:0:0:0:
372,296,106982,6,0,B|404:252|392:204,1,80,4|0,0:0|0:0,0:0:0:0:
324,160,107325,2,0,B|340:112|308:60,1,80,4|0,0:0|0:0,0:0:0:0:
164,144,107582,1,4,0:0:0:0:
164,144,107668,6,0,P|144:188|156:256,1,95.9999970703126,4|0,3:0|3:0,0:0:0:0:
188,336,107925,1,0,3:0:0:0:
188,336,108010,2,0,P|232:360|292:356,1,95.9999970703126,4|0,3:0|0:0,0:0:0:0:
296,360,108268,5,0,0:0:0:0:
316,352,108353,1,8,3:0:0:0:
280,248,108525,1,8,3:0:0:0:
256,236,108610,1,2,0:0:0:0:
232,232,108696,1,8,3:0:0:0:
280,136,108868,1,8,3:0:0:0:
308,132,108953,1,0,0:0:0:0:
332,136,109039,1,8,3:0:0:0:
352,144,109125,1,0,0:0:0:0:
368,152,109210,5,8,3:0:0:0:
380,160,109296,1,8,3:0:0:0:
392,168,109382,2,0,P|428:232|412:308,1,143.999995605469,8|0,3:0|0:0,0:0:0:0:
417,299,109725,5,8,3:0:0:0:
320,224,109896,1,8,3:0:0:0:
304,344,110068,1,8,3:0:0:0:
192,272,110239,1,8,3:0:0:0:
420,304,110410,5,8,3:0:0:0:
304,84,110582,1,8,3:0:0:0:
192,272,110753,1,8,3:0:0:0:
416,208,110925,2,8,P|464:159|464:96,1,95.9999970703126,8|0,0:0|2:0,0:0:0:0:
392,32,111439,5,0,0:0:0:0:
336,80,111610,1,0,0:0:0:0:
348,148,111782,1,0,0:0:0:0:
412,176,111953,1,0,0:0:0:0:
468,132,112125,1,0,0:0:0:0:
348,148,112296,5,0,0:0:0:0:
348,148,112382,1,0,0:0:0:0:
348,148,112468,2,0,L|308:228,1,80,4|0,1:0|0:0,0:0:0:0:
468,132,112810,2,0,L|480:240,1,80,4|0,3:0|0:0,0:0:0:0:
352,304,113153,1,4,3:0:0:0:
200,312,113325,2,0,L|128:264,1,80,0|4,0:0|3:0,3:0:0:0:
128,168,113668,2,0,L|217:223,1,80,0|4,0:0|3:0,0:0:0:0:
348,148,114010,1,0,3:0:0:0:
348,148,114182,6,0,L|428:200,1,80,4|0,3:0|0:0,3:0:0:0:
232,72,114525,1,4,3:0:0:0:
232,72,114696,1,0,0:0:0:0:
232,72,114868,2,0,L|140:104,1,80,4|0,3:0|0:0,0:0:0:0:
240,128,115210,2,0,L|152:184,1,80,4|0,3:0|0:0,0:0:0:0:
280,164,115553,2,0,L|216:240,1,80,4|0,3:0|0:0,0:0:0:0:
108,212,115896,1,4,3:0:0:0:
240,128,116068,2,0,L|340:128,1,80,0|4,0:0|3:0,3:0:0:0:
328,312,116410,2,0,L|236:313,1,80,0|4,0:0|3:0,0:0:0:0:
440,192,116753,5,0,0:0:0:0:
320,128,116925,1,0,0:0:0:0:
343,102,117010,1,0,0:0:0:0:
358,70,117096,1,0,0:0:0:0:
320,128,117268,5,0,0:0:0:0:
192,68,117439,1,0,0:0:0:0:
166,188,117610,2,0,L|220:224,1,60
100,144,117953,6,0,L|172:192,1,80,0|0,3:0|0:0,3:0:0:0:
56,288,118296,2,0,L|144:288,1,80,4|0,3:0|0:0,0:0:0:0:
232,260,118639,1,4,3:0:0:0:
280,88,118810,2,0,L|260:172,1,80,4|0,0:0|3:0,0:0:0:0:
408,120,119153,2,0,L|384:212,1,80,0|4,0:0|3:0,0:0:0:0:
488,204,119496,1,0,3:0:0:0:
296,312,119668,2,0,L|328:220,1,80,4|0,3:0|0:0,0:0:0:0:
148,128,120010,1,4,3:0:0:0:
148,128,120182,1,0,3:0:0:0:
168,240,120353,6,0,L|236:284,1,80,4|0,3:0|0:0,3:0:0:0:
244,200,120696,2,0,L|328:216,1,80,4|0,3:0|0:0,0:0:0:0:
300,136,121039,2,0,L|392:120,1,80,4|0,3:0|0:0,0:0:0:0:
336,288,121382,1,4,3:0:0:0:
484,312,121553,2,0,L|500:232,1,80,0|4,0:0|3:0,0:0:0:0:
378,125,121896,2,0,L|369:205,1,80,0|0,0:0|3:0,0:0:0:0:
268,24,122239,5,0,0:0:0:0:
156,132,122410,1,0,0:0:0:0:
156,132,122496,1,0,0:0:0:0:
156,132,122582,1,0,0:0:0:0:
332,132,122753,1,4,0:0:0:0:
144,328,123096,1,4,0:0:0:0:
80,128,123439,6,0,P|93:87|123:61,1,60.0000022888184,6|0,0:0|0:0,0:0:0:0:
187,145,123782,1,0,0:0:0:0:
286,118,123953,2,0,P|290:177|238:227,1,120.000004577637,2|0,0:0|0:0,0:0:0:0:
136,340,124468,2,0,P|153:307|194:282,1,60.0000022888184
376,240,124810,2,0,P|340:258|299:254,1,60.0000022888184,2|0,0:0|0:0,0:0:0:0:
92,248,125153,1,0,0:0:0:0:
41,188,125325,2,0,P|97:172|152:200,1,120.000004577637,2|0,0:0|0:0,0:0:0:0:
112,320,125839,2,0,P|148:332|184:324,1,60.0000022888184
328,280,126182,6,0,P|360:252|364:216,1,60.0000022888184,2|0,0:0|0:0,0:0:0:0:
292,208,126525,1,0,0:0:0:0:
328,112,126696,2,0,P|268:104|208:148,1,120.000004577637,2|0,0:0|0:0,0:0:0:0:
244,284,127210,2,0,P|276:300|316:300,1,60.0000022888184
160,99,127553,2,0,P|152:126|160:170,1,60.0000022888184,2|0,0:0|0:0,0:0:0:0:
292,208,127896,1,0,0:0:0:0:
384,64,128068,2,0,P|416:112|396:184,1,120.000004577637,2|0,0:0|0:0,0:0:0:0:
480,256,128582,5,0,0:0:0:0:
296,328,128925,2,0,P|184:284|216:120,1,300.000011444092
292,208,129953,1,0,0:0:0:0:
172,172,130296,2,0,P|256:96|416:188,1,300.000011444092,2|0,0:0|0:0,0:0:0:0:
288,216,131325,1,0,0:0:0:0:
272,312,131668,2,0,P|356:308|364:116,1,300.000011444092
292,84,132696,2,0,P|264:80|224:92,1,60.0000022888184
157,148,133039,5,0,3:0:0:0:
149,173,133125,1,0,3:0:0:0:
145,199,133210,1,0,3:0:0:0:
146,225,133296,1,0,3:0:0:0:
153,250,133381,1,0,3:0:0:0:
167,272,133467,1,0,3:0:0:0:
187,289,133553,1,0,3:0:0:0:
210,301,133639,5,0,3:0:0:0:
235,309,133724,1,0,3:0:0:0:
261,313,133810,1,0,3:0:0:0:
288,314,133896,1,0,3:0:0:0:
314,311,133981,1,0,3:0:0:0:
339,305,134067,1,0,3:0:0:0:
363,293,134153,1,0,3:0:0:0:
381,275,134239,1,0,3:0:0:0:
233,87,134410,6,0,P|261:79|308:84,1,60.0000022888184,6|0,0:0|0:0,0:0:0:0:
396,84,134753,1,0,0:0:0:0:
431,177,134925,2,0,P|431:217|375:277,1,120.000004577637,2|0,0:0|0:0,0:0:0:0:
336,184,135439,1,0,0:0:0:0:
140,284,135782,2,0,P|136:232|152:204,1,60.0000022888184,6|0,0:0|0:0,0:0:0:0:
223,164,136125,1,0,0:0:0:0:
128,104,136296,2,0,P|160:108|228:180,1,120.000004577637,2|0,0:0|0:0,0:0:0:0:
336,68,136810,6,0,P|372:72|400:104,1,60.0000022888184
400,204,137153,2,0,P|380:236|340:252,1,60.0000022888184,6|0,0:0|0:0,0:0:0:0:
236,280,137496,1,0,0:0:0:0:
240,188,137668,2,0,P|200:188|148:248,1,120.000004577637,2|0,0:0|0:0,0:0:0:0:
236,280,138182,1,0,0:0:0:0:
240,188,138525,6,0,P|272:188|296:200,1,60.0000022888184,6|0,0:0|0:0,0:0:0:0:
368,252,138868,1,0,0:0:0:0:
464,276,139039,2,0,P|448:316|376:348,1,120.000004577637,2|0,0:0|0:0,0:0:0:0:
368,252,139553,5,0,0:0:0:0:
280,352,139896,2,0,P|208:348|132:208,1,240.000009155274
280,352,140925,1,0,0:0:0:0:
208,128,141268,2,0,P|244:88|316:196,1,240.000009155274
208,128,142296,1,0,0:0:0:0:
236,276,142639,6,0,B|132:264|72:256|40:160|112:84|208:128|208:128|248:56|340:56|376:124|376:176|248:232|248:300,1,720,2|0,0:0|0:0,0:0:0:0:
248,294,144353,5,2,0:0:0:0:
377,183,144525,1,2,0:0:0:0:
208,242,144696,1,2,0:0:0:0:
326,140,144868,1,2,0:0:0:0:
175,186,145039,1,2,0:0:0:0:
287,94,145210,1,2,0:0:0:0:
76,92,145382,6,0,P|60:148|72:200,1,103.999995239258,4|0,0:0|0:0,0:0:0:0:
200,264,145725,1,0,0:0:0:0:
332,157,145896,1,0,0:0:0:0:
495,190,146068,2,0,P|487:154|431:106,1,103.999995239258
287,94,146410,1,0,0:0:0:0:
138,194,146582,1,0,0:0:0:0:
302,175,146753,2,0,B|258:186|215:131|215:131|195:190|119:198,1,207.999990478516,2|0,0:0|0:0,0:0:0:0:
73,145,147268,5,0,0:0:0:0:
65,157,147439,1,0,0:0:0:0:
61,169,147610,1,0,0:0:0:0:
57,181,147782,2,0,P|57:241|85:277,1,103.999995239258
317,285,148125,2,0,B|427:238|337:169|484:127,1,207.999990478516,6|0,0:0|0:0,0:0:0:0:
356,24,148639,5,2,0:2:0:0:
260,188,148810,1,2,0:2:0:0:
196,40,148982,1,2,0:2:0:0:
368,136,149153,1,2,0:2:0:0:
156,196,149325,1,2,0:2:0:0:
316,280,149496,2,0,B|268:308|216:280|216:280|200:344|148:360,1,207.999990478516,2|0,0:0|0:0,0:0:0:0:
140,284,150010,5,2,0:2:0:0:
272,168,150182,1,2,0:2:0:0:
272,336,150353,1,2,0:2:0:0:
356,92,150525,1,2,0:2:0:0:
356,280,150696,1,2,0:2:0:0:
244,240,150868,2,0,B|224:292|156:308,1,103.999995239258,6|0,0:2|0:2,0:2:0:0:
160,120,151210,6,0,P|148:180|168:224,1,103.999995239258,2|0,0:2|0:2,0:2:0:0:
284,300,151553,1,2,0:2:0:0:
384,164,151725,1,2,0:2:0:0:
436,288,151896,1,2,0:2:0:0:
280,204,152068,1,2,0:2:0:0:
419,95,152239,2,0,B|366:78|319:110|319:110|281:76|223:87,1,207.999990478516,6|0,0:2|0:2,0:2:0:0:
224,252,152753,5,0,0:2:0:0:
384,168,152925,1,0,0:2:0:0:
222,87,153096,1,0,0:2:0:0:
312,264,153268,1,0,0:2:0:0:
344,80,153439,1,0,0:2:0:0:
192,168,153610,1,4,0:2:0:0:
192,168,153953,5,0,0:2:0:0:
192,168,154296,5,2,0:0:0:0:
18,152,154468,1,2,0:0:0:0:
123,253,154639,1,2,0:0:0:0:
100,92,154810,1,2,0:0:0:0:
192,168,154982,2,0,P|204:300|112:344,1,207.999990478516
424,240,155496,5,2,0:2:0:0:
296,272,155668,1,2,0:2:0:0:
448,168,155839,1,2,0:2:0:0:
292,200,156010,1,2,0:2:0:0:
480,104,156182,1,2,0:2:0:0:
192,168,156353,2,0,P|188:128|228:76,1,103.999995239258,4|0,0:2|0:2,0:2:0:0:
342,109,156696,5,8,0:2:0:0:
84,72,157039,1,8,0:2:0:0:
340,192,157382,1,8,0:2:0:0:
84,164,157725,1,8,0:2:0:0:
336,288,158068,1,8,0:2:0:0:
84,252,158410,2,0,L|164:308,1,80,8|0,0:2|0:2,0:2:0:0:
336,288,158753,2,0,L|424:232,1,80,8|0,0:2|0:2,0:2:0:0:
340,56,159096,5,8,0:2:0:0:
216,352,159439,1,8,0:2:0:0:
80,60,159782,1,8,0:2:0:0:
368,200,160125,1,8,0:2:0:0:
52,260,160468,1,8,0:2:0:0:
256,128,160810,1,0,0:2:0:0:
64,336,160982,5,8,0:2:0:0:
216,256,161153,2,0,P|184:300|128:308,1,80,8|0,0:2|0:2,0:2:0:0:
350,308,161496,2,0,P|315:290|296:256,1,80,8|0,0:2|0:2,0:2:0:0:
76,148,161839,5,8,3:2:0:0:
272,100,162010,1,8,3:2:0:0:
80,40,162182,1,8,3:2:0:0:
168,244,162353,1,8,3:2:0:0:
344,76,162525,1,8,3:2:0:0:
148,56,162696,1,8,3:2:0:0:
288,168,162868,1,8,3:2:0:0:
100,244,163039,1,8,3:2:0:0:
224,56,163210,1,8,3:2:0:0:
276,248,163382,1,8,3:2:0:0:
52,176,163553,5,8,3:2:0:0:
284,112,163725,1,8,3:2:0:0:
128,296,163896,1,8,3:2:0:0:
148,80,164068,1,8,3:2:0:0:
276,248,164239,1,8,3:2:0:0:
52,176,164410,1,8,3:2:0:0:
148,80,164582,5,8,3:2:0:0:
168,72,164668,1,0,3:2:0:0:
188,72,164753,1,0,3:2:0:0:
208,76,164839,1,0,3:2:0:0:
224,84,164925,1,8,3:2:0:0:
240,96,165010,1,0,3:2:0:0:
252,112,165096,1,0,3:2:0:0:
260,128,165182,1,0,3:2:0:0:
268,148,165268,5,8,3:2:0:0:
272,176,165353,1,0,3:2:0:0:
268,204,165439,1,8,3:2:0:0:
256,228,165525,1,0,3:2:0:0:
240,248,165610,1,8,3:2:0:0:
216,264,165696,1,0,3:2:0:0:
188,272,165782,1,8,3:2:0:0:
160,272,165868,1,0,3:2:0:0:
136,260,165953,1,4,3:2:0:0:
72,156,166468,5,0,0:0:0:0:
212,192,166639,1,0,0:0:0:0:
76,228,166810,1,0,0:0:0:0:
216,264,166982,1,0,0:0:0:0:
80,296,167153,1,0,0:0:0:0:
212,344,167325,6,0,L|328:288,1,120.000004577637,4|0,2:0|2:0,2:0:0:0:
264,160,167668,2,0,L|155:212,1,120.000004577637,4|0,2:0|2:0,2:0:0:0:
280,68,168010,1,0,3:0:0:0:
336,228,168182,1,0,3:0:0:0:
216,88,168353,1,0,3:0:0:0:
434,131,168525,1,0,3:0:0:0:
136,56,168696,6,0,L|128:216,1,120.000004577637,0|0,3:0|0:0,0:0:0:0:
58,313,169039,2,0,L|66:153,1,120.000004577637,0|0,3:0|0:0,0:0:0:0:
246,239,169382,1,0,3:0:0:0:
58,313,169553,1,0,3:0:0:0:
222,203,169725,1,0,3:0:0:0:
82,339,169896,1,0,3:0:0:0:
232,332,170068,6,0,L|352:280,1,120.000004577637,0|0,3:0|0:0,0:0:0:0:
416,128,170410,2,0,L|280:188,1,120.000004577637,0|0,3:0|0:0,0:0:0:0:
456,264,170753,1,0,3:0:0:0:
252,272,170925,1,0,3:0:0:0:
448,212,171096,1,0,3:0:0:0:
272,312,171268,1,0,3:0:0:0:
184,120,171439,6,0,L|292:200,1,120.000004577637,0|0,3:0|0:0,0:0:0:0:
448,212,171782,2,0,L|364:300,1,120.000004577637,0|0,3:0|0:0,0:0:0:0:
368,136,172125,1,0,3:0:0:0:
216,248,172296,1,0,3:0:0:0:
292,96,172468,1,0,3:0:0:0:
288,272,172639,1,0,3:0:0:0:
368,136,172810,6,0,B|248:184,1,120.000004577637,4|0,2:0|0:0,0:0:0:0:
106,198,173153,2,0,L|216:248,1,120.000004577637,0|0,3:0|0:0,0:0:0:0:
203,90,173496,1,0,3:0:0:0:
52,240,173668,1,0,3:0:0:0:
316,203,173839,1,0,3:0:0:0:
56,128,174010,1,0,3:0:0:0:
216,248,174182,2,0,P|264:248|320:196,1,120.000004577637,4|0,2:0|0:0,0:0:0:0:
300,32,174525,2,0,P|263:47|226:118,1,120.000004577637,0|0,3:0|0:0,0:0:0:0:
372,160,174868,5,0,0:0:0:0:
372,160,174953,1,0,0:0:0:0:
372,160,175039,2,0,L|332:220,1,60.0000022888184
216,216,175210,5,0,0:0:0:0:
216,216,175296,1,0,0:0:0:0:
216,216,175382,2,0,L|212:296,2,60.0000022888184
116,76,175725,5,0,0:0:0:0:
216,116,175896,2,0,B|212:104|212:104|228:93|228:93|214:78|214:78|231:64|231:64|220:44|220:44|236:20,1,120.000004577637
44,56,176239,1,0,0:0:0:0:
308,124,176410,1,0,0:0:0:0:
44,56,176582,2,0,B|48:68|48:68|32:79|32:79|46:94|46:94|29:108|29:108|40:128|40:128|24:152,1,120.000004577637
108,176,176925,6,0,L|96:212,6,30.0000011444092,4|0|0|0|0|0|0,3:0|0:0|0:0|0:0|0:0|0:0|0:0,0:0:0:0:
172,264,177268,6,0,L|164:220,6,30.0000011444092,4|0|0|0|0|0|0,3:0|0:0|0:0|0:0|0:0|0:0|0:0,0:0:0:0:
252,192,177610,6,0,L|240:228,6,30.0000011444092,4|0|0|0|0|0|0,3:0|0:0|0:0|0:0|0:0|0:0|0:0,0:0:0:0:
320,276,177953,6,0,L|312:232,6,30.0000011444092,4|0|0|0|0|0|0,3:0|0:0|0:0|0:0|0:0|0:0|0:0,0:0:0:0:
240,336,178296,5,12,3:0:0:0:
400,200,178468,1,0,0:0:0:0:
254,107,178639,2,0,L|196:224,1,120.000004577637,8|0,3:0|0:0,0:0:0:0:
460,96,178982,2,0,L|396:208,1,120.000004577637,8|0,3:0|0:0,0:0:0:0:
224,360,179325,2,0,L|284:256,1,120.000004577637,8|0,3:0|0:0,0:0:0:0:
32,212,179668,5,8,0:0:0:0:
152,360,179839,1,8,0:0:0:0:
176,168,180010,5,8,0:0:0:0:
60,320,180182,1,8,0:0:0:0:
88,132,180353,5,8,0:0:0:0:
184,300,180525,1,8,0:0:0:0:
224,108,180696,1,8,0:0:0:0:
320,304,180868,5,0,0:0:0:0:
268,204,181039,2,0,P|236:232|152:208,1,120.000004577637,8|0,3:0|0:0,0:0:0:0:
64,232,181382,1,8,3:0:0:0:
28,104,181553,2,0,P|48:56|116:32,1,120.000004577637,8|8,0:0|3:0,0:0:0:0:
92,252,181896,1,8,3:0:0:0:
55,51,182067,2,0,P|103:31|168:62,1,120.000004577637,8|8,0:0|3:0,0:0:0:0:
280,184,182410,5,8,0:0:0:0:
368,12,182582,1,8,0:0:0:0:
200,132,182753,5,8,0:0:0:0:
388,92,182925,1,8,0:0:0:0:
233,34,183096,5,8,0:0:0:0:
373,166,183268,1,8,0:0:0:0:
200,132,183439,6,0,L|244:252,1,120.000004577637,8|0,3:0|0:0,0:0:0:0:
140,350,183782,1,8,0:0:0:0:
100,200,183953,1,8,0:0:0:0:
308,304,184125,2,0,L|269:191,1,120.000004577637,8|0,3:0|0:0,0:0:0:0:
396,56,184468,1,8,3:0:0:0:
316,72,184639,1,8,3:0:0:0:
372,128,184810,1,8,3:0:0:0:
308,304,184982,5,8,3:0:0:0:
268,190,185153,2,0,P|224:238|232:298,1,120.000004577637,0|8,0:0|0:0,0:0:0:0:
396,272,185496,1,8,3:0:0:0:
372,128,185668,5,8,3:0:0:0:
308,304,185839,1,8,3:0:0:0:
268,190,186010,1,8,3:0:0:0:
222,308,186182,2,0,P|190:324|112:288,1,120.000004577637,8|0,3:0|0:0,0:0:0:0:
48,168,186525,6,0,L|48:296,1,120.000004577637,4|0,0:0|0:0,0:0:0:0:
160,116,186868,2,0,L|160:256,1,120.000004577637,4|0,0:0|0:0,0:0:0:0:
296,132,187210,2,0,L|296:264,1,120.000004577637,4|0,0:0|0:0,0:0:0:0:
469,152,187553,2,0,L|467:258,1,60.0000022888184,4|0,0:0|0:0,0:0:0:0:
171,36,187896,6,0,B|179:52|179:52|167:68|167:68|183:84|183:84|167:100|167:100|183:116|183:116|167:128|167:128|183:144|183:144|167:156|167:156|183:172|183:172|167:184|167:184|183:196|183:196|167:208|167:208|183:220|183:220|167:236|167:236|183:248|183:248|167:264|167:264|183:280|183:280|167:292|167:292|185:300|185:300|169:320|169:320|188:328|188:328|161:364,1,480
303,199,189268,5,0,0:2:0:0:
171,36,189610,1,0,0:2:0:0:
332,48,189953,2,0,P|376:60|424:128,1,120.000004577637,2|0,0:2|0:2,0:2:0:0:
312,152,190468,1,0,0:2:0:0:
436,276,190639,2,0,P|392:292|360:288,1,60.0000022888184,2|0,0:2|0:2,0:2:0:0:
365,176,190982,2,0,P|333:156|301:152,1,60.0000022888184,2|0,0:2|0:2,0:2:0:0:
156,192,191325,6,0,P|168:228|188:248,1,60.0000022888184,2|0,0:2|0:2,0:2:0:0:
140,56,191668,2,0,P|120:88|124:116,1,60.0000022888184,2|0,0:2|0:2,0:2:0:0:
208,96,192010,2,0,P|227:72|255:219,1,360.000013732911,0|0,0:2|0:2,0:2:0:0:
208,96,193382,2,0,P|276:44|368:72,1,180.000006866455,0|0,0:2|0:2,0:2:0:0:
488,200,194068,5,0,0:2:0:0:
180,200,194410,1,0,0:2:0:0:
432,280,194753,5,0,0:2:0:0:
256,168,194925,1,0,0:2:0:0:
312,256,195096,1,0,0:2:0:0:
232,88,195439,6,0,B|180:72|184:128|116:96,1,120.000004577637,2|0,0:2|0:2,0:2:0:0:
56,48,195953,1,0,0:2:0:0:
52,164,196125,2,0,P|76:188|124:192,1,60.0000022888184,2|0,0:2|0:2,0:2:0:0:
88,324,196468,2,0,P|120:340|160:336,1,60.0000022888184,2|0,0:2|0:2,0:2:0:0:
208,260,196810,6,0,P|236:244|280:244,1,60.0000022888184,2|0,0:2|0:2,0:2:0:0:
328,348,197153,2,0,P|372:336|392:308,1,60.0000022888184,2|0,0:2|0:2,0:2:0:0:
416,208,197496,2,0,P|456:184|296:124,1,420.000016021729,0|0,0:2|0:2,0:2:0:0:
416,208,198868,2,0,P|432:140|400:92,1,120.000004577637,0|0,2:2|2:2,2:2:0:0:
124,100,199553,5,0,0:2:0:0:
358,251,199896,1,0,0:2:0:0:
20,208,200239,5,4,3:2:0:0:
376,168,200582,1,8,3:2:0:0:
72,332,200925,1,4,3:2:0:0:
200,52,201268,1,8,3:2:0:0:
324,332,201610,1,4,3:2:0:0:
96,112,201953,1,8,3:2:0:0:
404,240,202296,1,4,3:2:0:0:
232,20,202639,1,8,3:2:0:0:
296,168,202810,5,0,3:2:0:0:
296,168,202896,1,0,3:2:0:0:
296,168,202982,1,0,3:2:0:0:
80,64,203325,5,4,3:2:0:0:
160,312,203668,1,8,3:2:0:0:
292,84,204010,1,4,3:2:0:0:
372,336,204353,1,8,3:2:0:0:
152,192,204696,1,4,3:2:0:0:
380,64,205039,1,8,3:2:0:0:
252,88,205210,5,8,3:2:0:0:
292,216,205382,1,8,3:2:0:0:
184,288,205553,1,8,3:2:0:0:
152,284,205639,1,8,3:2:0:0:
128,268,205725,1,8,3:2:0:0:
56,184,205896,1,8,3:2:0:0:
188,116,206068,1,4,3:2:0:0:
392,224,206239,5,8,3:2:0:0:
184,288,206410,1,4,3:2:0:0:
364,152,206582,1,8,3:2:0:0:
248,344,206753,1,8,3:2:0:0:
392,224,206925,1,8,3:2:0:0:
200,144,207096,1,4,3:2:0:0:
444,172,207268,1,8,3:2:0:0:
184,228,207439,1,8,3:2:0:0:
380,76,207610,5,8,3:2:0:0:
304,248,207782,1,4,3:2:0:0:
416,84,207953,1,8,3:2:0:0:
256,256,208125,1,8,3:2:0:0:
444,96,208296,1,8,3:2:0:0:
288,52,208468,5,2,2:2:0:0:
261,53,208553,1,0,2:2:0:0:
236,59,208639,1,2,2:2:0:0:
211,68,208725,1,0,2:2:0:0:
188,81,208810,1,2,2:2:0:0:
168,97,208896,1,0,2:2:0:0:
151,117,208982,1,2,2:2:0:0:
137,139,209068,1,0,2:2:0:0:
126,163,209153,5,2,2:2:0:0:
119,188,209239,1,0,2:2:0:0:
114,214,209325,1,2,2:2:0:0:
113,240,209410,1,0,2:2:0:0:
116,266,209496,1,2,2:2:0:0:
123,292,209582,1,0,2:2:0:0:
135,315,209668,1,2,2:2:0:0:
304,300,209839,6,0,B|356:264|356:264|288:236|288:236|356:180|356:180|284:140|208:144|208:144,1,374.000007133484,0|0,0:2|0:2,0:2:0:0:
195,126,210868,6,0,P|253:80|404:84,1,215.999993408203,0|0,2:2|2:2,2:2:0:0:
390,77,211210,1,4,0:2:0:0:
168,248,211725,5,2,0:2:0:0:
128,196,211896,1,2,0:2:0:0:
136,292,212068,1,2,0:2:0:0:
168,152,212239,1,2,0:2:0:0:
88,308,212410,1,2,0:2:0:0:
216,144,212582,1,2,0:2:0:0:
48,288,212753,2,0,P|36:236|60:172,1,95.9999970703126,2|0,0:2|0:2,0:2:0:0:
160,312,213096,6,0,B|280:356|240:268|364:312,1,191.999994140625,2|0,0:2|0:2,0:2:0:0:
348,132,213610,1,2,0:2:0:0:
216,252,213782,1,2,0:2:0:0:
92,148,213953,2,0,P|116:100|176:76,1,95.9999970703126,2|0,0:2|0:2,0:2:0:0:
216,252,214296,1,0,0:2:0:0:
252,76,214468,6,0,B|308:116|348:96|348:96|352:140|408:168,1,191.999994140625,2|0,0:2|0:2,0:2:0:0:
316,28,214982,1,2,0:2:0:0:
399,163,215153,1,2,0:2:0:0:
216,252,215325,2,0,P|314:270|356:364,1,191.999994140625,0|0,0:2|0:2,0:2:0:0:
64,180,215839,5,0,0:2:0:0:
224,200,216010,1,0,0:2:0:0:
124,324,216182,1,2,0:2:0:0:
292,336,216353,1,2,0:2:0:0:
156,232,216525,1,2,0:2:0:0:
328,264,216696,2,0,P|388:212|336:124,1,191.999994140625,2|0,0:2|0:2,0:2:0:0:
248,108,217210,5,2,0:2:0:0:
156,232,217382,1,2,0:2:0:0:
116,124,217553,1,2,0:2:0:0:
256,228,217725,1,2,0:2:0:0:
180,68,217896,1,2,0:2:0:0:
72,212,218068,1,2,0:2:0:0:
280,328,218239,2,0,P|328:328|368:280,1,95.9999970703126,2|0,0:2|0:2,0:2:0:0:
408,184,218582,6,0,P|388:136|340:108,1,95.9999970703126,2|0,0:2|0:2,0:2:0:0:
220,176,218925,1,0,0:2:0:0:
360,296,219096,1,2,0:2:0:0:
280,132,219268,1,0,0:2:0:0:
192,292,219439,1,2,0:2:0:0:
192,292,219525,1,0,0:2:0:0:
192,292,219610,1,0,0:2:0:0:
348,196,219782,1,2,0:2:0:0:
124,180,219953,2,0,L|256:228,1,95.9999970703126,2|0,0:2|0:2,0:2:0:0:
336,268,220296,5,2,0:2:0:0:
352,120,220468,1,2,0:2:0:0:
488,220,220639,1,2,0:2:0:0:
336,268,220810,2,0,L|444:236,1,95.9999970703126,0|0,0:2|0:2,0:2:0:0:
264,216,221153,5,8,3:2:0:0:
408,80,221325,1,0,3:2:0:0:
188,212,221496,5,8,3:2:0:0:
248,36,221668,1,0,3:2:0:0:
120,248,221839,5,8,3:2:0:0:
100,52,222010,1,0,3:2:0:0:
21,313,222182,6,0,P|92:364|197:313,1,191.999994140625,2|0,0:2|0:2,0:2:0:0:
192,320,222696,5,2,0:2:0:0:
248,180,222868,1,2,0:2:0:0:
212,280,223039,1,2,0:2:0:0:
268,136,223210,1,2,0:2:0:0:
232,228,223382,1,2,0:2:0:0:
288,88,223553,1,2,0:2:0:0:
248,180,223725,2,0,L|296:72,1,95.9999970703126,2|0,0:2|0:2,0:2:0:0:
412,124,224068,6,0,P|452:156|452:216,1,95.9999970703126,2|0,0:2|0:2,0:2:0:0:
364,192,224410,1,2,0:2:0:0:
312,320,224582,1,2,0:2:0:0:
248,180,224753,1,2,0:2:0:0:
208,320,224925,1,2,0:2:0:0:
248,180,225096,2,0,P|304:184|336:140,1,95.9999970703126,2|0,0:2|0:2,0:2:0:0:
388,84,225439,6,0,P|432:104|456:160,1,95.9999970703126,2|0,0:2|0:2,0:2:0:0:
432,228,225782,1,2,0:2:0:0:
312,192,225953,1,2,0:2:0:0:
232,260,226125,1,2,0:2:0:0:
328,112,226296,2,0,B|241:95|253:205|146:162,1,191.999994140625,0|0,0:2|0:2,0:2:0:0:
109,106,226810,5,2,0:2:0:0:
316,184,226982,1,2,0:2:0:0:
80,248,227153,1,2,0:2:0:0:
232,260,227325,1,2,0:2:0:0:
109,106,227496,1,2,0:2:0:0:
272,66,227668,2,0,P|181:47|109:106,1,191.999994140625,0|0,0:2|0:2,0:2:0:0:
165,271,228182,5,2,0:2:0:0:
308,356,228353,1,2,0:2:0:0:
400,192,228525,1,2,0:2:0:0:
216,196,228696,1,2,0:2:0:0:
368,304,228868,1,2,0:2:0:0:
192,348,229039,1,2,0:2:0:0:
400,192,229210,2,0,P|448:220|468:272,1,95.9999970703126,2|0,0:2|0:2,0:2:0:0:
216,196,229553,6,0,P|168:224|148:276,1,95.9999970703126,2|0,0:2|0:2,0:2:0:0:
280,272,229896,1,2,0:2:0:0:
372,356,230068,1,2,0:2:0:0:
328,176,230239,1,2,0:2:0:0:
278,344,230410,1,0,0:2:0:0:
368,112,230582,2,0,P|328:104|260:136,1,95.9999970703126,2|0,0:2|0:2,0:2:0:0:
80,224,230925,6,0,P|68:260|96:320,1,95.9999970703126,2|0,0:2|0:2,0:2:0:0:
164,344,231268,1,0,0:2:0:0:
246,232,231439,1,0,0:2:0:0:
360,280,231610,1,0,0:2:0:0:
452,172,231782,6,0,B|412:140|412:140|360:160,1,90.0000034332277,0|0,0:2|0:2,0:2:0:0:
336,168,232125,6,0,B|304:220|304:220|232:236,1,120,4|0,0:2|0:2,0:2:0:0:
208,236,232468,6,0,B|164:188|164:188|68:176,1,120.000004577637,4|0,0:2|0:2,0:2:0:0:
348,100,233153,6,0,P|400:148|384:232,1,160,4|0,0:0|0:0,0:0:0:0:
220,184,233668,1,0,0:0:0:0:
268,200,233753,1,0,0:0:0:0:
300,228,233839,1,0,0:0:0:0:
144,328,234010,2,0,L|244:308,1,80
372,280,234353,1,0,0:0:0:0:
436,116,234525,2,0,L|368:172,1,80,4|0,0:0|0:0,0:0:0:0:
232,96,235039,5,0,0:0:0:0:
232,96,235125,1,0,0:0:0:0:
232,96,235210,2,0,L|136:132,1,80
24,196,235553,2,0,L|120:232,1,80
232,296,235896,2,0,L|157:324,1,80
340,48,236410,5,0,0:0:0:0:
368,64,236496,1,0,0:0:0:0:
392,80,236582,1,0,0:0:0:0:
488,156,236753,2,0,L|428:220,1,80
344,312,237096,1,0,0:0:0:0:
200,160,237268,2,0,L|260:224,1,80
408,304,237782,5,0,0:0:0:0:
364,312,237868,1,0,0:0:0:0:
320,304,237953,1,0,0:0:0:0:
152,232,238125,2,0,L|72:304,2,80
24,112,238639,1,12,0:0:0:0:
212,140,238810,1,0,0:0:0:0:
28,144,238982,1,8,0:0:0:0:
184,68,239153,5,0,0:0:0:0:
224,68,239239,1,0,0:0:0:0:
264,64,239325,1,8,0:0:0:0:
440,64,239496,2,0,L|488:168,1,80,0|8,0:0|0:0,0:0:0:0:
316,140,239839,1,0,0:0:0:0:
204,232,240010,1,12,0:0:0:0:
252,64,240182,5,0,0:0:0:0:
123,223,240353,1,8,0:0:0:0:
362,223,240525,1,0,0:0:0:0:
340,260,240610,1,0,0:0:0:0:
305,279,240696,1,8,0:0:0:0:
70,166,240868,2,0,L|125:224,1,80,0|8,0:0|0:0,0:0:0:0:
264,212,241210,1,0,0:0:0:0:
318,102,241382,2,0,L|240:28,1,80,8|0,0:0|0:0,0:0:0:0:
132,60,241725,1,8,0:0:0:0:
212,160,241896,5,0,0:0:0:0:
216,184,241982,1,0,0:0:0:0:
220,208,242068,1,8,0:0:0:0:
300,332,242239,2,0,P|266:353|227:351,2,80,0|8|0,0:0|0:0|0:0,0:0:0:0:
408,236,242753,6,0,P|428:208|428:148,1,80
264,125,243096,2,0,P|272:172|304:212,1,80
80,228,243439,2,0,L|48:184,1,40
128,240,243610,2,0,L|144:184,1,40
172,260,243782,1,0,0:0:0:0:
412,112,243953,5,0,0:0:0:0:
412,112,244039,1,0,0:0:0:0:
412,112,244125,2,0,L|384:204,1,80,4|0,0:0|0:0,0:0:0:0:
260,108,244468,2,0,L|272:200,1,80,4|0,0:0|0:0,0:0:0:0:
112,120,244810,1,0,0:0:0:0:
44,264,244982,1,0,0:0:0:0:
56,292,245068,1,0,0:0:0:0:
80,312,245153,1,0,0:0:0:0:
252,344,245325,1,0,0:0:0:0:
408,304,245496,6,0,L|476:240,1,80,4|0,0:0|0:0,0:0:0:0:
280,132,245839,2,0,L|204:196,1,80,4|0,0:0|0:0,0:0:0:0:
468,124,246182,1,0,0:0:0:0:
292,56,246353,1,0,0:0:0:0:
248,56,246439,1,0,0:0:0:0:
212,88,246525,1,0,0:0:0:0:
136,184,246696,1,0,0:0:0:0:
180,292,246868,6,0,L|280:320,1,80,4|0,0:0|0:0,0:0:0:0:
416,208,247210,2,0,L|318:240,1,80,4|0,0:0|0:0,0:0:0:0:
168,148,247553,2,0,L|266:180,1,80,4|0,0:0|0:0,0:0:0:0:
244,172,247810,1,0,0:0:0:0:
244,172,247896,1,0,0:0:0:0:
484,140,248068,1,0,0:0:0:0:
392,136,248239,2,0,L|392:232,1,80,4|0,0:0|0:0,0:0:0:0:
308,220,248582,2,0,L|312:304,1,80,4|0,0:0|0:0,0:0:0:0:
208,336,248925,5,0,0:0:0:0:
220,168,249096,1,0,0:0:0:0:
244,142,249181,1,0,0:0:0:0:
275,126,249267,1,0,0:0:0:0:
309,121,249353,1,0,0:0:0:0:
343,128,249438,1,0,0:0:0:0:
484,140,249610,6,0,L|463:230,1,80,6|0,0:0|0:0,0:0:0:0:
308,220,249953,2,0,L|260:300,1,80,14|0,0:0|0:0,0:0:0:0:
72,296,250296,1,0,0:0:0:0:
180,172,250468,1,0,0:0:0:0:
180,172,250553,1,0,0:0:0:0:
180,172,250639,2,0,P|232:168|260:128,1,80,2|0,0:0|0:0,0:0:0:0:
306,27,250982,6,0,L|208:58,1,80
343,128,251325,2,0,L|424:162,1,80
308,220,251668,1,0,0:0:0:0:
378,30,251839,1,0,0:0:0:0:
373,41,251925,1,0,0:0:0:0:
369,52,252010,2,0,L|336:148,1,80
190,190,252353,6,0,L|250:138,1,80,4|0,0:0|0:0,0:0:0:0:
120,52,252696,2,0,L|28:124,1,80,4|0,0:0|0:0,0:0:0:0:
72,252,253039,2,0,L|128:316,1,80,4|0,0:0|0:0,0:0:0:0:
124,312,253296,1,0,0:0:0:0:
124,312,253382,1,0,0:0:0:0:
176,184,253553,1,0,0:0:0:0:
320,100,253725,2,0,L|376:168,1,80,4|0,0:0|0:0,0:0:0:0:
400,328,254068,2,0,L|332:248,1,80,4|0,0:0|0:0,0:0:0:0:
200,288,254410,5,0,0:0:0:0:
28,312,254582,1,0,0:0:0:0:
108,156,254753,1,0,0:0:0:0:
272,96,254925,1,0,0:0:0:0:
264,96,255010,1,0,0:0:0:0:
256,96,255096,2,0,L|360:92,1,80,4|0,0:0|0:0,0:0:0:0:
264,216,255439,2,0,L|162:219,1,80,4|0,0:0|0:0,0:0:0:0:
356,176,255782,5,0,0:0:0:0:
484,296,255953,1,0,0:0:0:0:
448,332,256039,1,0,0:0:0:0:
400,352,256125,1,0,0:0:0:0:
208,332,256296,1,0,0:0:0:0:
84,216,256468,2,0,L|128:140,1,80,4|0,0:0|0:0,0:0:0:0:
216,192,256810,2,0,L|264:112,1,80,4|0,0:0|0:0,0:0:0:0:
296,236,257153,5,0,0:0:0:0:
376,80,257325,1,0,0:0:0:0:
428,104,257410,1,0,0:0:0:0:
456,152,257496,1,0,0:0:0:0:
432,324,257668,1,0,0:0:0:0:
240,340,257839,6,0,L|156:312,1,80,4|0,0:0|0:0,0:0:0:0:
0,272,258182,2,0,L|84:244,1,80,4|0,0:0|0:0,0:0:0:0:
256,176,258525,2,0,L|172:148,1,80,4|0,0:0|0:0,0:0:0:0:
180,150,258782,1,0,0:0:0:0:
180,150,258868,1,0,0:0:0:0:
264,296,259039,1,0,0:0:0:0:
412,264,259210,2,0,L|408:164,1,80,4|0,0:0|0:0,0:0:0:0:
304,72,259553,2,0,L|300:188,1,80,4|0,0:0|0:0,0:0:0:0:
152,248,259896,1,0,0:0:0:0:
140,132,260068,5,0,0:0:0:0:
132,168,260153,1,0,0:0:0:0:
136,208,260239,1,0,0:0:0:0:
152,248,260325,1,0,0:0:0:0:
184,280,260410,1,0,0:0:0:0:
276,132,260582,2,0,L|260:212,1,80,4|0,0:0|0:0,0:0:0:0:
478,197,260925,2,0,L|496:120,1,80,4|0,0:0|0:0,0:0:0:0:
316,312,261268,5,0,0:0:0:0:
180,140,261439,1,0,0:0:0:0:
180,140,261525,1,0,0:0:0:0:
180,140,261610,2,0,P|149:163|134:205,1,80
108,352,261953,5,0,0:0:0:0:
338,233,262125,1,0,0:0:0:0:
84,283,262296,1,0,0:0:0:0:
306,167,262468,1,0,0:0:0:0:
108,352,262639,1,0,0:0:0:0:
348,241,262810,1,0,0:0:0:0:
348,241,262896,1,0,0:0:0:0:
348,241,262982,1,0,0:0:0:0:
148,276,263153,1,0,0:0:0:0:
294,185,263325,6,0,L|206:249,1,80,4|0,0:0|0:0,0:0:0:0:
352,56,263668,1,4,0:0:0:0:
129,105,263839,2,0,L|196:60,1,80,4|0,0:0|0:0,0:0:0:0:
68,224,264182,1,0,0:0:0:0:
100,260,264268,1,0,0:0:0:0:
148,276,264353,1,0,0:0:0:0:
216,144,264525,1,0,0:0:0:0:
188,272,264696,1,2,0:0:0:0:
324,124,264868,1,0,0:0:0:0:
428,288,265039,5,2,0:0:0:0:
80,328,265382,1,2,0:0:0:0:
296,52,265725,1,2,0:0:0:0:
404,152,266068,6,0,P|384:220|352:240,1,80,4|0,0:1|0:0,0:0:0:0:
196,280,266410,6,0,P|192:204|212:176,1,88.000002685547
356,72,266753,6,0,P|436:64|468:92,1,95.9999970703126
360,216,267096,6,0,P|272:212|248:176,1,103.999995239258
64,192,267439,6,0,P|28:264|36:300,1,92.0000017547608
180,276,267782,6,0,P|220:336|252:344,1,75.9999979705811
328,236,268125,6,0,P|396:216|404:208,1,68.0000012969971
328,112,268468,6,2,P|295:90|256:88,1,80,6|2,3:2|0:0,0:0:0:0:
304,292,268982,5,0,0:0:0:0:
328,112,269153,1,0,3:0:0:0:
204,240,269325,1,0,3:0:0:0:
181,59,269496,1,0,3:0:0:0:
72,256,269668,2,0,P|112:288|164:296,1,80,0|0,3:0|3:0,0:0:0:0:
136,120,270010,2,0,P|160:72|192:56,1,80,0|0,3:0|3:0,0:0:0:0:
352,92,270353,5,0,3:0:0:0:
252,236,270525,1,0,3:0:0:0:
440,308,270868,1,0,3:0:0:0:
180,56,271210,1,0,3:0:0:0:
68,272,271553,6,0,P|96:304|132:316,1,80
160,188,271896,6,0,P|204:168|256:176,1,88.000002685547
232,316,272239,6,0,P|292:312|332:276,1,95.9999970703126
380,168,272582,6,0,P|364:120|304:88,1,103.999995239258
128,136,272925,6,0,P|156:180|224:200,1,111.999996582031
404,96,273268,6,0,P|372:46|315:32,1,120.000004577637
84,152,273610,6,0,P|121:207|185:225,1,136.000002593994
432,272,273953,6,0,P|411:202|354:157,1,147.999999435425
144,80,274296,6,0,B|208:32|229:122|304:56,1,160
204,252,274639,5,0,3:0:0:0:
16,208,274810,1,0,3:0:0:0:
184,144,274982,1,0,3:0:0:0:
80,292,275153,1,0,3:0:0:0:
76,112,275325,1,0,3:0:0:0:
204,252,275496,2,0,P|268:264|312:204,1,120.000004577637
340,68,275839,5,0,3:0:0:0:
436,312,276010,1,0,3:0:0:0:
244,192,276353,1,0,3:0:0:0:
76,92,276696,1,0,3:0:0:0:
436,88,277039,6,0,P|436:164|408:224,1,120.000004577637
248,120,277382,6,0,P|220:200|236:260,1,128
424,288,277725,6,0,P|360:344|308:352,1,136.000002593994
200,352,278068,6,0,P|135:335|84:276,1,143.999995605469
216,160,278410,6,0,P|288:184|372:176,1,136.000002593994
171,263,278753,6,0,P|123:187|123:119,1,143.999995605469
248,40,279096,6,0,P|320:48|368:128,1,151.999995941162
456,200,279439,6,0,B|368:188|392:252|288:216,1,160
68,217,279782,6,0,P|112:257|200:249,1,120.000004577637
304,140,280125,5,0,3:0:0:0:
232,324,280296,1,0,3:0:0:0:
188,132,280468,1,0,3:0:0:0:
320,256,280639,1,0,3:0:0:0:
148,244,280810,1,0,3:0:0:0:
144,56,280982,2,0,P|192:48|248:64,1,80,2|0,0:0|3:0,0:0:0:0:
244,188,281325,1,0,0:0:0:0:
448,252,281496,6,0,P|400:304|368:304,1,80,0|0,3:0|0:0,0:0:0:0:
244,188,281839,2,0,P|212:152|172:140,1,80,0|0,3:0|0:0,0:0:0:0:
152,224,282182,2,0,P|112:256|96:292,1,80,0|0,3:0|0:0,0:0:0:0:
236,316,282525,6,0,P|284:352|360:336,1,136.000002593994
448,168,282868,2,0,P|404:112|320:116,1,136.000002593994
164,208,283210,2,0,P|160:276|212:340,1,136.000002593994
452,316,283553,2,0,P|476:248|448:184,1,136.000002593994
256,120,283896,6,0,L|292:276,1,151.999995941162
148,172,284239,2,0,L|160:324,1,151.999995941162
32,220,284582,2,0,L|24:376,1,151.999995941162
256,120,284925,6,0,B|284:240|284:240|228:180|160:228|160:228|192:276|144:348,1,360.000013732911
84,316,285610,5,0,0:0:0:0:
232,340,285782,1,0,0:0:0:0:
332,256,285953,1,0,0:0:0:0:
140,188,286125,2,0,P|176:152|208:136,1,60.0000022888184,0|0,0:0|0:0,2:0:0:0:
396,88,286468,1,0,0:0:0:0:
56,84,286810,5,0,0:0:0:0:
208,80,286982,1,0,0:0:0:0:
280,212,287325,2,0,B|232:184|184:244,1,90.0000034332277
172,280,287668,6,0,B|160:320|96:324,1,80
36,192,288010,5,4,0:0:0:0:
160,112,288182,1,0,0:0:0:0:
276,188,288353,1,0,0:0:0:0:
384,100,288525,1,0,0:0:0:0:
316,272,288696,1,0,0:0:0:0:
184,216,288868,6,0,L|216:264,1,40
104,308,289210,2,0,L|112:364,1,40
245,355,289553,2,0,L|228:320,1,40
312,256,289896,2,0,L|356:296,1,40
416,183,290239,2,0,L|380:168,1,40
416,64,290582,2,0,L|472:60,1,40
200,100,290925,6,0,L|128:120,1,60.0000022888184
208,192,291268,2,0,L|272:172,1,60.0000022888184
344,256,291610,2,0,L|286:272,1,60.0000022888184
352,348,291953,2,0,L|409:330,1,60.0000022888184
188,192,292296,6,0,L|132:320,1,120.000004577637
168,116,292639,2,0,L|44:200,1,120.000004577637
208,52,292982,2,0,L|60:16,1,120.000004577637
300,112,293325,1,0,0:0:0:0:
396,100,293496,6,0,P|424:120|436:156,1,60.0000022888184,4|0,0:2|0:2,0:2:0:0:
344,168,293839,2,0,P|344:208|320:244,1,60.0000022888184,0|0,0:2|0:2,0:2:0:0:
256,188,294182,2,0,P|224:212|188:212,1,60.0000022888184,0|0,0:2|0:2,0:2:0:0:
204,304,294525,2,0,P|156:300|124:280,1,60.0000022888184,0|0,0:2|0:2,0:2:0:0:
16,224,294868,6,0,L|60:168,1,60.0000022888184,2|0,0:2|0:2,0:2:0:0:
164,72,295210,1,2,0:2:0:0:
176,64,295296,1,2,0:2:0:0:
192,56,295382,2,0,P|248:44|312:84,1,120.000004577637,2|0,0:2|0:2,0:2:0:0:
408,60,295896,1,0,0:2:0:0:
472,196,296068,1,0,0:2:0:0:
312,168,296239,2,0,P|280:176|244:204,1,60.0000022888184,2|0,0:2|0:2,0:2:0:0:
136,144,296582,1,0,0:2:0:0:
64,232,296753,2,0,P|116:268|172:272,1,120.000004577637,2|0,0:2|0:2,0:2:0:0:
216,184,297268,6,0,P|256:184|288:172,1,60.0000022888184,2|0,0:2|0:2,0:2:0:0:
376,80,297610,2,0,P|408:88|436:124,1,60.0000022888184,6|0,0:2|0:2,0:2:0:0:
412,232,297953,1,0,0:2:0:0:
316,336,298125,2,0,P|252:348|196:316,1,120.000004577637,6|0,0:2|0:2,0:2:0:0:
128,172,298639,1,0,0:2:0:0:
124,268,298810,1,0,0:2:0:0:
368,76,298982,6,0,L|296:140,1,90.0000034332277,2|0,0:2|0:2,0:2:0:0:
308,144,299325,2,0,L|388:192,1,90.0000034332277,2|0,0:2|0:2,0:2:0:0:
380,200,299668,2,0,L|312:240,1,60.0000022888184,2|0,0:2|0:2,0:2:0:0:
176,248,300010,2,0,P|120:244|100:232,1,60.0000022888184,0|0,0:2|0:2,0:2:0:0:
84,84,300353,6,0,L|160:56,1,60.0000022888184,2|0,0:2|0:2,0:2:0:0:
228,32,300696,1,0,0:2:0:0:
304,72,300868,2,0,P|260:112|196:112,1,120.000004577637,2|0,0:2|0:2,0:2:0:0:
260,212,301382,1,0,0:2:0:0:
260,212,301468,1,0,0:2:0:0:
260,212,301553,1,0,0:2:0:0:
384,116,301725,2,0,P|412:132|432:168,1,60.0000022888184,2|0,0:2|0:2,0:2:0:0:
392,264,302068,1,2,0:2:0:0:
280,320,302239,2,0,P|216:328|160:304,1,120.000004577637,2|0,0:2|0:2,0:2:0:0:
200,140,302753,6,0,P|232:172|240:208,1,60.0000022888184,0|0,0:2|0:2,0:2:0:0:
76,168,303096,2,0,P|68:132|84:88,1,60.0000022888184,2|0,2:2|2:2,2:2:0:0:
224,48,303439,1,2,2:2:0:0:
237,185,303610,2,0,P|293:209|325:269,1,120.000004577637,2|0,2:2|2:2,2:2:0:0:
216,292,304125,1,2,2:2:0:0:
224,48,304296,1,2,2:2:0:0:
320,60,304468,6,0,P|360:88|380:116,1,60.0000022888184,10|0,0:2|0:0,0:0:0:0:
428,216,304810,1,8,0:2:0:0:
284,144,304982,1,0,0:0:0:0:
312,288,305153,1,8,0:2:0:0:
184,240,305325,1,0,0:0:0:0:
284,144,305496,1,8,0:2:0:0:
428,216,305668,1,0,0:0:0:0:
472,56,305839,6,0,B|412:36|412:36|348:64,1,120.000004577637,10|8,0:2|0:2,0:0:0:0:
412,120,306353,1,0,0:0:0:0:
256,132,306525,1,8,0:2:0:0:
352,240,306696,1,0,0:0:0:0:
176,156,306868,1,8,0:2:0:0:
344,160,307039,1,0,0:0:0:0:
171,237,307210,6,0,B|211:281|211:281|283:289,1,120.000004577637,10|8,0:2|0:2,0:0:0:0:
272,288,307725,1,0,0:0:0:0:
228,144,307896,1,8,0:2:0:0:
360,232,308068,1,0,0:0:0:0:
408,80,308239,1,8,0:2:0:0:
296,180,308410,1,0,0:0:0:0:
472,200,308582,6,0,P|476:152|464:124,1,60.0000022888184,10|0,0:2|0:0,0:0:0:0:
472,141,308839,1,0,0:0:0:0:
472,141,308925,1,8,0:2:0:0:
328,64,309096,1,0,0:0:0:0:
192,156,309268,2,0,P|224:184|264:192,1,60.0000022888184,10|0,0:2|0:0,0:0:0:0:
400,216,309610,2,0,P|368:265|311:280,1,120.000004577637,8|8,0:2|0:2,0:0:0:0:
212,68,310125,5,8,3:0:0:0:
128,260,310296,1,8,3:0:0:0:
384,127,310468,1,8,3:0:0:0:
144,160,310639,1,8,3:0:0:0:
376,204,310810,1,8,3:0:0:0:
216,136,310982,1,8,3:0:0:0:
444,208,311153,1,8,3:0:0:0:
280,20,311325,6,0,P|272:60|288:104,1,80
376,204,311668,1,8,3:0:0:0:
176,96,311839,1,8,3:0:0:0:
272,312,312010,1,8,3:0:0:0:
364,92,312182,1,8,3:0:0:0:
152,156,312353,1,8,3:0:0:0:
336,288,312525,1,8,3:0:0:0:
216,56,312696,5,8,3:0:0:0:
220,64,312782,1,0,2:0:0:0:
224,72,312868,1,0,2:0:0:0:
228,80,312953,1,0,2:0:0:0:
232,88,313039,1,8,3:0:0:0:
236,96,313125,1,0,2:0:0:0:
236,104,313210,1,0,2:0:0:0:
236,112,313296,1,0,2:0:0:0:
236,120,313382,1,8,3:0:0:0:
232,128,313468,1,0,2:0:0:0:
228,136,313553,1,0,2:0:0:0:
220,144,313639,1,0,2:0:0:0:
212,148,313725,1,8,3:0:0:0:
204,152,313810,1,0,2:0:0:0:
196,152,313896,1,0,2:0:0:0:
188,148,313982,1,0,2:0:0:0:
172,140,314068,5,8,3:0:0:0:
156,132,314153,1,0,2:0:0:0:
140,132,314239,1,8,3:0:0:0:
124,140,314325,1,0,2:0:0:0:
112,152,314410,1,8,3:0:0:0:
104,168,314496,1,0,2:0:0:0:
100,184,314582,1,8,3:0:0:0:
104,200,314668,1,0,2:0:0:0:
124,220,314753,5,8,3:0:0:0:
148,232,314839,1,0,2:0:0:0:
176,232,314925,1,0,2:0:0:0:
200,224,315010,1,0,2:0:0:0:
224,212,315096,1,8,3:0:0:0:
252,212,315182,1,0,2:0:0:0:
272,228,315268,1,0,2:0:0:0:
280,252,315353,1,0,2:0:0:0:
276,280,315439,1,0,2:0:0:0:
140,332,315610,5,0,2:0:0:0:
248,348,315782,1,0,2:0:0:0:
176,232,315953,1,0,2:0:0:0:
41,210,316125,6,0,L|89:122,1,80,4|0,0:2|0:2,0:2:0:0:
196,44,316468,2,0,L|248:120,1,80,4|0,0:2|0:2,0:2:0:0:
344,144,316810,6,0,L|236:184,1,95.9999970703126,8|0,0:0|0:0,0:0:0:0:
64,80,317153,2,0,L|164:172,1,95.9999970703126,8|0,3:0|0:0,0:0:0:0:
64,240,317496,2,0,P|64:292|104:344,1,95.9999970703126,8|0,3:0|0:0,0:0:0:0:
204,256,317839,2,0,P|216:288|272:320,1,95.9999970703126,8|0,3:0|0:0,0:0:0:0:
336,192,318182,2,0,P|384:212|440:200,1,95.9999970703126,8|0,3:0|0:0,0:0:0:0:
432,100,318525,1,8,3:0:0:0:
328,52,318696,2,0,P|256:40|192:136,1,191.999994140625,0|0,0:0|3:0,0:0:0:0:
300,176,319210,5,8,0:0:0:0:
244,284,319382,1,0,0:0:0:0:
128,272,319553,2,0,P|164:236|168:180,1,95.9999970703126,8|0,3:0|0:0,0:0:0:0:
152,32,319896,1,8,3:0:0:0:
328,52,320068,2,0,B|388:76|388:128|388:128|432:116|480:156,1,191.999994140625,0|0,0:0|3:0,0:0:0:0:
248,200,320582,5,8,3:0:0:0:
195,328,320925,2,0,P|155:316|127:264,1,95.9999970703126,8|0,3:0|3:0,0:0:0:0:
296,146,321268,1,8,3:0:0:0:
80,200,321439,2,0,P|128:104|228:80,1,191.999994140625,0|0,3:0|3:0,0:0:0:0:
236,92,321868,1,0,0:0:0:0:
264,112,321953,2,0,P|284:128|305:168,2,47.9999985351563,8|0|0,3:0|0:0|3:0,3:0:0:0:
452,256,322296,6,0,L|356:328,1,95.9999970703126,8|0,0:0|0:0,0:0:0:0:
352,232,322639,2,0,L|240:220,1,95.9999970703126,8|0,3:0|0:0,0:0:0:0:
284,300,322982,2,0,L|188:372,1,95.9999970703126,8|0,0:0|0:0,0:0:0:0:
184,276,323325,2,0,L|72:264,1,95.9999970703126,8|0,3:0|0:0,0:0:0:0:
32,192,323668,2,0,P|16:160|40:96,1,95.9999970703126,0|0,3:0|0:0,3:0:0:0:
251,186,324010,1,8,3:0:0:0:
399,91,324182,6,0,B|367:135|303:123|303:123|259:143|247:199,1,191.999994140625,0|0,0:0|3:0,0:0:0:0:
80,136,324696,1,8,3:0:0:0:
176,236,324868,1,0,0:0:0:0:
220,84,325039,2,0,P|264:92|312:144,1,95.9999970703126,8|0,3:0|0:0,0:0:0:0:
404,184,325382,1,8,3:0:0:0:
400,324,325553,2,0,B|336:328|320:280|320:280|280:316|216:272,1,191.999994140625
124,308,326068,1,8,3:0:0:0:
96,68,326410,6,0,L|80:172,1,95.9999970703126,2|0,3:0|0:0,0:0:0:0:
184,80,326753,2,0,L|168:180,1,95.9999970703126,2|0,3:0|0:0,0:0:0:0:
168,174,327096,1,2,3:0:0:0:
256,268,327268,1,0,0:0:0:0:
272,148,327439,2,0,P|308:128|380:152,1,95.9999970703126,2|0,3:0|0:0,0:0:0:0:
184,280,327782,5,8,0:0:0:0:
404,192,328125,1,8,0:0:0:0:
192,52,328296,5,6,0:0:0:0:
392,104,328468,1,12,0:0:0:0:
232,192,328639,1,0,0:0:0:0:
316,72,328810,1,8,0:0:0:0:
292,248,328982,1,0,0:0:0:0:
392,104,329153,1,8,0:0:0:0:
372,268,329325,1,0,0:0:0:0:
392,104,329496,1,8,0:0:0:0:
228,168,329668,5,0,0:0:0:0:
88,244,329839,1,8,0:0:0:0:
233,243,330010,1,0,0:0:0:0:
160,128,330182,1,8,0:0:0:0:
88,244,330353,1,0,0:0:0:0:
324,116,330525,2,0,P|324:193|220:241,1,191.999994140625,12|8,0:0|0:0,0:0:0:0:
224,240,331039,5,0,0:0:0:0:
92,96,331210,1,8,0:0:0:0:
196,240,331382,1,0,0:0:0:0:
184,48,331553,1,8,0:0:0:0:
164,240,331725,1,0,0:0:0:0:
288,72,331896,1,8,0:0:0:0:
420,100,332068,6,0,P|448:140|436:204,1,95.9999970703126,8|8,0:0|0:0,0:0:0:0:
276,224,332410,1,8,0:0:0:0:
104,280,332582,2,0,P|132:316|204:328,1,95.9999970703126,8|0,0:0|0:0,0:0:0:0:
372,176,332925,2,0,P|344:136|284:128,1,95.9999970703126,8|0,0:0|0:0,0:0:0:0:
104,280,333268,5,8,0:0:0:0:
372,80,333610,1,8,0:0:0:0:
284,248,333782,5,6,0:0:0:0:
248,128,333953,1,12,0:0:0:0:
168,220,334125,1,2,0:0:0:0:
284,248,334296,1,8,0:0:0:0:
112,280,334468,1,0,0:0:0:0:
44,168,334639,2,0,P|76:132|136:128,1,95.9999970703126,8|0,0:0|0:0,0:0:0:0:
212,320,334982,5,8,0:0:0:0:
216,152,335153,1,2,0:0:0:0:
388,112,335325,1,10,0:0:0:0:
300,264,335496,1,2,0:0:0:0:
124,252,335668,1,10,0:0:0:0:
272,344,335839,1,0,0:0:0:0:
421,236,336010,2,0,P|445:196|440:140,1,95.9999970703126,8|0,0:0|0:0,0:0:0:0:
276,96,336353,2,0,P|300:128|280:208,1,95.9999970703126,8|0,0:0|0:0,0:0:0:0:
416,124,336696,5,8,0:0:0:0:
304,284,336868,1,0,0:0:0:0:
448,164,337039,1,8,0:0:0:0:
276,264,337210,1,0,0:0:0:0:
200,124,337382,5,2,0:0:0:0:
248,24,337553,2,0,P|296:44|324:80,1,80,2|0,0:0|0:0,0:0:0:0:
200,124,337896,1,2,0:0:0:0:
416,232,338068,2,0,P|376:256|328:260,1,80,2|0,0:0|0:0,0:0:0:0:
200,124,338410,2,0,P|192:168|204:216,1,80,2|0,0:0|0:0,0:0:0:0:
340,88,338753,6,0,B|348:136|396:140|396:140|360:160|360:212|360:212|332:184,1,200,4|0,0:0|0:0,0:0:0:0:
260,200,339782,1,0,0:0:0:0:
260,200,340125,2,0,B|232:244|232:244|208:224|168:216,1,120
99,343,340810,2,0,L|107:263,1,60.0000022888184
193,319,341153,2,0,L|245:339,1,40
368,324,341496,2,0,B|395:343|395:343|400:300|440:264,1,120
459,247,342182,5,0,0:0:0:0:
272,248,342353,1,0,0:0:0:0:
448,136,342525,1,0,0:0:0:0:
256,144,342696,1,0,0:0:0:0:
232,36,342868,2,0,P|188:48|156:120,1,120
164,296,343553,5,0,0:0:0:0:
264,160,343725,1,0,0:0:0:0:
196,308,343896,1,0,0:0:0:0:
224,140,344068,1,0,0:0:0:0:
236,328,344239,2,0,P|288:364|340:344,1,120,4|0,0:0|0:0,0:0:0:0:
412,144,344925,5,0,0:0:0:0:
252,252,345096,1,0,0:0:0:0:
416,192,345268,1,0,0:0:0:0:
236,216,345439,1,0,0:0:0:0:
420,228,345610,2,0,P|388:252|312:272,1,120.000004577637
188,300,346296,5,0,0:0:0:0:
280,204,346468,1,0,0:0:0:0:
180,120,346639,1,0,0:0:0:0:
72,192,346810,1,0,0:0:0:0:
100,320,346982,1,0,0:0:0:0:
96,36,347325,5,0,0:0:0:0:
316,64,347668,5,0,0:0:0:0:
300,244,347839,1,0,0:0:0:0:
148,100,348010,1,0,0:0:0:0:
324,160,348182,1,0,0:0:0:0:
144,228,348353,2,0,P|180:256|224:252,1,80
84,164,348868,5,0,0:0:0:0:
280,236,349039,1,0,0:0:0:0:
136,88,349210,1,0,0:0:0:0:
328,168,349382,1,0,0:0:0:0:
168,160,349553,1,0,0:0:0:0:
336,64,349725,2,0,P|404:72|444:120,1,120,4|0,0:0|0:0,0:0:0:0:
172,196,350410,5,0,0:0:0:0:
252,288,350582,1,0,0:0:0:0:
364,248,350753,1,0,0:0:0:0:
368,132,350925,1,0,0:0:0:0:
172,196,351096,2,0,B|200:180|200:180|228:196|228:196|244:184,1,80
368,64,351610,5,0,0:0:0:0:
364,248,351782,1,0,0:0:0:0:
280,80,351953,1,0,0:0:0:0:
284,232,352125,1,0,0:0:0:0:
216,120,352296,1,0,0:0:0:0:
172,244,352468,2,0,P|184:280|232:304,1,80
264,60,353153,5,0,0:0:0:0:
416,180,353325,1,0,0:0:0:0:
193,192,353496,1,0,0:0:0:0:
348,292,353668,1,0,0:0:0:0:
352,296,353839,2,0,P|376:292|392:272,1,40
264,60,354182,6,0,L|252:132,1,60.0000022888184
384,116,354525,2,0,L|408:196,1,60.0000022888184
279,196,354868,1,0,0:0:0:0:
140,88,355210,6,2,P|104:248|280:192,1,420,2|2,0:2|0:2,0:2:0:0:
240,120,356582,2,2,P|420:64|360:216,1,420.000016021729,2|2,0:2|0:2,0:2:0:0:
284,188,357953,2,2,P|168:248|172:112,1,300.000011444092,2|2,0:2|0:2,0:2:0:0:
56,108,358982,5,0,2:0:0:0:
400,48,359325,1,0,2:0:0:0:
304,324,359668,1,0,2:0:0:0:
56,108,360010,1,0,2:0:0:0:
192,64,360353,5,0,0:0:0:0:
64,32,360525,1,0,0:0:0:0:
256,108,360696,2,0,B|320:292|148:332|44:254|60:136|176:-8|324:104|264:172|296:284|284:328|464:300|520:220|520:128|448:16|322:74,1,880,4|0,3:0|0:0,0:0:0:0:
392,145,362925,5,0,0:0:0:0:
374,306,363096,2,0,L|381:226,1,60.0000022888184
348,64,363439,2,0,B|324:104|248:68|248:68|272:168|192:172|192:172|204:224|156:244|156:244|172:332|104:392|20:344,1,540.000020599366
68,124,365668,5,0,0:0:0:0:
192,132,365839,1,0,0:0:0:0:
44,208,366010,1,0,0:0:0:0:
136,228,366182,2,0,P|200:272|296:248,1,180.000006866455,2|0,0:0|0:0,0:0:0:0:
320,232,366782,1,0,0:0:0:0:
352,215,366868,2,0,B|324:171|317:152|238:167|156:103|256:-15|369:45|379:102|304:202|168:184,1,420.000016021729
152,309,368410,5,0,0:0:0:0:
279,355,368582,1,0,0:0:0:0:
415,353,368753,1,0,0:0:0:0:
468,272,368925,2,0,B|416:260|352:312|352:312|308:272|228:280|228:280|192:232|120:224|120:224,2,360.000013732911
164,100,371325,5,0,0:0:0:0:
256,192,371496,1,0,0:0:0:0:
344,104,371668,1,8,0:0:0:0:
460,340,372010,5,8,0:0:0:0:
324,248,372182,1,4,0:0:0:0:
472,192,372353,1,8,0:0:0:0:
312,124,372525,1,4,0:0:0:0:
424,264,372696,1,8,0:0:0:0:
96,216,373039,5,8,0:0:0:0:
248,96,373210,1,12,0:0:0:0:
248,96,373296,1,8,0:0:0:0:
248,96,373382,1,12,0:0:0:0:
68,56,373553,1,0,0:0:0:0:
264,172,373725,1,12,0:0:0:0:
96,216,373896,1,8,0:0:0:0:
248,96,374068,1,8,0:0:0:0:
408,272,374410,5,12,0:0:0:0:
176,112,374753,5,8,0:0:0:0:
148,288,374924,1,4,0:0:0:0:
76,148,375095,1,8,0:0:0:0:
264,172,375267,1,4,0:0:0:0:
76,248,375438,1,8,0:0:0:0:
76,148,375782,5,8,0:0:0:0:
232,300,375953,1,12,0:0:0:0:
232,300,376039,1,8,0:0:0:0:
232,300,376125,1,12,0:0:0:0:
132,332,376296,1,8,0:0:0:0:
208,128,376468,1,12,0:0:0:0:
292,240,376639,1,8,0:0:0:0:
40,264,376810,2,0,B|68:244|68:244|112:244,1,60.0000022888184
220,112,377153,5,8,3:0:0:0:
344,244,377325,1,8,3:0:0:0:
168,280,377496,1,8,3:0:0:0:
220,112,377668,1,8,3:0:0:0:
284,280,377839,1,8,3:0:0:0:
108,256,378010,1,8,3:0:0:0:
220,112,378182,1,8,3:0:0:0:
196,292,378353,1,8,3:0:0:0:
72,152,378525,5,8,3:0:0:0:
222,358,378696,1,8,3:0:0:0:
222,103,378868,1,8,3:0:0:0:
72,309,379039,1,8,3:0:0:0:
314,231,379210,1,8,3:0:0:0:
72,152,379382,1,8,3:0:0:0:
222,358,379553,1,8,3:0:0:0:
222,103,379725,1,8,3:0:0:0:
72,309,379896,5,0,3:0:0:0:
104,304,379982,1,0,3:0:0:0:
132,288,380068,1,0,3:0:0:0:
148,260,380153,1,0,3:0:0:0:
152,228,380239,1,0,3:0:0:0:
164,200,380325,1,0,3:0:0:0:
188,180,380410,1,0,3:0:0:0:
216,168,380496,1,0,3:0:0:0:
248,172,380582,5,0,3:0:0:0:
284,188,380668,1,0,3:0:0:0:
324,184,380753,1,0,3:0:0:0:
352,156,380839,1,0,3:0:0:0:
360,116,380925,1,0,3:0:0:0:
348,76,381010,1,0,3:0:0:0:
368,40,381096,1,0,3:0:0:0:
408,36,381182,1,0,3:0:0:0:
432,64,381268,6,0,P|444:104|416:152,1,80
230,95,381610,2,0,P|220:136|254:183,1,80
120,196,381953,2,0,L|168:248,1,40
168,300,382125,2,0,L|224:332,1,40
252,328,382296,1,0,0:0:0:0:
296,312,382382,1,0,0:0:0:0:
384,132,382639,6,0,L|380:212,1,80,4|0,3:2|0:0,0:0:0:0:
284,152,382982,2,0,L|296:244,1,80,4|0,3:2|3:0,3:0:0:0:
188,216,383325,2,0,L|228:304,1,80,4|0,2:2|0:0,0:0:0:0:
60,248,383668,1,4,3:2:0:0:
64,192,383753,1,4,3:2:0:0:
88,144,383839,1,4,3:2:0:0:
124,104,383925,1,4,3:2:0:0:
176,84,384010,6,0,L|160:184,1,80,4|0,3:2|0:0,0:0:0:0:
316,108,384353,2,0,L|288:200,1,80,0|0,3:0|0:0,0:0:0:0:
444,148,384696,2,0,P|428:208|404:228,1,80,0|0,3:0|0:0,0:0:0:0:
304,284,385039,2,0,P|312:308|340:332,1,40
404,304,385210,2,0,P|384:280|356:264,1,40
216,252,385382,6,0,L|244:332,1,80,4|0,2:0|0:0,0:0:0:0:
116,212,385725,2,0,L|100:296,1,80,4|0,2:0|0:0,0:0:0:0:
44,92,386068,2,0,L|12:176,1,80,4|0,2:0|0:0,0:0:0:0:
184,48,386410,1,4,3:2:0:0:
236,56,386496,1,4,3:2:0:0:
284,76,386582,1,4,3:2:0:0:
328,104,386668,1,4,3:2:0:0:
364,144,386753,6,0,L|316:220,1,80,4|0,3:2|0:0,0:0:0:0:
448,264,387096,2,0,L|372:332,1,80,8|0,3:0|0:0,0:0:0:0:
276,288,387439,2,0,P|232:304|176:300,1,80,2|0,3:0|0:0,0:0:0:0:
264,184,387782,2,0,P|240:168|208:164,1,40,8|0,3:0|0:0,0:0:0:0:
148,232,387953,2,0,P|172:232|200:216,1,40,8|0,3:0|0:0,0:0:0:0:
60,208,388125,6,0,L|28:112,1,80,4|0,2:0|0:0,0:0:0:0:
180,144,388468,2,0,L|192:64,1,80,4|0,2:0|0:0,0:0:0:0:
316,168,388810,2,0,L|352:88,1,80,4|0,2:0|0:0,0:0:0:0:
408,240,389153,2,0,L|376:284,3,40,4|4|4|4,3:2|3:2|3:2|3:2,3:0:0:0:
356,276,389496,6,0,L|264:248,1,80,4|0,3:2|0:0,0:0:0:0:
208,156,389839,2,0,L|316:140,1,80,8|0,3:0|0:0,0:0:0:0:
188,264,390182,2,0,P|144:300|92:296,1,80,0|0,3:0|0:0,0:0:0:0:
43,172,390525,2,0,P|76:112|112:100,1,80,0|0,3:0|0:0,0:0:0:0:
172,104,390868,2,0,L|192:12,1,80,8|0,3:0|0:0,0:0:0:0:
324,28,391210,2,0,L|304:132,1,80,8|0,3:0|0:0,0:0:0:0:
440,108,391553,2,0,L|460:24,1,80,8|0,3:0|0:0,0:0:0:0:
472,256,391896,2,0,L|420:332,1,80,8|0,3:0|0:0,0:0:0:0:
296,260,392239,6,0,L|312:348,1,80,8|0,3:0|0:0,0:0:0:0:
184,280,392582,2,0,L|156:360,1,80,8|0,3:0|0:0,0:0:0:0:
24,172,392925,1,0,0:0:0:0:
212,212,393096,1,0,0:0:0:0:
80,104,393268,1,0,0:0:0:0:
184,280,393439,1,0,0:0:0:0:
376,208,393610,6,0,L|348:296,1,80,4|0,2:0|0:0,0:0:0:0:
484,272,393953,2,0,L|464:364,1,80,4|0,2:0|0:0,0:0:0:0:
280,280,394296,2,0,L|252:368,1,80,4|0,2:0|0:0,0:0:0:0:
328,116,394639,5,4,3:2:0:0:
339,148,394724,1,4,3:2:0:0:
360,176,394810,1,4,3:2:0:0:
388,197,394896,1,4,3:2:0:0:
424,212,394982,2,0,L|388:308,1,80,4|0,3:2|0:0,0:0:0:0:
273,357,395325,2,0,L|292:280,1,80,0|0,3:0|0:0,0:0:0:0:
228,112,395668,6,0,P|248:96|288:92,1,40,8|0,3:0|2:0,2:0:0:0:
249,195,395839,2,0,P|229:211|189:215,1,40,0|0,2:0|2:0,2:0:0:0:
128,160,396010,2,0,P|148:144|188:140,1,40,8|0,3:0|2:0,2:0:0:0:
152,256,396182,2,0,P|132:272|92:276,1,40,0|0,2:0|2:0,2:0:0:0:
48,248,396353,6,0,L|20:168,1,80,4|0,3:2|0:0,0:0:0:0:
161,139,396696,2,0,L|149:35,1,80,4|0,3:2|0:0,0:0:0:0:
296,216,397039,2,0,L|296:112,1,80,4|0,3:2|0:0,0:0:0:0:
416,224,397382,5,4,3:2:0:0:
429,191,397467,1,4,3:2:0:0:
436,157,397553,1,4,3:2:0:0:
437,122,397639,1,4,3:2:0:0:
428,84,397725,2,0,L|344:136,1,80,4|0,3:2|0:0,0:0:0:0:
272,88,398068,2,0,L|224:168,1,80,8|0,3:0|0:0,0:0:0:0:
120,144,398410,2,0,L|96:224,1,80,8|0,3:0|0:0,0:0:0:0:
144,320,398753,5,0,3:0:0:0:
280,124,398925,1,0,0:0:0:0:
244,232,399096,2,0,B|298:262|352:264|352:264|370:226|420:200|464:220,1,240,0|0,3:0|0:0,0:0:0:0:
456,168,399696,1,0,0:0:0:0:
464,132,399782,2,0,B|432:80|384:60|384:60|392:104|364:144|364:144|324:96|264:88|264:88|280:136|256:168|256:168|236:136|176:136,1,480
216,264,401153,5,0,3:1:0:0:
20,212,401324,1,0,0:0:0:0:
108,184,401496,5,0,0:0:0:0:
132,352,401668,1,0,0:0:0:0:
292,328,401839,2,0,L|400:272,1,120,0|0,3:0|0:0,0:0:0:0:
424,180,402182,2,0,L|288:248,1,120,0|0,3:0|0:0,0:0:0:0:
220,196,402525,2,0,L|352:132,1,120,0|0,3:0|0:0,0:0:0:0:
468,76,402868,2,0,L|380:120,1,80,0|0,3:0|0:0,0:0:0:0:
192,60,403210,6,0,B|232:60|232:60|228:96|228:96|264:96|264:96|252:128|252:128|288:128|288:128|276:168|276:168|312:160|312:160|300:196|300:196|336:188|336:188|328:224|328:224|360:224,1,400
440,92,404239,6,0,L|416:172,1,80,0|0,0:2|0:2,0:2:0:0:
248,256,404582,2,0,P|200:176|128:148,1,160,4|0,1:2|0:2,0:2:0:0:
32,160,405096,1,2,0:2:0:0:
216,312,405439,1,2,0:2:0:0:
216,312,405610,1,2,0:2:0:0:
220,88,405953,2,0,P|248:64|336:136,1,160,2|0,0:2|0:2,0:2:0:0:
436,232,406468,2,0,P|396:280|288:256,1,160,0|0,0:2|0:2,0:2:0:0:
100,160,406982,6,0,P|140:192|136:252,1,80,2|0,0:2|0:2,0:2:0:0:
224,148,407325,2,0,P|196:176|260:280,1,160,2|0,0:2|0:2,0:2:0:0:
468,128,407839,2,0,P|440:192|344:208,1,160,0|0,0:2|0:2,0:2:0:0:
360,108,408353,1,2,0:2:0:0:
488,252,408525,1,0,0:2:0:0:
312,332,408696,2,0,B|312:308|312:308|292:300|292:300|300:280|300:280|280:272|280:272|288:252|288:252|268:248|268:248|276:224|276:224|256:224|256:224|264:200|264:200|244:196|244:196|252:176|252:176|232:168|232:168|240:148|240:148|224:144|224:144|228:120|228:120|208:108|208:108|212:84|212:84|196:76|196:76|200:68|200:68,1,400,0|0,0:2|0:2,0:2:0:0:
207,329,409725,2,0,L|171:248,1,80,0|0,0:2|0:2,0:2:0:0:
70,73,410068,6,0,P|65:116|79:171,1,80,8|0,0:2|0:2,0:2:0:0:
163,124,410410,2,0,P|169:166|197:216,1,80,8|0,0:2|0:2,0:2:0:0:
270,155,410753,2,0,P|287:194|326:235,1,80,8|0,0:2|0:2,0:2:0:0:
381,157,411096,2,0,P|407:190|456:219,1,80,8|0,0:2|0:2,0:2:0:0:
373,217,411439,6,0,P|378:260|364:315,1,80,8|0,0:2|0:2,0:2:0:0:
280,268,411781,2,0,P|273:310|245:360,1,80,8|0,0:2|0:2,0:2:0:0:
173,299,412124,2,0,P|155:338|116:379,1,80,8|0,0:2|0:2,0:2:0:0:
62,301,412467,2,0,P|35:334|-13:363,1,80,8|0,0:2|0:2,0:2:0:0:
21,213,412810,6,0,P|31:155|148:125,1,160,8|8,0:2|0:2,0:2:0:0:
113,210,413325,1,0,0:2:0:0:
94,32,413496,2,0,P|145:36|193:136,1,160,8|8,0:2|0:2,0:2:0:0:
189,218,414010,1,0,0:2:0:0:
270,270,414182,2,0,P|281:227|266:170,1,80,8|0,0:2|0:2,0:2:0:0:
363,233,414525,2,0,P|362:188|333:137,1,80,8|0,0:2|0:2,0:2:0:0:
443,174,414868,2,0,P|431:131|389:89,1,80,8|0,0:2|0:2,0:2:0:0:
147,50,415210,2,0,L|323:49,1,160,8|8,0:2|0:2,0:2:0:0:
252,136,415896,5,4,3:2:0:0:
256,236,416068,1,0,3:2:0:0:
364,80,416239,1,8,3:2:0:0:
412,120,416410,1,0,3:2:0:0:
440,172,416582,2,0,P|416:208|376:232,1,80,0|0,3:2|0:2,0:2:0:0:
160,200,416925,5,4,3:2:0:0:
60,284,417096,1,0,3:2:0:0:
60,284,417182,1,0,3:2:0:0:
60,284,417268,1,0,3:2:0:0:
280,200,417439,1,0,3:2:0:0:
160,308,417610,1,8,3:2:0:0:
96,172,417782,1,0,3:2:0:0:
224,88,417953,2,0,P|260:72|304:72,1,80,0|0,3:2|3:2,0:2:0:0:
392,144,418296,6,0,P|400:216|380:240,1,80,0|0,3:2|3:2,3:2:0:0:
232,240,418639,1,8,3:2:0:0:
148,224,418810,1,0,3:2:0:0:
140,272,418896,1,0,3:2:0:0:
132,324,418982,1,0,3:2:0:0:
56,272,419153,1,8,3:2:0:0:
16,176,419325,2,0,P|12:132|28:80,1,80,8|0,3:2|3:2,3:2:0:0:
232,80,419668,5,12,3:2:0:0:
384,84,419839,1,8,3:2:0:0:
368,104,419925,1,8,3:2:0:0:
352,128,420010,1,8,3:2:0:0:
192,160,420182,1,0,3:2:0:0:
368,264,420353,1,8,3:2:0:0:
148,272,420525,1,8,3:2:0:0:
304,120,420696,1,12,3:2:0:0:
48,100,421039,5,8,3:2:0:0:
456,136,421382,5,8,3:2:0:0:
40,216,421725,5,8,3:2:0:0:
456,40,422068,5,8,3:2:0:0:
48,132,422410,5,8,3:2:0:0:
48,208,422582,1,8,3:2:0:0:
372,136,422753,5,8,3:2:0:0:
376,212,422925,1,8,3:2:0:0:
136,68,423096,6,4,L|136:160,1,80,8|8,3:2|3:2,3:2:0:0:
424,260,423439,6,4,L|424:348,1,80,8|8,3:2|3:2,3:2:0:0:
196,304,423782,5,8,3:2:0:0:
160,112,423953,1,8,3:2:0:0:
396,188,424125,1,8,3:2:0:0:
188,336,424296,1,8,3:2:0:0:
228,120,424468,1,8,3:2:0:0:
416,256,424639,1,8,3:2:0:0:
200,284,424810,1,8,3:2:0:0:
260,88,424982,1,8,3:2:0:0:
458,232,425153,5,0,0:2:0:0:
440,262,425238,1,0,0:2:0:0:
422,292,425324,1,0,0:2:0:0:
391,279,425410,1,0,0:2:0:0:
371,250,425495,1,0,0:2:0:0:
356,219,425581,1,0,0:2:0:0:
344,186,425667,1,0,0:2:0:0:
336,156,425753,1,0,0:2:0:0:
328,120,425839,6,0,P|276:128|224:160,1,80,2|0,0:2|0:2,0:2:0:0:
208,304,426182,2,0,P|248:292|280:264,1,80,2|0,0:2|0:2,0:2:0:0:
392,108,426525,6,0,L|284:124,1,103.999995239258,4|0,2:2|0:2,0:2:0:0:
136,184,426868,2,0,L|244:220,1,103.999995239258,0|0,3:2|0:2,0:2:0:0:
48,48,427210,2,0,L|144:120,1,103.999995239258,0|0,3:2|0:2,0:2:0:0:
172,256,427553,1,0,3:2:0:0:
344,200,427725,1,0,3:2:0:0:
200,96,427896,2,0,P|248:68|308:76,1,103.999995239258,0|0,3:2|0:2,0:2:0:0:
368,128,428239,2,0,P|336:148|264:144,1,103.999995239258,0|0,3:2|0:2,0:2:0:0:
192,80,428582,2,0,P|240:52|300:60,1,103.999995239258,0|0,3:2|0:2,0:2:0:0:
420,180,428925,5,2,0:0:0:0:
396,216,429096,1,2,0:0:0:0:
372,260,429268,1,2,0:0:0:0:
200,236,429439,1,2,0:0:0:0:
172,68,429610,2,0,P|141:84|112:156,1,103.999995239258,2|0,0:0|0:0,0:0:0:0:
231,172,429953,2,0,P|268:156|292:88,1,103.999995239258,2|0,0:0|0:0,0:0:0:0:
100,184,430296,1,2,0:0:0:0:
220,344,430468,1,2,0:0:0:0:
212,192,430639,5,2,3:0:0:0:
92,352,430810,1,0,0:0:0:0:
76,152,430982,5,2,3:0:0:0:
200,308,431153,1,0,0:0:0:0:
212,108,431325,5,2,3:0:0:0:
92,268,431496,1,2,0:0:0:0:
88,68,431668,5,2,3:0:0:0:
228,208,431839,1,2,0:0:0:0:
416,84,432010,6,0,L|400:188,1,103.999995239258
364,112,432353,2,0,L|348:228,1,103.999995239258
304,144,432696,2,0,L|284:256,1,103.999995239258
252,176,433039,2,0,L|228:292,1,103.999995239258
76,120,433382,2,0,P|88:168|148:216,1,103.999995239258
256,68,433725,1,0,0:0:0:0:
276,60,433810,1,0,0:0:0:0:
300,56,433896,2,0,P|344:64|432:196,1,207.999990478516
416,208,434410,5,0,1:0:0:0:
352,248,434582,1,0,1:0:0:0:
248,172,434753,2,0,L|264:288,1,103.999995239258,0|0,1:0|1:0,1:0:0:0:
212,192,435010,1,0,1:0:0:0:
184,208,435096,2,0,L|196:324,1,103.999995239258,0|0,1:0|1:0,1:0:0:0:
72,260,435439,1,0,1:0:0:0:
76,92,435610,1,0,1:0:0:0:
272,176,435782,1,0,1:0:0:0:
428,72,435953,5,0,1:0:0:0:
308,248,436125,1,0,1:0:0:0:
432,88,436296,1,0,1:0:0:0:
292,232,436468,1,0,1:0:0:0:
440,104,436639,1,0,1:0:0:0:
472,296,436810,5,8,3:0:0:0:
336,144,436982,1,4,3:0:0:0:
316,356,437153,1,8,3:0:0:0:
420,172,437325,1,4,3:0:0:0:
404,240,437496,6,0,L|380:348,1,103.999995239258,2|0,0:0|0:0,0:0:0:0:
252,336,437839,2,0,L|256:232,1,103.999995239258,2|0,0:0|0:0,0:0:0:0:
120,228,438182,2,0,L|128:344,1,103.999995239258,2|0,0:0|0:0,0:0:0:0:
63,159,438525,2,0,L|56:56,1,103.999995239258,2|0,0:0|0:0,0:0:0:0:
232,52,438868,2,0,L|224:168,1,103.999995239258,2|0,0:0|0:0,0:0:0:0:
384,159,439210,2,0,L|392:56,1,103.999995239258,2|0,0:0|0:0,0:0:0:0:
260,284,439553,6,0,L|360:212,1,103.999995239258
284,232,439896,2,0,L|396:152,1,103.999995239258
352,56,440239,2,0,P|336:108|280:132,1,103.999995239258,4|0,0:0|0:0,0:0:0:0:
172,164,440582,1,0,0:0:0:0:
24,120,440753,2,0,P|20:164|72:232,1,103.999995239258,4|0,0:0|0:0,0:0:0:0:
144,296,441096,1,0,0:0:0:0:
288,312,441268,2,0,P|332:276|348:216,1,103.999995239258,4|0,0:0|0:0,0:0:0:0:
296,128,441610,1,0,0:0:0:0:
192,56,441782,2,0,P|144:74|114:116,1,103.999995239258,4|0,0:0|0:0,0:0:0:0:
416,64,442125,6,0,P|436:100|396:176,1,103.999995239258,10|0,0:0|0:0,0:0:0:0:
364,228,442468,1,2,0:0:0:0:
248,172,442639,1,2,0:0:0:0:
248,288,442810,1,2,0:0:0:0:
148,244,442982,2,0,P|120:204|116:144,2,103.999995239258,10|0|2,0:0|0:0|0:0,0:0:0:0:
40,40,443496,6,0,B|96:16|172:80,1,103.999995239258,10|0,0:0|0:0,0:0:0:0:
32,132,443839,1,10,0:0:0:0:
216,84,444010,1,6,0:0:0:0:
188,168,444182,1,10,0:0:0:0:
392,200,444353,5,6,3:0:0:0:
128,248,444525,1,4,3:0:0:0:
358,307,444696,1,4,3:0:0:0:
168,159,444868,1,4,3:0:0:0:
389,248,445039,1,4,3:0:0:0:
158,308,445210,1,4,3:0:0:0:
355,172,445382,1,4,3:0:0:0:
117,190,445553,1,4,3:0:0:0:
336,304,445725,5,0,3:0:0:0:
302,314,445810,1,0,0:0:0:0:
268,318,445896,1,0,0:0:0:0:
233,318,445982,1,0,0:0:0:0:
198,313,446067,1,0,3:0:0:0:
165,302,446153,1,0,0:0:0:0:
136,282,446239,1,0,0:0:0:0:
115,255,446324,1,0,0:0:0:0:
102,222,446410,1,0,3:0:0:0:
96,188,446496,1,0,0:0:0:0:
96,153,446582,1,0,3:0:0:0:
102,119,446667,1,0,0:0:0:0:
136,120,446753,6,0,P|184:144|240:136,1,103.999995239258
380,76,447096,1,4,3:0:0:0:
158,40,447268,1,4,3:0:0:0:
271,232,447439,1,12,3:0:0:0:
271,232,448125,1,0,0:0:0:0:
