osu file format v14

[General]
AudioFilename: audio.mp3
AudioLeadIn: 0
PreviewTime: 45267
Countdown: 0
SampleSet: Soft
StackLeniency: 0.2
Mode: 0
LetterboxInBreaks: 0
WidescreenStoryboard: 0

[Editor]
Bookmarks: 23304,35647,41133,43876,46619,67190,90504,100104,111076,112447,123419,134047,163190,167304,189247,200904,206733,211190,233133,238619,244104,287990,293476,303076,304447,316790,325704,338733,349704,360676,371647,382619,399076,404562,410047,415533,426504
DistanceSpacing: 1
BeatDivisor: 4
GridSize: 4
TimelineZoom: 2.350004

[Metadata]
Title:Classic Mash Up 2
TitleUnicode:Classic Mash Up 2
Artist:S3RL
ArtistUnicode:S3RL
Creator:Nuvolina
Version:Marathon
Source:
Tags:serl mashup classics happy hardcore electronic english pika girl bass slut Tamika MTC rainbow girl feel the melody Sara friendzoned Mixie Moon princess bubblegum Yuki Marceline the vampire queen dealer addict flame princess Krystal featured artist fa
BeatmapID:2223322
BeatmapSetID:1061726

[Difficulty]
HPDrainRate:5
CircleSize:4.5
OverallDifficulty:9
ApproachRate:9.3
SliderMultiplier:1.8
SliderTickRate:1

[Events]
//Background and Video events
0,0,"BG.jpg",0,0
//Break Periods
//Storyboard Layer 0 (Background)
//Storyboard Layer 1 (Fail)
//Storyboard Layer 2 (Pass)
//Storyboard Layer 3 (Foreground)
//Storyboard Layer 4 (Overlay)
//Storyboard Sound Samples

[TimingPoints]
1467,342.857142857143,4,2,1,100,1,0
11752,-100,4,2,1,30,0,0
11924,-83.3333333333333,4,2,1,40,0,0
12095,-71.4285714285714,4,2,1,50,0,0
12267,-62.5,4,2,1,60,0,0
12438,-100,4,2,1,60,0,0
12781,-100,4,2,1,60,0,0
23409,-181.818181818182,4,2,1,45,0,0
27352,-181.818181818182,4,2,1,45,0,0
27867,-133.333333333333,4,2,1,55,0,0
28209,-105.263157894737,4,2,1,65,0,0
28552,-86.9565217391304,4,2,1,75,0,0
28895,-86.9565217391304,4,2,1,75,0,0
31724,-86.9565217391304,4,2,2,75,0,0
31981,-86.9565217391304,4,2,1,80,0,0
32067,-86.9565217391304,4,2,2,80,0,0
32324,-86.9565217391304,4,2,1,85,0,0
32409,-86.9565217391304,4,2,2,85,0,0
32667,-86.9565217391304,4,2,1,90,0,0
32752,-86.9565217391304,4,2,2,90,0,0
34381,-66.6666666666667,4,2,1,45,0,0
35752,-66.6666666666667,4,2,1,75,0,0
44067,-66.6666666666667,4,2,2,75,0,0
44324,-66.6666666666667,4,2,1,80,0,0
44409,-66.6666666666667,4,2,2,80,0,0
44667,-66.6666666666667,4,2,1,85,0,0
44752,-66.6666666666667,4,2,2,85,0,0
45009,-66.6666666666667,4,2,1,90,0,0
45095,-66.6666666666667,4,2,2,90,0,0
45352,-66.6666666666667,4,2,1,90,0,0
46724,-58.8235294117647,4,2,1,100,0,1
47238,-58.8235294117647,4,2,1,100,0,0
73467,-133.333333333333,4,2,1,100,0,0
73809,-71.4285714285714,4,2,1,100,0,0
74152,-58.8235294117647,4,2,1,100,0,0
89238,-58.8235294117647,4,2,1,90,0,0
90438,-58.8235294117647,4,2,1,70,0,0
90609,-200,4,2,1,70,0,0
91124,-200,4,2,1,70,0,0
91981,-200,4,2,1,70,0,0
101581,-133.333333333333,4,2,1,50,0,0
102781,-133.333333333333,4,2,1,60,0,0
104324,-83.3333333333333,4,2,1,70,0,0
105524,-83.3333333333333,4,2,1,80,0,0
106381,-83.3333333333333,4,2,1,70,0,0
106724,-133.333333333333,4,2,1,60,0,0
107067,-100,4,2,1,50,0,0
108438,-83.3333333333333,4,2,1,60,0,0
109809,-133.333333333333,4,2,1,70,0,0
109981,-105.263157894737,4,2,1,70,0,0
110152,-86.9565217391304,4,2,1,75,0,0
110324,-74.0740740740741,4,2,1,75,0,0
110495,-64.5161290322581,4,2,1,80,0,0
110667,-57.1428571428571,4,2,1,80,0,0
110838,-51.2820512820513,4,2,1,85,0,0
111009,-48.780487804878,4,2,1,85,0,0
112552,-58.8235294117647,4,2,1,100,0,1
113067,-58.8235294117647,4,2,1,100,0,0
114609,-100,4,2,1,100,0,0
114952,-58.8235294117647,4,2,1,100,0,0
116667,-100,4,2,1,80,0,0
118038,-58.8235294117647,4,2,1,100,0,0
120095,-100,4,2,1,100,0,0
120438,-58.8235294117647,4,2,1,100,0,0
122324,-100,4,2,1,80,0,0
123524,-90.9090909090909,4,2,1,60,0,0
129009,-71.4285714285714,4,2,1,60,0,0
131924,-66.6666666666667,4,2,1,65,0,0
132095,-62.5,4,2,1,65,0,0
132267,-58.8235294117647,4,2,1,70,0,0
132438,-55.5555555555556,4,2,1,70,0,0
132609,-52.6315789473684,4,2,1,75,0,0
132781,-50,4,2,1,75,0,0
132952,-47.6190476190476,4,2,1,80,0,0
133124,-45.4545454545455,4,2,1,80,0,0
133467,-43.4782608695652,4,2,1,75,0,0
133809,-41.6666666666667,4,2,1,70,0,0
134152,-40,4,2,1,65,0,0
134495,-120.481927710843,4,1,8,60,0,0
139981,-133.333333333333,4,1,8,60,0,0
145467,-83.3333333333333,4,2,1,70,0,0
156438,-105.263157894737,4,2,1,60,0,0
161238,-105.263157894737,4,2,1,75,0,0
164752,-105.263157894737,4,2,2,75,0,0
165009,-105.263157894737,4,2,1,80,0,0
165095,-105.263157894737,4,2,2,80,0,0
165352,-105.263157894737,4,2,1,85,0,0
165438,-105.263157894737,4,2,2,85,0,0
165695,-105.263157894737,4,2,1,90,0,0
165781,-105.263157894737,4,2,2,90,0,0
167238,-105.263157894737,4,2,1,90,0,0
167409,-58.8235294117647,4,2,1,100,0,1
167924,-58.8235294117647,4,2,1,100,0,0
177009,-45.4545454545455,4,2,1,100,0,0
177352,-43.4782608695652,4,2,1,100,0,0
177695,-41.6666666666667,4,2,1,100,0,0
178038,-40,4,2,1,100,0,0
178381,-58.8235294117647,4,2,1,100,0,0
189352,-66.6666666666667,4,2,1,70,0,0
190038,-100,4,2,1,70,0,0
205809,-100,4,2,1,75,0,0
208552,-100,4,2,1,75,0,0
208638,-100,4,2,2,75,0,0
208895,-100,4,2,1,70,0,0
208981,-100,4,2,2,70,0,0
209238,-100,4,2,1,65,0,0
209324,-100,4,2,2,65,0,0
209581,-100,4,2,1,60,0,0
209667,-100,4,2,2,60,0,0
211124,-100,4,2,1,60,0,0
211295,-58.8235294117647,4,2,1,100,0,1
211809,-58.8235294117647,4,2,1,100,0,0
233238,-100,4,2,1,60,0,0
238724,-76.9230769230769,4,2,1,75,0,0
241467,-76.9230769230769,4,2,1,60,0,0
244038,-76.9230769230769,4,2,1,95,0,0
244209,-58.8235294117647,4,2,1,100,0,1
244724,-58.8235294117647,4,2,1,100,0,0
266152,-83.3333333333333,4,2,1,80,0,0
266495,-71.4285714285714,4,2,1,80,0,0
266838,-62.5,4,2,1,80,0,0
267181,-55.5555555555556,4,2,1,80,0,0
267524,-62.5,4,2,1,80,0,0
267867,-71.4285714285714,4,2,1,80,0,0
268209,-83.3333333333333,4,2,1,80,0,0
268552,-100,4,2,1,80,0,0
268895,-55.5555555555556,4,2,1,80,0,0
271638,-83.3333333333333,4,2,1,80,0,0
271981,-100,4,2,1,80,0,0
272324,-83.3333333333333,4,2,1,80,0,0
272667,-71.4285714285714,4,2,1,80,0,0
273009,-83.3333333333333,4,2,1,80,0,0
273352,-71.4285714285714,4,2,1,80,0,0
273695,-62.5,4,2,1,80,0,0
274038,-55.5555555555556,4,2,1,80,0,0
274381,-55.5555555555556,4,2,1,80,0,0
277124,-83.3333333333333,4,2,1,80,0,0
277467,-71.4285714285714,4,2,1,80,0,0
277809,-62.5,4,2,1,80,0,0
278152,-55.5555555555556,4,2,1,80,0,0
278495,-71.4285714285714,4,2,1,80,0,0
278838,-62.5,4,2,1,80,0,0
279181,-50,4,2,1,80,0,0
279524,-55.5555555555556,4,2,1,80,0,0
282609,-83.3333333333333,4,2,1,80,0,0
282952,-100,4,2,1,80,0,0
283295,-83.3333333333333,4,2,1,80,0,0
283638,-71.4285714285714,4,2,1,80,0,0
283981,-83.3333333333333,4,2,1,80,0,0
284324,-71.4285714285714,4,2,1,80,0,0
284667,-55.5555555555556,4,2,1,80,0,0
285009,-62.5,4,2,1,80,0,0
288095,-100,4,2,1,50,0,0
289467,-100,4,2,1,60,0,0
290838,-100,4,2,1,70,0,0
292895,-100,4,2,1,60,0,0
293581,-83.3333333333333,4,2,1,70,0,0
304552,-83.3333333333333,4,2,1,75,0,0
312781,-83.3333333333333,4,2,1,80,0,0
312867,-83.3333333333333,4,2,2,80,0,0
313124,-83.3333333333333,4,2,1,80,0,0
313209,-83.3333333333333,4,2,2,80,0,0
313467,-83.3333333333333,4,2,1,80,0,0
313552,-83.3333333333333,4,2,2,80,0,0
313809,-83.3333333333333,4,2,1,80,0,0
313895,-83.3333333333333,4,2,2,80,0,0
314152,-83.3333333333333,4,2,1,90,0,0
314238,-83.3333333333333,4,2,2,90,0,0
314409,-83.3333333333333,4,2,1,90,0,0
314581,-83.3333333333333,4,2,2,90,0,0
314667,-83.3333333333333,4,2,1,90,0,0
314752,-83.3333333333333,4,2,2,90,0,0
314838,-83.3333333333333,4,2,1,90,0,0
314924,-83.3333333333333,4,2,2,90,0,0
315095,-83.3333333333333,4,2,1,90,0,0
315352,-83.3333333333333,4,2,2,90,0,0
315524,-83.3333333333333,4,2,1,90,0,0
316724,-83.3333333333333,4,2,1,95,0,0
316895,-83.3333333333333,4,2,1,100,0,1
317238,-71.4285714285714,4,2,1,100,0,1
317409,-71.4285714285714,4,2,1,100,0,0
317581,-62.5,4,2,1,100,0,0
317924,-55.5555555555556,4,2,1,100,0,0
318609,-62.5,4,2,1,100,0,0
318952,-71.4285714285714,4,2,1,100,0,0
319295,-83.3333333333333,4,2,1,100,0,0
319981,-71.4285714285714,4,2,1,100,0,0
320667,-83.3333333333333,4,2,1,100,0,0
321009,-71.4285714285714,4,2,1,100,0,0
321352,-83.3333333333333,4,2,1,100,0,0
322038,-62.5,4,2,1,100,0,0
322381,-83.3333333333333,4,2,1,100,0,0
322724,-71.4285714285714,4,2,1,100,0,0
323067,-62.5,4,2,1,100,0,0
324095,-71.4285714285714,4,2,1,100,0,0
324438,-83.3333333333333,4,2,1,100,0,0
324781,-100,4,2,1,100,0,0
325124,-62.5,4,2,1,100,0,0
325467,-71.4285714285714,4,2,1,100,0,0
326152,-83.3333333333333,4,2,1,100,0,0
326495,-58.8235294117647,4,2,1,100,0,0
329238,-55.5555555555556,4,2,1,100,0,0
329581,-62.5,4,2,1,100,0,0
329924,-71.4285714285714,4,2,1,100,0,0
330609,-62.5,4,2,1,100,0,0
330952,-71.4285714285714,4,2,1,100,0,0
332324,-83.3333333333333,4,2,1,100,0,0
333695,-71.4285714285714,4,2,1,100,0,0
334038,-62.5,4,2,1,100,0,0
335067,-55.5555555555556,4,2,1,100,0,0
336438,-62.5,4,2,1,100,0,0
336781,-71.4285714285714,4,2,1,100,0,0
338838,-62.5,4,2,1,100,0,0
339181,-55.5555555555556,4,2,1,100,0,0
339524,-50,4,2,1,100,0,0
340895,-55.5555555555556,4,2,1,100,0,0
341238,-62.5,4,2,1,100,0,0
341581,-50,4,2,1,100,0,0
341924,-55.5555555555556,4,2,1,100,0,0
342267,-62.5,4,2,1,100,0,0
342952,-55.5555555555556,4,2,1,100,0,0
343295,-62.5,4,2,1,100,0,0
343638,-71.4285714285714,4,2,1,100,0,0
344667,-62.5,4,2,1,100,0,0
345009,-55.5555555555556,4,2,1,100,0,0
345695,-50,4,2,1,100,0,0
346038,-55.5555555555556,4,2,1,100,0,0
346381,-62.5,4,2,1,100,0,0
346724,-71.4285714285714,4,2,1,100,0,0
347067,-50,4,2,1,100,0,0
347409,-55.5555555555556,4,2,1,100,0,0
347752,-62.5,4,2,1,100,0,0
348438,-62.5,4,2,1,90,0,0
348781,-83.3333333333333,4,2,1,100,0,0
349124,-111.111111111111,4,2,1,100,0,0
349467,-166.666666666667,4,2,1,100,0,0
349809,-83.3333333333333,4,2,1,85,0,0
350152,-71.4285714285714,4,2,1,85,0,0
350495,-62.5,4,2,1,85,0,0
350838,-55.5555555555556,4,2,1,85,0,0
351524,-62.5,4,2,1,85,0,0
351867,-71.4285714285714,4,2,1,85,0,0
352209,-83.3333333333333,4,2,1,85,0,0
352552,-55.5555555555556,4,2,1,85,0,0
352895,-62.5,4,2,1,85,0,0
353238,-71.4285714285714,4,2,1,85,0,0
353924,-83.3333333333333,4,2,1,85,0,0
354267,-71.4285714285714,4,2,1,85,0,0
354609,-62.5,4,2,1,85,0,0
354952,-55.5555555555556,4,2,1,85,0,0
355381,-55.5555555555556,4,2,2,85,0,0
355638,-100,4,2,1,85,0,0
355809,-100,4,2,2,85,0,0
355981,-100,4,2,1,85,0,0
356324,-83.3333333333333,4,2,1,85,0,0
356495,-83.3333333333333,4,2,2,85,0,0
356667,-100,4,2,1,85,0,0
357009,-90.9090909090909,4,2,1,85,0,0
357352,-83.3333333333333,4,2,1,85,0,0
357695,-76.9230769230769,4,2,1,85,0,0
358381,-83.3333333333333,4,2,1,85,0,0
358724,-90.9090909090909,4,2,1,85,0,0
359409,-90.9090909090909,4,2,1,85,0,0
360781,-133.333333333333,4,2,1,50,0,0
371752,-83.3333333333333,4,2,1,70,0,0
377238,-83.3333333333333,4,2,1,75,0,0
379981,-83.3333333333333,4,2,1,80,0,0
380067,-83.3333333333333,4,2,2,80,0,0
380495,-83.3333333333333,4,2,1,80,0,0
380581,-83.3333333333333,4,2,2,80,0,0
381009,-83.3333333333333,4,2,1,95,0,0
381095,-83.3333333333333,4,2,2,95,0,0
381352,-83.3333333333333,4,2,1,95,0,0
382724,-58.8235294117647,4,2,1,100,0,1
383238,-58.8235294117647,4,2,1,100,0,0
384781,-87.719298245614,4,2,1,100,0,0
385467,-58.8235294117647,4,2,1,100,0,0
387524,-87.719298245614,4,2,1,100,0,0
388209,-58.8235294117647,4,2,1,100,0,0
390267,-87.719298245614,4,2,1,100,0,0
390952,-58.8235294117647,4,2,1,100,0,0
395752,-87.719298245614,4,2,1,100,0,0
396438,-58.8235294117647,4,2,1,100,0,0
398495,-87.719298245614,4,2,1,100,0,0
399181,-83.3333333333333,4,2,1,85,0,0
400552,-83.3333333333333,4,2,1,70,0,0
401238,-125,4,2,1,100,0,0
402609,-100,4,2,1,100,0,0
404324,-125,4,2,1,100,0,0
404667,-106.382978723404,4,2,1,60,0,0
410152,-90.9090909090909,4,2,1,60,0,0
415638,-90.9090909090909,4,2,1,70,0,0
421124,-83.3333333333333,4,2,1,70,0,0
422495,-83.3333333333333,4,2,1,75,0,0
423867,-76.9230769230769,4,2,1,80,0,0
424209,-66.6666666666667,4,2,1,85,0,0
424552,-58.8235294117647,4,2,1,90,0,0
424895,-52.6315789473684,4,2,1,95,0,0
426609,-58.8235294117647,4,2,1,100,0,1
427124,-58.8235294117647,4,2,1,100,0,0
432095,-83.3333333333333,4,2,1,100,0,0
432438,-71.4285714285714,4,2,1,100,0,0
432781,-62.5,4,2,1,100,0,0
433124,-55.5555555555556,4,2,1,100,0,0
433809,-62.5,4,2,1,100,0,0
434152,-71.4285714285714,4,2,1,100,0,0
434495,-83.3333333333333,4,2,1,100,0,0
435181,-58.8235294117647,4,2,1,100,0,0
437581,-83.3333333333333,4,2,1,100,0,0
437924,-71.4285714285714,4,2,1,100,0,0
438267,-62.5,4,2,1,100,0,0
438609,-55.5555555555556,4,2,1,100,0,0
438952,-62.5,4,2,1,100,0,0
439295,-66.6666666666667,4,2,1,100,0,0
445895,-66.6666666666667,4,2,2,100,0,0
445981,-66.6666666666667,4,2,1,100,0,0
446067,-66.6666666666667,4,2,2,100,0,0
446152,-66.6666666666667,4,2,1,100,0,0
446238,-66.6666666666667,4,2,2,100,0,0
446324,-66.6666666666667,4,2,1,100,0,0
446409,-66.6666666666667,4,2,2,100,0,0
446495,-66.6666666666667,4,2,1,100,0,0
446581,-66.6666666666667,4,2,2,100,0,0
446667,-66.6666666666667,4,2,1,100,0,0
446752,-66.6666666666667,4,2,2,100,0,0
446838,-66.6666666666667,4,2,1,100,0,0
446924,-66.6666666666667,4,2,2,100,0,0
447009,-66.6666666666667,4,2,1,100,0,0
447095,-66.6666666666667,4,2,2,100,0,0
447181,-66.6666666666667,4,2,1,100,0,0

[Colours]
Combo1 : 85,170,255
Combo2 : 128,255,128
Combo3 : 255,132,72
Combo4 : 255,66,160

[HitObjects]
425,23,11752,6,0,L|490:24,1,45,2|0,0:2|0:2,0:2:0:0:
425,55,11924,6,0,L|487:43,1,53.9999983520508,2|0,0:2|0:2,0:2:0:0:
398,133,12095,6,0,L|333:137,1,62.9999980773926,2|0,0:2|0:2,0:2:0:0:
399,165,12267,6,0,L|319:154,1,72,2|0,0:2|0:2,0:2:0:0:
482,178,12438,6,0,P|513:229|458:293,1,135,6|0,3:1|0:2,0:2:0:0:
432,302,12781,1,2,1:2:0:0:
310,235,12952,2,0,L|220:240,1,90,2|0,0:2|1:2,0:2:0:0:
133,311,13295,1,0,0:2:0:0:
220,374,13467,1,0,1:2:0:0:
343,313,13638,1,2,0:2:0:0:
220,239,13809,6,0,P|202:180|254:116,1,135,2|0,1:2|0:2,0:2:0:0:
284,102,14152,1,2,1:2:0:0:
233,4,14324,2,0,L|144:39,1,90,2|0,0:2|1:2,0:2:0:0:
56,92,14667,1,0,0:2:0:0:
95,172,14838,1,0,1:2:0:0:
156,286,15009,1,2,0:2:0:0:
305,196,15181,6,0,P|221:189|168:213,1,135,2|0,1:1|0:2,0:2:0:0:
235,268,15524,2,0,P|261:211|218:133,1,135,2|0,1:1|0:2,0:2:0:0:
158,122,15867,2,0,P|165:64|244:28,1,135,2|0,1:1|0:2,0:2:0:0:
307,34,16209,1,2,1:2:0:0:
368,123,16381,1,2,0:1:0:0:
482,47,16552,6,0,L|475:189,1,135,2|0,1:3|0:2,0:2:0:0:
435,95,16895,2,0,L|438:200,1,90,2|0,1:3|0:2,0:2:0:0:
472,328,17238,1,2,1:3:0:0:
327,340,17409,2,0,L|338:294,1,45,2|0,1:3|0:2,0:2:0:0:
362,218,17581,1,2,1:2:0:0:
257,245,17752,1,2,0:2:0:0:
123,138,17924,6,0,P|92:189|147:253,1,135,2|0,1:2|0:2,0:2:0:0:
165,266,18267,1,2,1:2:0:0:
280,165,18438,2,0,L|190:170,1,90,2|0,0:2|1:2,0:2:0:0:
257,245,18781,1,0,0:2:0:0:
369,316,18953,1,2,1:2:0:0:
430,216,19124,1,2,0:2:0:0:
375,102,19295,6,0,P|351:157|399:217,1,135,2|0,1:2|0:2,0:2:0:0:
430,216,19638,1,2,1:2:0:0:
375,102,19809,2,0,L|285:107,1,90,2|0,0:2|1:2,0:2:0:0:
208,172,20152,1,0,0:2:0:0:
111,220,20324,1,0,1:2:0:0:
26,128,20495,1,2,0:2:0:0:
140,4,20667,6,0,P|166:63|123:137,1,135,2|0,1:1|0:2,0:2:0:0:
82,72,21009,2,0,P|148:59|215:102,1,135,2|0,1:1|0:2,0:2:0:0:
227,161,21353,2,0,P|285:154|321:75,1,135,2|0,1:1|0:2,0:2:0:0:
337,19,21695,1,2,1:2:0:0:
431,90,21867,1,2,0:1:0:0:
375,179,22038,6,0,L|368:321,1,135,2|0,1:3|0:2,0:2:0:0:
320,379,22381,2,0,L|323:274,1,90,2|0,1:3|0:2,0:2:0:0:
264,186,22724,1,2,1:3:0:0:
144,279,22895,2,0,L|153:234,1,45,2|0,2:3|0:2,0:2:0:0:
171,158,23067,1,2,1:2:0:0:
69,125,23238,1,2,0:2:0:0:
204,18,23409,6,0,P|241:10|300:44,1,99.0000030212403,4|0,3:1|0:2,0:2:0:0:
256,142,23924,2,0,P|271:148|314:123,1,49.5000015106202,2|0,0:2|0:2,0:2:0:0:
388,103,24267,1,2,0:2:0:0:
404,103,24438,1,2,0:2:0:0:
395,89,24609,1,2,0:2:0:0:
349,252,24781,6,0,L|338:187,1,49.5000015106202,2|0,0:2|0:2,0:2:0:0:
458,294,25124,1,2,0:2:0:0:
483,240,25295,2,0,L|512:334,1,99.0000030212403,2|0,0:2|0:2,0:2:0:0:
284,321,25981,1,2,0:2:0:0:
248,361,26152,6,0,P|225:323|236:260,2,99.0000030212403,2|2|2,0:2|0:2|0:2,0:2:0:0:
266,135,27181,1,2,0:2:0:0:
220,89,27352,6,0,L|225:175,1,74.2500022659302,2|0,0:2|0:2,0:2:0:0:
178,221,27695,2,0,L|192:254,1,24.7500007553101,2|0,0:3|0:2,0:2:0:0:
264,298,27867,6,0,L|266:264,1,33.7500012874604,2|0,0:3|0:2,0:2:0:0:
305,319,28038,2,0,L|306:352,1,33.7500012874604,2|0,0:3|0:2,0:2:0:0:
433,269,28209,6,0,L|391:248,1,42.7499988584519,2|0,0:3|0:2,0:2:0:0:
462,233,28381,2,0,L|510:229,1,42.7499988584519,2|0,0:3|0:2,0:2:0:0:
387,105,28552,6,0,L|353:152,1,51.7500009870529,2|0,0:3|0:2,0:2:0:0:
351,75,28724,2,0,L|334:12,1,51.7500009870529,2|0,0:3|0:2,0:2:0:0:
158,100,28895,5,8,1:2:0:0:
207,212,29067,1,8,0:2:0:0:
237,84,29238,1,8,0:2:0:0:
136,223,29409,1,8,0:2:0:0:
148,84,29581,5,8,1:2:0:0:
219,233,29752,1,8,0:2:0:0:
249,67,29924,1,8,0:2:0:0:
124,241,30096,1,8,0:2:0:0:
141,70,30267,5,8,1:2:0:0:
288,124,30439,1,8,0:2:0:0:
227,280,30609,1,8,0:2:0:0:
78,215,30781,1,8,0:2:0:0:
142,39,30952,5,8,1:2:0:0:
307,126,31124,1,8,0:2:0:0:
223,306,31295,1,8,0:2:0:0:
53,207,31467,1,8,0:2:0:0:
300,199,31638,21,8,1:2:0:0:
331,198,31723,1,0,3:2:0:0:
359,208,31809,1,0,3:2:0:0:
382,229,31895,1,0,3:2:0:0:
415,216,31981,5,8,1:2:0:0:
390,182,32067,1,0,3:2:0:0:
390,140,32152,1,0,3:2:0:0:
409,103,32238,1,0,3:2:0:0:
407,52,32324,5,8,1:2:0:0:
360,72,32409,1,0,3:2:0:0:
308,73,32495,1,0,3:2:0:0:
259,53,32581,1,0,3:2:0:0:
206,98,32667,5,8,1:2:0:0:
190,157,32752,1,0,3:2:0:0:
173,217,32838,1,0,3:2:0:0:
153,276,32924,1,0,3:2:0:0:
115,225,34381,6,0,L|119:158,1,67.5000025749208,2|0,0:1|0:2,0:2:0:0:
125,59,34552,1,2,0:3:0:0:
278,14,34724,6,0,L|290:86,1,67.5000025749208,2|0,0:1|0:2,0:2:0:0:
306,173,34895,1,2,0:3:0:0:
459,268,35067,6,0,L|459:187,1,67.5000025749208,2|0,0:1|0:2,0:2:0:0:
460,85,35238,1,2,0:3:0:0:
306,173,35409,2,0,P|240:242|316:328,1,202.500007724762,2|0,0:2|0:2,0:2:0:0:
360,224,35752,22,0,B|313:199|313:199|219:249,1,135.000005149842,6|0,1:2|0:2,0:2:0:0:
88,316,36095,2,0,B|135:291|135:291|240:346,1,135.000005149842,2|0,1:2|0:2,0:2:0:0:
360,224,36438,2,0,P|381:167|341:103,1,135.000005149842,2|0,1:2|0:2,0:2:0:0:
239,88,36781,1,2,1:2:0:0:
185,196,36952,2,0,P|117:215|42:161,1,135.000005149842,2|0,0:2|1:2,0:2:0:0:
110,31,37295,2,0,B|160:2|201:35|201:35|216:15|216:15|248:45|239:88,1,202.500007724762,4|0,0:2|0:2,0:2:0:0:
255,131,37638,1,2,0:2:0:0:
383,107,37809,2,0,P|446:96|514:143,1,135.000005149842,2|0,1:1|0:2,0:2:0:0:
381,232,38152,2,0,P|444:243|512:196,1,135.000005149842,2|0,1:1|0:2,0:2:0:0:
266,165,38495,22,0,B|244:216|244:216|296:292,1,135.000005149842,2|0,1:2|0:2,0:2:0:0:
381,232,38838,2,0,B|395:287|395:287|339:362,1,135.000005149842,2|0,1:2|0:2,0:2:0:0:
286,73,39180,2,0,B|240:56|205:93|205:93|213:114|213:114|177:125|141:109|134:87,1,202.500007724762,4|0,1:2|0:2,0:2:0:0:
110,42,39524,1,2,1:2:0:0:
25,135,39695,2,0,P|5:196|44:255,1,135.000005149842,2|0,0:2|1:2,0:2:0:0:
147,187,40038,2,0,P|167:248|128:307,1,135.000005149842,2|0,0:2|1:2,0:2:0:0:
23,355,40381,1,2,0:2:0:0:
214,367,40552,2,0,B|260:377|295:336|295:336|310:359|310:359|350:329|396:344,1,202.500007724762,2|0,1:1|0:2,0:2:0:0:
419,355,40895,2,0,B|441:338|441:338|425:307|424:264|428:239|448:216,1,135.000005149842,2|0,1:1|0:2,0:2:0:0:
336,96,41238,5,8,1:2:0:0:
272,196,41410,1,8,0:2:0:0:
281,59,41581,1,8,0:2:0:0:
356,234,41753,1,8,0:2:0:0:
385,82,41924,5,8,1:2:0:0:
296,271,42096,1,8,0:2:0:0:
212,111,42267,1,8,0:2:0:0:
162,279,42439,1,8,0:2:0:0:
125,90,42609,5,8,1:2:0:0:
209,335,42782,1,8,0:2:0:0:
293,138,42952,1,8,0:2:0:0:
355,349,43124,1,8,0:2:0:0:
235,93,43295,5,8,1:2:0:0:
408,288,43467,1,8,0:2:0:0:
137,214,43638,1,8,0:2:0:0:
385,137,43810,1,8,0:2:0:0:
247,306,43981,21,8,1:2:0:0:
225,322,44066,1,0,3:2:0:0:
198,328,44152,1,0,3:2:0:0:
170,326,44238,1,0,3:2:0:0:
136,294,44324,5,8,1:2:0:0:
99,272,44409,1,0,3:2:0:0:
62,280,44495,1,0,3:2:0:0:
30,307,44581,1,0,3:2:0:0:
8,350,44666,5,8,1:2:0:0:
8,314,44752,1,0,3:2:0:0:
6,269,44838,1,0,3:2:0:0:
4,233,44923,1,0,3:2:0:0:
75,183,45009,5,8,1:2:0:0:
81,232,45095,1,0,3:2:0:0:
87,273,45181,1,0,3:2:0:0:
94,315,45266,1,0,3:2:0:0:
101,362,45352,5,0,3:2:0:0:
194,257,45524,1,0,3:2:0:0:
101,362,45695,1,8,0:2:0:0:
165,325,46552,5,8,0:2:0:0:
165,325,46638,1,0,3:2:0:0:
165,325,46724,22,0,B|214:343|214:343|317:295,1,153.000002918243,4|0,3:1|0:2,0:2:0:0:
232,138,47067,2,0,B|289:113|289:113|384:168,1,153.000002918243,2|0,3:2|0:2,0:2:0:0:
505,322,47410,2,0,P|526:265|459:168,1,153.000002918243,2|0,3:2|0:2,0:2:0:0:
378,354,47753,1,2,3:2:0:0:
212,260,47924,2,0,P|144:241|66:297,1,153.000002918243,2|0,1:2|3:2,0:2:0:0:
285,188,48267,2,0,B|283:163|296:133|296:133|242:60|242:60|286:74|321:48,1,229.500004377365,4|0,1:2|0:2,0:2:0:0:
419,16,48610,1,2,1:2:0:0:
349,267,48781,2,0,P|282:292|202:246,1,153.000002918243,2|0,3:1|0:2,0:2:0:0:
424,125,49124,2,0,P|364:97|279:154,1,153.000002918243,2|0,3:1|0:2,0:2:0:0:
145,210,49467,22,0,P|127:148|180:61,1,153.000002918243,2|0,3:2|0:2,0:2:0:0:
346,213,49809,2,0,P|364:275|311:362,1,153.000002918243,2|0,3:2|0:2,0:2:0:0:
290,132,50152,2,0,B|345:155|375:100|375:100|389:113|389:113|435:91|472:104|496:138,1,229.500004377365,4|0,3:2|0:2,0:2:0:0:
512,200,50496,1,2,3:2:0:0:
357,309,50667,2,0,P|277:328|205:270,1,153.000002918243,2|0,1:2|3:2,0:2:0:0:
356,355,51009,2,0,P|276:374|204:316,1,153.000002918243,2|0,1:2|3:2,0:2:0:0:
87,191,51352,1,2,1:2:0:0:
341,216,51524,2,0,B|321:193|331:136|389:129|411:45|332:10,1,229.500004377365,2|0,3:1|0:2,0:2:0:0:
272,55,51867,2,0,B|255:77|255:77|226:57|189:51|147:63|128:83,1,153.000002918243,2|0,3:1|0:2,0:2:0:0:
48,288,52210,6,0,B|90:320|90:320|184:275,1,153.000002918243,2|0,3:2|0:2,0:2:0:0:
87,83,52552,2,0,B|55:125|55:125|100:219,1,153.000002918243,2|0,3:2|0:2,0:2:0:0:
364,176,52896,2,0,P|298:146|206:178,1,153.000002918243,2|0,3:2|0:2,0:2:0:0:
416,249,53239,1,2,3:2:0:0:
188,352,53410,2,0,P|252:375|321:307,1,153.000002918243,2|0,1:2|3:2,0:2:0:0:
73,326,53753,2,0,B|11:286|11:286|48:263|71:213|62:168|37:144|15:137,1,229.500004377365,4|0,1:2|0:2,0:2:0:0:
26,50,54096,1,2,1:2:0:0:
233,75,54267,2,0,L|407:93,1,153.000002918243,2|0,3:1|0:2,0:2:0:0:
130,181,54609,2,0,L|305:165,1,153.000002918243,2|0,3:1|0:2,0:2:0:0:
39,231,54952,22,0,P|15:298|83:355,1,153.000002918243,2|0,3:2|0:2,0:2:0:0:
310,291,55295,2,0,P|246:255|159:294,1,153.000002918243,2|0,3:2|0:2,0:2:0:0:
322,40,55638,2,0,B|258:58|258:58|171:13|171:13|167:52|195:72,1,229.500004377365,4|0,3:2|0:2,0:2:0:0:
265,148,55981,1,2,3:2:0:0:
97,303,56152,2,0,P|180:331|245:280,1,153.000002918243,2|0,1:2|3:2,0:2:0:0:
93,325,56495,2,0,P|176:353|241:302,1,153.000002918243,2|0,1:2|3:2,0:2:0:0:
264,205,56838,1,2,1:2:0:0:
458,302,57009,2,0,P|491:237|447:153,1,153.000002918243,2|0,3:1|0:2,0:2:0:0:
264,205,57352,2,0,P|228:216|197:196,1,76.5000014591217,2|0,3:1|0:2,0:2:0:0:
105,56,57524,2,0,P|140:44|171:64,1,76.5000014591217,0|0,3:2|0:2,0:2:0:0:
79,201,57695,6,0,P|57:278|109:353,1,153.000002918243,4|0,3:1|1:2,0:2:0:0:
324,210,58038,2,0,P|346:287|294:362,1,153.000002918243,2|0,3:2|1:2,0:2:0:0:
197,196,58381,2,0,P|176:137|252:51,1,153.000002918243,2|0,3:2|1:2,0:2:0:0:
398,36,58724,1,2,3:2:0:0:
197,196,58895,2,0,P|122:182|73:250,1,153.000002918243,2|0,1:2|3:2,0:2:0:0:
263,330,59238,2,0,B|318:319|318:319|391:373|391:373|384:334|411:291,1,229.500004377365,4|0,1:2|0:2,0:2:0:0:
367,200,59581,1,2,1:2:0:0:
203,158,59752,2,0,P|175:98|244:18,1,153.000002918243,2|0,3:1|1:2,0:2:0:0:
367,200,60095,2,0,P|395:140|338:55,1,153.000002918243,2|0,3:1|1:2,0:2:0:0:
179,239,60438,22,0,P|150:302|196:380,1,153.000002918243,2|0,3:2|1:2,0:2:0:0:
367,200,60780,2,0,P|385:262|332:349,1,153.000002918243,2|0,3:2|1:2,0:2:0:0:
67,297,61123,2,0,B|40:281|30:239|52:205|52:205|33:188|33:188|86:158|72:104,1,229.500004377365,4|0,3:2|0:2,0:2:0:0:
32,24,61467,1,2,3:2:0:0:
182,163,61638,2,0,P|249:193|321:138,1,153.000002918243,2|0,1:2|3:2,0:2:0:0:
182,195,61981,2,0,P|249:225|321:170,1,153.000002918243,2|0,1:2|3:2,0:2:0:0:
477,54,62324,1,2,1:2:0:0:
248,47,62495,2,0,B|192:79|140:54|116:3|49:13|21:64,1,229.500004377365,2|0,3:1|0:2,0:2:0:0:
88,110,62838,2,0,P|121:176|62:237,1,153.000002918243,2|0,3:1|1:2,0:2:0:0:
268,191,63181,6,0,P|325:174|403:222,1,153.000002918243,2|0,3:2|1:2,0:2:0:0:
147,309,63524,2,0,P|81:337|4:285,1,153.000002918243,2|0,3:2|1:2,0:2:0:0:
268,191,63867,2,0,P|303:259|257:349,1,153.000002918243,2|0,3:2|1:2,0:2:0:0:
135,193,64210,1,2,3:2:0:0:
369,336,64381,2,0,P|447:354|511:290,1,153.000002918243,2|0,1:2|3:2,0:2:0:0:
415,98,64724,2,0,B|408:77|380:56|344:52|306:70|272:121|272:121|228:86,1,229.500004377365,4|0,1:2|0:2,0:2:0:0:
160,36,65067,1,2,1:2:0:0:
30,278,65238,2,0,P|5:193|57:145,1,153.000002918243,2|0,3:1|1:2,0:2:0:0:
153,367,65580,2,0,P|191:292|147:225,1,153.000002918243,2|0,3:1|1:2,0:2:0:0:
99,52,65924,22,0,P|164:31|252:86,1,153.000002918243,2|0,3:2|1:2,0:2:0:0:
5,189,66267,2,0,P|70:210|158:155,1,153.000002918243,2|0,3:2|1:2,0:2:0:0:
376,44,66609,2,0,B|428:69|428:69|382:106|382:106|394:122|394:122|364:145|358:180|382:213,1,229.500004377365,4|0,3:2|0:2,0:2:0:0:
457,263,66952,1,2,3:2:0:0:
328,345,67124,1,2,1:2:0:0:
200,123,67295,5,0,1:2:0:0:
288,235,67467,1,0,1:2:0:0:
291,71,67638,1,2,0:2:0:0:
291,71,67981,2,2,B|207:21|207:21|138:81|138:81|169:99|169:99|203:123|203:123|173:144|173:144|141:171|141:171|173:192|173:192|198:204|198:204|174:229|188:263,1,459.00000875473,6|2,1:2|0:2,0:2:0:0:
291,71,68667,22,0,B|340:89|340:89|443:41,1,153.000002918243,6|0,3:2|0:2,0:2:0:0:
265,205,69010,2,0,B|322:180|322:180|417:235,1,153.000002918243,2|0,3:2|0:2,0:2:0:0:
507,339,69353,2,0,P|528:282|461:185,1,153.000002918243,2|0,3:2|0:2,0:2:0:0:
366,349,69696,1,2,3:2:0:0:
236,135,69867,2,0,P|168:116|90:172,1,153.000002918243,2|0,1:2|3:2,0:2:0:0:
359,235,70209,2,0,B|370:180|370:180|316:107|316:107|361:116|395:85,1,229.500004377365,4|0,1:2|0:2,0:2:0:0:
470,34,70553,1,2,1:2:0:0:
359,235,70724,2,0,P|292:260|212:214,1,153.000002918243,2|0,3:1|0:2,0:2:0:0:
83,82,71067,2,0,P|143:54|228:111,1,153.000002918243,2|0,3:1|0:2,0:2:0:0:
130,295,71410,22,0,P|112:233|165:146,1,153.000002918243,2|0,3:2|0:2,0:2:0:0:
379,195,71752,2,0,P|397:257|344:344,1,153.000002918243,2|0,3:2|0:2,0:2:0:0:
295,69,72095,2,0,B|356:92|388:37|388:37|405:53|405:53|436:34|474:42|501:75,1,229.500004377365,4|0,3:2|0:2,0:2:0:0:
504,174,72439,1,2,3:2:0:0:
359,333,72610,2,0,P|279:352|207:294,1,153.000002918243,2|0,1:2|3:2,0:2:0:0:
367,361,72952,2,0,P|287:380|215:322,1,153.000002918243,2|0,1:2|3:2,0:2:0:0:
132,246,73296,1,2,1:2:0:0:
238,147,73467,6,0,P|240:191|205:255,1,101.250003862381,2|0,3:3|0:2,0:2:0:0:
164,176,73809,2,0,P|266:181|324:254,1,188.999994232178,4|0,1:2|0:2,0:2:0:0:
220,326,74152,6,0,B|178:358|178:358|84:313,1,153.000002918243,2|0,3:2|0:2,0:2:0:0:
115,78,74495,2,0,B|83:120|83:120|128:214,1,153.000002918243,2|0,3:2|0:2,0:2:0:0:
381,231,74839,2,0,P|315:191|251:236,1,153.000002918243,2|0,3:2|0:2,0:2:0:0:
462,289,75182,1,2,3:2:0:0:
239,351,75353,2,0,P|303:374|372:306,1,153.000002918243,2|0,1:2|3:2,0:2:0:0:
110,299,75696,2,0,B|82:215|185:196|185:108|126:140|88:109,1,229.500004377365,4|0,1:2|0:2,0:2:0:0:
28,60,76039,1,2,1:2:0:0:
232,75,76210,2,0,L|406:93,1,153.000002918243,2|0,3:1|0:2,0:2:0:0:
142,193,76552,2,0,L|317:177,1,153.000002918243,2|0,3:1|0:2,0:2:0:0:
39,231,76895,22,0,P|15:298|83:355,1,153.000002918243,2|0,3:2|0:2,0:2:0:0:
310,291,77238,2,0,P|246:255|159:294,1,153.000002918243,2|0,3:2|0:2,0:2:0:0:
322,40,77581,2,0,B|283:44|264:17|264:17|244:32|244:32|186:10|186:10|170:52|215:72,1,229.500004377365,4|0,3:2|0:2,0:2:0:0:
279,150,77924,1,2,3:2:0:0:
97,303,78095,2,0,P|180:331|245:280,1,153.000002918243,2|0,1:2|3:2,0:2:0:0:
93,325,78438,2,0,P|176:353|241:302,1,153.000002918243,2|0,1:2|3:2,0:2:0:0:
264,205,78781,1,2,1:2:0:0:
136,94,78952,5,2,3:3:0:0:
157,180,79124,1,0,1:2:0:0:
228,54,79295,1,0,1:2:0:0:
225,144,79467,1,0,1:2:0:0:
79,201,79638,6,0,P|57:278|109:353,1,153.000002918243,2|0,3:2|1:2,0:2:0:0:
324,210,79981,2,0,P|346:287|294:362,1,153.000002918243,2|0,3:2|1:2,0:2:0:0:
197,196,80324,2,0,P|176:137|252:51,1,153.000002918243,2|0,3:2|1:2,0:2:0:0:
398,36,80667,1,2,3:2:0:0:
197,196,80838,2,0,P|122:182|73:250,1,153.000002918243,2|0,1:2|3:2,0:2:0:0:
263,330,81181,2,0,B|318:319|318:319|391:373|391:373|384:330|410:294,1,229.500004377365,4|0,1:2|0:2,0:2:0:0:
367,200,81524,1,2,1:2:0:0:
152,171,81695,2,0,P|124:111|193:31,1,153.000002918243,2|0,3:1|1:2,0:2:0:0:
367,200,82038,2,0,P|395:140|338:55,1,153.000002918243,2|0,3:1|1:2,0:2:0:0:
215,226,82381,22,0,P|186:289|232:367,1,153.000002918243,2|0,3:2|1:2,0:2:0:0:
447,297,82724,2,0,P|385:279|298:332,1,153.000002918243,2|0,3:2|1:2,0:2:0:0:
43,315,83067,2,0,B|81:285|83:229|51:196|51:196|71:178|71:178|41:153|46:114,1,229.500004377365,4|0,3:2|0:2,0:2:0:0:
15,21,83410,1,2,3:2:0:0:
182,163,83581,2,0,P|249:193|321:138,1,153.000002918243,2|0,1:2|3:2,0:2:0:0:
216,32,83924,1,2,1:2:0:0:
99,108,84095,5,2,3:3:0:0:
94,238,84267,1,0,1:2:0:0:
188,117,84438,1,2,0:3:0:0:
176,204,84609,1,0,1:2:0:0:
280,171,84781,6,0,L|289:250,1,76.5000014591217,0|0,3:2|0:2,0:2:0:0:
408,327,84952,2,0,L|434:251,1,76.5000014591217,0|0,3:2|0:2,0:2:0:0:
378,143,85124,6,0,P|435:126|513:174,1,153.000002918243,2|0,3:2|1:2,0:2:0:0:
285,342,85467,2,0,P|219:370|142:318,1,153.000002918243,2|0,3:2|1:2,0:2:0:0:
403,251,85810,2,0,P|438:319|367:386,1,153.000002918243,2|0,3:2|1:2,0:2:0:0:
230,191,86153,1,2,3:2:0:0:
369,309,86324,2,0,P|447:327|511:263,1,153.000002918243,2|0,1:2|3:2,0:2:0:0:
419,79,86667,2,0,B|423:113|378:139|316:114|301:65|301:65|284:80|284:80|273:60|246:54,1,229.500004377365,4|0,1:2|0:2,0:2:0:0:
160,36,87010,1,2,1:2:0:0:
30,278,87181,2,0,P|5:193|57:145,1,153.000002918243,2|0,3:1|1:2,0:2:0:0:
188,373,87523,2,0,P|226:298|182:231,1,153.000002918243,2|0,3:1|1:2,0:2:0:0:
197,241,89238,5,0,3:2:0:0:
250,146,89409,1,0,3:2:0:0:
307,56,89581,1,8,0:2:0:0:
314,63,90438,5,8,0:2:0:0:
314,63,90524,1,0,3:2:0:0:
314,63,90609,6,0,P|339:82|389:73,1,67.5,4|0,3:2|0:2,0:2:0:0:
421,50,90952,1,8,1:2:0:0:
332,198,91124,2,0,B|327:235|327:235|374:249|379:299,1,112.5,2|0,3:3|0:2,0:2:0:0:
404,303,91638,1,8,1:2:0:0:
504,215,91809,1,2,1:2:0:0:
332,198,91981,6,0,L|274:200,1,45,2|0,3:2|0:2,0:2:0:0:
212,220,92238,1,0,3:2:0:0:
181,255,92324,2,0,P|172:289|187:332,1,67.5,10|0,1:2|0:2,0:2:0:0:
217,351,92667,1,0,3:2:0:0:
69,314,92838,1,0,3:2:0:0:
246,320,93009,1,8,1:2:0:0:
84,237,93181,1,2,1:2:0:0:
253,73,93352,6,0,P|215:81|178:64,1,67.5,2|0,3:2|0:2,0:2:0:0:
149,40,93695,1,10,1:2:0:0:
43,153,93867,1,0,3:2:0:0:
43,153,93952,1,0,1:2:0:0:
43,153,94038,1,0,3:2:0:0:
189,150,94209,1,0,3:2:0:0:
55,48,94381,1,8,1:2:0:0:
126,207,94552,1,2,1:2:0:0:
234,86,94724,6,0,P|256:82|289:97,1,45,2|0,3:2|0:2,0:2:0:0:
332,135,94981,1,0,3:2:0:0:
382,127,95067,2,0,P|384:97|367:67,1,45,10|0,1:2|3:2,0:2:0:0:
293,199,95409,1,0,3:2:0:0:
467,183,95581,1,0,3:2:0:0:
275,287,95752,1,8,1:2:0:0:
462,258,95924,1,2,1:2:0:0:
293,199,96095,6,0,P|259:192|215:205,1,67.5,4|0,3:2|0:2,0:2:0:0:
190,224,96438,1,8,1:2:0:0:
140,358,96610,2,0,B|99:367|99:367|86:336|35:314,1,112.5,2|0,3:3|0:2,0:2:0:0:
19,286,97124,1,8,1:2:0:0:
104,187,97295,1,2,1:2:0:0:
140,358,97467,6,0,L|198:360,1,45,2|0,3:2|0:2,0:2:0:0:
208,283,97724,1,0,3:2:0:0:
248,274,97810,2,0,L|307:281,1,45,10|0,1:2|3:2,0:2:0:0:
425,365,98153,1,0,3:2:0:0:
395,212,98324,1,0,3:2:0:0:
475,376,98495,1,8,1:2:0:0:
445,217,98667,1,2,1:2:0:0:
248,274,98838,5,2,3:2:0:0:
132,165,99010,1,2,1:3:0:0:
132,165,99095,1,2,1:3:0:0:
132,165,99181,1,10,1:2:0:0:
278,126,99352,1,2,3:2:0:0:
186,305,99524,1,2,3:2:0:0:
320,194,99695,1,0,3:2:0:0:
442,321,99867,2,0,L|465:283,1,45,8|0,1:2|0:2,0:2:0:0:
487,253,101581,6,0,L|479:159,1,67.5000025749208,2|0,1:3|0:2,0:2:0:0:
441,48,101924,2,0,L|336:56,1,101.250003862381,2|0,1:3|0:2,0:2:0:0:
295,59,102267,1,2,1:2:0:0:
412,177,102438,2,0,L|404:86,1,67.5000025749208,2|0,1:3|0:2,0:2:0:0:
442,48,102781,2,0,L|443:141,1,67.5000025749208,2|0,1:2|0:2,0:2:0:0:
461,242,103124,1,2,1:2:0:0:
382,319,103295,2,0,L|285:306,1,67.5000025749208,2|0,1:3|0:2,0:2:0:0:
128,256,103638,1,2,1:2:0:0:
284,169,103809,1,2,1:2:0:0:
206,332,103981,2,0,L|206:206,1,101.250003862381,2|0,1:3|0:2,0:2:0:0:
144,168,104324,6,0,L|147:42,1,107.999996704102,2|0,1:3|0:2,0:2:0:0:
308,115,104667,2,0,L|123:114,1,161.999995056153,2|0,1:3|0:2,0:2:0:0:
46,114,105009,1,2,1:2:0:0:
47,278,105181,2,0,L|184:276,1,107.999996704102,2|0,1:3|0:2,0:2:0:0:
161,342,105524,2,0,L|46:313,1,107.999996704102,2|0,1:3|0:2,0:2:0:0:
125,154,105867,1,2,0:2:0:0:
242,222,106038,1,2,0:2:0:0:
242,222,106124,1,2,0:2:0:0:
242,222,106209,1,2,0:2:0:0:
344,89,106381,1,2,0:2:0:0:
512,200,106552,1,2,0:2:0:0:
424,32,106724,2,0,L|426:109,1,67.5000025749208,2|0,0:3|0:2,0:2:0:0:
352,280,107067,6,0,L|349:172,1,90,2|0,1:2|0:2,0:2:0:0:
261,203,107324,2,0,L|260:148,1,45,2|0,1:2|0:2,0:2:0:0:
216,76,107495,1,2,0:3:0:0:
188,58,107581,2,0,L|135:61,1,45,2|0,1:2|0:2,0:2:0:0:
51,105,107752,1,2,0:3:0:0:
39,145,107838,2,0,L|59:241,1,90,2|0,1:2|0:2,0:2:0:0:
139,290,108095,2,0,L|149:349,1,45,2|0,1:2|0:2,0:2:0:0:
244,374,108267,1,2,0:3:0:0:
257,348,108352,1,2,1:2:0:0:
273,314,108438,6,0,L|397:316,1,107.999996704102,2|0,1:2|0:2,0:2:0:0:
461,364,108695,2,0,L|522:343,1,53.9999983520508,2|0,1:2|0:2,0:2:0:0:
493,226,108866,1,2,0:3:0:0:
464,201,108952,2,0,L|473:132,1,53.9999983520508,2|0,1:2|0:2,0:2:0:0:
423,55,109123,1,2,0:3:0:0:
391,72,109209,2,0,L|282:57,1,107.999996704102,2|0,1:2|0:2,0:2:0:0:
203,84,109467,2,0,L|214:158,1,53.9999983520508,2|0,1:2|0:2,0:2:0:0:
237,225,109638,1,2,0:3:0:0:
280,241,109724,1,2,0:3:0:0:
313,222,109809,6,0,L|305:167,1,33.7500012874604,2|0,1:2|0:2,0:2:0:0:
366,228,109981,6,0,L|354:176,1,42.7499988584519,2|0,1:2|0:2,0:2:0:0:
214,292,110152,6,0,L|208:360,1,51.7500009870529,2|0,1:2|0:2,0:2:0:0:
148,298,110324,6,0,L|174:361,1,60.7500002317429,2|0,1:2|0:2,0:2:0:0:
418,255,110495,6,0,L|436:349,1,69.7500005321503,2|0,1:2|0:2,0:2:0:0:
499,258,110667,6,0,L|472:347,1,78.7500007510185,2|0,1:2|0:2,0:2:0:0:
250,132,110838,6,0,L|281:218,1,87.7500003347397,2|0,1:2|0:2,0:2:0:0:
365,109,111009,6,0,L|339:211,1,92.2500014076233,2|0,1:2|0:2,0:2:0:0:
349,206,112381,5,8,0:2:0:0:
349,206,112467,1,0,3:2:0:0:
349,206,112552,6,0,P|423:230|491:172,1,153.000002918243,4|0,3:1|0:2,0:2:0:0:
380,19,112895,2,0,P|360:50|415:147,1,153.000002918243,2|0,3:3|0:2,0:2:0:0:
490,29,113238,1,2,3:2:0:0:
290,142,113409,2,0,L|131:120,1,153.000002918243,2|0,1:3|3:2,0:2:0:0:
140,106,113752,2,0,L|291:126,1,153.000002918243,2|0,1:3|3:2,0:2:0:0:
476,150,114095,5,2,1:2:0:0:
363,321,114267,2,0,P|400:236|368:189,1,153.000002918243,2|0,3:3|0:2,0:2:0:0:
371,191,114609,2,0,L|352:134,1,45,2|0,3:2|0:2,0:2:0:0:
234,245,114781,2,0,L|243:178,1,45,2|0,1:2|0:2,0:2:0:0:
111,350,114952,2,0,B|154:292|114:239|110:235|104:233|73:186|111:125,1,229.500004377365,2|0,3:3|0:2,0:2:0:0:
157,32,115295,6,0,L|322:44,1,153.000002918243,2|0,3:3|0:2,0:2:0:0:
239,200,115638,2,0,L|402:181,1,153.000002918243,2|0,3:3|0:2,0:2:0:0:
239,113,115981,1,2,3:2:0:0:
125,345,116152,2,0,P|148:276|109:195,1,153.000002918243,2|0,1:3|3:2,0:2:0:0:
86,220,116495,2,0,L|160:240,1,76.5000014591217,2|0,1:2|0:2,0:2:0:0:
265,250,116667,5,0,1:2:0:0:
355,341,116838,1,2,1:2:0:0:
412,255,117009,2,0,L|393:185,2,45,2|2|2,1:2|1:2|1:2,0:2:0:0:
412,255,117352,2,0,L|469:247,1,45,2|0,1:2|0:2,0:2:0:0:
512,135,117524,2,0,L|459:127,1,45,2|0,1:2|0:2,0:2:0:0:
379,55,117695,2,0,P|323:18|256:45,1,135,2|0,1:3|0:2,0:2:0:0:
221,210,118038,6,0,P|147:234|79:176,1,153.000002918243,4|0,3:1|1:2,0:2:0:0:
175,16,118381,2,0,P|199:90|141:158,1,153.000002918243,2|0,3:3|1:2,0:2:0:0:
76,13,118724,1,2,3:2:0:0:
319,92,118895,2,0,L|477:99,1,153.000002918243,2|0,1:3|3:2,0:2:0:0:
471,129,119238,2,0,L|315:119,1,153.000002918243,2|0,1:3|3:2,0:2:0:0:
108,80,119581,5,2,1:2:0:0:
185,251,119753,2,0,P|100:226|46:289,1,153.000002918243,2|0,3:3|1:2,0:2:0:0:
55,262,120095,2,0,L|73:319,1,45,2|0,3:2|0:2,0:2:0:0:
199,380,120267,2,0,L|200:332,1,45,2|0,1:2|0:2,0:2:0:0:
310,246,120438,2,0,B|227:181|370:117|296:19,1,229.500004377365,2|0,3:3|0:2,0:2:0:0:
224,94,120781,6,0,P|140:119|92:67,1,153.000002918243,2|0,3:3|1:2,0:2:0:0:
305,33,121124,2,0,P|392:16|455:61,1,153.000002918243,2|0,3:3|1:2,0:2:0:0:
298,163,121467,1,2,3:2:0:0:
495,223,121638,2,0,P|518:292|479:373,1,153.000002918243,2|0,1:3|3:2,0:2:0:0:
457,378,121981,2,0,P|428:308|451:237,1,153.000002918243,2|0,1:3|0:2,0:2:0:0:
500,0,122324,5,2,1:2:0:0:
356,52,122495,2,0,L|290:44,2,45,2|2|2,1:2|1:2|1:2,0:2:0:0:
462,140,122838,1,2,1:2:0:0:
462,140,123181,1,4,0:2:0:0:
462,140,123524,6,0,P|407:152|350:122,1,99.0000030212403,4|0,3:1|0:2,0:2:0:0:
289,44,123867,1,2,3:2:0:0:
162,101,124038,2,0,P|218:156|145:238,1,198.000006042481,2|0,1:1|0:2,0:2:0:0:
23,152,124552,2,0,L|131:165,1,99.0000030212403,2|0,3:1|0:2,0:2:0:0:
333,296,124895,6,0,P|339:249|373:209,1,99.0000030212403,2|0,3:2|0:2,0:2:0:0:
437,293,125238,1,2,3:2:0:0:
242,254,125409,2,0,P|179:293|259:282,1,198.000006042481,2|0,1:1|0:2,0:2:0:0:
350,257,125924,2,0,P|354:313|399:351,1,99.0000030212403,2|0,3:1|0:2,0:2:0:0:
280,134,126267,6,0,P|290:84|237:35,1,99.0000030212403,2|0,3:2|0:2,0:2:0:0:
180,152,126609,1,2,3:2:0:0:
45,148,126781,2,0,P|26:234|105:302,1,198.000006042481,2|0,1:1|0:2,0:2:0:0:
171,139,127295,2,0,P|163:87|119:59,1,99.0000030212403,2|0,3:1|0:2,0:2:0:0:
21,217,127638,6,0,L|126:216,1,99.0000030212403,2|0,3:2|0:2,0:2:0:0:
231,181,127981,1,2,3:2:0:0:
338,255,128152,2,0,P|368:192|300:98,1,198.000006042481,2|0,1:1|0:2,0:2:0:0:
245,217,128667,2,0,P|236:262|273:325,1,99.0000030212403,2|0,3:1|0:2,0:2:0:0:
226,107,129009,5,2,3:2:0:0:
163,217,129181,1,0,1:2:0:0:
104,83,129352,1,0,3:2:0:0:
263,186,129524,5,2,1:1:0:0:
293,53,129695,1,0,3:2:0:0:
154,139,129867,1,0,1:2:0:0:
361,243,130038,6,0,L|342:97,1,125.999996154785,2|0,3:1|0:2,0:2:0:0:
486,9,130381,5,2,3:2:0:0:
483,136,130553,1,0,1:2:0:0:
369,18,130724,1,0,3:2:0:0:
248,158,130896,5,2,1:1:0:0:
348,95,131067,1,0,3:2:0:0:
379,240,131239,1,0,1:2:0:0:
175,210,131410,6,0,L|153:63,1,125.999996154785,2|0,3:1|0:2,0:2:0:0:
242,264,131752,6,0,L|272:338,1,62.9999980773926,2|0,3:3|0:2,0:2:0:0:
350,319,131924,6,0,L|429:349,1,67.5000025749208,2|0,1:3|0:2,0:2:0:0:
414,243,132095,6,0,L|499:217,1,72,2|0,3:3|0:2,0:2:0:0:
430,134,132267,6,0,L|450:45,1,76.5000014591217,2|0,1:3|0:2,0:2:0:0:
310,84,132438,6,0,L|261:8,1,80.9999975280763,2|0,3:3|0:2,0:2:0:0:
156,85,132609,6,0,L|53:68,1,85.4999977169037,2|0,1:3|0:2,0:2:0:0:
94,196,132781,6,0,L|64:288,1,90,2|0,3:3|0:2,0:2:0:0:
246,276,132952,6,0,L|261:369,1,94.499997116089,2|0,1:3|0:2,0:2:0:0:
342,193,133124,6,0,L|411:193,6,49.5000015106202,2|0|0|0|0|0|0,3:2|0:2|0:2|0:2|0:2|0:2|0:2,0:2:0:0:
184,127,133467,6,0,L|122:127,6,51.7500009870529,2|0|0|0|0|0|0,3:2|0:2|0:2|0:2|0:2|0:2|0:2,0:2:0:0:
246,222,133809,6,0,L|246:279,2,53.9999983520508,2|0|0,3:2|0:2|0:2,0:2:0:0:
232,57,133981,6,0,L|232:1,2,53.9999983520508,2|0|0,1:3|0:2|0:2,0:2:0:0:
172,210,134152,6,0,L|137:210,4,28.125,2|0|0|0|0,1:3|0:2|0:2|0:2|0:2,0:2:0:0:
311,101,134324,6,0,L|359:100,4,28.125,2|0|0|0|0,1:3|0:2|0:2|0:2|0:2,0:2:0:0:
201,128,134495,6,0,B|113:124|161:180|65:172,1,150.000005722046,0|8,0:0|0:0,0:0:0:0:
164,222,135009,2,0,L|100:86,1,150.000005722046,0|0,0:0|0:0,0:0:0:0:
65,19,135523,1,8,0:0:0:0:
267,38,135866,6,0,P|319:42|376:118,1,150.000005722046,0|8,0:0|0:0,0:0:0:0:
388,191,136381,2,0,L|428:46,1,150.000005722046,0|0,0:0|0:0,0:0:0:0:
500,30,136895,1,8,0:0:0:0:
447,251,137238,70,0,B|423:307|423:307|383:335|339:307,1,150.000005722046,0|8,0:0|0:0,0:0:0:0:
275,271,137752,2,0,B|230:243|190:271|190:271|166:327,1,150.000005722046,0|0,0:0|0:0,0:0:0:0:
98,363,138266,1,8,0:0:0:0:
94,143,138609,6,0,P|106:216|54:264,1,150.000005722046,0|8,0:0|0:0,0:0:0:0:
170,123,139123,2,0,P|158:51|210:3,1,150.000005722046,0|0,0:0|0:0,0:0:0:0:
279,35,139638,1,8,0:0:0:0:
437,260,139981,6,0,P|382:185|493:68,1,270,0|0,0:0|0:0,0:0:0:0:
469,75,141009,6,0,P|429:88|396:72,1,67.5000025749208,8|0,0:0|0:0,0:0:0:0:
293,34,141352,2,0,B|227:6|193:64|192:68|191:71|191:124|126:135|59:100|92:32,1,270.000010299683,0|0,0:0|0:0,0:0:0:0:
73,58,142381,6,0,P|67:105|79:140,1,67.5000025749208,8|0,0:0|0:0,0:0:0:0:
128,210,142724,2,0,B|168:245|230:167|230:167|240:189|240:189|304:152|376:232|334:299|303:300|278:281,1,337.500012874604,0|0,0:0|0:0,0:0:0:0:
137,222,143752,2,0,L|161:145,1,67.5000025749208,8|0,0:0|0:0,0:0:0:0:
225,62,144095,1,0,0:0:0:0:
301,132,145467,6,0,P|286:185|320:236,1,107.999996704102,4|0,3:1|0:2,0:2:0:0:
397,214,145809,2,0,P|412:267|378:318,1,107.999996704102,10|0,1:2|3:2,0:2:0:0:
408,129,146152,1,10,3:3:0:0:
251,52,146324,1,2,3:2:0:0:
242,231,146495,1,10,1:2:0:0:
207,266,146667,1,2,0:2:0:0:
159,27,146838,6,0,P|143:82|88:102,1,107.999996704102,2|0,3:3|0:2,0:2:0:0:
61,98,147095,1,0,3:2:0:0:
23,123,147181,1,8,1:2:0:0:
120,241,147352,1,2,3:2:0:0:
196,143,147524,1,2,3:3:0:0:
36,207,147695,1,2,3:2:0:0:
200,324,147867,1,10,1:2:0:0:
225,288,148038,1,2,0:2:0:0:
388,149,148209,6,0,P|373:96|407:45,1,107.999996704102,2|0,3:3|0:3,0:3:0:0:
489,145,148552,2,0,P|504:92|470:41,1,107.999996704102,8|2,1:2|3:2,0:2:0:0:
446,212,148894,1,2,3:3:0:0:
315,127,149066,1,2,3:2:0:0:
201,209,149237,1,10,1:2:0:0:
166,183,149409,1,2,0:2:0:0:
361,286,149580,6,0,P|377:341|432:361,1,107.999996704102,2|0,3:3|0:2,0:2:0:0:
459,357,149837,1,0,3:2:0:0:
497,382,149923,1,8,1:2:0:0:
457,214,150094,1,2,3:2:0:0:
308,157,150266,1,2,3:3:0:0:
249,268,150438,1,2,3:2:0:0:
395,179,150609,1,10,1:2:0:0:
323,70,150780,1,2,0:2:0:0:
91,142,150952,6,0,P|73:90|107:39,1,107.999996704102,2|0,3:3|0:2,0:2:0:0:
189,141,151295,2,0,P|204:88|170:37,1,107.999996704102,10|0,1:2|3:2,0:2:0:0:
119,223,151637,1,2,3:3:0:0:
199,352,151809,1,2,3:2:0:0:
30,346,151980,1,10,1:2:0:0:
120,305,152152,1,2,0:2:0:0:
294,240,152323,6,0,P|349:256|369:311,1,107.999996704102,2|0,3:3|0:2,0:2:0:0:
365,338,152580,1,0,3:2:0:0:
390,376,152666,1,8,1:2:0:0:
502,254,152837,1,2,3:2:0:0:
363,151,153009,1,2,3:3:0:0:
493,57,153180,1,2,3:2:0:0:
425,212,153352,1,10,1:2:0:0:
444,134,153523,1,2,0:2:0:0:
263,281,153695,6,0,P|210:296|159:262,1,107.999996704102,2|0,3:3|0:2,0:2:0:0:
265,158,154038,2,0,P|212:143|161:177,1,107.999996704102,10|0,1:2|3:2,0:2:0:0:
354,235,154381,1,2,3:3:0:0:
290,75,154551,1,2,3:2:0:0:
220,214,154724,1,10,1:2:0:0:
168,167,154894,1,2,0:2:0:0:
389,79,155067,6,0,P|405:134|460:154,1,107.999996704102,2|0,3:3|0:2,0:2:0:0:
489,149,155324,1,0,3:2:0:0:
512,196,155409,1,8,1:2:0:0:
442,302,155581,1,2,3:2:0:0:
290,163,155751,1,2,3:3:0:0:
256,328,155924,1,2,3:2:0:0:
371,239,156094,1,10,1:2:0:0:
321,253,156267,1,2,0:2:0:0:
389,79,156438,6,0,L|286:48,1,85.4999977169037,6|0,0:3|0:2,0:2:0:0:
202,25,156781,1,2,1:2:0:0:
202,25,157124,5,2,1:2:0:0:
142,132,157295,1,2,0:3:0:0:
302,130,157467,1,2,1:2:0:0:
218,97,157638,1,2,0:3:0:0:
237,293,157809,6,0,P|280:252|210:182,1,170.999995433807,2|0,1:2|1:2,0:2:0:0:
222,181,158495,5,2,1:2:0:0:
126,259,158667,1,2,0:3:0:0:
104,84,158838,1,2,1:2:0:0:
145,184,159009,1,2,0:3:0:0:
374,86,159181,6,0,L|271:55,1,85.4999977169037,2|0,1:2|0:2,0:2:0:0:
187,32,159524,1,2,1:2:0:0:
187,32,159867,5,2,1:2:0:0:
127,139,160038,1,2,0:3:0:0:
287,137,160209,1,2,1:2:0:0:
205,102,160381,1,2,0:3:0:0:
222,300,160552,6,0,P|265:259|195:189,1,170.999995433807,2|0,1:2|1:2,0:2:0:0:
207,188,161238,5,2,1:2:0:0:
111,266,161410,1,2,0:3:0:0:
89,91,161581,1,2,1:2:0:0:
130,191,161752,1,2,0:3:0:0:
327,30,161924,5,8,1:2:0:0:
174,53,162095,1,8,0:2:0:0:
445,157,162267,5,8,1:2:0:0:
278,125,162438,1,8,0:2:0:0:
344,364,162609,5,8,1:2:0:0:
156,279,162781,1,8,0:2:0:0:
380,254,162952,1,8,1:2:0:0:
218,379,163124,1,8,0:2:0:0:
51,192,163295,5,8,1:2:0:0:
25,374,163467,1,8,0:2:0:0:
213,123,163638,5,8,1:2:0:0:
283,298,163809,1,8,0:2:0:0:
104,32,163981,5,8,1:2:0:0:
144,262,164152,1,8,0:2:0:0:
347,140,164324,1,8,1:2:0:0:
35,170,164495,1,8,0:2:0:0:
255,29,164667,5,8,1:2:0:0:
286,28,164752,1,0,3:2:0:0:
314,38,164838,1,0,3:2:0:0:
337,59,164924,1,0,3:2:0:0:
351,98,165010,5,8,1:2:0:0:
385,123,165096,1,0,3:0:0:0:
427,123,165181,1,0,3:0:0:0:
464,104,165267,1,0,3:0:0:0:
488,25,165353,5,8,1:2:0:0:
488,71,165438,1,0,3:2:0:0:
486,111,165524,1,0,3:2:0:0:
486,150,165610,1,0,3:2:0:0:
425,212,165696,5,8,1:2:0:0:
422,260,165781,1,0,3:0:0:0:
420,310,165867,1,0,3:0:0:0:
419,355,165953,1,0,3:0:0:0:
419,355,166038,5,2,0:2:0:0:
447,375,167238,5,8,0:2:0:0:
447,375,167324,1,0,3:2:0:0:
447,375,167409,6,0,P|384:346|292:379,1,153.000002918243,4|0,3:1|0:2,0:2:0:0:
486,207,167752,2,0,P|423:236|331:203,1,153.000002918243,2|0,3:2|0:2,0:2:0:0:
276,83,168095,1,2,3:2:0:0:
418,48,168267,1,2,1:3:0:0:
269,258,168438,1,2,3:2:0:0:
359,141,168609,1,2,1:3:0:0:
169,73,168781,6,0,P|98:30|36:78,1,153.000002918243,2|0,3:2|0:2,0:2:0:0:
176,168,169124,1,2,3:2:0:0:
176,168,169295,1,2,1:3:0:0:
39,348,169467,1,2,3:2:0:0:
51,192,169638,1,2,1:3:0:0:
281,315,169809,1,2,3:2:0:0:
111,289,169981,1,2,1:1:0:0:
290,157,170152,6,0,P|366:98|421:134,1,153.000002918243,2|0,3:2|0:2,0:2:0:0:
228,249,170495,2,0,P|152:308|97:272,1,153.000002918243,2|0,3:2|0:2,0:2:0:0:
19,160,170838,1,2,3:2:0:0:
161,125,171010,1,2,1:3:0:0:
12,335,171181,1,2,3:2:0:0:
102,218,171352,1,2,1:1:0:0:
289,342,171524,6,0,P|375:361|439:317,1,153.000002918243,2|0,3:2|0:2,0:2:0:0:
272,223,171867,1,2,3:2:0:0:
272,223,172038,1,2,1:3:0:0:
482,95,172209,1,2,3:2:0:0:
394,235,172381,1,2,1:3:0:0:
262,19,172552,1,2,3:2:0:0:
396,125,172724,1,2,1:1:0:0:
289,342,172895,5,2,3:3:0:0:
289,342,172981,1,2,1:3:0:0:
289,342,173067,1,2,1:3:0:0:
152,167,173238,2,0,P|93:242|166:348,1,229.500004377365,4|0,3:2|0:2,0:2:0:0:
266,257,173581,2,0,L|168:256,1,76.5000014591217,2|0,3:3|0:2,0:2:0:0:
297,165,173752,2,0,L|386:167,1,76.5000014591217,2|0,1:3|0:2,0:2:0:0:
490,211,173924,2,0,P|516:114|409:36,1,229.500004377365,4|0,3:2|0:2,0:2:0:0:
262,19,174267,6,0,P|192:65|124:32,1,153.000002918243,2|0,3:2|0:2,0:2:0:0:
297,165,174609,1,2,3:2:0:0:
297,165,174781,1,2,1:3:0:0:
496,74,174952,1,2,3:2:0:0:
465,223,175124,1,2,1:3:0:0:
262,19,175295,1,2,3:2:0:0:
159,149,175467,1,2,1:1:0:0:
330,354,175638,5,2,3:3:0:0:
330,354,175724,1,2,1:3:0:0:
330,354,175809,1,2,1:3:0:0:
375,157,175981,2,0,L|454:147,2,76.5000014591217,4|0|0,3:2|0:2|0:2,0:2:0:0:
159,149,176324,1,2,3:3:0:0:
295,228,176495,1,2,1:3:0:0:
94,335,176667,2,0,P|55:349|16:330,2,76.5000014591217,4|0|0,3:2|0:2|0:2,0:2:0:0:
277,121,177009,6,0,L|319:77,6,49.5000015106202,2|0|0|0|0|0|0,3:2|0:2|0:2|0:2|0:2|0:2|0:2,0:2:0:0:
267,271,177352,6,0,L|228:313,6,51.7500009870529,2|0|0|0|0|0|0,3:2|0:2|0:2|0:2|0:2|0:2|0:2,0:2:0:0:
194,230,177695,6,0,L|155:271,2,53.9999983520508,2|0|0,3:2|0:2|0:2,0:2:0:0:
342,156,177867,6,0,L|377:116,2,53.9999983520508,2|0|0,1:3|0:2|0:2,0:2:0:0:
179,150,178038,6,0,L|128:138,4,28.125,2|0|0|0|0,3:3|0:2|0:2|0:2|0:2,0:2:0:0:
368,230,178209,6,0,L|418:240,4,28.125,2|0|0|0|0,1:3|0:2|0:2|0:2|0:2,0:2:0:0:
277,121,178381,6,0,P|272:49|345:16,1,153.000002918243,4|0,3:1|0:2,0:2:0:0:
437,167,178724,2,0,P|500:132|496:60,1,153.000002918243,2|0,3:2|0:2,0:2:0:0:
368,230,179067,1,2,3:2:0:0:
277,121,179239,1,2,1:3:0:0:
495,59,179410,1,2,3:2:0:0:
354,150,179581,1,2,1:3:0:0:
476,332,179752,6,0,P|405:375|343:327,1,153.000002918243,2|0,3:2|0:2,0:2:0:0:
500,235,180095,1,2,3:2:0:0:
500,235,180266,1,2,1:3:0:0:
259,158,180438,1,2,3:2:0:0:
397,96,180609,1,2,1:3:0:0:
173,245,180780,1,2,3:2:0:0:
360,258,180952,2,0,L|354:167,1,76.5000014591217,2|0,1:1|0:2,0:2:0:0:
286,58,181124,6,0,P|219:32|152:90,1,153.000002918243,2|0,3:2|0:2,0:2:0:0:
4,176,181467,2,0,P|71:202|138:144,1,153.000002918243,2|0,3:2|0:2,0:2:0:0:
237,0,181810,1,2,3:2:0:0:
236,162,181982,1,2,1:3:0:0:
28,13,182153,1,2,3:2:0:0:
4,176,182324,1,2,1:1:0:0:
237,291,182495,6,0,P|271:221|218:153,1,153.000002918243,2|0,3:2|0:2,0:2:0:0:
145,331,182838,1,2,3:2:0:0:
145,331,183009,1,2,1:3:0:0:
51,106,183181,1,2,3:2:0:0:
216,114,183352,1,2,1:3:0:0:
49,266,183523,1,2,3:2:0:0:
244,198,183695,1,2,1:1:0:0:
363,365,183867,6,0,P|389:298|331:231,1,153.000002918243,2|0,3:2|0:2,0:2:0:0:
495,335,184210,2,0,P|469:268|527:201,1,153.000002918243,2|0,3:2|0:2,0:2:0:0:
374,15,184553,1,2,3:2:0:0:
500,114,184725,1,2,1:3:0:0:
227,133,184896,1,2,3:2:0:0:
345,236,185067,1,2,1:1:0:0:
52,337,185238,6,0,P|18:267|71:199,1,153.000002918243,2|0,3:2|0:2,0:2:0:0:
147,358,185581,1,2,3:2:0:0:
147,358,185752,1,2,1:3:0:0:
227,133,185924,1,2,3:2:0:0:
424,172,186095,1,2,1:3:0:0:
198,213,186266,1,2,3:2:0:0:
396,239,186438,1,2,1:1:0:0:
167,47,186609,6,0,P|91:32|32:105,1,153.000002918243,2|0,3:2|0:2,0:2:0:0:
262,105,186952,2,0,P|334:121|390:73,1,153.000002918243,2|0,3:2|0:2,0:2:0:0:
172,136,187295,1,2,3:2:0:0:
293,13,187467,1,2,1:1:0:0:
466,208,187638,1,2,3:2:0:0:
332,179,187809,1,2,1:3:0:0:
390,72,187981,5,4,0:2:0:0:
386,113,189181,5,8,0:2:0:0:
386,113,189267,1,0,3:2:0:0:
386,113,189352,6,0,P|367:155|424:230,1,135.000005149842,0|0,3:2|0:2,0:2:0:0:
274,104,189695,2,0,P|255:146|312:221,1,135.000005149842,0|0,3:2|0:2,0:2:0:0:
136,28,190038,6,0,P|90:17|45:50,1,90,2|0,3:2|0:2,0:2:0:0:
27,185,190381,1,0,3:2:0:0:
121,136,190552,1,2,0:2:0:0:
224,231,190724,2,0,P|265:255|314:231,1,90,2|0,3:2|0:2,0:2:0:0:
140,293,191067,2,0,P|98:282|61:306,1,90,2|0,3:2|0:2,0:2:0:0:
121,136,191409,2,0,L|110:29,1,90,2|0,3:2|0:2,0:2:0:0:
275,98,191752,2,0,L|291:5,1,90,2|0,3:2|0:2,0:2:0:0:
224,173,192095,6,0,P|265:190|325:165,1,90,2|0,3:2|0:2,0:2:0:0:
389,64,192438,1,0,3:2:0:0:
290,9,192609,1,0,0:2:0:0:
409,157,192781,2,0,P|412:201|390:247,2,90,0|0|0,3:2|0:2|3:2,0:2:0:0:
307,179,193295,1,0,0:2:0:0:
124,90,193467,2,0,P|162:70|202:88,1,90,2|0,3:2|0:2,0:2:0:0:
62,177,193809,1,0,3:2:0:0:
62,177,193981,1,0,0:2:0:0:
307,179,194152,6,0,P|293:222|328:273,1,90,2|0,3:2|0:2,0:2:0:0:
414,178,194495,2,0,P|431:218|417:259,1,90,2|0,3:2|0:2,0:2:0:0:
386,371,194838,2,0,L|368:315,1,45,2|0,3:3|0:2,0:2:0:0:
310,260,195009,2,0,L|300:316,1,45,2|0,1:3|0:2,0:2:0:0:
223,372,195181,2,0,L|213:316,1,45,2|0,3:3|0:2,0:2:0:0:
162,268,195352,1,0,1:2:0:0:
21,364,195524,6,0,P|5:322|42:268,1,90,2|0,3:2|0:2,0:2:0:0:
122,149,195867,1,0,3:2:0:0:
21,196,196038,1,2,1:2:0:0:
209,190,196210,2,0,P|233:149|209:100,1,90,2|0,3:2|0:2,0:2:0:0:
164,280,196553,2,0,P|153:322|177:359,1,90,2|0,3:2|0:2,0:2:0:0:
363,280,196895,2,0,L|250:295,1,90,2|0,3:2|0:2,0:2:0:0:
424,170,197238,2,0,L|516:151,1,90,2|0,3:2|0:2,0:2:0:0:
339,198,197581,6,0,P|326:147|355:100,1,90,2|0,3:2|0:2,0:2:0:0:
439,0,197924,1,0,3:2:0:0:
512,74,198095,1,0,1:2:0:0:
474,215,198267,2,0,P|467:260|494:296,2,90,0|0|0,3:2|0:2|3:2,0:2:0:0:
339,198,198781,1,0,1:2:0:0:
184,297,198953,2,0,P|175:244|203:209,1,90,2|0,3:2|0:2,0:2:0:0:
272,362,199295,1,0,3:2:0:0:
272,362,199467,1,0,1:2:0:0:
247,154,199638,6,0,P|253:115|212:64,1,90,2|0,3:2|0:2,0:2:0:0:
121,157,199981,2,0,P|115:113|139:76,1,90,2|0,3:2|0:2,0:2:0:0:
184,297,200324,2,0,L|237:287,1,45,12|0,3:2|0:2,0:2:0:0:
360,203,200495,2,0,L|326:247,1,45,2|0,0:3|0:2,0:2:0:0:
468,351,200667,2,0,L|451:304,1,45,8|0,0:2|0:2,0:2:0:0:
351,321,200838,1,0,0:2:0:0:
479,209,201009,6,0,L|483:113,1,90,10|0,0:2|0:2,0:2:0:0:
425,174,201352,2,0,L|441:85,1,90,10|0,0:2|0:2,0:2:0:0:
255,32,201695,6,0,P|294:21|355:50,1,90,10|0,0:2|0:2,0:2:0:0:
255,32,202038,2,0,P|214:46|171:35,1,90,10|0,0:2|0:2,0:2:0:0:
10,211,202381,6,0,P|0:164|24:131,1,90,10|0,0:2|0:2,0:2:0:0:
102,294,202724,1,10,0:2:0:0:
164,147,202895,1,8,0:2:0:0:
164,147,202981,1,8,0:2:0:0:
164,147,203067,6,0,P|195:168|261:147,1,90,14|0,0:2|0:2,0:2:0:0:
181,215,203409,2,0,P|212:236|278:215,1,90,8|0,0:2|0:2,0:2:0:0:
471,199,203752,6,0,L|427:114,1,90,8|0,0:2|0:2,0:2:0:0:
471,199,204095,2,0,L|512:278,1,90,8|0,0:2|0:2,0:2:0:0:
315,373,204438,6,0,P|252:349|211:370,1,90,10|0,0:2|0:2,0:2:0:0:
354,313,204781,2,0,P|290:294|249:315,1,90,10|0,0:2|0:2,0:2:0:0:
31,291,205124,6,0,L|80:278,1,45,10|0,0:2|0:2,0:2:0:0:
165,152,205295,2,0,L|173:215,1,45,8|0,0:2|0:2,0:2:0:0:
233,354,205467,2,0,L|173:349,1,45,10|0,0:2|0:2,0:2:0:0:
296,192,205638,1,8,0:2:0:0:
296,192,205724,1,8,0:2:0:0:
296,192,205809,5,12,1:2:0:0:
328,61,205981,1,8,0:2:0:0:
428,207,206152,1,8,0:2:0:0:
477,64,206324,1,8,0:2:0:0:
465,67,206495,5,8,1:2:0:0:
447,211,206667,1,8,0:2:0:0:
325,44,206838,1,8,0:2:0:0:
294,212,207009,1,8,0:2:0:0:
130,147,207181,5,8,1:2:0:0:
98,313,207352,1,8,0:2:0:0:
291,236,207524,1,8,0:2:0:0:
404,349,207695,1,8,0:2:0:0:
415,368,207867,5,8,1:2:0:0:
288,186,208038,1,8,0:2:0:0:
87,352,208209,1,8,0:2:0:0:
103,134,208381,1,8,0:2:0:0:
300,32,208552,5,8,1:2:0:0:
342,31,208637,1,0,3:2:0:0:
384,32,208723,1,0,3:2:0:0:
433,33,208809,1,0,3:2:0:0:
387,108,208895,5,8,1:2:0:0:
351,110,208980,1,0,3:2:0:0:
307,112,209066,1,0,3:2:0:0:
269,114,209152,1,0,3:2:0:0:
209,153,209237,5,8,1:2:0:0:
179,190,209324,1,0,3:2:0:0:
179,234,209409,1,0,3:2:0:0:
201,270,209495,1,0,3:2:0:0:
235,291,209580,5,8,1:2:0:0:
241,321,209667,1,0,3:2:0:0:
233,348,209752,1,0,3:2:0:0:
216,368,209838,1,0,3:2:0:0:
216,368,209923,5,4,0:2:0:0:
188,345,211124,5,8,0:2:0:0:
188,345,211209,1,0,3:2:0:0:
188,345,211295,6,0,P|205:276|166:203,1,153.000002918243,6|0,3:1|0:2,0:2:0:0:
54,349,211638,1,2,3:2:0:0:
270,252,211809,2,0,P|202:284|124:265,1,153.000002918243,2|0,0:2|3:2,0:2:0:0:
391,336,212152,2,0,L|399:238,1,76.5000014591217,2|0,1:2|0:2,0:2:0:0:
508,143,212324,2,0,L|511:219,1,76.5000014591217,2|0,3:2|0:2,0:2:0:0:
339,147,212495,2,0,L|367:75,1,76.5000014591217,2|0,1:2|0:2,0:2:0:0:
483,13,212667,1,2,3:2:0:0:
397,259,212838,2,0,P|327:291|263:233,1,153.000002918243,2|0,0:1|3:2,0:2:0:0:
88,69,213181,6,0,P|123:135|90:219,1,153.000002918243,2|0,0:2|3:2,0:2:0:0:
177,52,213524,1,2,1:3:0:0:
19,141,213695,1,2,3:2:0:0:
177,248,213867,1,2,1:3:0:0:
19,362,214038,2,0,P|73:371|106:347,1,76.5000014591217,2|0,3:2|0:2,0:2:0:0:
209,320,214209,2,0,P|284:312|336:374,1,153.000002918243,2|0,0:2|3:2,0:2:0:0:
492,185,214552,2,0,P|420:213|337:180,1,153.000002918243,2|0,0:2|3:2,0:2:0:0:
500,280,214895,1,2,1:3:0:0:
418,105,215067,1,2,3:2:0:0:
290,273,215238,1,2,1:3:0:0:
135,125,215409,2,0,P|107:55|159:12,2,153.000002918243,2|0|0,3:2|0:2|3:2,0:2:0:0:
189,311,215924,6,0,P|218:248|189:175,1,153.000002918243,2|0,0:2|3:2,0:2:0:0:
135,359,216267,1,2,1:2:0:0:
68,244,216438,1,2,3:2:0:0:
135,125,216609,1,2,1:2:0:0:
320,244,216781,6,0,P|393:230|459:279,1,153.000002918243,2|0,3:2|0:2,0:2:0:0:
277,345,217124,1,2,3:2:0:0:
360,168,217295,2,0,P|394:242|356:315,1,153.000002918243,2|0,0:2|3:2,0:2:0:0:
60,283,217638,2,0,L|92:207,1,76.5000014591217,2|0,1:2|0:2,0:2:0:0:
225,152,217809,2,0,L|197:235,1,76.5000014591217,2|0,3:2|0:2,0:2:0:0:
63,107,217981,2,0,L|116:39,1,76.5000014591217,2|0,1:2|0:2,0:2:0:0:
254,14,218152,1,2,3:2:0:0:
89,212,218324,2,0,P|149:262|204:216,1,153.000002918243,2|0,0:1|3:2,0:2:0:0:
410,49,218667,6,0,P|440:118|400:194,1,153.000002918243,2|0,0:2|3:2,0:2:0:0:
474,16,219010,1,2,1:3:0:0:
315,127,219181,1,2,3:2:0:0:
491,231,219353,1,2,1:3:0:0:
268,352,219524,2,0,P|306:364|353:341,1,76.5000014591217,2|0,3:2|0:2,0:2:0:0:
240,281,219695,2,0,P|183:257|95:296,1,153.000002918243,2|0,0:2|3:2,0:2:0:0:
318,218,220038,2,0,P|343:145|283:83,1,153.000002918243,2|0,0:2|3:2,0:2:0:0:
389,261,220381,1,2,1:3:0:0:
224,164,220553,1,2,3:2:0:0:
398,55,220724,1,2,1:3:0:0:
183,21,220895,2,0,P|127:57|29:40,1,153.000002918243,2|0,3:2|0:2,0:2:0:0:
224,164,221238,5,6,3:3:0:0:
158,273,221409,1,2,0:3:0:0:
23,146,221581,1,2,3:3:0:0:
57,243,221752,1,2,1:3:0:0:
130,76,221924,1,4,3:2:0:0:
125,182,222095,1,0,1:2:0:0:
335,287,222267,6,0,B|311:271|308:231|335:215|342:176|315:144,1,153.000002918243,4|0,3:1|1:2,0:2:0:0:
255,355,222610,1,2,3:2:0:0:
403,198,222781,2,0,P|336:231|264:213,1,153.000002918243,2|0,1:2|3:2,0:2:0:0:
505,340,223124,2,0,L|488:246,1,76.5000014591217,2|0,1:2|0:2,0:2:0:0:
404,121,223296,2,0,L|403:223,1,76.5000014591217,2|0,3:2|0:2,0:2:0:0:
511,80,223467,2,0,L|477:-5,1,76.5000014591217,2|0,1:2|0:2,0:2:0:0:
476,174,223639,1,2,3:2:0:0:
271,36,223810,2,0,P|185:20|113:81,1,153.000002918243,2|0,1:1|3:2,0:2:0:0:
230,279,224153,6,0,P|248:205|207:136,1,153.000002918243,2|0,1:2|3:2,0:2:0:0:
309,322,224496,1,2,1:3:0:0:
140,228,224667,1,2,3:2:0:0:
322,148,224838,1,2,1:3:0:0:
158,351,225009,2,0,P|120:360|79:321,1,76.5000014591217,2|0,3:2|0:2,0:2:0:0:
232,355,225181,2,0,P|312:332|382:370,1,153.000002918243,2|0,1:2|3:2,0:2:0:0:
444,70,225524,2,0,P|418:138|465:211,1,153.000002918243,2|0,1:2|3:2,0:2:0:0:
343,46,225867,1,2,1:3:0:0:
510,155,226039,1,2,3:2:0:0:
344,227,226210,1,2,1:3:0:0:
192,132,226381,2,0,P|128:97|27:132,2,153.000002918243,2|0|0,3:2|1:2|3:2,0:2:0:0:
239,322,226895,6,0,P|306:352|383:311,1,153.000002918243,2|0,1:2|3:2,0:2:0:0:
182,274,227238,1,2,1:2:0:0:
302,212,227409,1,2,3:2:0:0:
429,279,227580,1,2,1:2:0:0:
478,100,227752,6,0,P|407:97|361:22,1,153.000002918243,2|0,3:2|1:2,0:2:0:0:
497,194,228095,1,2,3:2:0:0:
427,9,228266,2,0,B|454:41|433:80|408:88|392:136|420:158,1,153.000002918243,2|0,1:2|3:2,0:2:0:0:
176,350,228609,2,0,L|182:267,1,76.5000014591217,2|0,1:2|0:2,0:2:0:0:
338,190,228781,2,0,L|310:273,1,76.5000014591217,2|0,3:2|0:2,0:2:0:0:
184,124,228952,2,0,L|237:56,1,76.5000014591217,2|0,1:2|0:2,0:2:0:0:
347,10,229124,1,2,3:2:0:0:
181,273,229295,2,0,P|103:287|44:235,1,153.000002918243,2|0,1:1|3:2,0:2:0:0:
338,190,229638,6,0,P|416:167|481:228,1,153.000002918243,2|0,1:2|3:2,0:2:0:0:
279,106,229981,1,2,1:3:0:0:
401,294,230152,1,2,3:2:0:0:
503,99,230324,1,2,1:3:0:0:
264,248,230495,2,0,P|226:259|181:245,1,76.5000014591217,2|0,3:2|0:2,0:2:0:0:
150,153,230666,2,0,P|88:151|38:221,1,153.000002918243,2|0,1:2|3:2,0:2:0:0:
299,11,231009,2,0,P|275:82|314:159,1,153.000002918243,2|0,1:2|3:2,0:2:0:0:
200,16,231352,1,2,1:3:0:0:
385,125,231524,1,2,3:2:0:0:
264,248,231695,1,2,1:3:0:0:
380,313,231867,5,2,0:3:0:0:
355,271,233238,6,0,B|295:253|295:253|212:304,1,135,4|0,3:1|0:2,0:2:0:0:
206,317,233581,1,8,0:2:0:0:
73,372,233752,6,0,L|60:318,1,45,2|0,0:2|0:2,0:2:0:0:
105,247,233924,2,0,L|116:105,2,135,10|8|8,0:2|0:2|0:2,0:2:0:0:
289,352,234609,2,0,P|353:348|401:256,1,134.999995880127,0|0,3:2|0:2,0:2:0:0:
413,256,234952,1,8,0:2:0:0:
369,92,235124,6,0,L|297:84,1,44.999998626709,2|0,0:2|0:2,0:2:0:0:
225,124,235295,2,0,P|161:136|89:76,2,134.999995880127,10|8|8,0:2|0:2|0:2,0:2:0:0:
437,48,235981,2,0,B|445:200,1,134.999995880127,0|0,3:2|0:2,0:2:0:0:
433,224,236324,1,8,0:2:0:0:
329,340,236495,6,0,P|305:348|261:344,1,44.999998626709,2|0,0:2|0:2,0:2:0:0:
293,272,236667,2,0,P|241:264|185:196,2,134.999995880127,10|8|8,0:2|0:2|0:2,0:2:0:0:
457,204,237352,2,0,P|481:160|429:56,1,134.999995880127,0|0,3:2|0:2,0:2:0:0:
433,48,237695,1,8,0:2:0:0:
273,108,237867,6,0,L|209:112,1,44.999998626709,2|0,0:2|0:2,0:2:0:0:
157,61,238038,2,0,P|141:129|177:184,2,134.999995880127,10|8|8,0:2|0:2|0:2,0:2:0:0:
190,290,238724,6,0,P|137:315|89:284,2,116.999994644165,2|0|0,3:1|1:2|3:2,0:2:0:0:
338,215,239238,5,2,1:2:0:0:
338,215,239324,1,2,0:2:0:0:
338,215,239409,2,0,P|390:197|455:222,1,116.999994644165,10|0,3:2|1:2,0:2:0:0:
391,314,239667,2,0,L|393:176,1,116.999994644165,10|0,0:2|0:2,0:2:0:0:
395,119,239924,1,10,0:2:0:0:
238,214,240095,2,0,P|186:188|126:218,2,116.999994644165,2|0|0,3:1|1:2|3:2,0:2:0:0:
40,294,240609,5,2,1:2:0:0:
40,294,240695,1,2,0:2:0:0:
40,294,240781,2,0,P|15:238|32:179,1,116.999994644165,10|0,3:2|1:2,0:2:0:0:
134,208,241038,2,0,P|146:145|102:92,1,116.999994644165,10|0,0:2|0:2,0:2:0:0:
18,82,241295,1,10,1:2:0:0:
226,120,241467,2,0,P|279:145|327:114,2,116.999994644165,2|0|0,3:1|1:2|3:2,0:2:0:0:
456,20,241981,5,2,1:2:0:0:
456,20,242067,1,2,0:2:0:0:
456,20,242152,2,0,P|483:85|444:130,1,116.999994644165,10|0,3:2|1:2,0:2:0:0:
335,219,242410,2,0,P|306:173|337:107,1,116.999994644165,10|0,0:2|0:2,0:2:0:0:
441,226,242667,1,10,1:2:0:0:
226,120,242838,5,4,0:2:0:0:
204,97,244038,5,8,0:2:0:0:
204,97,244124,1,0,3:2:0:0:
204,97,244209,6,0,P|127:60|61:92,1,153.000002918243,6|0,3:1|1:2,0:2:0:0:
137,291,244552,2,0,P|165:221|126:148,1,153.000002918243,2|0,3:2|1:2,0:2:0:0:
32,307,244895,1,2,3:1:0:0:
242,181,245067,1,2,1:1:0:0:
205,197,245152,1,2,1:2:0:0:
166,214,245238,1,0,3:2:0:0:
337,349,245409,6,0,P|375:359|413:344,1,76.5000014591217,2|0,1:1|0:2,0:2:0:0:
399,223,245581,2,0,P|467:208|512:283,1,153.000002918243,2|0,3:2|1:2,0:2:0:0:
244,184,245924,2,0,P|176:199|123:131,1,153.000002918243,2|0,3:2|1:2,0:2:0:0:
347,136,246267,1,2,3:2:0:0:
143,314,246438,1,2,1:2:0:0:
157,275,246524,2,0,L|187:192,1,76.5000014591217,2|0,1:3|3:2,0:2:0:0:
306,3,246781,6,0,L|236:34,1,76.5000014591217,2|0,1:2|0:2,0:2:0:0:
347,136,246952,2,0,P|415:121|468:189,1,153.000002918243,2|0,3:3|1:2,0:2:0:0:
350,338,247295,2,0,P|335:270|403:217,1,153.000002918243,2|0,3:3|1:2,0:2:0:0:
259,375,247638,1,2,3:3:0:0:
450,289,247809,1,2,1:3:0:0:
407,283,247895,1,2,1:2:0:0:
366,273,247981,1,0,3:2:0:0:
154,298,248152,6,0,L|214:228,1,76.5000014591217,2|0,1:1|0:2,0:2:0:0:
53,217,248324,2,0,P|67:293|9:355,1,153.000002918243,2|0,3:2|1:2,0:2:0:0:
136,132,248667,2,0,P|91:72|105:0,1,153.000002918243,2|0,3:2|1:2,0:2:0:0:
134,218,249009,1,2,3:2:0:0:
242,50,249181,5,2,1:2:0:0:
240,94,249267,1,2,1:1:0:0:
303,254,249438,5,2,1:1:0:0:
269,224,249524,1,2,1:2:0:0:
361,57,249695,6,0,P|439:27|498:63,1,153.000002918243,2|0,3:1|1:2,0:2:0:0:
424,257,250038,2,0,P|452:187|413:114,1,153.000002918243,2|0,3:1|1:2,0:2:0:0:
508,314,250381,1,2,3:1:0:0:
341,177,250553,1,2,1:1:0:0:
389,182,250638,1,2,1:2:0:0:
430,186,250724,1,0,3:2:0:0:
274,317,250895,6,0,L|200:302,1,76.5000014591217,2|0,1:1|0:2,0:2:0:0:
129,174,251067,2,0,P|61:159|8:227,1,153.000002918243,2|0,3:2|1:2,0:2:0:0:
216,108,251410,2,0,P|284:123|337:55,1,153.000002918243,2|0,3:2|1:2,0:2:0:0:
83,114,251753,1,2,3:2:0:0:
247,8,251924,1,2,1:2:0:0:
261,47,252010,2,0,L|291:130,1,76.5000014591217,2|0,1:3|3:2,0:2:0:0:
324,344,252267,6,0,L|258:283,1,76.5000014591217,2|0,1:2|0:2,0:2:0:0:
342,193,252438,2,0,P|395:151|487:193,1,153.000002918243,2|0,3:3|1:2,0:2:0:0:
457,349,252781,2,0,P|415:313|415:205,1,153.000002918243,2|0,3:3|1:2,0:2:0:0:
324,344,253124,1,2,3:3:0:0:
491,262,253295,1,2,1:3:0:0:
456,271,253381,1,2,1:2:0:0:
416,281,253467,1,0,3:2:0:0:
187,245,253638,6,0,L|214:160,1,76.5000014591217,2|0,1:1|0:2,0:2:0:0:
99,241,253810,2,0,P|85:317|150:371,1,153.000002918243,2|0,3:2|1:2,0:2:0:0:
342,193,254152,2,0,P|356:117|291:63,1,153.000002918243,2|0,3:2|1:2,0:2:0:0:
89,35,254495,6,0,L|110:71,1,38.2500007295609,2|0,3:2|0:2,0:2:0:0:
187,245,254667,2,0,L|198:194,1,38.2500007295609,0|0,3:2|0:2,0:2:0:0:
307,66,254838,2,0,L|333:106,1,38.2500007295609,0|0,3:2|0:2,0:2:0:0:
416,290,255010,1,0,3:2:0:0:
466,274,255095,2,0,L|509:277,1,38.2500007295609,0|0,3:2|0:2,0:2:0:0:
454,229,255181,6,0,P|382:214|304:259,1,153.000002918243,6|0,3:1|1:2,0:2:0:0:
58,210,255524,2,0,P|128:238|201:199,1,153.000002918243,2|0,3:1|1:2,0:2:0:0:
42,105,255867,1,2,3:1:0:0:
165,317,256039,1,2,1:1:0:0:
153,282,256124,1,2,1:2:0:0:
135,239,256210,1,0,3:2:0:0:
329,35,256381,6,0,P|367:25|405:40,1,76.5000014591217,2|0,1:1|0:2,0:2:0:0:
393,193,256552,2,0,P|461:208|506:133,1,153.000002918243,2|0,3:2|1:2,0:2:0:0:
272,240,256896,2,0,P|204:225|151:293,1,153.000002918243,2|0,3:2|1:2,0:2:0:0:
375,288,257239,1,2,3:2:0:0:
171,110,257410,1,2,1:2:0:0:
185,149,257496,2,0,L|215:232,1,76.5000014591217,2|0,1:3|3:2,0:2:0:0:
77,371,257753,6,0,L|7:340,1,76.5000014591217,2|0,1:2|0:2,0:2:0:0:
97,226,257924,2,0,P|158:266|211:198,1,153.000002918243,2|0,3:3|1:2,0:2:0:0:
424,259,258267,2,0,P|356:274|303:206,1,153.000002918243,2|0,3:3|1:2,0:2:0:0:
461,350,258609,1,2,3:3:0:0:
375,159,258781,1,2,1:3:0:0:
369,202,258867,1,2,1:3:0:0:
359,243,258953,1,0,3:2:0:0:
238,100,259124,6,0,L|298:30,1,76.5000014591217,2|0,1:1|0:2,0:2:0:0:
138,127,259296,2,0,P|152:203|81:242,1,153.000002918243,2|0,3:2|1:2,0:2:0:0:
359,243,259638,2,0,P|302:294|334:369,1,153.000002918243,2|0,3:2|1:2,0:2:0:0:
238,100,259981,1,2,3:2:0:0:
245,287,260153,5,2,1:2:0:0:
243,243,260239,1,2,1:1:0:0:
130,84,260410,5,2,1:1:0:0:
138,127,260496,1,2,1:2:0:0:
357,122,260667,6,0,P|435:92|494:128,1,153.000002918243,2|0,3:1|1:2,0:2:0:0:
271,128,261010,2,0,P|201:156|128:117,1,153.000002918243,2|0,3:1|1:2,0:2:0:0:
323,211,261353,1,2,3:2:0:0:
125,36,261524,1,2,1:2:0:0:
130,84,261610,1,2,1:2:0:0:
134,125,261696,1,0,3:2:0:0:
195,336,261867,6,0,L|269:321,1,76.5000014591217,2|0,1:1|0:2,0:2:0:0:
143,264,262039,2,0,P|75:249|22:317,1,153.000002918243,2|0,3:2|1:2,0:2:0:0:
238,220,262382,2,0,P|306:205|359:273,1,153.000002918243,2|0,3:2|1:2,0:2:0:0:
134,125,262725,1,2,3:2:0:0:
269,320,262896,1,2,1:2:0:0:
283,281,262982,2,0,L|313:198,1,76.5000014591217,0|0,1:2|3:2,0:2:0:0:
137,8,263239,6,0,L|223:44,1,76.5000014591217,2|0,1:2|0:2,0:2:0:0:
134,125,263410,2,0,P|92:177|140:261,1,153.000002918243,2|0,3:3|1:2,0:2:0:0:
308,131,263753,2,0,P|342:171|310:260,1,153.000002918243,2|0,3:3|1:2,0:2:0:0:
447,110,264096,1,2,3:3:0:0:
280,198,264267,1,2,1:3:0:0:
315,189,264353,1,2,1:3:0:0:
355,179,264439,1,0,3:2:0:0:
134,125,264610,6,0,L|137:36,1,76.5000014591217,2|0,1:1|0:2,0:2:0:0:
38,170,264782,2,0,P|24:246|89:300,1,153.000002918243,2|0,0:2|0:2,0:2:0:0:
64,279,266152,6,0,L|228:303,1,161.999995056153,2|0,3:1|0:2,0:2:0:0:
139,70,266495,6,0,L|255:229,1,188.999994232178,2|0,3:1|0:2,0:2:0:0:
360,16,266838,6,0,L|325:235,1,216,2|0,3:1|0:2,0:2:0:0:
476,215,267181,6,0,L|341:323,1,161.999995056153,2|0,3:1|1:2,0:2:0:0:
254,342,267438,1,0,1:2:0:0:
224,302,267524,6,0,L|4:267,1,216,2|0,3:2|0:2,0:2:0:0:
250,222,267867,6,0,L|139:70,1,188.999994232178,2|0,3:2|0:2,0:2:0:0:
325,229,268209,6,0,L|357:43,1,161.999995056153,2|0,3:2|0:2,0:2:0:0:
349,316,268552,6,0,B|412:349|422:237|489:280,1,135,4|0,3:2|0:2,0:2:0:0:
284,292,268895,5,2,3:2:0:0:
150,366,269067,1,2,1:3:0:0:
11,160,269238,1,2,3:2:0:0:
184,231,269409,1,2,1:3:0:0:
293,24,269581,2,0,P|218:12|169:82,1,161.999995056153,2|0,3:2|1:2,0:2:0:0:
262,120,269838,1,0,1:2:0:0:
262,120,269924,1,0,3:2:0:0:
504,24,270095,2,0,P|460:66|512:159,1,161.999995056153,2|0,1:2|3:2,0:2:0:0:
379,31,270438,1,2,1:3:0:0:
427,254,270609,1,2,3:2:0:0:
184,231,270781,1,2,1:3:0:0:
420,137,270952,2,0,P|470:166|435:257,1,161.999995056153,2|0,3:1|1:2,0:2:0:0:
168,221,271295,2,0,P|116:261|175:338,1,161.999995056153,2|0,3:1|1:2,0:2:0:0:
429,367,271638,6,0,L|258:314,1,161.999995056153,4|0,3:1|0:2,0:2:0:0:
53,348,271981,6,0,L|194:370,1,135,2|0,3:2|0:2,0:2:0:0:
69,265,272324,6,0,L|254:220,1,161.999995056153,2|0,3:2|0:2,0:2:0:0:
11,206,272667,6,0,L|103:121,1,125.999996154785,2|0,3:2|1:2,0:2:0:0:
187,14,272924,1,0,1:2:0:0:
223,11,273009,6,0,L|103:120,1,161.999995056153,2|0,3:3|0:2,0:2:0:0:
358,141,273352,6,0,L|174:186,1,188.999994232178,2|0,3:1|0:2,0:2:0:0:
352,313,273695,6,0,L|139:276,1,216,2|0,3:1|0:2,0:2:0:0:
202,104,274038,6,0,B|290:41|309:217|413:201,1,242.999992584229,4|0,3:2|0:2,0:2:0:0:
506,118,274381,5,2,3:2:0:0:
488,301,274552,1,0,1:2:0:0:
280,345,274724,1,2,3:2:0:0:
400,202,274895,1,2,1:2:0:0:
219,28,275067,2,0,P|270:69|211:170,1,161.999995056153,2|0,3:2|1:2,0:2:0:0:
161,109,275324,1,0,1:2:0:0:
161,109,275409,1,0,3:2:0:0:
10,253,275581,2,0,P|72:280|143:228,1,161.999995056153,2|0,1:1|3:2,0:2:0:0:
2,146,275924,1,2,1:2:0:0:
215,305,276095,1,2,3:2:0:0:
267,47,276267,1,0,1:2:0:0:
441,227,276438,2,0,P|388:275|310:236,1,161.999995056153,2|0,3:1|1:2,0:2:0:0:
121,79,276781,2,0,P|179:30|248:63,1,161.999995056153,2|0,3:1|1:2,0:2:0:0:
198,356,277124,6,0,L|27:335,1,161.999995056153,4|0,3:1|0:2,0:2:0:0:
218,278,277467,6,0,L|95:105,1,188.999994232178,2|0,3:1|0:2,0:2:0:0:
301,278,277809,6,0,L|360:66,1,216,2|0,3:1|0:2,0:2:0:0:
348,352,278152,6,0,L|501:276,1,161.999995056153,2|0,3:1|1:2,0:2:0:0:
478,161,278409,1,0,1:2:0:0:
458,198,278495,6,0,L|335:369,1,188.999994232178,2|0,3:3|0:2,0:2:0:0:
218,278,278838,6,0,L|134:58,1,216,2|0,3:2|0:2,0:2:0:0:
335,10,279181,6,0,L|301:278,1,270,2|0,3:1|0:2,0:2:0:0:
198,356,279524,6,0,B|88:392|132:196|4:234,1,242.999992584229,4|0,3:2|0:2,0:2:0:0:
30,110,279867,5,2,3:2:0:0:
175,178,280038,1,0,1:2:0:0:
347,9,280209,1,2,3:2:0:0:
174,42,280381,1,2,1:3:0:0:
339,192,280552,2,0,P|380:132|473:155,1,161.999995056153,2|0,3:2|1:2,0:2:0:0:
427,242,280809,1,0,1:2:0:0:
427,242,280895,1,0,3:2:0:0:
205,300,281067,2,0,P|249:352|336:329,1,161.999995056153,2|0,1:2|3:2,0:2:0:0:
227,211,281409,1,2,1:3:0:0:
431,352,281581,1,2,3:2:0:0:
138,382,281752,1,2,1:3:0:0:
354,114,281924,2,0,P|391:187|328:240,1,161.999995056153,2|0,3:1|1:2,0:2:0:0:
62,293,282267,2,0,P|12:234|50:169,1,161.999995056153,2|0,3:1|1:2,0:2:0:0:
228,13,282609,6,0,L|212:214,1,161.999995056153,4|0,3:1|0:2,0:2:0:0:
161,349,282952,6,0,L|117:209,1,135,2|0,3:2|0:2,0:2:0:0:
238,300,283295,6,0,L|255:112,1,161.999995056153,2|0,3:2|0:2,0:2:0:0:
301,367,283638,6,0,L|376:249,1,125.999996154785,2|0,3:2|1:2,0:2:0:0:
455,166,283895,1,0,1:2:0:0:
454,122,283981,6,0,L|368:260,1,161.999995056153,2|0,3:3|0:2,0:2:0:0:
263,17,284324,6,0,L|246:206,1,188.999994232178,2|0,3:2|0:2,0:2:0:0:
68,38,284667,6,0,L|139:270,1,242.999992584229,2|0,3:1|0:2,0:2:0:0:
213,107,285009,6,0,B|306:40|315:222|413:175,1,216,4|0,3:2|0:2,0:2:0:0:
462,88,285352,5,2,0:2:0:0:
445,126,288095,6,0,L|420:216,1,90,2|0,1:2|0:2,0:2:0:0:
356,235,288438,2,0,L|383:140,1,90,2|0,1:2|0:2,0:2:0:0:
356,235,288952,1,2,0:2:0:0:
290,295,289124,1,2,1:3:0:0:
224,234,289295,1,2,0:2:0:0:
121,92,289467,6,0,L|126:194,1,90,2|0,1:2|0:2,0:2:0:0:
65,249,289809,2,0,L|140:317,1,90,2|0,1:2|0:2,0:2:0:0:
121,92,290152,2,0,L|223:87,1,90,2|0,1:2|0:2,0:2:0:0:
10,82,290495,2,0,L|78:6,1,90,2|0,1:3|0:2,0:2:0:0:
69,338,290838,6,0,L|64:236,1,90,2|0,1:2|0:2,0:2:0:0:
160,305,291181,2,0,L|228:229,1,90,2|0,1:2|0:2,0:2:0:0:
126,84,291524,2,0,L|227:79,1,90,2|0,1:2|0:2,0:2:0:0:
364,230,291867,2,0,L|439:298,1,90,2|0,1:3|0:2,0:2:0:0:
215,79,292209,6,0,P|283:124|368:51,1,180,2|2,1:2|0:3,0:2:0:0:
360,78,292895,2,0,L|373:187,1,90,2|0,1:2|0:2,0:2:0:0:
384,264,293238,1,2,0:3:0:0:
384,264,293581,6,0,P|369:317|403:368,1,107.999996704102,6|0,3:1|0:2,0:2:0:0:
512,206,293924,2,0,P|527:259|493:310,1,107.999996704102,10|0,1:2|3:2,0:2:0:0:
429,188,294266,1,2,3:2:0:0:
501,63,294438,1,0,3:2:0:0:
323,103,294609,1,10,1:2:0:0:
414,108,294781,1,0,0:2:0:0:
258,325,294952,6,0,P|274:270|329:250,1,107.999996704102,2|0,3:1|0:2,0:2:0:0:
354,270,295209,1,2,3:2:0:0:
388,240,295295,1,10,1:2:0:0:
276,144,295466,1,2,3:2:0:0:
177,217,295638,1,0,3:2:0:0:
45,155,295809,1,0,3:2:0:0:
165,59,295981,1,10,1:2:0:0:
138,135,296152,1,2,0:2:0:0:
383,152,296323,6,0,P|368:99|402:48,1,107.999996704102,2|0,3:1|0:2,0:2:0:0:
493,263,296666,2,0,P|508:210|474:159,1,107.999996704102,10|0,1:2|3:2,0:2:0:0:
408,288,297008,1,2,3:2:0:0:
313,170,297180,1,0,3:2:0:0:
242,307,297351,1,10,1:2:0:0:
278,295,297523,1,0,0:2:0:0:
154,79,297695,6,0,P|209:95|229:150,1,107.999996704102,2|0,3:1|0:2,0:2:0:0:
225,177,297951,1,2,3:2:0:0:
250,215,298037,1,10,1:2:0:0:
394,178,298209,1,2,3:2:0:0:
229,137,298380,1,0,3:2:0:0:
313,281,298551,1,2,3:2:0:0:
344,53,298724,1,10,1:2:0:0:
316,136,298894,1,2,0:2:0:0:
91,41,299066,6,0,P|73:93|107:144,1,107.999996704102,2|0,3:1|0:2,0:2:0:0:
161,307,299409,2,0,P|176:254|142:203,1,107.999996704102,10|0,1:2|3:2,0:2:0:0:
48,297,299751,1,2,3:2:0:0:
202,379,299923,1,0,3:2:0:0:
284,171,300094,1,10,1:2:0:0:
256,211,300266,1,0,0:2:0:0:
364,337,300438,6,0,P|419:321|439:266,1,107.999996704102,2|0,3:1|0:2,0:2:0:0:
422,246,300694,1,0,3:2:0:0:
447,207,300780,1,10,1:2:0:0:
329,51,300951,1,2,3:2:0:0:
393,158,301124,1,0,3:2:0:0:
475,60,301295,1,0,3:2:0:0:
249,137,301466,1,10,1:2:0:0:
203,45,301637,1,2,0:2:0:0:
135,282,301809,6,0,P|82:297|31:263,1,107.999996704102,2|0,3:1|0:2,0:2:0:0:
249,137,302152,2,0,P|196:122|145:156,1,107.999996704102,8|0,1:2|3:2,0:2:0:0:
316,251,302495,1,0,3:2:0:0:
308,47,302667,1,0,3:2:0:0:
152,146,302838,1,10,1:2:0:0:
174,181,304552,6,0,P|220:198|290:166,1,107.999996704102,4|0,1:2|0:2,0:2:0:0:
350,55,304895,2,0,P|304:38|234:70,2,107.999996704102,0|2|0,1:2|0:2|1:2,0:2:0:0:
501,175,305409,1,2,0:2:0:0:
430,297,305581,1,0,1:2:0:0:
352,181,305752,1,2,0:2:0:0:
174,181,305924,6,0,P|153:230|185:287,2,107.999996704102,2|0|0,1:1|0:2|1:2,0:2:0:0:
283,88,306438,1,2,0:2:0:0:
283,88,306609,1,0,1:2:0:0:
108,90,306781,1,2,0:2:0:0:
248,237,306952,1,0,1:2:0:0:
77,302,307124,1,2,0:2:0:0:
301,344,307295,6,0,P|347:361|417:329,1,107.999996704102,2|0,1:1|0:2,0:2:0:0:
369,203,307638,2,0,P|419:186|469:203,2,107.999996704102,0|2|0,1:2|0:2|1:2,0:2:0:0:
166,252,308152,1,2,0:2:0:0:
224,377,308324,1,0,1:2:0:0:
71,350,308495,1,2,0:2:0:0:
275,159,308667,6,0,P|296:110|264:53,2,107.999996704102,2|0|0,1:1|0:2|1:2,0:2:0:0:
166,252,309181,1,2,0:2:0:0:
166,252,309352,1,0,1:2:0:0:
341,250,309524,1,2,0:2:0:0:
201,103,309695,1,2,1:2:0:0:
371,39,309867,1,2,0:2:0:0:
349,233,310038,5,8,1:2:0:0:
496,208,310209,1,8,0:2:0:0:
231,106,310381,5,8,1:2:0:0:
401,137,310552,1,8,0:2:0:0:
88,289,310723,5,8,1:2:0:0:
276,204,310895,1,8,0:2:0:0:
52,179,311066,1,8,1:2:0:0:
214,304,311238,1,8,0:2:0:0:
153,31,311409,5,8,1:2:0:0:
161,210,311581,1,8,0:2:0:0:
349,258,311752,5,8,1:2:0:0:
267,92,311923,1,8,0:2:0:0:
477,92,312095,5,8,1:2:0:0:
391,359,312266,1,8,0:2:0:0:
395,137,312438,1,8,1:2:0:0:
198,337,312609,1,8,0:2:0:0:
266,56,312781,5,8,1:2:0:0:
232,29,312866,1,0,3:2:0:0:
196,23,312952,1,0,3:2:0:0:
162,39,313038,1,0,3:2:0:0:
135,68,313124,1,8,1:2:0:0:
125,104,313209,1,0,3:2:0:0:
92,123,313295,1,0,3:2:0:0:
56,112,313381,1,0,3:2:0:0:
37,80,313467,1,8,1:2:0:0:
48,43,313552,1,0,3:2:0:0:
80,24,313638,1,0,3:2:0:0:
117,35,313724,1,0,3:2:0:0:
145,58,313809,1,8,1:2:0:0:
165,89,313895,1,0,3:2:0:0:
167,126,313981,1,0,3:2:0:0:
152,161,314067,1,0,3:2:0:0:
112,188,314152,5,8,1:2:0:0:
137,230,314239,1,0,3:2:0:0:
178,255,314325,1,0,3:2:0:0:
226,258,314409,1,8,0:2:0:0:
269,237,314495,1,8,1:2:0:0:
305,204,314581,1,0,3:2:0:0:
317,156,314667,1,8,0:2:0:0:
299,110,314752,1,0,3:2:0:0:
271,63,314838,1,8,1:2:0:0:
290,12,314924,1,0,3:2:0:0:
342,3,315009,1,0,3:2:0:0:
381,40,315095,1,8,0:2:0:0:
382,88,315181,1,8,1:2:0:0:
349,131,315267,1,8,0:2:0:0:
333,182,315353,1,0,3:2:0:0:
346,233,315438,1,0,3:2:0:0:
397,293,315524,5,0,3:2:0:0:
397,293,315695,1,0,3:2:0:0:
440,340,316724,5,8,0:2:0:0:
440,340,316809,1,0,3:2:0:0:
440,340,316895,6,0,P|475:313|432:310,1,107.999996704102,4|0,3:1|0:2,0:2:0:0:
430,191,317238,2,0,P|448:145|395:163,1,125.999996154785,2|0,3:2|0:2,0:2:0:0:
236,86,317581,2,0,P|205:36|174:95,1,144,2|0,3:2|0:2,0:2:0:0:
19,311,317924,2,0,P|70:281|170:295,1,161.999995056153,2|0,3:1|0:2,0:2:0:0:
335,326,318267,6,0,P|408:360|486:333,1,161.999995056153,2|0,3:1|0:2,0:2:0:0:
330,142,318609,2,0,P|355:97|371:161,1,144,2|0,3:2|0:2,0:2:0:0:
318,279,318952,2,0,P|336:325|291:295,1,125.999996154785,2|0,3:2|0:2,0:2:0:0:
164,320,319295,2,0,P|129:347|172:350,1,107.999996704102,2|0,3:3|0:2,0:2:0:0:
69,220,319638,6,0,P|30:244|76:231,1,107.999996704102,2|0,3:3|0:2,0:2:0:0:
145,32,319981,2,0,P|163:72|103:72,1,125.999996154785,2|0,3:2|0:2,0:2:0:0:
358,132,320324,2,0,P|305:106|283:43,1,125.999996154785,2|0,3:2|0:2,0:2:0:0:
439,127,320667,2,0,P|474:154|430:160,1,107.999996704102,2|0,3:3|0:2,0:2:0:0:
210,179,321009,6,0,P|240:236|212:291,1,125.999996154785,2|0,3:2|0:2,0:2:0:0:
495,227,321352,2,0,P|468:262|432:222,1,107.999996704102,2|0,3:3|0:2,0:2:0:0:
328,306,321695,2,0,P|365:337|319:364,1,107.999996704102,2|0,3:3|0:2,0:2:0:0:
43,354,322038,2,0,P|111:334|175:365,1,144,2|0,3:1|0:2,0:2:0:0:
47,158,322381,6,0,P|12:185|57:178,1,107.999996704102,2|0,3:3|0:2,0:2:0:0:
173,44,322724,2,0,P|155:90|210:72,1,125.999996154785,2|0,3:2|0:2,0:2:0:0:
294,294,323067,2,0,P|318:246|359:299,1,144,2|0,3:2|0:2,0:2:0:0:
489,63,323410,2,0,P|421:93|349:64,1,144,2|0,3:1|0:2,0:2:0:0:
163,48,323752,6,0,P|93:40|35:95,1,144,2|0,3:1|0:2,0:2:0:0:
182,264,324095,2,0,P|154:305|134:252,1,125.999996154785,2|0,3:2|0:2,0:2:0:0:
330,202,324438,2,0,P|321:158|367:172,1,107.999996704102,2|0,3:2|0:2,0:2:0:0:
445,310,324781,2,0,P|472:282|440:280,1,90,2|0,3:3|0:2,0:2:0:0:
161,347,325124,6,0,P|222:373|290:320,1,144,2|0,3:1|0:2,0:2:0:0:
128,232,325467,2,0,P|125:174|67:189,1,125.999996154785,2|0,3:2|0:2,0:2:0:0:
298,76,325809,2,0,P|298:21|356:29,1,125.999996154785,2|0,3:2|0:2,0:2:0:0:
420,205,326152,2,0,P|385:170|427:168,1,107.999996704102,2|0,3:3|0:2,0:2:0:0:
287,337,326495,6,0,L|127:351,1,153.000002918243,2|0,3:2|0:2,0:2:0:0:
120,322,326838,2,0,L|272:308,1,153.000002918243,2|0,3:2|0:2,0:2:0:0:
475,223,327181,5,2,3:2:0:0:
372,90,327352,1,2,0:1:0:0:
224,219,327524,6,0,P|293:159|403:237,1,229.500004377365,2|0,3:3|0:2,0:2:0:0:
398,307,327867,5,2,3:2:0:0:
398,307,328209,2,0,P|377:360|347:303,1,153.000002918243,4|0,3:1|1:2,0:2:0:0:
411,85,328552,1,2,3:2:0:0:
232,205,328724,1,0,1:2:0:0:
314,57,328895,1,2,3:1:0:0:
475,236,329067,1,0,1:2:0:0:
232,205,329238,6,0,P|160:259|89:219,1,161.999995056153,2|0,3:1|1:2,0:2:0:0:
222,76,329581,2,0,P|192:37|139:100,1,144,2|0,3:2|1:2,0:2:0:0:
355,235,329924,2,0,P|337:281|414:311,1,125.999996154785,2|0,3:2|1:2,0:2:0:0:
234,269,330267,1,2,3:3:0:0:
108,362,330438,1,0,1:2:0:0:
24,103,330609,6,0,P|-5:142|30:234,1,144,2|0,3:1|1:2,0:2:0:0:
248,278,330952,2,0,P|199:310|152:264,1,125.999996154785,0|0,3:2|1:2,0:2:0:0:
287,111,331295,2,0,P|333:138|398:85,1,125.999996154785,0|0,3:2|1:2,0:2:0:0:
177,67,331638,1,2,3:3:0:0:
329,226,331809,1,0,1:2:0:0:
482,19,331980,6,0,P|513:62|479:133,1,125.999996154785,2|0,3:2|1:2,0:2:0:0:
329,226,332324,2,0,P|380:215|424:263,1,107.999996704102,2|0,3:2|1:2,0:2:0:0:
320,367,332667,2,0,P|371:378|415:330,1,107.999996704102,2|0,3:2|1:2,0:2:0:0:
245,224,333009,1,2,3:1:0:0:
375,98,333181,1,0,1:2:0:0:
115,34,333352,6,0,P|79:65|30:18,1,107.999996704102,2|0,3:3|1:2,0:2:0:0:
142,232,333695,2,0,P|189:197|254:253,1,125.999996154785,2|0,3:2|1:2,0:2:0:0:
375,98,334038,1,2,3:2:0:0:
461,257,334209,1,0,1:2:0:0:
300,29,334381,1,2,3:1:0:0:
331,208,334552,1,0,1:2:0:0:
214,52,334723,6,0,P|147:37|106:91,1,144,2|0,3:1|1:2,0:2:0:0:
159,248,335067,2,0,P|121:273|41:206,1,161.999995056153,2|0,3:2|1:2,0:2:0:0:
224,161,335409,1,2,3:2:0:0:
152,342,335581,1,0,1:2:0:0:
331,208,335752,1,2,3:3:0:0:
418,368,335924,1,0,1:2:0:0:
159,248,336095,6,0,P|121:273|41:206,1,161.999995056153,2|0,3:1|1:2,0:2:0:0:
173,70,336438,2,0,P|211:45|288:113,1,144,2|0,3:2|1:2,0:2:0:0:
423,236,336781,2,0,P|385:261|322:207,1,125.999996154785,2|0,3:2|1:2,0:2:0:0:
477,156,337124,1,2,3:2:0:0:
383,355,337295,1,0,1:2:0:0:
267,273,337467,5,4,0:2:0:0:
308,295,338838,6,0,P|230:326|188:272,1,144,4|0,3:1|1:2,0:2:0:0:
264,107,339181,2,0,P|219:167|271:251,1,161.999995056153,2|2,3:2|1:2,0:2:0:0:
37,173,339524,2,0,P|82:233|26:323,1,180,2|2,3:2|1:2,0:2:0:0:
88,96,339867,1,2,3:1:0:0:
305,186,340038,1,2,1:2:0:0:
305,186,340124,1,2,1:2:0:0:
305,186,340209,6,0,P|384:220|454:156,1,180,2|0,3:1|1:2,0:2:0:0:
338,38,340552,1,2,3:2:0:0:
376,220,340724,1,2,1:1:0:0:
197,44,340895,2,0,P|112:35|89:101,1,161.999995056153,2|0,3:2|1:2,0:2:0:0:
250,240,341238,2,0,P|214:306|144:290,1,144,2|0,3:3|1:2,0:2:0:0:
501,288,341581,6,0,P|401:284|383:193,1,180,2|0,3:1|1:2,0:2:0:0:
485,41,341924,2,0,P|502:130|419:144,1,161.999995056153,2|0,3:2|1:2,0:2:0:0:
241,51,342267,2,0,L|398:75,1,144,2|0,3:2|1:2,0:2:0:0:
164,135,342609,1,2,3:3:0:0:
297,269,342781,1,2,1:2:0:0:
297,269,342867,1,2,1:2:0:0:
297,269,342952,6,0,L|132:267,1,161.999995056153,2|0,3:3|1:2,0:2:0:0:
241,51,343295,2,0,P|221:126|146:124,1,144,2|0,3:2|1:2,0:2:0:0:
383,72,343638,2,0,P|403:147|457:133,1,125.999996154785,2|0,3:2|1:2,0:2:0:0:
280,307,343981,1,2,3:1:0:0:
297,269,344067,1,2,1:2:0:0:
315,229,344152,1,2,1:2:0:0:
382,73,344324,6,0,P|314:89|273:30,1,125.999996154785,2|0,3:3|1:2,0:2:0:0:
55,97,344667,2,0,P|123:81|164:145,1,144,2|0,3:2|1:2,0:2:0:0:
453,263,345009,2,0,P|385:279|311:222,1,161.999995056153,2|0,3:2|1:2,0:2:0:0:
31,247,345352,5,2,3:1:0:0:
77,230,345438,1,2,1:2:0:0:
125,240,345524,1,2,1:2:0:0:
163,271,345609,1,2,1:2:0:0:
184,316,345695,6,0,L|165:127,1,180,2|0,3:1|1:2,0:2:0:0:
314,228,346038,2,0,P|375:277|453:263,1,161.999995056153,2|0,3:2|1:2,0:2:0:0:
394,64,346381,2,0,P|422:132|372:196,1,144,2|0,3:2|1:2,0:2:0:0:
230,89,346724,2,0,P|281:127|315:86,1,125.999996154785,2|0,3:3|1:2,0:2:0:0:
74,229,347067,6,0,P|28:139|80:62,1,180,2|0,3:1|1:2,0:2:0:0:
222,235,347409,2,0,P|141:281|176:340,1,161.999995056153,2|0,3:2|1:2,0:2:0:0:
398,240,347752,2,0,P|447:306|466:283,1,144,2|0,3:2|1:2,0:2:0:0:
266,35,348095,1,2,3:3:0:0:
306,269,348267,1,2,1:2:0:0:
306,269,348352,1,2,1:2:0:0:
306,269,348438,6,0,L|290:115,1,144,2|0,3:1|1:2,0:2:0:0:
242,31,348781,2,0,L|255:160,1,107.999996704102,2|0,3:2|1:2,0:2:0:0:
315,260,349124,2,0,L|305:159,1,80.9999975280763,2|0,3:2|1:2,0:2:0:0:
230,43,349467,2,0,L|237:107,1,53.9999983520508,2|0,3:3|0:2,1:2:0:0:
52,161,349809,6,0,P|52:138|31:149,1,53.9999983520508,4|0,3:1|0:2,0:2:0:0:
99,350,350152,2,0,P|95:383|115:364,1,62.9999980773926,2|0,3:2|0:2,0:2:0:0:
297,201,350495,2,2,P|279:175|274:195,1,72,2|2,3:2|0:2,0:2:0:0:
489,356,350838,2,0,P|454:335|464:363,1,80.9999975280763,2|0,3:1|0:2,0:2:0:0:
475,75,351181,6,0,P|438:95|411:69,1,80.9999975280763,2|0,3:1|0:2,0:2:0:0:
168,20,351524,2,0,P|198:3|235:32,1,72,2|0,3:2|0:2,0:2:0:0:
53,149,351867,2,0,P|22:165|25:138,1,62.9999980773926,2|0,3:2|0:2,0:2:0:0:
221,265,352209,2,0,P|192:254|202:277,1,53.9999983520508,2|0,3:3|0:2,0:2:0:0:
394,86,352552,6,0,P|410:118|387:170,1,80.9999975280763,2|0,3:1|0:2,0:2:0:0:
181,115,352895,2,0,P|214:105|264:127,1,72,2|0,3:2|0:2,0:2:0:0:
210,267,353238,2,0,P|202:233|216:197,1,62.9999980773926,2|0,3:2|0:2,0:2:0:0:
416,267,353581,5,2,3:1:0:0:
395,235,353667,1,2,1:2:0:0:
415,203,353752,1,2,1:2:0:0:
390,174,353838,1,2,1:2:0:0:
417,147,353924,6,0,L|392:313,1,161.999995056153,2|0,3:1|0:2,0:2:0:0:
321,362,354267,2,0,P|288:369|289:355,1,62.9999980773926,2|0,3:2|0:2,0:2:0:0:
63,246,354609,2,0,P|91:235|70:265,1,72,2|0,3:2|0:2,0:2:0:0:
247,97,354952,2,0,P|252:59|217:27,1,80.9999975280763,2|0,3:1|0:2,0:2:0:0:
213,215,355295,5,4,3:1:0:0:
233,228,355381,1,0,3:2:0:0:
255,236,355467,1,0,3:2:0:0:
278,239,355552,1,0,3:2:0:0:
301,234,355638,6,0,P|323:229|355:240,1,45,2|0,1:2|0:2,0:2:0:0:
398,314,355809,1,0,3:2:0:0:
398,314,355895,1,0,3:2:0:0:
398,314,355981,2,0,P|420:319|452:308,1,45,2|0,1:2|0:2,0:2:0:0:
415,45,356324,2,0,L|405:114,1,53.9999983520508,2|0,1:1|0:2,0:2:0:0:
343,137,356495,1,0,3:2:0:0:
343,137,356581,1,0,3:2:0:0:
343,137,356667,6,2,P|312:144|301:125,1,45,2|2,1:1|0:2,0:2:0:0:
197,32,357009,2,0,P|222:20|207:46,1,49.5000015106202,2|0,1:2|0:2,0:2:0:0:
22,138,357352,2,0,P|48:145|39:117,1,53.9999983520508,2|0,1:2|0:2,0:2:0:0:
150,304,357695,2,0,P|154:329|124:358,1,58.4999973220826,2|0,1:3|0:2,0:2:0:0:
284,162,358038,6,0,P|256:147|212:153,1,58.4999973220826,2|0,1:1|0:2,0:2:0:0:
443,227,358381,2,0,P|465:217|498:237,1,53.9999983520508,2|0,1:2|0:2,0:2:0:0:
329,311,358724,2,0,P|303:320|307:297,1,49.5000015106202,2|0,1:2|0:2,0:2:0:0:
426,333,359067,1,2,1:3:0:0:
352,231,359238,1,2,0:3:0:0:
463,137,359409,5,4,0:2:0:0:
453,140,360781,6,0,B|410:209|300:177|383:52|254:9|248:103,1,270.000010299683,4|0,0:1|0:2,0:2:0:0:
202,148,361638,2,0,L|132:137,2,67.5000025749208,2|0|0,0:2|0:2|0:2,0:2:0:0:
254,226,362152,1,2,0:2:0:0:
254,226,362495,1,0,0:2:0:0:
306,148,362666,1,2,0:2:0:0:
38,144,363009,5,2,0:2:0:0:
77,224,363181,1,2,0:3:0:0:
138,338,363352,1,2,0:2:0:0:
222,233,363524,2,0,B|273:180|351:205|390:283|317:361|275:337|258:318,1,270.000010299683,6|0,0:2|0:2,0:2:0:0:
358,229,364381,6,0,P|393:237|441:217,2,67.5000025749208,2|0|0,0:2|0:2|0:2,0:2:0:0:
388,137,364895,1,2,0:2:0:0:
388,137,365409,1,2,0:2:0:0:
153,57,365752,5,2,0:2:0:0:
252,45,365924,1,2,0:3:0:0:
382,31,366095,1,2,0:2:0:0:
321,165,366267,2,0,B|270:187|290:256|355:227|374:301|317:327,1,202.500007724762,4|0,0:2|0:2,0:2:0:0:
185,302,366952,2,0,B|145:345|96:333|78:281|89:242|127:218|132:219|163:185|135:121,1,270.000010299683,4|0,0:2|0:2,0:2:0:0:
234,85,367809,6,0,P|227:55|240:2,2,67.5000025749208,2|0|0,0:2|0:2|0:2,0:2:0:0:
234,85,368495,1,2,0:2:0:0:
315,134,368667,1,2,0:3:0:0:
425,45,368838,1,2,0:2:0:0:
451,179,369009,6,0,B|382:222|414:332|539:249|582:378|488:384,1,270.000010299683,4|0,0:2|0:2,0:2:0:0:
301,354,370038,5,2,0:2:0:0:
198,328,370210,1,2,0:3:0:0:
125,190,370381,5,2,0:2:0:0:
109,200,371752,6,0,P|94:147|128:96,1,107.999996704102,4|0,3:1|0:2,0:2:0:0:
221,192,372095,2,0,P|236:245|202:296,1,107.999996704102,8|0,1:2|1:2,0:2:0:0:
206,97,372437,1,0,3:2:0:0:
335,34,372609,1,0,1:2:0:0:
369,216,372780,1,8,1:2:0:0:
334,181,372952,1,0,0:2:0:0:
464,46,373123,6,0,P|482:103|496:155,1,107.999996704102,0|0,3:2|0:2,0:2:0:0:
502,189,373380,1,0,1:2:0:0:
512,224,373466,1,8,1:2:0:0:
401,142,373637,1,0,1:2:0:0:
318,274,373809,1,0,3:2:0:0:
462,299,373980,1,0,1:2:0:0:
298,156,374152,1,10,1:2:0:0:
334,181,374323,1,2,0:2:0:0:
169,290,374495,6,0,P|116:305|65:271,1,107.999996704102,2|0,3:1|0:2,0:2:0:0:
117,180,374837,2,0,P|170:165|221:199,1,107.999996704102,8|0,1:2|1:2,0:2:0:0:
312,365,375181,1,0,3:2:0:0:
401,259,375351,1,0,1:2:0:0:
213,189,375524,1,8,1:2:0:0:
248,215,375694,1,0,0:2:0:0:
377,99,375867,6,0,P|361:44|306:24,1,107.999996704102,0|0,3:2|0:2,0:2:0:0:
280,40,376124,1,0,1:2:0:0:
239,17,376209,1,8,1:2:0:0:
128,84,376381,1,0,1:2:0:0:
306,143,376552,1,0,3:2:0:0:
167,171,376724,1,0,1:2:0:0:
312,304,376894,1,10,1:2:0:0:
248,217,377067,1,2,0:2:0:0:
327,30,377238,5,8,1:2:0:0:
337,190,377409,1,8,0:2:0:0:
454,95,377581,1,8,0:2:0:0:
221,89,377752,5,8,1:2:0:0:
373,270,377923,1,8,0:2:0:0:
183,312,378095,1,8,0:2:0:0:
370,127,378267,5,8,1:2:0:0:
448,327,378438,1,8,0:2:0:0:
223,159,378609,5,8,1:2:0:0:
134,373,378781,1,8,0:2:0:0:
0,204,378952,1,8,0:2:0:0:
257,317,379123,5,8,1:2:0:0:
153,80,379295,1,8,0:2:0:0:
404,127,379466,1,8,0:2:0:0:
123,275,379638,5,8,1:2:0:0:
248,56,379809,1,8,0:2:0:0:
254,282,379981,5,8,1:2:0:0:
277,304,380066,1,0,3:2:0:0:
306,316,380152,1,0,3:2:0:0:
338,320,380238,1,0,3:2:0:0:
369,313,380324,1,0,3:2:0:0:
397,297,380410,1,0,3:2:0:0:
436,222,380495,5,8,1:2:0:0:
445,185,380581,1,0,3:2:0:0:
451,147,380667,1,0,3:2:0:0:
457,110,380752,1,0,3:2:0:0:
465,72,380838,1,0,3:2:0:0:
472,34,380924,1,0,3:2:0:0:
379,0,381010,5,8,1:2:0:0:
376,48,381095,1,0,3:2:0:0:
374,98,381181,1,0,3:2:0:0:
373,143,381267,1,0,3:2:0:0:
373,143,381352,5,0,3:2:0:0:
243,63,381524,1,0,3:2:0:0:
276,111,382552,5,8,0:2:0:0:
276,111,382638,1,0,3:2:0:0:
276,111,382724,6,0,P|199:76|131:122,1,153.000002918243,4|0,3:1|0:2,0:2:0:0:
362,192,383067,2,0,P|392:125|337:47,1,153.000002918243,2|0,3:2|0:2,0:2:0:0:
253,228,383409,2,0,P|223:295|278:373,1,153.000002918243,2|0,3:2|0:2,0:2:0:0:
455,247,383752,1,2,3:1:0:0:
402,267,383838,1,2,1:1:0:0:
350,286,383924,1,2,1:2:0:0:
357,58,384095,6,0,P|391:124|362:192,1,153.000002918243,2|0,3:2|0:2,0:2:0:0:
258,362,384437,2,0,P|224:296|254:229,1,153.000002918243,2|0,3:2|0:2,0:2:0:0:
142,104,384781,6,0,P|210:75|276:112,1,153.899998121338,2|0,3:2|0:2,0:2:0:0:
361,192,385124,2,0,L|419:182,1,51.2999993737793,2|0,3:2|0:2,0:2:0:0:
254,228,385295,2,0,L|196:238,1,51.2999993737793,2|0,3:1|0:2,0:2:0:0:
94,269,385467,6,0,L|52:111,1,153.000002918243,2|0,3:2|0:2,0:2:0:0:
227,348,385809,2,0,L|269:190,1,153.000002918243,2|0,3:2|0:2,0:2:0:0:
472,250,386152,2,0,L|430:92,1,153.000002918243,2|0,3:2|0:2,0:2:0:0:
325,309,386495,1,2,3:1:0:0:
312,256,386581,1,2,1:1:0:0:
296,204,386667,1,2,1:2:0:0:
54,121,386838,6,0,L|94:269,1,153.000002918243,2|0,3:2|0:2,0:2:0:0:
266,200,387180,2,0,L|227:348,1,153.000002918243,2|0,3:2|0:2,0:2:0:0:
432,102,387524,6,0,L|473:251,1,153.899998121338,2|0,3:2|0:2,0:2:0:0:
384,335,387867,2,0,L|370:278,1,51.2999993737793,2|0,3:2|0:2,0:2:0:0:
254,150,388038,2,0,L|268:207,1,51.2999993737793,2|0,2:3|2:2,2:2:0:0:
179,60,388209,6,0,P|256:25|324:71,1,153.000002918243,2|0,3:2|1:2,0:2:0:0:
93,141,388552,2,0,P|63:74|118:-4,1,153.000002918243,2|0,3:2|1:2,0:2:0:0:
201,178,388895,2,0,P|231:245|176:323,1,153.000002918243,2|0,3:2|1:2,0:2:0:0:
0,196,389237,1,2,3:1:0:0:
53,216,389323,1,2,1:1:0:0:
105,235,389409,1,2,1:2:0:0:
97,7,389581,6,0,P|63:73|93:141,1,153.000002918243,2|0,3:2|1:2,0:2:0:0:
196,311,389924,2,0,P|229:245|200:177,1,153.000002918243,2|0,3:2|1:2,0:2:0:0:
312,53,390267,6,0,P|244:24|179:60,1,153.899998121338,2|0,3:1|0:2,0:2:0:0:
293,148,390609,2,0,L|351:158,1,51.2999993737793,2|0,3:2|0:2,0:2:0:0:
419,80,390781,2,0,L|477:70,1,51.2999993737793,0|0,3:2|0:2,0:2:0:0:
446,184,390952,6,0,L|488:342,1,153.000002918243,2|0,3:3|1:2,0:2:0:0:
326,58,391295,2,0,L|284:216,1,153.000002918243,2|0,3:3|1:2,0:2:0:0:
58,225,391638,2,0,L|16:383,1,153.000002918243,2|0,3:2|1:2,0:2:0:0:
178,99,391980,2,0,L|220:257,1,153.000002918243,2|0,3:2|1:2,0:2:0:0:
286,205,392324,6,0,L|326:58,1,153.000002918243,2|0,3:2|1:2,0:2:0:0:
485,331,392666,2,0,L|446:184,1,153.000002918243,2|0,3:2|1:2,0:2:0:0:
363,280,393009,2,0,L|375:375,1,76.5000014591217,2|0,3:1|0:2,0:2:0:0:
189,338,393181,2,0,L|201:243,1,76.5000014591217,2|0,1:2|0:2,0:2:0:0:
290,74,393352,2,0,L|302:169,1,76.5000014591217,2|0,3:2|0:2,0:2:0:0:
104,173,393524,2,0,L|116:78,1,76.5000014591217,2|0,1:3|0:2,0:2:0:0:
313,228,393695,6,0,P|348:305|302:373,1,153.000002918243,4|0,3:1|1:2,0:2:0:0:
232,142,394038,2,0,P|299:112|377:167,1,153.000002918243,2|0,3:2|1:2,0:2:0:0:
195,250,394380,2,0,P|128:280|50:225,1,153.000002918243,2|0,3:2|1:2,0:2:0:0:
177,49,394723,1,2,3:1:0:0:
157,102,394809,1,2,1:1:0:0:
138,154,394895,1,2,1:2:0:0:
366,147,395066,6,0,P|300:113|232:142,1,153.000002918243,2|0,3:2|1:2,0:2:0:0:
62,246,395409,2,0,P|128:280|195:250,1,153.000002918243,2|0,3:2|1:2,0:2:0:0:
320,362,395752,6,0,P|349:294|312:228,1,153.899998121338,2|0,3:2|0:2,0:2:0:0:
232,143,396095,2,0,L|242:85,1,51.2999993737793,2|0,3:2|0:2,0:2:0:0:
196,250,396266,2,0,L|186:308,1,51.2999993737793,2|0,2:1|0:2,0:2:0:0:
350,73,396438,6,0,L|508:31,1,153.000002918243,2|0,3:2|1:2,0:2:0:0:
231,174,396780,2,0,L|389:216,1,153.000002918243,2|0,3:2|1:2,0:2:0:0:
285,376,397123,2,0,L|443:334,1,153.000002918243,2|0,3:2|1:2,0:2:0:0:
145,240,397466,1,2,3:1:0:0:
198,227,397552,1,2,1:1:0:0:
250,211,397638,1,2,1:2:0:0:
497,33,397809,6,0,L|350:73,1,153.000002918243,2|0,3:2|1:2,0:2:0:0:
378,213,398152,2,0,L|231:174,1,153.000002918243,2|0,3:2|1:2,0:2:0:0:
432,336,398495,6,0,L|280:377,1,153.899998121338,2|0,3:2|0:2,0:2:0:0:
113,320,398838,2,0,L|170:306,1,51.2999993737793,2|0,3:2|0:2,0:2:0:0:
298,190,399009,2,0,L|241:204,1,51.2999993737793,2|0,3:3|0:2,0:2:0:0:
402,143,399181,6,0,P|423:197|403:249,1,107.999996704102,2|0,3:2|1:2,0:2:0:0:
331,66,399524,2,0,P|373:32|431:33,1,107.999996704102,2|0,3:2|1:2,0:2:0:0:
248,155,399867,2,0,P|194:153|153:119,1,107.999996704102,2|0,3:2|1:2,0:2:0:0:
231,27,400209,1,2,3:1:0:0:
228,44,400295,1,2,1:1:0:0:
226,59,400381,1,2,1:2:0:0:
425,30,400552,6,0,P|372:32|331:66,1,107.999996704102,2|0,3:2|1:2,0:2:0:0:
153,119,400895,2,0,P|194:153|248:155,1,107.999996704102,2|0,3:2|1:2,0:2:0:0:
408,242,401238,6,0,P|422:191|402:143,1,107.999996704102,2|0,3:1|0:2,0:2:0:0:
330,66,401581,2,0,L|269:71,1,36,2|0,3:2|0:2,0:2:0:0:
247,155,401752,2,0,L|308:150,1,36,2|0,3:3|0:2,0:2:0:0:
305,258,401924,6,0,L|276:338,1,72,2|0,3:3|1:2,0:2:0:0:
411,249,402267,2,0,L|440:329,1,72,2|0,3:3|1:2,0:2:0:0:
186,214,402609,6,0,L|220:306,1,90,2|0,3:3|1:2,0:2:0:0:
80,205,402952,2,0,L|47:292,1,90,2|0,3:3|1:2,0:2:0:0:
139,106,403295,5,4,0:2:0:0:
133,102,404238,5,0,0:2:0:0:
133,102,404324,2,0,L|245:113,1,108,2|0,0:2|0:2,0:2:0:0:
304,164,404667,6,0,P|308:244|317:341,1,169.199997418213,4|0,3:1|0:2,0:2:0:0:
208,120,405181,1,2,0:2:0:0:
312,72,405353,1,0,0:2:0:0:
312,72,405439,1,2,0:2:0:0:
312,72,405524,1,2,0:2:0:0:
208,120,405696,2,0,P|160:128|100:116,1,85,2|0,0:2|0:2,0:2:0:0:
48,36,406038,6,0,P|72:92|68:216,1,170,2|0,0:2|0:2,0:2:0:0:
192,44,406552,1,0,0:2:0:0:
164,216,406723,1,0,0:2:0:0:
164,216,406809,1,2,0:2:0:0:
164,216,406895,1,0,0:2:0:0:
272,132,407066,2,0,P|320:128|392:140,1,85,2|0,0:2|0:2,0:2:0:0:
276,304,407409,6,0,P|208:316|72:292,1,170,2|0,0:2|0:2,0:2:0:0:
316,224,407923,2,0,P|384:212|520:236,1,170,2|0,0:2|0:2,0:2:0:0:
208,92,408438,2,0,L|220:196,1,85,2|0,0:2|0:2,0:2:0:0:
301,350,408781,6,0,L|317:210,1,127.5,2|0,0:2|0:2,0:2:0:0:
360,156,409124,2,0,L|352:84,1,42.5,2|0,0:2|0:2,0:2:0:0:
305,57,409296,1,2,0:2:0:0:
305,57,409381,2,0,L|321:249,1,170,2|0,0:2|0:2,0:2:0:0:
319,226,409810,2,0,L|203:211,1,85,2|0,0:2|0:2,0:2:0:0:
432,174,410152,6,0,P|447:245|420:378,1,198.000006042481,2|0,1:2|1:2,0:2:0:0:
150,338,410667,2,0,P|221:323|354:350,1,198.000006042481,2|0,0:2|0:2,0:2:0:0:
302,180,411181,1,0,1:2:0:0:
302,180,411267,1,2,0:2:0:0:
302,180,411352,1,2,0:2:0:0:
244,306,411524,5,2,1:2:0:0:
372,362,411695,1,0,0:2:0:0:
428,236,411867,1,0,1:2:0:0:
324,94,412038,2,0,P|267:84|217:199,1,198.000006042481,2|0,0:2|0:2,0:2:0:0:
164,314,412553,1,2,1:2:0:0:
168,332,412639,1,2,0:2:0:0:
173,351,412724,1,2,0:2:0:0:
27,227,412895,6,0,P|12:156|39:23,1,198.000006042481,2|0,1:2|1:2,0:2:0:0:
68,36,413324,1,2,0:2:0:0:
102,33,413409,2,0,B|192:-9|183:103|305:35,1,198.000006042481,2|0,0:2|0:2,0:2:0:0:
102,203,413924,5,2,1:2:0:0:
102,203,414267,2,0,L|143:101,1,99.0000030212403,0|0,1:2|0:2,0:2:0:0:
218,272,414610,1,0,1:2:0:0:
337,143,414781,2,0,P|376:194|311:309,1,198.000006042481,0|0,0:2|0:2,0:2:0:0:
183,180,415296,6,0,L|297:217,1,99.0000030212403,2|0,1:2|0:2,0:2:0:0:
423,346,415638,6,0,L|309:309,1,99.0000030212403,2|0,3:2|0:2,0:2:0:0:
172,296,415981,2,0,P|157:243|191:200,1,99.0000030212403,8|2,1:2|3:2,0:2:0:0:
255,356,416323,1,0,3:2:0:0:
98,373,416495,1,0,3:2:0:0:
109,206,416666,1,10,1:2:0:0:
144,241,416838,1,0,0:2:0:0:
292,51,417009,6,0,L|321:160,1,99.0000030212403,2|0,3:2|0:2,0:2:0:0:
325,178,417266,1,0,3:2:0:0:
331,204,417352,1,8,1:2:0:0:
404,81,417523,1,2,3:2:0:0:
265,250,417695,1,0,3:2:0:0:
420,251,417866,1,0,3:2:0:0:
231,88,418038,1,10,1:2:0:0:
267,113,418209,1,0,0:2:0:0:
209,340,418381,6,0,P|156:355|112:326,1,99.0000030212403,2|0,3:2|0:2,0:2:0:0:
41,203,418723,2,0,P|94:188|137:222,1,99.0000030212403,8|2,1:2|3:2,0:2:0:0:
276,283,419067,1,0,3:2:0:0:
250,56,419237,1,0,3:2:0:0:
157,133,419410,1,10,1:2:0:0:
192,159,419580,1,0,0:2:0:0:
343,140,419753,5,2,3:2:0:0:
461,257,419924,1,0,3:2:0:0:
477,304,420010,1,2,3:2:0:0:
447,338,420096,1,10,1:2:0:0:
240,302,420267,1,2,3:2:0:0:
224,255,420353,1,2,3:2:0:0:
254,221,420439,1,2,3:2:0:0:
253,205,420781,6,0,L|89:204,1,148.50000453186,2|0,1:2|0:2,0:2:0:0:
33,191,421124,6,0,P|22:137|59:90,1,107.999996704102,10|0,1:2|0:2,0:2:0:0:
182,11,421467,1,0,1:2:0:0:
257,191,421638,1,2,1:2:0:0:
305,196,421724,1,0,1:2:0:0:
323,158,421809,2,0,P|366:145|443:185,1,107.999996704102,0|0,1:2|0:2,0:2:0:0:
366,364,422153,2,0,P|353:304|374:254,1,107.999996704102,2|0,1:2|0:2,0:2:0:0:
512,343,422495,5,8,1:2:0:0:
377,251,422666,1,8,0:2:0:0:
270,321,422838,5,8,1:2:0:0:
392,183,423009,1,8,0:2:0:0:
308,60,423180,5,8,1:2:0:0:
495,197,423352,1,8,0:2:0:0:
270,232,423523,1,8,1:2:0:0:
479,20,423695,1,8,0:2:0:0:
204,17,423867,6,0,P|202:45|221:81,1,58.4999973220826,8|0,1:2|0:2,0:2:0:0:
126,90,424038,2,0,P|135:117|160:137,1,58.4999973220826,8|0,1:2|0:2,0:2:0:0:
86,259,424209,6,0,P|112:282|148:292,1,67.5000025749208,8|0,1:2|0:2,0:2:0:0:
237,374,424381,2,0,P|203:375|171:364,1,67.5000025749208,8|0,1:2|0:2,0:2:0:0:
411,307,424552,6,0,P|435:281|442:235,1,76.5000014591217,8|0,1:2|0:2,0:2:0:0:
451,102,424724,2,0,P|475:130|479:168,1,76.5000014591217,8|0,1:2|0:2,0:2:0:0:
309,143,424895,6,0,P|265:144|228:179,1,85.4999977169037,8|0,1:2|0:2,0:2:0:0:
281,298,425067,2,0,P|324:293|362:253,1,85.4999977169037,8|0,1:2|0:2,0:2:0:0:
372,69,425238,5,0,3:2:0:0:
359,243,425409,1,0,3:2:0:0:
472,48,425581,1,8,1:2:0:0:
472,48,425752,1,0,1:2:0:0:
460,38,426438,5,8,0:2:0:0:
431,57,426524,1,0,3:2:0:0:
387,45,426609,22,0,P|325:63|238:10,1,153.000002918243,4|0,3:1|1:2,0:2:0:0:
91,170,426952,2,0,P|153:188|240:135,1,153.000002918243,10|0,3:2|1:2,0:2:0:0:
482,298,427294,2,0,B|427:275|397:330|397:330|383:317|383:317|337:339|300:326|276:292,1,229.500004377365,2|0,3:2|0:2,0:2:0:0:
250,226,427638,1,10,3:2:0:0:
402,136,427809,1,2,1:1:0:0:
208,125,427981,22,0,P|179:62|232:3,1,153.000002918243,2|0,3:2|1:2,0:2:0:0:
388,195,428324,2,0,P|406:133|353:46,1,153.000002918243,10|0,3:2|1:2,0:2:0:0:
120,186,428666,2,0,B|93:202|83:244|105:278|105:278|86:295|86:295|139:325|125:379,1,229.500004377365,2|0,3:2|0:2,0:2:0:0:
216,380,429009,2,0,L|304:379,1,76.5000014591217,10|0,3:2|0:2,0:2:0:0:
367,213,429181,2,0,L|279:212,1,76.5000014591217,2|0,3:3|0:2,0:2:0:0:
447,326,429352,6,0,P|495:272|458:201,1,153.000002918243,2|0,3:2|1:2,0:2:0:0:
251,269,429695,2,0,P|222:202|270:148,1,153.000002918243,10|0,3:2|1:2,0:2:0:0:
336,106,429952,1,2,1:1:0:0:
367,100,430038,1,2,3:2:0:0:
424,254,430210,1,2,1:1:0:0:
191,188,430381,1,10,3:2:0:0:
350,316,430552,1,0,1:2:0:0:
132,121,430723,6,0,P|203:78|265:126,1,153.000002918243,2|0,3:2|1:2,0:2:0:0:
280,184,430981,1,2,1:1:0:0:
280,184,431066,1,10,3:2:0:0:
124,271,431237,1,2,1:1:0:0:
356,295,431409,1,2,3:2:0:0:
202,375,431580,1,0,1:2:0:0:
212,346,431667,1,2,1:2:0:0:
222,317,431751,1,10,3:2:0:0:
378,198,431923,2,0,L|362:276,1,76.5000014591217,2|0,1:2|0:2,0:2:0:0:
459,347,432095,6,0,P|494:320|451:317,1,107.999996704102,4|0,3:2|1:2,0:2:0:0:
322,352,432438,2,0,P|276:370|306:325,1,125.999996154785,10|0,3:2|1:2,0:2:0:0:
302,138,432781,2,0,P|281:87|272:145,1,144,2|2,3:2|1:1,0:2:0:0:
133,321,433124,2,0,P|57:347|4:288,1,161.999995056153,10|2,3:2|1:1,0:2:0:0:
29,90,433467,6,0,P|101:36|172:76,1,161.999995056153,2|0,3:1|1:2,0:2:0:0:
254,232,433809,2,0,P|275:283|284:225,1,144,10|0,3:2|1:2,0:2:0:0:
415,100,434152,2,0,P|461:82|431:127,1,125.999996154785,2|2,3:2|1:3,0:2:0:0:
474,270,434495,2,0,P|439:297|482:300,1,107.999996704102,10|2,3:2|1:3,0:2:0:0:
309,139,434838,6,0,L|189:141,1,107.999996704102,2|0,3:2|1:2,0:2:0:0:
103,190,435095,1,2,1:3:0:0:
81,205,435181,2,0,P|46:238|98:311,1,153.000002918243,10|0,3:2|1:2,0:2:0:0:
307,363,435524,2,0,P|336:298|280:247,1,153.000002918243,2|0,3:2|1:2,0:2:0:0:
229,319,435781,1,2,1:1:0:0:
229,319,435866,1,10,3:2:0:0:
60,188,436038,1,2,1:1:0:0:
291,243,436209,6,0,P|329:251|413:178,1,153.000002918243,4|0,3:2|1:2,0:2:0:0:
196,29,436552,2,0,P|158:21|67:92,1,153.000002918243,10|0,3:2|1:2,0:2:0:0:
278,121,436895,1,4,3:2:0:0:
407,25,437066,1,2,1:3:0:0:
260,221,437238,1,10,3:2:0:0:
213,5,437409,1,2,1:3:0:0:
64,279,437581,6,0,L|228:303,1,161.999995056153,4|0,3:1|0:2,0:2:0:0:
139,70,437924,6,0,L|255:229,1,188.999994232178,10|0,3:2|0:2,0:2:0:0:
360,16,438267,6,2,L|325:235,1,216,2|2,3:2|0:2,0:2:0:0:
476,215,438610,6,2,L|341:323,1,161.999995056153,10|2,3:2|1:2,0:2:0:0:
254,342,438867,1,2,1:3:0:0:
224,302,438953,6,0,L|4:267,1,216,2|0,3:2|0:2,0:2:0:0:
240,182,439295,6,0,P|187:96|106:129,1,202.500007724762,10|0,3:2|0:2,0:2:0:0:
38,171,439638,2,0,P|5:102|38:30,1,135.000005149842,2|0,3:1|1:2,0:2:0:0:
257,174,439981,2,0,P|271:238|239:295,1,135.000005149842,10|0,3:2|1:2,0:2:0:0:
484,237,440324,6,0,P|495:173|453:108,1,135.000005149842,4|0,3:2|1:2,0:2:0:0:
337,62,440667,1,10,3:2:0:0:
300,78,440752,1,2,1:2:0:0:
266,55,440838,2,0,L|115:38,1,135.000005149842,4|0,0:2|3:2,0:2:0:0:
275,200,441181,1,2,0:2:0:0:
238,216,441266,1,2,1:2:0:0:
204,193,441352,2,0,L|53:176,1,135.000005149842,12|0,3:2|1:2,0:2:0:0:
345,318,441695,5,2,3:2:0:0:
159,366,441867,2,0,L|8:349,1,135.000005149842,4|8,1:2|0:2,3:2:0:0:
358,288,442209,6,0,P|354:213|282:158,1,135.000005149842,2|0,1:1|3:2,0:2:0:0:
471,249,442552,1,2,1:3:0:0:
263,253,442723,1,10,3:2:0:0:
340,72,442895,1,2,1:3:0:0:
246,305,443067,5,8,3:2:0:0:
179,77,443238,1,8,1:2:0:0:
461,221,443410,5,8,3:2:0:0:
263,160,443581,1,8,1:2:0:0:
387,364,443752,5,8,3:2:0:0:
193,187,443924,1,8,1:2:0:0:
459,301,444095,1,8,3:2:0:0:
179,338,444267,1,8,1:2:0:0:
50,113,444438,5,8,3:2:0:0:
3,344,444610,1,8,1:2:0:0:
199,105,444781,5,8,3:2:0:0:
264,353,444952,1,8,1:2:0:0:
122,43,445124,5,8,3:2:0:0:
232,296,445295,1,8,1:2:0:0:
360,102,445467,1,8,3:2:0:0:
94,314,445638,1,8,1:2:0:0:
202,70,445810,5,8,3:2:0:0:
233,69,445895,1,0,3:2:0:0:
261,79,445981,1,0,1:2:0:0:
284,100,446067,1,0,3:2:0:0:
298,139,446153,5,8,3:2:0:0:
332,164,446239,1,0,3:2:0:0:
374,164,446324,1,0,1:2:0:0:
411,145,446410,1,0,3:2:0:0:
428,64,446496,5,8,3:2:0:0:
428,110,446581,1,0,3:2:0:0:
426,150,446667,1,0,1:2:0:0:
426,189,446753,1,0,3:2:0:0:
481,289,446838,5,8,3:2:0:0:
484,241,446924,1,0,3:2:0:0:
486,191,447010,1,0,1:2:0:0:
487,146,447096,1,0,3:2:0:0:
487,146,447181,5,0,3:2:0:0:
391,283,447352,1,0,3:2:0:0:
487,146,447524,1,8,1:2:0:0:
