osu file format v14

[General]
AudioFilename: audio.mp3
AudioLeadIn: 0
PreviewTime: 66012
Countdown: 1
SampleSet: None
StackLeniency: 0.2
Mode: 0
LetterboxInBreaks: 0
WidescreenStoryboard: 1

[Editor]
DistanceSpacing: 3.4
BeatDivisor: 4
GridSize: 4
TimelineZoom: 1.7

[Metadata]
Title:Circus Sound (Feat. Pitbull)
TitleUnicode:Circus Sound (Feat. Pitbull)
Artist:S3RL
ArtistUnicode:S3RL
Creator:Lilynn
Version:Mr. Worldwide Ar10
Source:
Tags:
BeatmapID:1721184
BeatmapSetID:821157

[Difficulty]
HPDrainRate:4
CircleSize:4
OverallDifficulty:8
ApproachRate:10
SliderMultiplier:1.99999990463257
SliderTickRate:1

[Events]
//Background and Video events
0,0,"wallhaven-259375.jpg",0,0
//Break Periods
//Storyboard Layer 0 (Background)
//Storyboard Layer 1 (Fail)
//Storyboard Layer 2 (Pass)
//Storyboard Layer 3 (Foreground)
//Storyboard Sound Samples

[TimingPoints]
270,342.857142857143,4,1,0,50,1,0
360,-133.333333333333,4,2,0,40,0,0
41412,-100,4,2,0,40,0,0
49641,-66.6666666666667,4,2,0,40,0,0
66098,-50,4,2,0,40,0,1
81527,-133.333333333333,4,2,0,40,0,1
82555,-50,4,2,0,40,0,1
90784,-100,4,2,0,40,0,1
94898,-50,4,2,0,40,0,1
97984,-181.818181818182,4,2,0,40,0,0
116155,-285.714285714286,4,2,0,40,0,0
131927,-181.818181818182,4,2,0,40,0,0
135698,-285.714285714287,4,2,0,40,0,0
136384,-181.818181818182,4,2,0,40,0,0
147355,-400,4,2,0,40,0,0
148384,-66.6666666666667,4,2,0,40,0,0
155584,-285.714285714286,4,2,0,40,0,0
155927,-142.857142857143,4,2,0,40,0,0
164155,-285.714285714286,4,2,0,40,0,0
164327,-133.333333333333,4,2,0,40,0,0
164498,-105.263157894737,4,2,0,40,0,0
164841,-80,4,2,0,40,0,1
168270,-285.714285714286,4,2,0,40,0,1
168612,-80,4,2,0,40,0,1
170327,-285.714285714286,4,2,0,40,0,1
170670,-80,4,2,0,40,0,1
171355,-285.714285714286,4,2,0,40,0,1
171527,-80,4,2,0,40,0,1
173755,-80,4,2,0,40,0,1
174098,-285.714285714286,4,2,0,40,0,1
174441,-80,4,2,0,40,0,1
175127,-285.714285714286,4,2,0,40,0,1
175470,-80,4,2,0,40,0,1
176155,-285.714285714286,4,2,0,40,0,1
176498,-80,4,2,0,40,0,1
176841,-133.333333333333,4,2,0,40,0,1
180270,-133.333333333333,4,2,0,40,0,0
181298,-100,4,2,0,40,0,0
181984,-285.714285714286,4,2,0,40,0,0
183355,-80,4,2,0,40,0,1
186784,-100,4,2,0,40,0,1
189870,-80,4,2,0,40,0,1
190212,-100,4,2,0,40,0,1
192270,-80,4,2,0,40,0,1
192955,-100,4,2,0,40,0,1
194670,-100,4,2,0,40,0,1
196727,-153.846153846154,4,2,0,40,0,1
197070,-100,4,2,0,40,0,1
197755,-133.333333333333,4,2,0,40,0,0

[Colours]
Combo1 : 185,255,255
Combo2 : 255,179,179
Combo3 : 255,219,202
Combo4 : 202,255,202

[HitObjects]
169,114,116155,6,0,P|195:110|225:110,1,52.4999958944322
289,150,116498,2,0,P|315:154|345:154,1,52.4999958944322
412,120,116841,5,2,0:0:0:0:
412,120,117012,2,0,L|418:67,1,52.4999958944322
504,111,117355,6,0,L|513:199,1,87.4999931573871
452,249,118212,2,0,P|435:249|409:245,1,34.9999972629548
352,287,118555,2,0,P|354:307|354:325,2,34.9999972629548
293,224,119070,6,0,B|297:175|305:177|313:179|319:123,2,104.999991788864
229,280,120270,5,0,0:0:0:0:
165,224,120441,1,0,0:0:0:0:
165,224,120612,2,0,P|165:184|157:160,1,52.4999958944322
117,104,120955,2,0,P|117:64|125:40,1,52.4999958944322
133,40,121298,6,0,L|189:24,1,52.4999958944322
197,32,121641,2,0,L|253:40,1,52.4999958944322
261,32,121984,2,0,L|317:24,1,52.4999958944322
397,64,122327,6,0,P|397:96|389:120,1,52.4999958944322
389,128,122670,2,0,P|389:160|397:184,1,52.4999958944322
405,192,123012,2,0,P|405:224|397:248,1,52.4999958944322
308,295,123355,6,0,P|282:301|256:303,1,52.4999958944322
192,234,123698,2,0,P|157:226|122:227,1,69.9999945259097
52,268,124384,5,0,0:0:0:0:
52,268,124727,2,0,P|49:302|38:336,2,69.9999945259097
26,180,125755,6,0,L|35:109,1,69.9999945259097
97,53,126441,5,0,0:0:0:0:
97,53,126612,2,0,B|112:45|140:37|168:45|184:53,1,87.4999931573871
236,101,127127,6,0,P|241:59|250:28,2,69.9999945259097,0|2|0,0:0|3:2|0:0,0:0:0:0:
245,209,128155,5,0,0:0:0:0:
333,147,128326,1,0,0:0:0:0:
164,175,128498,5,0,0:0:0:0:
337,232,128670,1,0,0:0:0:0:
91,154,128841,6,0,P|88:183|96:208,1,52.4999958944322
104,223,129184,2,0,P|107:252|99:277,1,52.4999958944322
96,294,129527,2,0,P|104:322|120:342,1,52.4999958944322
205,350,129870,6,0,L|252:345,1,34.9999972629548
277,259,130212,2,0,L|324:264,1,34.9999972629548
389,338,130555,2,0,L|436:333,1,34.9999972629548
417,210,130898,2,0,L|376:221,1,34.9999972629548
277,259,131241,5,0,0:0:0:0:
279,155,131413,1,0,0:0:0:0:
370,212,131585,5,0,0:0:0:0:
188,198,131756,1,0,0:0:0:0:
293,66,131927,6,0,P|296:109|284:148,1,82.4999985837937
188,198,132270,2,0,L|174:233,2,27.4999995279312
279,155,132612,6,0,P|322:151|361:163,1,82.4999985837937
439,220,132955,2,0,P|441:206|445:189,2,27.4999995279312
492,305,133298,6,0,L|395:313,1,82.4999985837937
345,241,133641,2,0,L|248:233,1,82.4999985837937
174,308,133984,6,0,P|174:327|169:352,2,27.4999995279312
254,225,134327,6,0,P|247:185|253:141,1,82.4999985837937
313,59,134670,2,0,P|313:43|310:23,2,27.4999995279312
248,150,135012,6,0,B|237:161|216:178|189:181|173:179,1,82.4999985837937
87,138,135355,2,0,B|102:136|129:139|150:156|160:168,1,82.4999985837937
92,266,135698,2,0,B|89:260|84:241|91:223|96:215,1,52.4999958944322
164,248,136041,6,0,L|191:254,2,17.4999986314774
241,302,136384,6,0,P|285:293|323:292,1,82.4999985837937
418,337,136727,2,0,P|419:353|425:375,2,27.4999995279312
469,251,137070,6,0,P|471:214|470:166,1,82.4999985837937
407,107,137412,2,0,P|365:102|325:104,1,82.4999985837937
221,51,137755,6,0,P|216:34|215:22,2,27.4999995279312
309,103,138098,6,0,P|316:144|315:187,1,82.4999985837937
227,192,138441,2,0,P|227:233|237:275,1,82.4999985837937
309,353,138784,2,0,L|301:388,2,27.4999995279312
222,271,139127,6,0,P|183:279|132:279,1,82.4999985837937
53,159,139470,2,0,P|94:160|143:167,1,82.4999985837937
226,191,139812,6,0,P|228:162|226:129,1,54.9999990558624
287,53,140155,6,0,L|282:20,2,27.4999995279312
324,173,140498,5,0,0:0:0:0:
225,136,140670,1,0,0:0:0:0:
399,154,140841,6,0,P|399:185|391:214,1,54.9999990558624
363,308,141184,6,0,L|374:343,2,27.4999995279312
261,280,141527,6,0,P|209:280|168:272,1,82.4999985837937
118,200,141870,5,0,0:0:0:0:
132,349,142041,1,0,0:0:0:0:
66,276,142212,6,0,P|49:275|37:274,2,27.4999995279312
131,198,142555,6,0,P|124:156|121:110,1,82.4999985837937
197,52,142898,1,0,0:0:0:0:
46,47,143070,1,0,0:0:0:0:
208,53,143241,6,0,P|206:37|207:21,2,27.4999995279312
276,117,143584,6,0,P|281:161|277:195,1,54.9999990558624
229,229,143927,2,0,P|225:250|223:267,1,27.4999995279312
230,334,144098,1,0,0:0:0:0:
144,298,144270,6,0,P|126:301|115:305,2,27.4999995279312
233,345,144612,2,0,P|249:352|261:354,2,27.4999995279312
340,298,144955,2,0,P|353:294|365:288,2,27.4999995279312
450,238,145298,2,0,P|460:246|472:253,2,27.4999995279312
401,131,145641,6,0,L|408:73,1,54.9999990558624
289,38,145984,2,0,L|295:92,1,54.9999990558624
250,176,146327,6,0,L|245:218,2,27.4999995279312
190,105,146670,6,0,P|156:107|124:100,1,54.9999990558624
14,111,147012,2,0,P|38:122|60:139,1,54.9999990558624
130,182,147355,6,0,L|136:239,2,49.9999976158143
138,185,148384,1,4,3:1:0:0:
238,218,148727,5,0,0:0:0:0:
238,323,148899,1,0,0:0:0:0:
138,355,149070,1,0,0:0:0:0:
77,269,149412,5,0,0:0:0:0:
138,185,149755,5,0,0:0:0:0:
219,116,149927,1,0,0:0:0:0:
238,218,150098,1,0,0:0:0:0:
160,289,150441,5,0,0:0:0:0:
138,185,150784,1,0,0:0:0:0:
238,218,150955,1,0,0:0:0:0:
333,173,151127,1,0,0:0:0:0:
239,233,151470,1,0,0:0:0:0:
240,246,151812,5,0,0:0:0:0:
338,284,151984,1,0,0:0:0:0:
403,365,152155,1,0,0:0:0:0:
413,355,152327,1,0,0:0:0:0:
348,274,152498,1,0,0:0:0:0:
250,236,152841,5,0,0:0:0:0:
330,169,153012,1,0,0:0:0:0:
351,65,153184,1,0,0:0:0:0:
315,163,153527,1,0,0:0:0:0:
298,157,153870,5,0,0:0:0:0:
182,188,154041,1,0,0:0:0:0:
267,272,154212,1,0,0:0:0:0:
218,84,154555,1,0,0:0:0:0:
145,264,154898,5,0,0:0:0:0:
267,272,155070,1,0,0:0:0:0:
365,339,155241,1,0,0:0:0:0:
267,272,155584,2,0,B|261:258|261:258|259:217,1,52.4999958944322
371,209,155927,2,0,L|366:243,1,34.9999972629548
251,221,156098,2,0,L|251:185,1,34.9999972629548
382,209,156270,5,0,0:0:0:0:
353,351,156441,1,0,0:0:0:0:
316,127,156612,5,0,0:0:0:0:
303,121,156955,5,0,0:0:0:0:
209,90,157127,1,0,0:0:0:0:
121,133,157298,1,0,0:0:0:0:
121,122,157470,5,0,0:0:0:0:
209,79,157641,1,0,0:0:0:0:
372,194,157984,5,0,0:0:0:0:
254,207,158155,1,0,0:0:0:0:
304,98,158327,5,0,0:0:0:0:
323,279,158498,1,0,0:0:0:0:
161,188,158670,1,0,0:0:0:0:
374,196,159012,5,0,0:0:0:0:
261,207,159184,1,0,0:0:0:0:
179,293,159355,1,0,0:0:0:0:
174,306,159527,1,0,0:0:0:0:
174,319,159698,1,0,0:0:0:0:
91,260,160041,5,0,0:0:0:0:
78,148,160212,1,0,0:0:0:0:
126,46,160384,1,0,0:0:0:0:
91,152,160555,1,0,0:0:0:0:
101,259,160727,6,0,P|91:293|74:323,1,69.9999945259097
175,259,161070,2,0,P|187:292|190:326,1,69.9999945259097
242,219,161412,2,0,P|271:239|293:265,1,69.9999945259097
263,134,161755,2,0,P|298:133|332:143,1,69.9999945259097
228,46,162098,2,0,P|257:25|289:13,1,69.9999945259097
132,112,162441,6,0,P|133:154|157:200,1,69.9999945259097
204,232,162784,1,0,0:0:0:0:
233,239,162869,1,0,0:0:0:0:
264,243,162955,1,0,0:0:0:0:
288,244,163041,1,0,0:0:0:0:
322,230,163126,1,0,0:0:0:0:
356,215,163212,1,0,0:0:0:0:
398,212,163298,1,0,0:0:0:0:
437,219,163384,1,0,0:0:0:0:
508,272,163470,6,0,P|505:292|498:309,1,34.9999972629548
440,203,163641,2,0,P|443:183|450:166,1,34.9999972629548
492,83,163812,5,0,0:0:0:0:
313,95,164155,6,0,L|290:91,1,17.4999986314774
261,227,164327,6,0,L|300:219,1,37.4999996423721
362,185,164498,6,0,L|269:165,1,94.9999929332736
150,106,164841,6,0,B|139:168|150:168|162:168|150:230,1,124.999994039536
227,306,165184,1,0,0:0:0:0:
54,281,165355,1,0,0:0:0:0:
306,316,165527,6,0,P|294:346|273:369,2,62.4999970197678,0|0|0,3:0|3:0|3:0,3:0:0:0:
373,260,165870,2,0,B|367:208|367:208|361:200|361:200|356:136,1,124.999994039536,0|0,3:0|3:0,3:0:0:0:
248,100,166212,1,0,3:0:0:0:
436,50,166384,1,0,3:0:0:0:
172,90,166555,6,0,P|227:26|319:75,1,187.499991059303
369,137,166898,2,0,B|374:200|374:200|380:208|380:208|385:260,1,124.999994039536,0|0,3:0|3:0,3:0:0:0:
276,210,167241,1,0,0:0:0:0:
468,196,167412,1,0,0:0:0:0:
201,216,167584,6,0,P|204:182|221:155,2,62.4999970197678
220,296,167927,6,0,B|156:295|159:284|161:273|98:272,1,124.999994039536
51,212,168270,2,0,P|60:187|63:156,1,52.4999958944322
51,83,168612,6,0,B|101:87|137:104|124:133|161:149|219:157,1,187.499991059303
321,207,168955,6,0,B|313:151|313:151|315:143|315:143|305:84,1,124.999994039536
204,69,169298,5,0,0:0:0:0:
387,111,169470,1,0,0:0:0:0:
145,125,169641,6,0,P|128:98|120:68,1,62.4999970197678
343,35,169812,2,0,P|319:55|304:82,1,62.4999970197678
279,163,169984,6,0,B|283:227|283:227|287:234|287:234|290:287,1,124.999994039536
356,334,170327,2,0,L|406:327,1,34.9999972629548
475,314,170670,2,0,P|380:304|267:281,1,187.499991059303
128,259,171012,6,0,B|152:211|138:204|122:200|152:133,1,124.999994039536
248,183,171355,2,0,L|213:186,1,34.9999972629548
63,218,171698,5,0,0:0:0:0:
185,75,171870,1,0,0:0:0:0:
247,182,172041,6,0,B|246:212|246:212|255:243,2,62.4999970197678
375,136,172384,2,0,B|384:105|384:105|384:75,2,62.4999970197678
324,195,172727,5,0,0:0:0:0:
324,195,172898,1,0,0:0:0:0:
256,244,173070,6,0,B|223:233|197:235|198:256|170:257|132:247,1,124.999994039536
0,148,173412,5,0,0:0:0:0:
163,177,173584,1,0,0:0:0:0:
64,275,173755,6,0,P|60:251|68:211,1,62.4999970197678
274,185,173927,2,0,P|270:215|255:243,1,62.4999970197678
154,355,174098,6,8,P|148:337|140:322,1,34.9999972629548
254,243,174441,2,0,B|316:228|321:249|377:231,1,124.999994039536
467,150,174784,6,0,P|471:126|463:86,1,62.4999970197678
257,60,174956,2,0,P|261:90|276:118,1,62.4999970197678
377,230,175127,2,0,P|383:212|391:197,1,34.9999972629548
496,272,175470,6,0,P|433:264|371:243,1,124.999994039536
255,174,175812,5,0,0:0:0:0:
232,360,175984,1,0,0:0:0:0:
180,196,176155,2,0,P|189:215|200:226,1,34.9999972629548
376,173,176498,6,0,B|312:157|312:173|312:189|252:173,1,124.999994039536
108,124,176841,2,0,P|138:102|174:92,1,74.9999992847443
276,80,177184,5,0,0:0:0:0:
276,80,177270,1,0,0:0:0:0:
276,80,177355,2,0,P|300:76|316:72,1,37.4999996423721
412,180,177527,5,0,0:0:0:0:
412,180,177613,1,0,0:0:0:0:
412,180,177698,2,0,L|352:168,1,37.4999996423721
284,274,177870,5,0,0:0:0:0:
284,274,177956,1,0,0:0:0:0:
284,274,178041,2,0,B|308:269|308:269|324:265,1,37.4999996423721
209,190,178212,5,0,0:0:0:0:
209,190,178298,1,0,0:0:0:0:
209,190,178383,2,0,B|188:203|188:203|174:211,1,37.4999996423721
86,310,178555,5,0,0:0:0:0:
86,310,178641,1,0,0:0:0:0:
86,310,178727,2,0,P|79:284|79:259,1,37.4999996423721
116,144,178898,5,0,0:0:0:0:
116,144,178984,1,0,0:0:0:0:
116,144,179070,2,0,P|123:118|123:93,1,37.4999996423721
242,35,179241,5,0,0:0:0:0:
242,35,179327,1,0,0:0:0:0:
242,35,179413,2,0,P|255:58|272:76,1,37.4999996423721
209,190,179584,5,0,0:0:0:0:
209,190,179670,1,0,0:0:0:0:
209,190,179756,2,0,P|195:213|178:231,1,37.4999996423721
128,264,179927,6,0,P|184:256|240:256,1,112.499998927116
320,312,180270,2,0,B|288:232|336:232|339:111|306:91|306:91|288:128|336:184|399:170,1,374.999996423721
499,81,181298,6,2,P|492:130|488:184,1,99.9999952316285
401,179,181641,2,2,P|408:228|412:282,1,99.9999952316285
348,328,181984,6,0,P|321:326|292:321,1,52.4999958944322
237,269,182327,2,0,P|212:260|182:254,1,52.4999958944322
110,275,182670,5,2,0:0:0:0:
110,275,182841,2,0,L|106:346,1,69.9999945259097
27,225,183355,2,0,B|31:171|31:171|35:159|35:159|39:99,1,124.999994039536
186,67,183698,5,0,0:0:0:0:
0,34,183870,1,0,0:0:0:0:
254,103,184041,6,0,P|263:75|259:43,1,62.4999970197678
52,97,184212,2,0,P|57:127|76:152,1,62.4999970197678
248,184,184384,6,0,B|309:174|305:161|301:150|366:145,1,124.999994039536
443,81,184641,5,0,0:0:0:0:
443,81,184727,2,0,B|447:125|447:125|443:142|443:142|448:206,1,124.999994039536
299,248,185070,5,0,0:0:0:0:
484,272,185241,1,0,0:0:0:0:
234,297,185412,2,0,P|219:238|250:182,1,124.999994039536
312,108,185670,5,0,0:0:0:0:
312,108,185755,2,0,B|253:111|253:111|245:109|245:109|185:112,1,124.999994039536
112,201,186098,1,0,0:0:0:0:
129,13,186270,1,0,0:0:0:0:
39,243,186441,2,0,P|80:279|149:278,1,124.999994039536
248,225,186698,5,0,0:0:0:0:
248,225,186784,2,0,L|398:215,1,149.999992847443
395,28,187127,2,0,P|454:69|449:141,1,149.999992847443
244,120,187470,6,0,B|314:99|317:115|318:129|390:101,1,149.999992847443
211,51,187812,6,0,P|231:123|207:193,1,149.999992847443
199,342,188155,2,0,P|179:270|203:200,1,149.999992847443
424,224,188498,6,0,B|352:229|352:229|340:233|340:233|275:238,1,149.999992847443
202,200,188841,2,0,B|130:192|130:192|118:195|118:195|53:188,1,149.999992847443
72,4,189184,2,0,P|13:45|18:117,1,149.999992847443
79,77,189527,6,0,B|151:105|152:91|155:75|225:96,1,149.999992847443
322,136,189870,2,0,P|333:199|309:255,1,124.999994039536
251,312,190127,5,0,0:0:0:0:
251,312,190212,2,0,P|184:284|112:304,1,149.999992847443
64,368,190555,6,0,B|68:295|84:297|97:301|96:224,1,149.999992847443
92,136,190898,2,0,P|164:128|208:184,1,149.999992847443
252,260,191241,2,0,B|254:177|254:177|257:163|257:163|259:110,1,149.999992847443
320,56,191584,2,0,P|392:48|448:96,1,149.999992847443
488,232,191927,5,0,0:0:0:0:
488,232,192012,1,0,0:0:0:0:
488,232,192098,2,0,P|456:240|432:252,1,49.9999976158143
310,280,192270,2,0,P|276:271|251:259,1,62.4999970197678
144,152,192441,5,0,0:0:0:0:
144,152,192612,2,0,B|164:212|128:212|148:276,1,124.999994039536
224,316,192955,2,0,P|280:312|344:248,1,149.999992847443
368,152,193298,6,0,B|384:200|384:200|384:240|384:240|404:296,1,149.999992847443
504,352,193641,5,0,0:0:0:0:
504,352,193727,2,0,P|511:323|512:300,1,49.9999976158143
426,210,193898,1,0,0:0:0:0:
426,210,193984,2,0,P|429:180|443:155,1,49.9999976158143
500,88,194155,5,0,0:0:0:0:
384,32,194327,2,0,P|356:32|332:40,1,49.9999976158143
265,189,194498,2,0,P|289:199|314:198,1,49.9999976158143
226,126,194670,6,0,B|229:190|229:190|233:202|233:202|237:275,1,149.999992847443
64,291,195012,2,0,P|108:349|181:351,1,149.999992847443
149,133,195355,6,0,B|125:210|163:210|146:280,1,149.999992847443
145,54,195698,2,0,P|211:83|228:153,1,149.999992847443
256,284,196041,6,0,P|272:237|301:197,1,99.9999952316285
398,150,196298,1,0,0:0:0:0:
398,150,196384,2,0,P|453:142|503:149,1,99.9999952316285
426,256,196641,1,0,0:0:0:0:
426,256,196727,2,0,P|381:246|329:243,1,97.4999908876424
256,284,197070,5,0,0:0:0:0:
221,287,197155,1,0,0:0:0:0:
185,283,197241,1,0,0:0:0:0:
152,269,197327,1,0,0:0:0:0:
123,248,197412,6,0,P|118:226|120:188,1,49.9999976158143
86,75,197584,2,0,P|81:100|72:122,1,49.9999976158143
10,226,197755,1,0,0:0:0:0:
