osu file format v14

[General]
AudioFilename: audio.mp3
AudioLeadIn: 0
PreviewTime: 111074
Countdown: 0
SampleSet: Soft
StackLeniency: 0.6
Mode: 0
LetterboxInBreaks: 0
WidescreenStoryboard: 1

[Editor]
Bookmarks: 12416,34359,45331,89216,100188,148531,166016,176988
DistanceSpacing: 1.1
BeatDivisor: 4
GridSize: 32
TimelineZoom: 2

[Metadata]
Title:Catchit (Radio Edit)
TitleUnicode:Catchit (Radio Edit)
Artist:S3RL
ArtistUnicode:S3RL
Creator:StarrStyx
Version:Insane
Source:
Tags:anime featured artist mappers' guild chaoslitz handsome
BeatmapID:1678502
BeatmapSetID:785731

[Difficulty]
HPDrainRate:5
CircleSize:4
OverallDifficulty:7
ApproachRate:9
SliderMultiplier:1.9
SliderTickRate:1

[Events]
//Background and Video events
0,0,"catchit.png",0,0
//Break Periods
//Storyboard Layer 0 (Background)
//Storyboard Layer 1 (Fail)
//Storyboard Layer 2 (Pass)
//Storyboard Layer 3 (Foreground)
//Storyboard Sound Samples

[TimingPoints]
74,342.857142857143,4,2,1,50,1,0
28874,-100,4,2,2,70,0,0
31616,-100,4,2,1,68,0,0
33674,-100,4,2,1,60,0,0
34359,-83.3333333333333,4,2,2,75,0,1
44645,-133.333333333333,4,2,2,75,0,1
45331,-100,4,2,1,60,0,0
50131,-100,4,2,1,50,0,0
56302,-133.333333333333,4,2,1,50,0,0
78245,-100,4,2,1,60,0,0
82359,-100,4,2,1,68,0,0
83731,-100,4,2,1,75,0,0
86474,-100,4,2,1,80,0,0
87845,-100,4,2,1,70,0,0
88531,-100,4,2,1,60,0,0
89216,-83.3333333333333,4,2,2,75,0,1
97445,-100,4,2,2,75,0,1
100188,-83.3333333333333,4,2,2,70,0,0
109788,-100,4,2,2,70,0,0
111159,-83.3333333333333,4,2,2,75,0,1
116645,-83.3333333333333,4,2,2,80,0,1
119388,-83.3333333333333,4,2,2,75,0,1
120759,-83.3333333333333,4,2,2,60,0,1
121616,-83.3333333333333,4,2,1,83,0,0
122131,-83.3333333333333,4,2,1,75,0,1
133102,-125,4,2,1,50,0,0
142702,-125,4,2,1,58,0,0
143045,-125,4,2,1,70,0,0
143388,-125,4,2,1,78,0,0
143731,-125,4,2,1,90,0,0
144074,-125,4,2,1,50,0,0
155045,-100,4,2,1,60,0,0
160531,-100,4,2,1,75,0,0
163274,-100,4,2,1,80,0,0
164645,-100,4,2,1,70,0,0
165331,-100,4,2,1,60,0,0
166016,-83.3333333333333,4,2,2,75,0,1
175616,-100,4,2,2,60,0,1
176302,-83.3333333333333,4,2,2,68,0,0
176988,-83.3333333333333,4,2,2,75,0,1
182474,-83.3333333333333,4,2,2,80,0,1
185216,-83.3333333333333,4,2,2,75,0,1
187445,-83.3333333333333,4,2,2,83,0,0
187959,-83.3333333333333,4,2,2,75,0,1
193445,-83.3333333333333,4,2,2,80,0,1
196188,-83.3333333333333,4,2,2,75,0,1
197559,-83.3333333333333,4,2,2,60,0,1
198245,-83.3333333333333,4,2,2,68,0,1
198931,-83.3333333333333,4,2,2,75,0,0
208531,-83.3333333333333,4,2,2,60,0,0

[Colours]
Combo1 : 255,241,70
Combo2 : 0,221,0
Combo3 : 244,244,0
Combo4 : 0,179,45
Combo5 : 253,82,0
Combo6 : 121,255,83

[HitObjects]
74,315,12416,5,8,0:3:0:0:
74,315,12759,1,2,0:3:0:0:
74,315,13102,1,2,0:3:0:0:
161,253,13445,2,0,L|266:267,1,95,2|0,0:3|0:0,0:0:0:0:
413,367,13788,5,2,0:3:0:0:
413,367,14131,1,2,0:3:0:0:
413,367,14474,2,0,P|434:324|422:272,1,95,2|0,0:3|0:0,0:0:0:0:
337,192,14816,2,0,P|316:149|328:97,1,95,2|0,0:3|0:0,0:0:0:0:
452,13,15159,5,2,0:3:0:0:
452,13,15502,1,2,0:3:0:0:
452,13,15845,2,0,L|349:26,1,95,2|0,0:3|0:0,0:0:0:0:
280,116,16188,2,0,L|177:103,1,95,2|0,0:3|0:0,0:0:0:0:
66,37,16531,5,2,0:3:0:0:
66,37,16874,1,2,0:3:0:0:
66,37,17216,1,2,0:3:0:0:
66,37,17559,2,0,B|41:76|41:76|64:141,1,95,2|0,0:3|0:0,0:0:0:0:
149,240,17902,5,2,0:3:0:0:
149,240,18245,2,0,L|49:228,1,95,2|0,0:3|0:0,0:0:0:0:
164,343,18588,2,0,L|258:331,1,95,0|0,0:0|0:0,0:0:0:0:
396,368,18931,2,0,P|376:325|386:280,1,95,2|0,0:3|0:0,0:0:0:0:
490,161,19274,6,0,P|500:206|480:248,1,95,2|0,0:3|0:0,0:0:0:0:
382,159,19616,2,0,L|287:172,1,95,2|0,0:3|0:0,0:0:0:0:
177,57,19959,2,0,L|271:70,1,95,2|0,0:3|0:0,0:0:0:0:
64,153,20302,2,0,P|48:112|71:62,1,95,2|0,0:3|0:0,0:0:0:0:
184,197,20645,5,2,0:3:0:0:
184,197,20816,1,0,0:0:0:0:
184,197,20988,2,0,L|171:296,1,95,2|0,0:3|0:0,0:0:0:0:
64,363,21331,2,0,B|47:322|47:322|72:264,1,95,2|0,0:3|0:0,0:0:0:0:
263,239,21674,2,0,B|280:198|280:198|255:140,1,95,2|0,0:3|0:0,0:0:0:0:
128,45,22016,5,0,0:0:0:0:
128,45,22359,1,0,0:0:0:0:
128,45,22702,1,0,0:0:0:0:
259,151,22874,5,8,0:0:0:0:
330,106,23045,1,8,0:0:0:0:
414,119,23216,1,8,0:0:0:0:
464,187,23388,6,0,L|472:290,1,95,4|0,0:3|0:0,0:0:0:0:
321,356,23731,2,0,L|328:261,1,95,8|0,0:0|0:0,0:0:0:0:
244,158,24074,2,0,P|205:136|149:144,1,95,4|0,0:3|0:0,0:0:0:0:
48,187,24416,1,8,0:0:0:0:
48,187,24588,1,0,0:0:0:0:
48,187,24759,6,0,L|40:290,1,95,4|0,0:3|0:0,0:0:0:0:
191,356,25102,2,0,L|183:261,1,95,8|0,0:0|0:0,0:0:0:0:
288,173,25445,2,0,P|327:151|383:159,1,95,4|0,0:3|0:0,0:0:0:0:
483,224,25788,2,0,L|497:129,1,95,8|0,0:0|0:0,0:0:0:0:
345,231,26131,6,0,L|358:324,1,95,4|0,0:3|0:0,0:0:0:0:
217,318,26474,2,0,P|176:298|127:305,1,95,8|0,0:0|0:0,0:0:0:0:
21,180,26816,1,4,0:3:0:0:
21,180,26988,1,0,0:0:0:0:
131,77,27159,1,8,0:0:0:0:
131,77,27331,1,0,0:0:0:0:
193,169,27502,6,0,L|303:183,1,95,4|0,0:3|0:0,0:0:0:0:
426,128,27845,2,0,B|449:81|449:81|434:34,1,95,8|0,0:0|0:0,0:0:0:0:
309,200,28188,2,0,B|286:247|286:247|301:294,1,95,4|0,0:3|0:0,0:0:0:0:
449,370,28531,1,8,0:0:0:0:
449,370,28702,1,0,0:0:0:0:
449,370,28874,6,0,L|461:269,1,95,8|0,0:0|0:0,0:0:0:0:
319,164,29216,2,0,P|360:189|425:175,1,95,4|0,0:0|0:0,0:0:0:0:
302,56,29559,2,0,L|197:63,1,95,8|0,0:0|0:0,0:0:0:0:
79,128,29902,2,0,B|55:83|55:83|80:27,1,95,4|0,0:0|0:0,0:0:0:0:
204,186,30245,6,0,L|190:297,1,95,8|0,0:0|0:0,0:0:0:0:
72,341,30588,2,0,B|55:301|55:301|79:256,1,95,4|0,0:0|0:0,0:0:0:0:
188,318,30931,2,0,L|296:304,1,95,8|0,0:0|0:0,0:0:0:0:
490,367,31274,2,0,P|450:344|402:348,1,95,4|0,0:0|0:0,0:0:0:0:
371,241,31616,5,4,0:3:0:0:
371,241,31788,1,0,0:0:0:0:
371,241,31959,2,0,L|383:143,1,95,8|0,0:0|0:0,0:0:0:0:
481,41,32302,2,0,B|501:78|501:78|479:139,1,95,4|0,0:3|0:0,0:0:0:0:
293,165,32645,2,0,B|250:144|250:144|190:155,1,95,8|0,0:0|0:0,0:0:0:0:
61,178,32988,5,2,0:3:0:0:
61,178,33331,1,2,0:3:0:0:
61,178,33674,1,2,0:3:0:0:
197,344,34359,5,8,0:0:0:0:
197,344,34702,1,4,0:0:0:0:
197,344,35045,1,8,0:0:0:0:
197,344,35388,2,0,L|316:329,1,113.999996520996,4|0,0:0|0:0,0:0:0:0:
478,382,35731,5,8,0:0:0:0:
478,382,36074,1,4,0:0:0:0:
478,382,36416,2,0,B|456:335|456:335|480:267,1,113.999996520996,8|0,0:0|0:0,0:0:0:0:
412,96,36759,2,0,B|434:143|434:143|410:211,1,113.999996520996,4|0,0:0|0:0,0:0:0:0:
325,148,37102,5,8,0:0:0:0:
325,148,37445,1,4,0:0:0:0:
325,148,37788,2,0,L|207:162,1,113.999996520996,8|0,0:0|0:0,0:0:0:0:
26,101,38131,2,0,P|79:72|140:82,1,113.999996520996,4|0,0:0|0:0,0:0:0:0:
96,167,38474,5,8,0:0:0:0:
96,167,38816,1,4,0:0:0:0:
96,167,39159,1,8,0:0:0:0:
96,167,39502,2,0,L|81:288,1,113.999996520996,4|0,0:0|0:0,0:0:0:0:
16,369,39845,5,8,0:0:0:0:
16,369,40188,1,4,0:0:0:0:
16,369,40531,1,8,0:0:0:0:
16,369,40874,2,0,P|70:337|131:346,1,113.999996520996,4|0,0:0|0:0,0:0:0:0:
300,383,41216,5,8,0:0:0:0:
300,383,41559,1,4,0:0:0:0:
300,383,41902,1,8,0:0:0:0:
300,383,42245,2,0,P|275:325|293:265,1,113.999996520996,4|0,0:0|0:0,0:0:0:0:
355,98,42588,5,8,0:0:0:0:
355,98,42931,1,4,0:0:0:0:
355,98,43274,2,0,L|240:118,1,113.999996520996,8|0,0:0|0:0,0:0:0:0:
51,184,43616,2,0,L|163:203,1,113.999996520996,4|0,0:0|0:0,0:0:0:0:
256,304,43959,5,2,0:0:0:0:
256,304,44302,1,2,0:0:0:0:
256,304,44645,2,0,B|373:268|335:367|482:317,1,213.750008153916,2|0,0:0|0:0,0:0:0:0:
410,244,45331,6,0,B|386:178|386:178|431:58,1,190,4|8,0:3|0:0,0:0:0:0:
280,122,45845,1,0,0:0:0:0:
280,122,46016,2,0,B|206:111|206:111|173:136|173:136|89:124,1,190,4|8,0:3|0:0,0:0:0:0:
55,34,46531,1,0,0:0:0:0:
55,34,46702,2,0,L|67:225,1,190,4|8,0:3|0:0,0:0:0:0:
120,356,47216,1,0,0:0:0:0:
31,320,47388,2,0,P|99:261|197:299,1,190,4|8,0:3|0:0,0:0:0:0:
481,320,48074,6,0,P|413:261|315:299,1,190,4|8,0:3|0:0,0:0:0:0:
392,356,48588,1,0,0:0:0:0:
392,356,48759,2,0,L|413:167,1,190,4|8,0:3|0:0,0:0:0:0:
340,50,49445,6,0,P|264:105|168:78,1,190,4|8,0:3|0:0,0:0:0:0:
47,258,49959,1,0,0:0:0:0:
47,258,50131,2,0,P|123:203|219:230,1,190,4|8,0:3|0:0,0:0:0:0:
256,192,50816,12,0,56130,0:3:0:0:
421,363,56302,6,0,L|436:217,1,142.500005435944,2|2,0:0|0:0,0:0:0:0:
224,306,56988,1,2,0:0:0:0:
295,156,57331,1,2,0:0:0:0:
91,363,57674,6,0,L|76:217,1,142.500005435944,2|2,0:0|0:0,0:0:0:0:
344,82,58359,2,0,P|382:138|348:225,1,142.500005435944,2|2,0:0|0:0,0:0:0:0:
65,76,59045,6,0,L|223:61,1,142.500005435944,2|2,0:0|0:0,0:0:0:0:
316,252,59731,1,2,0:0:0:0:
183,150,60074,1,2,0:0:0:0:
342,101,60416,2,0,L|483:114,1,142.500005435944,2|2,0:0|0:0,0:0:0:0:
244,303,61102,2,0,P|228:235|267:177,1,142.500005435944,2|2,0:0|0:0,0:0:0:0:
434,352,61788,5,2,0:0:0:0:
434,352,62131,1,2,0:0:0:0:
434,352,62474,2,0,L|452:206,1,142.500005435944,2|2,0:0|0:0,0:0:0:0:
461,79,63159,6,0,B|396:110|396:110|323:79,1,142.500005435944,2|2,0:0|0:0,0:0:0:0:
216,41,63845,2,0,L|73:61,1,142.500005435944,2|2,0:0|0:0,0:0:0:0:
194,137,64531,5,2,0:0:0:0:
194,137,64874,1,2,0:0:0:0:
194,137,65216,2,0,P|217:203|176:283,1,142.500005435944,2|2,0:0|0:0,0:0:0:0:
59,358,65902,6,0,L|211:345,1,142.500005435944,2|2,0:0|0:0,0:0:0:0:
330,294,66588,2,0,B|389:336|389:336|470:309,1,142.500005435944,2|2,0:0|0:0,0:0:0:0:
417,224,67274,5,2,0:0:0:0:
417,224,67616,1,2,0:0:0:0:
417,224,67959,1,2,0:0:0:0:
417,224,68302,2,0,L|423:310,1,71.2500027179719,2|0,0:0|0:0,0:0:0:0:
507,377,68645,5,2,0:0:0:0:
507,377,68988,1,2,0:0:0:0:
344,303,69331,2,0,L|257:314,1,71.2500027179719,2|2,0:0|0:0,0:0:0:0:
273,311,69588,1,2,0:0:0:0:
273,311,69674,1,2,0:0:0:0:
157,258,69845,1,2,0:0:0:0:
53,332,70016,5,2,0:0:0:0:
53,332,70359,1,2,0:0:0:0:
53,332,70702,2,0,L|61:254,1,71.2500027179719,2|2,0:0|0:0,0:0:0:0:
172,219,71045,2,0,L|164:141,1,71.2500027179719,2|0,0:0|0:0,0:0:0:0:
88,62,71388,5,2,0:0:0:0:
88,62,71731,2,0,P|121:47|173:51,1,71.2500027179719,2|0,0:0|0:0,0:0:0:0:
279,121,72074,1,2,0:0:0:0:
279,121,72245,1,2,0:0:0:0:
279,121,72416,1,2,0:0:0:0:
431,48,72759,5,2,0:0:0:0:
431,48,73102,1,2,0:0:0:0:
431,48,73445,2,0,L|438:118,1,71.2500027179719,2|2,0:0|0:0,0:0:0:0:
343,177,73788,2,0,L|335:247,1,71.2500027179719,2|2,0:0|0:0,0:0:0:0:
445,346,74131,5,2,0:0:0:0:
445,346,74474,2,0,L|369:359,1,71.2500027179719,2|2,0:0|0:0,0:0:0:0:
268,283,74816,2,0,L|192:270,1,71.2500027179719,2|0,0:0|0:0,0:0:0:0:
68,348,75159,1,2,0:0:0:0:
68,348,75502,6,0,P|56:315|66:269,1,71.2500027179719,2|0,0:0|0:0,0:0:0:0:
179,168,75845,2,0,P|183:202|171:236,1,71.2500027179719,2|0,0:0|0:0,0:0:0:0:
72,130,76188,2,0,P|57:98|63:51,1,71.2500027179719,2|0,0:0|0:0,0:0:0:0:
184,36,76531,5,0,0:0:0:0:
184,36,76616,1,0,0:0:0:0:
184,36,76702,2,0,B|299:10|247:96|365:60,1,178.12500679493,0|0,0:0|0:0,0:0:0:0:
391,68,77216,2,0,L|388:32,2,35.625001358986,2|2|2,0:0|0:0|0:0,0:0:0:0:
305,205,77559,2,0,L|309:169,2,35.625001358986,2|2|2,0:0|0:0|0:0,0:0:0:0:
406,306,77902,1,2,0:0:0:0:
490,319,78245,6,0,B|450:292|450:292|394:309,1,95,8|0,0:0|0:0,0:0:0:0:
290,363,78588,2,0,L|176:347,1,95,2|0,0:3|0:0,0:0:0:0:
82,247,78931,1,2,0:0:0:0:
82,247,79102,1,0,0:0:0:0:
184,172,79274,2,0,P|209:213|202:273,1,95,2|0,0:3|0:0,0:0:0:0:
82,247,79616,6,0,L|99:153,1,95,8|0,0:0|0:0,0:0:0:0:
29,34,79959,2,0,B|67:61|67:61|120:50,1,95,2|0,0:3|0:0,0:0:0:0:
239,17,80302,1,2,0:0:0:0:
239,17,80474,1,0,0:0:0:0:
335,109,80645,2,0,L|439:98,1,95,2|0,0:3|0:0,0:0:0:0:
512,222,80988,6,0,L|417:231,1,95,8|0,0:0|0:0,0:0:0:0:
304,359,81331,2,0,B|323:315|323:315|304:257,1,95,2|0,0:3|0:0,0:0:0:0:
254,131,81674,1,2,0:0:0:0:
254,131,81845,1,0,0:0:0:0:
133,200,82016,2,0,L|38:190,1,95,2|0,0:3|0:0,0:0:0:0:
173,320,82359,5,2,0:3:0:0:
173,320,82531,1,0,0:0:0:0:
256,211,82702,1,2,0:3:0:0:
256,211,82874,1,0,0:0:0:0:
163,35,83045,2,0,B|182:80|182:80|156:130,1,95,2|2,0:3|0:3,0:0:0:0:
38,190,83388,1,2,0:3:0:0:
38,190,83731,6,0,L|133:200,1,95,2|0,0:3|0:0,0:0:0:0:
250,336,84074,2,0,P|276:297|276:250,1,95,2|0,0:3|0:0,0:0:0:0:
176,66,84416,2,0,P|195:108|236:131,1,95,2|2,0:3|0:3,0:0:0:0:
434,71,84759,2,0,L|329:56,1,95,2|0,0:3|0:0,0:0:0:0:
456,189,85102,6,0,L|468:305,1,95,2|0,0:3|0:0,0:0:0:0:
276,250,85445,2,0,P|319:227|385:240,1,95,2|0,0:3|0:0,0:0:0:0:
255,355,85788,2,0,L|146:340,1,95,2|2,0:3|0:3,0:0:0:0:
25,209,86131,2,0,P|68:232|134:219,1,95,2|0,0:3|0:0,0:0:0:0:
238,104,86474,5,2,0:3:0:0:
273,92,86559,1,0,0:0:0:0:
310,100,86645,1,0,0:0:0:0:
338,125,86731,1,0,0:0:0:0:
364,151,86816,1,2,0:3:0:0:
399,163,86901,1,0,0:0:0:0:
436,155,86987,1,0,0:0:0:0:
464,130,87073,1,0,0:0:0:0:
473,92,87159,5,2,0:3:0:0:
377,261,87331,1,2,0:3:0:0:
377,261,87416,1,2,0:3:0:0:
377,261,87502,1,2,0:3:0:0:
275,173,87674,1,0,0:0:0:0:
150,267,87845,5,4,0:3:0:0:
150,267,88188,1,4,0:3:0:0:
150,267,88531,1,8,0:0:0:0:
59,109,89216,5,8,0:0:0:0:
59,109,89559,1,4,0:0:0:0:
59,109,89902,1,8,0:0:0:0:
59,109,90245,2,0,P|111:133|169:123,1,113.999996520996,4|0,0:0|0:0,0:0:0:0:
351,46,90588,5,8,0:0:0:0:
351,46,90931,1,4,0:0:0:0:
351,46,91274,2,0,L|335:173,1,113.999996520996,8|0,0:0|0:0,0:0:0:0:
478,265,91616,2,0,L|463:151,1,113.999996520996,4|0,0:0|0:0,0:0:0:0:
350,329,91959,5,8,0:0:0:0:
350,329,92302,1,4,0:0:0:0:
350,329,92645,2,0,P|305:299|241:306,1,113.999996520996,8|0,0:0|0:0,0:0:0:0:
74,341,92988,2,0,P|122:317|148:258,1,113.999996520996,4|0,0:0|0:0,0:0:0:0:
57,144,93331,5,8,0:0:0:0:
57,144,93674,1,4,0:0:0:0:
57,144,94016,1,8,0:0:0:0:
57,144,94359,2,0,L|179:163,1,113.999996520996,4|0,0:0|0:0,0:0:0:0:
319,62,94702,5,8,0:0:0:0:
319,62,95045,1,4,0:0:0:0:
319,62,95388,1,8,0:0:0:0:
319,62,95731,2,0,B|370:91|370:91|449:74,1,113.999996520996,4|0,0:0|0:0,0:0:0:0:
512,230,96074,5,8,0:0:0:0:
512,230,96416,1,4,0:0:0:0:
512,230,96759,1,8,0:0:0:0:
512,230,97102,2,0,L|390:249,1,113.999996520996,4|0,0:0|0:0,0:0:0:0:
294,334,97445,6,0,L|302:286,3,47.5,8|0|0|0,0:0|0:0|0:0|0:0,0:0:0:0:
203,260,97788,2,0,L|195:212,3,47.5,2|0|0|0,0:0|0:0|0:0|0:0,0:0:0:0:
89,320,98131,5,2,0:0:0:0:
65,290,98216,1,0,0:0:0:0:
61,253,98302,1,0,0:0:0:0:
76,218,98388,1,0,0:0:0:0:
102,190,98474,1,2,0:0:0:0:
126,160,98559,1,0,0:0:0:0:
130,123,98645,1,0,0:0:0:0:
115,88,98731,1,0,0:0:0:0:
91,58,98816,6,0,L|37:46,3,47.5,2|0|0|0,0:0|0:0|0:0|0:0,0:0:0:0:
207,122,99159,2,0,L|254:112,3,47.5,2|0|0|0,0:0|0:0|0:0|0:0,0:0:0:0:
378,33,99502,6,0,L|367:136,1,95,2|0,0:0|0:0,0:0:0:0:
333,177,99759,2,0,B|378:157|378:157|445:181,1,95,2|0,0:0|0:0,0:0:0:0:
457,184,100016,1,2,0:0:0:0:
512,335,100188,6,0,L|385:316,1,113.999996520996,8|0,0:0|0:0,0:0:0:0:
259,215,100531,2,0,B|284:268|284:268|257:331,1,113.999996520996,4|0,0:0|0:0,0:0:0:0:
146,270,100874,2,0,L|19:289,1,113.999996520996,8|0,0:0|0:0,0:0:0:0:
156,118,101216,1,4,0:0:0:0:
156,118,101388,1,0,0:0:0:0:
80,46,101559,6,0,P|52:97|65:164,1,113.999996520996,8|0,0:0|0:0,0:0:0:0:
229,188,101902,2,0,P|256:135|243:68,1,113.999996520996,4|0,0:0|0:0,0:0:0:0:
377,20,102245,1,8,0:0:0:0:
377,20,102416,1,0,0:0:0:0:
508,146,102588,1,6,0:0:0:0:
508,146,102759,1,2,0:0:0:0:
368,229,102931,6,0,L|379:358,1,113.999996520996,10|0,0:0|0:0,0:0:0:0:
275,138,103274,2,0,B|240:191|240:191|265:265,1,113.999996520996,4|0,0:0|0:0,0:0:0:0:
393,66,103616,1,8,0:0:0:0:
464,217,103788,1,0,0:0:0:0:
284,127,103959,2,0,L|156:136,1,113.999996520996,6|2,0:0|0:0,0:0:0:0:
17,192,104302,6,0,B|45:132|45:132|17:74,1,113.999996520996,10|0,0:0|0:0,0:0:0:0:
117,256,104645,2,0,B|89:316|89:316|117:374,1,113.999996520996,4|0,0:0|0:0,0:0:0:0:
331,259,104988,2,0,L|204:238,1,113.999996520996,8|0,0:0|0:0,0:0:0:0:
379,373,105331,1,4,0:0:0:0:
481,262,105502,1,0,0:0:0:0:
396,123,105674,6,0,P|448:153|514:145,1,113.999996520996,8|0,0:0|0:0,0:0:0:0:
384,13,106016,2,0,L|261:24,1,113.999996520996,4|0,0:0|0:0,0:0:0:0:
161,80,106359,2,0,B|104:65|104:65|39:91,1,113.999996520996,8|0,0:0|0:0,0:0:0:0:
124,214,106702,2,0,L|-1:195,1,113.999996520996,4|0,0:0|0:0,0:0:0:0:
175,346,107045,6,0,P|246:318|290:327,1,113.999996520996,8|0,0:0|0:0,0:0:0:0:
423,262,107388,2,0,L|437:384,1,113.999996520996,4|0,0:0|0:0,0:0:0:0:
285,193,107731,2,0,L|297:79,1,113.999996520996,8|0,0:0|0:0,0:0:0:0:
441,21,108074,2,0,B|469:80|469:80|442:139,1,113.999996520996,4|0,0:0|0:0,0:0:0:0:
313,61,108416,6,0,L|185:73,1,113.999996520996,8|0,0:0|0:0,0:0:0:0:
13,169,108759,2,0,L|141:181,1,113.999996520996,4|0,0:0|0:0,0:0:0:0:
231,299,109102,1,8,0:0:0:0:
231,299,109274,1,0,0:0:0:0:
291,229,109445,1,4,0:0:0:0:
381,214,109616,1,0,0:0:0:0:
460,260,109788,6,0,L|469:364,1,95,0|0,0:0|0:0,0:0:0:0:
374,260,110131,2,0,L|366:166,1,95,0|0,0:0|0:0,0:0:0:0:
466,95,110474,1,4,0:0:0:0:
357,18,110645,1,2,0:0:0:0:
253,101,110816,1,4,0:0:0:0:
144,24,110987,1,2,0:0:0:0:
47,116,111159,6,0,L|34:232,1,113.999996520996,8|0,0:0|0:0,0:0:0:0:
135,372,111502,2,0,B|90:345|90:345|14:364,1,113.999996520996,4|0,0:0|0:0,0:0:0:0:
194,280,111845,2,0,B|239:307|239:307|315:288,1,113.999996520996,8|0,0:0|0:0,0:0:0:0:
475,234,112188,1,4,0:0:0:0:
402,363,112359,1,0,0:0:0:0:
323,193,112531,6,0,P|303:143|322:84,1,113.999996520996,8|0,0:0|0:0,0:0:0:0:
488,52,112874,2,0,P|508:102|489:161,1,113.999996520996,4|0,0:0|0:0,0:0:0:0:
332,311,113216,1,8,0:0:0:0:
332,311,113388,1,0,0:0:0:0:
383,138,113559,1,6,0:0:0:0:
483,282,113731,1,2,0:0:0:0:
253,237,113902,6,0,B|119:195|178:295|20:257,2,227.999993041992,10|4|8,0:0|0:0|0:0,0:0:0:0:
201,323,114759,1,0,0:0:0:0:
86,170,114931,2,0,P|68:123|104:72,1,113.999996520996,6|2,0:0|0:0,0:0:0:0:
216,22,115274,6,0,L|337:32,1,113.999996520996,10|0,0:0|0:0,0:0:0:0:
475,133,115616,2,0,B|458:74|458:74|482:25,1,113.999996520996,4|0,0:0|0:0,0:0:0:0:
329,122,115959,2,0,L|363:237,1,113.999996520996,8|0,0:0|0:0,0:0:0:0:
472,361,116302,2,0,B|489:302|489:302|465:254,1,113.999996520996,4|0,0:0|0:0,0:0:0:0:
277,317,116645,6,0,L|403:336,1,113.999996520996,8|0,0:0|0:0,0:0:0:0:
187,167,116988,2,0,B|215:222|215:222|196:289,1,113.999996520996,4|0,0:0|0:0,0:0:0:0:
64,241,117331,2,0,L|47:362,1,113.999996520996,8|0,0:0|0:0,0:0:0:0:
111,108,117674,2,0,P|52:126|3:108,1,113.999996520996,4|0,0:0|0:0,0:0:0:0:
159,8,118016,6,0,L|286:23,1,113.999996520996,8|0,0:0|0:0,0:0:0:0:
372,130,118359,2,0,B|429:109|429:109|492:132,1,113.999996520996,4|0,0:0|0:0,0:0:0:0:
256,238,118702,2,0,L|243:115,1,113.999996520996,8|0,0:0|0:0,0:0:0:0:
435,230,119045,2,0,L|415:352,1,113.999996520996,4|0,0:0|0:0,0:0:0:0:
211,303,119388,5,8,0:0:0:0:
211,303,119559,1,0,0:0:0:0:
211,303,119731,2,0,L|77:321,1,113.999996520996,4|0,0:0|0:0,0:0:0:0:
26,180,120074,2,0,P|81:207|137:199,1,113.999996520996,8|0,0:0|0:0,0:0:0:0:
163,44,120416,2,0,P|108:17|52:25,1,113.999996520996,6|2,0:0|0:0,0:0:0:0:
95,112,120759,5,2,0:0:0:0:
95,112,121102,1,0,0:0:0:0:
95,112,121445,1,2,0:0:0:0:
254,242,121616,5,4,0:0:0:0:
304,164,121788,1,6,0:0:0:0:
393,137,121959,1,6,0:0:0:0:
479,174,122131,6,0,P|496:234|481:293,1,113.999996520996,10|0,0:0|0:0,0:0:0:0:
304,164,122474,2,0,L|321:36,1,113.999996520996,4|0,0:0|0:0,0:0:0:0:
162,98,122816,2,0,B|193:153|193:153|167:212,1,113.999996520996,8|0,0:0|0:0,0:0:0:0:
56,155,123159,1,4,0:0:0:0:
167,331,123331,1,0,0:0:0:0:
35,375,123502,6,0,L|52:255,1,113.999996520996,8|0,0:0|0:0,0:0:0:0:
1,120,123845,2,0,B|52:93|52:93|126:117,1,113.999996520996,4|0,0:0|0:0,0:0:0:0:
261,144,124188,1,8,0:0:0:0:
261,144,124359,1,0,0:0:0:0:
141,272,124531,1,6,0:0:0:0:
329,361,124702,1,2,0:0:0:0:
277,274,124874,6,0,B|411:232|352:332|510:294,2,227.999993041992,10|4|8,0:0|0:0|0:0,0:0:0:0:
329,361,125731,1,0,0:0:0:0:
446,207,125903,2,0,P|470:155|448:103,1,113.999996520996,6|2,0:0|0:0,0:0:0:0:
337,30,126245,6,0,L|223:39,1,113.999996520996,10|0,0:0|0:0,0:0:0:0:
78,141,126587,2,0,B|95:82|95:82|71:34,1,113.999996520996,4|0,0:0|0:0,0:0:0:0:
224,130,126930,2,0,L|191:239,1,113.999996520996,8|0,0:0|0:0,0:0:0:0:
67,371,127273,2,0,B|50:312|50:312|73:264,1,113.999996520996,4|0,0:0|0:0,0:0:0:0:
191,239,127616,5,0,0:0:0:0:
191,239,127959,2,0,L|321:256,1,113.999996520996,4|0,0:0|0:0,0:0:0:0:
439,360,128302,2,0,B|421:298|421:298|451:237,1,113.999996520996,8|0,0:0|0:0,0:0:0:0:
339,43,128645,2,0,B|352:177,1,113.999996520996,4|0,0:0|0:0,0:0:0:0:
144,192,128988,6,0,B|155:78,1,113.999996520996,8|0,0:0|0:0,0:0:0:0:
36,137,129331,2,0,B|3:187|3:187|26:248,1,113.999996520996,4|0,0:0|0:0,0:0:0:0:
133,314,129674,2,0,L|9:332,1,113.999996520996,8|0,0:0|0:0,0:0:0:0:
220,224,130016,2,0,L|344:242,1,113.999996520996,6|2,0:0|0:0,0:0:0:0:
442,345,130359,5,10,0:0:0:0:
442,345,130531,1,0,0:0:0:0:
442,345,130702,2,0,L|461:229,1,113.999996520996,4|0,0:0|0:0,0:0:0:0:
475,59,131045,2,0,P|431:94|356:87,1,113.999996520996,8|0,0:0|0:0,0:0:0:0:
262,157,131388,2,0,P|218:122|143:129,1,113.999996520996,6|2,0:0|0:0,0:0:0:0:
40,190,131731,5,2,0:0:0:0:
40,190,132074,1,2,0:0:0:0:
40,190,132416,1,2,0:0:0:0:
111,359,133102,6,0,L|132:192,1,152,2|2,0:0|0:0,0:0:0:0:
324,127,133788,1,2,0:0:0:0:
234,300,134131,1,2,0:0:0:0:
431,369,134474,2,0,B|462:322|462:322|438:216,1,152,2|2,0:0|0:0,0:0:0:0:
285,48,135159,2,0,P|238:107|266:192,1,152,2|2,0:0|0:0,0:0:0:0:
475,114,135845,6,0,L|323:126,1,152,2|2,0:0|0:0,0:0:0:0:
150,42,136531,1,2,0:0:0:0:
274,209,136874,1,2,0:0:0:0:
79,290,137216,2,0,B|63:186|63:186|120:215,1,152,2|2,0:0|0:0,0:0:0:0:
296,307,137902,2,0,B|347:337|347:337|455:318,1,152,2|2,0:0|0:0,0:0:0:0:
371,49,138588,6,0,L|351:210,1,152,2|2,0:0|0:0,0:0:0:0:
461,116,139274,1,2,0:0:0:0:
278,233,139616,1,2,0:0:0:0:
454,375,139959,2,0,P|489:311|457:236,1,152,2|2,0:0|0:0,0:0:0:0:
291,320,140645,2,0,L|116:293,1,152,2|2,0:0|0:0,0:0:0:0:
32,142,141331,6,0,B|88:95|88:95|177:140,1,152,2|2,0:0|0:0,0:0:0:0:
273,178,142016,1,2,0:0:0:0:
386,66,142359,1,2,0:0:0:0:
472,252,142702,6,0,L|482:165,1,76,2|0,0:0|0:0,0:0:0:0:
386,66,143045,2,0,L|394:141,1,76,2|0,0:0|0:0,0:0:0:0:
309,324,143388,2,0,L|319:237,1,76,2|0,0:0|0:0,0:0:0:0:
210,84,143731,2,0,L|218:159,1,76,2|0,0:0|0:0,0:0:0:0:
111,262,144074,5,2,0:0:0:0:
111,262,144416,1,2,0:0:0:0:
111,262,144759,1,2,0:0:0:0:
111,262,145102,2,0,P|133:222|132:180,1,76,2|0,0:0|0:0,0:0:0:0:
42,47,145445,5,2,0:0:0:0:
42,47,145788,2,0,P|79:73|120:77,1,76,2|2,0:0|0:0,0:0:0:0:
256,24,146131,1,2,0:0:0:0:
256,24,146474,1,2,0:0:0:0:
432,127,146816,5,2,0:0:0:0:
432,127,147159,1,2,0:0:0:0:
432,127,147502,1,2,0:0:0:0:
432,127,147845,2,0,L|440:219,1,76,2|2,0:0|0:0,0:0:0:0:
273,200,148188,6,0,P|306:180|349:179,1,76,2|0,0:0|0:0,0:0:0:0:
512,182,148531,2,0,P|512:220|492:258,1,76,2|0,0:0|0:0,0:0:0:0:
416,334,148874,2,0,P|382:315|359:278,1,76,2|0,0:0|0:0,0:0:0:0:
432,127,149216,1,2,0:0:0:0:
256,24,149559,5,2,0:0:0:0:
256,24,149902,1,2,0:0:0:0:
256,24,150245,2,0,P|218:39|167:38,1,76,2|2,0:0|0:0,0:0:0:0:
46,9,150588,2,0,P|75:36|89:83,1,76,2|2,0:0|0:0,0:0:0:0:
31,192,150931,5,2,0:0:0:0:
31,192,151274,1,2,0:0:0:0:
31,192,151616,2,0,L|111:203,1,76,2|2,0:0|0:0,0:0:0:0:
176,299,151959,2,0,L|256:288,1,76,2|0,0:0|0:0,0:0:0:0:
344,192,152302,5,2,0:0:0:0:
344,192,152645,2,0,L|424:203,1,76,2|2,0:0|0:0,0:0:0:0:
508,91,152988,2,0,L|432:80,1,76,2|2,0:0|0:0,0:0:0:0:
432,80,153245,1,2,0:0:0:0:
432,80,153331,1,2,0:0:0:0:
321,1,153502,1,2,0:0:0:0:
200,101,153674,6,0,B|168:116|168:116|81:94,1,114,2|0,0:0|0:0,0:0:0:0:
57,73,154016,2,0,L|62:166,1,76,2|2,0:0|0:0,0:0:0:0:
210,193,154359,2,0,L|187:343,1,152,2|2,0:0|0:0,0:0:0:0:
382,300,155045,6,0,P|424:326|475:323,1,95,8|0,0:0|0:0,0:0:0:0:
345,185,155388,2,0,L|242:192,1,95,2|0,0:3|0:0,0:0:0:0:
147,100,155731,1,2,0:0:0:0:
147,100,155902,1,0,0:0:0:0:
73,201,156074,2,0,B|51:243|51:243|72:308,1,95,2|0,0:3|0:0,0:0:0:0:
204,358,156416,6,0,L|201:256,1,95,8|0,0:0|0:0,0:0:0:0:
132,146,156759,2,0,P|91:121|30:134,1,95,2|0,0:3|0:0,0:0:0:0:
233,63,157102,2,0,P|279:66|319:42,1,95,2|0,0:0|0:0,0:0:0:0:
393,146,157445,2,0,L|493:160,1,95,2|0,0:3|0:0,0:0:0:0:
387,327,157788,6,0,B|411:282|411:282|397:222,1,95,8|0,0:0|0:0,0:0:0:0:
258,141,158131,2,0,B|234:185|234:185|247:246,1,95,2|0,0:3|0:0,0:0:0:0:
153,313,158474,2,0,L|45:296,1,95,2|0,0:0|0:0,0:0:0:0:
0,151,158816,2,0,P|46:176|102:164,1,95,2|0,0:3|0:0,0:0:0:0:
187,43,159159,6,0,L|73:49,1,95,8|0,0:0|0:0,0:0:0:0:
256,137,159502,2,0,L|369:148,1,95,2|0,0:3|0:0,0:0:0:0:
482,57,159845,2,0,B|459:94|459:94|473:159,1,95,2|0,0:0|0:0,0:0:0:0:
425,359,160188,2,0,B|448:322|448:322|433:257,1,95,2|0,0:3|0:0,0:0:0:0:
350,146,160531,5,2,0:3:0:0:
350,146,160702,1,0,0:0:0:0:
258,271,160874,1,2,0:3:0:0:
258,271,161045,1,0,0:0:0:0:
114,183,161216,2,0,L|11:193,1,95,2|2,0:3|0:3,0:0:0:0:
19,192,161559,1,2,0:3:0:0:
156,322,161902,5,2,0:3:0:0:
156,322,162074,1,0,0:0:0:0:
243,180,162245,1,2,0:3:0:0:
243,180,162417,1,0,0:0:0:0:
135,24,162588,2,0,P|110:68|126:119,1,95,2|2,0:3|0:3,0:0:0:0:
119,109,162931,1,2,0:3:0:0:
347,57,163274,5,2,0:3:0:0:
373,89,163359,1,0,0:0:0:0:
380,131,163445,1,0,0:0:0:0:
364,170,163531,1,0,0:0:0:0:
336,201,163616,1,2,0:3:0:0:
320,241,163702,1,0,0:0:0:0:
326,282,163788,1,0,0:0:0:0:
353,315,163873,1,0,0:0:0:0:
394,326,163959,5,2,0:3:0:0:
482,202,164131,1,2,0:3:0:0:
482,202,164216,1,2,0:3:0:0:
482,202,164302,1,2,0:3:0:0:
237,106,164474,1,0,0:0:0:0:
280,354,164645,5,8,0:0:0:0:
280,354,164988,1,8,0:0:0:0:
280,354,165331,1,8,0:0:0:0:
79,209,166016,5,8,0:0:0:0:
79,209,166359,1,4,0:0:0:0:
79,209,166702,1,8,0:0:0:0:
79,209,167045,2,0,P|63:159|96:102,1,113.999996520996,4|0,0:0|0:0,0:0:0:0:
183,22,167388,5,8,0:0:0:0:
183,22,167731,1,4,0:0:0:0:
183,22,168074,2,0,L|317:42,1,113.999996520996,8|0,0:0|0:0,0:0:0:0:
462,142,168416,2,0,B|441:81|441:81|473:21,1,113.999996520996,4|0,0:0|0:0,0:0:0:0:
324,201,168759,5,8,0:0:0:0:
324,201,169102,1,4,0:0:0:0:
324,201,169445,2,0,L|460:222,1,113.999996520996,8|0,0:0|0:0,0:0:0:0:
512,343,169788,2,0,L|376:364,1,113.999996520996,4|0,0:0|0:0,0:0:0:0:
256,293,170131,5,8,0:0:0:0:
256,293,170474,1,4,0:0:0:0:
256,293,170816,1,8,0:0:0:0:
256,293,171159,2,0,P|203:318|141:305,1,113.999996520996,4|0,0:0|0:0,0:0:0:0:
33,216,171502,5,8,0:0:0:0:
33,216,171845,1,4,0:0:0:0:
33,216,172188,1,8,0:0:0:0:
33,216,172531,2,0,L|53:96,1,113.999996520996,4|0,0:0|0:0,0:0:0:0:
236,38,172874,5,8,0:0:0:0:
236,38,173216,1,4,0:0:0:0:
236,38,173559,1,8,0:0:0:0:
236,38,173902,2,0,B|202:88|202:88|218:150,1,113.999996520996,4|0,0:0|0:0,0:0:0:0:
332,231,174245,5,8,0:0:0:0:
332,231,174588,1,4,0:0:0:0:
332,231,174931,2,0,L|452:217,1,113.999996520996,8|0,0:0|0:0,0:0:0:0:
302,349,175274,2,0,L|182:335,1,113.999996520996,4|0,0:0|0:0,0:0:0:0:
50,211,175616,6,0,P|35:255|49:300,1,95,2|0,0:0|0:0,0:0:0:0:
152,230,175959,2,0,P|166:185|151:140,1,95,0|0,0:0|0:0,0:0:0:0:
43,35,176302,6,0,L|175:57,1,113.999996520996,2|0,0:0|0:0,0:0:0:0:
190,71,176559,2,0,B|246:45|246:45|317:66,1,113.999996520996,2|0,0:0|0:0,0:0:0:0:
333,75,176816,1,2,0:0:0:0:
465,158,176988,6,0,L|452:288,1,113.999996520996,10|0,0:0|0:0,0:0:0:0:
330,355,177331,2,0,B|358:303|358:303|335:239,1,113.999996520996,4|0,0:0|0:0,0:0:0:0:
204,147,177674,2,0,L|329:167,1,113.999996520996,8|0,0:0|0:0,0:0:0:0:
240,336,178016,1,4,0:0:0:0:
59,240,178188,1,0,0:0:0:0:
137,320,178359,6,0,P|164:270|167:214,1,113.999996520996,8|0,0:0|0:0,0:0:0:0:
37,35,178702,2,0,P|39:91|67:140,1,113.999996520996,4|0,0:0|0:0,0:0:0:0:
160,56,179045,1,8,0:0:0:0:
160,56,179216,1,0,0:0:0:0:
259,132,179388,1,6,0:0:0:0:
384,138,179559,1,2,0:0:0:0:
484,64,179731,6,0,P|459:165|510:285,2,227.999993041992,10|4|8,0:0|0:0|0:0,0:0:0:0:
359,236,180588,1,0,0:0:0:0:
259,132,180759,2,0,L|129:145,1,113.999996520996,6|2,0:0|0:0,0:0:0:0:
22,307,181102,6,0,B|73:279|73:279|132:295,1,113.999996520996,10|0,0:0|0:0,0:0:0:0:
284,223,181445,2,0,L|271:354,1,113.999996520996,4|0,0:0|0:0,0:0:0:0:
432,177,181788,2,0,P|405:241|427:293,1,113.999996520996,8|0,0:0|0:0,0:0:0:0:
512,73,182131,2,0,L|388:81,1,113.999996520996,4|0,0:0|0:0,0:0:0:0:
267,60,182474,6,0,B|211:37|211:37|144:80,1,113.999996520996,8|0,0:0|0:0,0:0:0:0:
38,142,182816,2,0,L|26:29,1,113.999996520996,4|0,0:0|0:0,0:0:0:0:
205,229,183159,2,0,P|235:175|209:117,1,113.999996520996,8|0,0:0|0:0,0:0:0:0:
79,246,183502,2,0,L|67:359,1,113.999996520996,4|0,0:0|0:0,0:0:0:0:
217,309,183845,6,0,L|343:328,1,113.999996520996,8|0,0:0|0:0,0:0:0:0:
475,248,184188,2,0,B|451:301|451:301|467:365,1,113.999996520996,4|0,0:0|0:0,0:0:0:0:
402,168,184531,2,0,B|426:115|426:115|410:51,1,113.999996520996,8|0,0:0|0:0,0:0:0:0:
255,130,184874,2,0,L|272:275,1,113.999996520996,4|0,0:0|0:0,0:0:0:0:
164,328,185216,5,8,0:0:0:0:
164,328,185388,1,0,0:0:0:0:
164,328,185559,2,0,P|109:349|55:336,1,113.999996520996,4|0,0:0|0:0,0:0:0:0:
1,233,185902,2,0,L|20:108,1,113.999996520996,8|0,0:0|0:0,0:0:0:0:
148,6,186245,2,0,L|165:118,1,113.999996520996,6|2,0:0|0:0,0:0:0:0:
256,226,186588,5,10,0:0:0:0:
256,226,186931,1,4,0:0:0:0:
256,226,187274,1,8,0:0:0:0:
401,372,187445,5,4,0:0:0:0:
365,286,187617,1,6,0:0:0:0:
394,197,187788,1,6,0:0:0:0:
474,149,187960,6,0,P|491:93|469:36,1,113.999996520996,10|0,0:0|0:0,0:0:0:0:
254,80,188302,2,0,L|367:99,1,113.999996520996,4|0,0:0|0:0,0:0:0:0:
228,172,188645,2,0,L|115:190,1,113.999996520996,8|0,0:0|0:0,0:0:0:0:
3,55,188988,1,4,0:0:0:0:
160,101,189159,1,0,0:0:0:0:
33,195,189331,6,0,B|14:242|14:242|39:325,1,113.999996520996,8|0,0:0|0:0,0:0:0:0:
218,368,189674,2,0,B|236:321|236:321|218:260,1,113.999996520996,4|0,0:0|0:0,0:0:0:0:
154,28,190016,1,8,0:0:0:0:
99,149,190188,1,0,0:0:0:0:
293,220,190359,1,6,0:0:0:0:
258,91,190531,1,2,0:0:0:0:
99,149,190702,6,0,L|130:389,2,227.999993041992,10|4|8,0:0|0:0|0:0,0:0:0:0:
214,31,191559,1,0,0:0:0:0:
341,124,191731,2,0,B|391:159|391:159|447:141,1,113.999996520996,6|2,0:0|0:0,0:0:0:0:
511,302,192074,6,0,L|393:323,1,113.999996520996,10|0,0:0|0:0,0:0:0:0:
210,184,192416,2,0,L|328:205,1,113.999996520996,4|0,0:0|0:0,0:0:0:0:
126,289,192759,2,0,P|75:257|10:265,1,113.999996520996,8|0,0:0|0:0,0:0:0:0:
153,87,193102,5,4,0:0:0:0:
153,87,193274,1,0,0:0:0:0:
153,87,193445,2,0,L|33:102,1,113.999996520996,8|0,0:0|0:0,0:0:0:0:
279,150,193788,2,0,B|255:97|255:97|291:29,1,113.999996520996,4|0,0:0|0:0,0:0:0:0:
408,152,194131,2,0,L|423:38,1,113.999996520996,8|0,0:0|0:0,0:0:0:0:
280,260,194474,2,0,P|335:232|402:246,1,113.999996520996,4|0,0:0|0:0,0:0:0:0:
491,361,194816,6,0,L|505:247,1,113.999996520996,8|0,0:0|0:0,0:0:0:0:
318,342,195159,2,0,P|261:346|212:319,1,113.999996520996,4|0,0:0|0:0,0:0:0:0:
40,357,195502,2,0,L|57:230,1,113.999996520996,8|0,0:0|0:0,0:0:0:0:
199,106,195845,2,0,B|163:161|163:161|190:227,1,113.999996520996,4|0,0:0|0:0,0:0:0:0:
317,131,196188,5,8,0:0:0:0:
317,131,196359,1,0,0:0:0:0:
317,131,196531,2,0,L|441:146,1,113.999996520996,4|0,0:0|0:0,0:0:0:0:
491,307,196874,2,0,P|431:276|383:285,1,113.999996520996,8|0,0:0|0:0,0:0:0:0:
276,260,197216,2,0,P|216:291|168:282,1,113.999996520996,6|2,0:0|0:0,0:0:0:0:
48,192,197559,5,2,0:0:0:0:
48,192,197902,1,0,0:0:0:0:
210,58,198245,5,2,0:0:0:0:
210,58,198416,1,2,0:0:0:0:
210,58,198588,1,2,0:0:0:0:
210,58,198759,1,2,0:0:0:0:
348,136,198931,6,0,L|487:126,1,113.999996520996,10|0,0:0|0:0,0:0:0:0:
504,308,199274,2,0,B|440:283|440:283|373:314,1,113.999996520996,4|0,0:0|0:0,0:0:0:0:
257,216,199616,2,0,L|271:346,1,113.999996520996,8|0,0:0|0:0,0:0:0:0:
65,302,199959,1,4,0:0:0:0:
153,202,200131,1,0,0:0:0:0:
0,81,200302,6,0,L|137:109,1,113.999996520996,8|0,0:0|0:0,0:0:0:0:
205,25,200645,2,0,P|258:56|325:43,1,113.999996520996,4|0,0:0|0:0,0:0:0:0:
380,126,200988,2,0,L|517:98,1,113.999996520996,8|0,0:0|0:0,0:0:0:0:
462,266,201331,1,4,0:0:0:0:
339,212,201502,1,0,0:0:0:0:
224,340,201674,6,0,L|240:218,1,113.999996520996,8|0,0:0|0:0,0:0:0:0:
75,70,202016,2,0,L|89:183,1,113.999996520996,4|0,0:0|0:0,0:0:0:0:
13,283,202359,2,0,B|76:307|76:307|130:281,1,113.999996520996,8|0,0:0|0:0,0:0:0:0:
225,150,202702,1,4,0:0:0:0:
383,250,202874,1,0,0:0:0:0:
481,71,203045,6,0,L|366:80,1,113.999996520996,8|0,0:0|0:0,0:0:0:0:
209,154,203388,2,0,B|234:102|234:102|212:35,1,113.999996520996,4|0,0:0|0:0,0:0:0:0:
53,94,203731,2,0,L|67:213,1,113.999996520996,8|0,0:0|0:0,0:0:0:0:
15,361,204074,1,4,0:0:0:0:
162,252,204245,1,0,0:0:0:0:
295,358,204416,5,2,0:0:0:0:
295,358,204588,1,2,0:0:0:0:
295,358,204759,2,0,L|420:372,1,113.999996520996,4|0,0:0|0:0,0:0:0:0:
380,228,205102,2,0,P|453:265|509:248,1,113.999996520996,8|0,0:0|0:0,0:0:0:0:
411,103,205445,2,0,L|284:117,1,113.999996520996,4|0,0:0|0:0,0:0:0:0:
196,27,205788,6,0,B|146:58|146:58|75:38,1,113.999996520996,8|0,0:0|0:0,0:0:0:0:
10,117,206131,2,0,L|22:239,1,113.999996520996,4|0,0:0|0:0,0:0:0:0:
164,368,206474,2,0,L|175:254,1,113.999996520996,8|0,0:0|0:0,0:0:0:0:
335,132,206816,2,0,B|302:183|302:183|327:240,1,113.999996520996,4|0,0:0|0:0,0:0:0:0:
470,184,207159,6,0,L|458:315,1,113.999996520996,2|0,0:0|0:0,0:0:0:0:
492,348,207416,2,0,B|446:321|446:321|382:342,1,113.999996520996,2|0,0:0|0:0,0:0:0:0:
361,363,207674,2,0,L|247:349,1,113.999996520996,2|0,0:0|0:0,0:0:0:0:
213,364,207931,2,0,L|208:308,1,56.9999982604981,2|0,0:0|0:0,0:0:0:0:
65,226,208188,2,0,L|83:91,1,113.999996520996,2|0,0:0|0:0,0:0:0:0:
256,32,208531,5,2,0:0:0:0:
256,192,208874,1,2,0:0:0:0:
256,352,209216,1,2,0:0:0:0:
