osu file format v14

[General]
AudioFilename: audio.mp3
AudioLeadIn: 0
PreviewTime: 111074
Countdown: 0
SampleSet: Soft
StackLeniency: 0.4
Mode: 0
LetterboxInBreaks: 0
WidescreenStoryboard: 0

[Editor]
Bookmarks: 12416,34359,45331,89216,100188,122131,133102,155045,166016,176988,198931
DistanceSpacing: 1.2
BeatDivisor: 2
GridSize: 32
TimelineZoom: 0.9999998

[Metadata]
Title:Catchit (Radio Edit)
TitleUnicode:Catchit (Radio Edit)
Artist:S3RL
ArtistUnicode:S3RL
Creator:StarrStyx
Version:Easy
Source:
Tags:anime featured artist mappers' guild chaoslitz handsome
BeatmapID:1649595
BeatmapSetID:785731

[Difficulty]
HPDrainRate:2
CircleSize:3
OverallDifficulty:2
ApproachRate:3
SliderMultiplier:0.90000000596046
SliderTickRate:1

[Events]
//Background and Video events
0,0,"catchit.png",0,0
//Break Periods
2,56501,65834
2,133102,142634
//Storyboard Layer 0 (Background)
//Storyboard Layer 1 (Fail)
//Storyboard Layer 2 (Pass)
//Storyboard Layer 3 (Foreground)
//Storyboard Sound Samples

[TimingPoints]
74,342.857142857143,4,2,1,50,1,0
28874,-100,4,2,2,70,0,0
31616,-100,4,2,1,68,0,0
33674,-100,4,2,1,60,0,0
34359,-100,4,2,2,75,0,1
45331,-100,4,2,1,60,0,0
50131,-100,4,2,1,50,0,0
78245,-100,4,2,1,60,0,0
82359,-100,4,2,1,68,0,0
83731,-100,4,2,1,75,0,0
86474,-100,4,2,1,80,0,0
87845,-100,4,2,1,70,0,0
88531,-100,4,2,1,60,0,0
89216,-100,4,2,2,75,0,1
100188,-100,4,2,2,70,0,0
111159,-100,4,2,2,75,0,1
116645,-100,4,2,2,80,0,1
119388,-100,4,2,2,75,0,1
120759,-100,4,2,2,60,0,1
121616,-100,4,2,1,83,0,0
122131,-100,4,2,1,75,0,1
133102,-100,4,2,1,50,0,0
142702,-100,4,2,1,58,0,0
143045,-100,4,2,1,70,0,0
143388,-100,4,2,1,78,0,0
143731,-100,4,2,1,90,0,0
144074,-100,4,2,1,50,0,0
155045,-100,4,2,1,60,0,0
160531,-100,4,2,1,75,0,0
163274,-100,4,2,1,80,0,0
164645,-100,4,2,1,70,0,0
165331,-100,4,2,1,60,0,0
166016,-100,4,2,2,75,0,1
175616,-100,4,2,2,60,0,1
176302,-100,4,2,2,68,0,0
176988,-100,4,2,2,75,0,1
182474,-100,4,2,2,80,0,1
185216,-100,4,2,2,75,0,1
187445,-100,4,2,2,83,0,0
187959,-100,4,2,2,75,0,1
193445,-100,4,2,2,80,0,1
196188,-100,4,2,2,75,0,1
197559,-100,4,2,2,60,0,1
198245,-100,4,2,2,68,0,1
198931,-100,4,2,2,75,0,0
208531,-100,4,2,2,60,0,0

[Colours]
Combo1 : 255,241,70
Combo2 : 0,221,0
Combo3 : 244,244,0
Combo4 : 0,179,45
Combo5 : 253,82,0
Combo6 : 121,255,83

[HitObjects]
42,28,12416,5,2,0:3:0:0:
52,135,12759,1,2,0:3:0:0:
159,123,13102,2,0,L|152:212,1,90.000000596046,2|2,0:3|0:3,0:0:0:0:
47,237,13788,2,0,L|54:336,2,90.000000596046,2|2|2,0:3|0:3|0:3,0:0:0:0:
219,367,15159,5,2,0:3:0:0:
265,269,15502,1,2,0:3:0:0:
373,274,15845,2,0,P|416:288|481:275,1,90.000000596046,2|2,0:3|0:3,0:0:0:0:
504,185,16531,2,0,L|494:88,2,90.000000596046,2|2|2,0:3|0:3|0:3,0:0:0:0:
383,5,17902,5,2,0:3:0:0:
353,108,18245,1,2,0:3:0:0:
260,52,18588,2,0,L|150:59,1,90.000000596046,0|2,0:0|0:3,0:0:0:0:
98,140,19274,2,0,L|-10:123,2,90.000000596046,2|2|2,0:3|0:3|0:3,0:0:0:0:
206,326,20646,5,2,0:3:0:0:
216,218,20988,1,2,0:3:0:0:
108,229,21331,2,0,L|96:123,1,90.000000596046,2|2,0:3|0:3,0:0:0:0:
181,70,22016,2,0,L|271:65,2,90.000000596046,0|0|0,0:0|0:0|0:0,0:0:0:0:
394,31,23388,6,0,P|426:86|422:132,1,90.000000596046,4|8,0:3|0:0,0:0:0:0:
340,176,24074,2,0,P|308:231|312:277,1,90.000000596046,4|8,0:3|0:0,0:0:0:0:
375,339,24759,2,0,L|468:330,2,90.000000596046,4|8|4,0:3|0:0|0:3,0:0:0:0:
274,380,25788,1,8,0:0:0:0:
199,301,26131,6,0,L|108:317,1,90.000000596046,4|8,0:3|0:0,0:0:0:0:
10,358,26816,2,0,P|-2:319|13:271,1,90.000000596046,4|8,0:3|0:0,0:0:0:0:
75,185,27502,2,0,L|63:78,2,90.000000596046,4|8|4,0:3|0:0|0:3,0:0:0:0:
179,212,28531,1,8,0:0:0:0:
260,141,28874,6,0,L|376:154,1,90.000000596046,8|4,0:0|0:0,0:0:0:0:
447,104,29559,2,0,L|458:206,1,90.000000596046,8|4,0:0|0:0,0:0:0:0:
416,294,30245,2,0,P|459:316|510:311,2,90.000000596046,8|4|8,0:0|0:0|0:0,0:0:0:0:
338,369,31274,1,4,0:0:0:0:
253,302,31616,6,0,L|155:313,1,90.000000596046,4|8,0:3|0:0,0:0:0:0:
69,365,32302,2,0,P|55:322|74:257,1,90.000000596046,4|8,0:3|0:0,0:0:0:0:
136,199,32988,2,0,L|145:104,2,90.000000596046,2|2|2,0:3|0:3|0:3,0:0:0:0:
294,52,34359,6,0,L|383:41,1,90.000000596046,8|4,0:0|0:0,0:0:0:0:
488,69,35045,2,0,P|506:113|487:166,1,90.000000596046,8|4,0:0|0:0,0:0:0:0:
392,183,35731,2,0,P|374:227|393:280,1,90.000000596046,8|4,0:0|0:0,0:0:0:0:
468,333,36416,1,8,0:0:0:0:
366,371,36759,1,4,0:0:0:0:
290,294,37102,6,0,P|255:316|199:311,1,90.000000596046,8|4,0:0|0:0,0:0:0:0:
106,353,37788,2,0,P|71:331|15:336,1,90.000000596046,8|4,0:0|0:0,0:0:0:0:
14,224,38474,2,0,L|32:112,1,90.000000596046,8|4,0:0|0:0,0:0:0:0:
96,51,39159,1,8,0:0:0:0:
189,105,39502,1,4,0:0:0:0:
273,38,39845,6,0,L|380:54,1,90.000000596046,8|4,0:0|0:0,0:0:0:0:
467,27,40531,2,0,P|449:79|462:127,1,90.000000596046,8|4,0:0|0:0,0:0:0:0:
494,212,41216,1,8,0:0:0:0:
390,243,41559,1,4,0:0:0:0:
332,152,41902,2,0,L|242:138,1,90.000000596046,8|4,0:0|0:0,0:0:0:0:
144,184,42588,6,0,P|101:168|45:177,1,90.000000596046,8|4,0:0|0:0,0:0:0:0:
88,276,43274,2,0,L|97:374,1,90.000000596046,8|4,0:0|0:0,0:0:0:0:
204,368,43959,2,0,L|195:278,2,90.000000596046,2|2|2,0:0|0:0|0:0,0:0:0:0:
420,363,45331,6,0,P|432:321|419:274,1,90.000000596046,4|8,0:3|0:0,0:0:0:0:
365,184,46016,2,0,P|414:182|457:151,1,90.000000596046,4|8,0:3|0:0,0:0:0:0:
381,75,46702,1,4,0:3:0:0:
274,95,47045,1,8,0:0:0:0:
189,27,47388,2,0,L|88:40,1,90.000000596046,4|8,0:3|0:0,0:0:0:0:
29,120,48074,6,0,P|10:171|23:217,1,90.000000596046,4|8,0:3|0:0,0:0:0:0:
121,177,48759,2,0,P|140:228|127:274,1,90.000000596046,4|8,0:3|0:0,0:0:0:0:
62,344,49445,1,4,0:3:0:0:
169,364,49788,1,8,0:0:0:0:
240,283,50131,2,0,P|282:262|341:272,1,90.000000596046,4|8,0:3|0:0,0:0:0:0:
256,192,50816,12,4,56301,0:3:0:0:
420,41,67274,6,0,L|433:156,1,90.000000596046,2|2,0:0|0:0,0:0:0:0:
486,222,67959,2,0,L|473:337,1,90.000000596046,2|2,0:0|0:0,0:0:0:0:
367,302,68645,2,0,B|282:272|283:360|194:325,1,180.000001192092,2|2,0:0|0:0,0:0:0:0:
96,367,69674,1,2,0:0:0:0:
19,290,70016,6,0,L|35:181,1,90.000000596046,2|2,0:0|0:0,0:0:0:0:
138,219,70702,2,0,L|122:110,1,90.000000596046,2|2,0:0|0:0,0:0:0:0:
33,72,71388,2,0,P|101:24|197:49,1,180.000001192092,2|2,0:0|0:0,0:0:0:0:
278,106,72416,1,2,0:0:0:0:
370,50,72759,6,0,L|467:65,1,90.000000596046,2|2,0:0|0:0,0:0:0:0:
497,164,73445,2,0,L|408:150,1,90.000000596046,2|2,0:0|0:0,0:0:0:0:
384,255,74131,2,0,B|317:224|317:224|214:249,1,180.000001192092,2|2,0:0|0:0,0:0:0:0:
135,174,75159,1,2,0:0:0:0:
44,232,75502,6,0,L|49:336,1,90.000000596046,2|2,0:0|0:0,0:0:0:0:
142,375,76188,2,0,L|137:285,1,90.000000596046,2|0,0:0|0:0,0:0:0:0:
213,209,76874,2,0,P|292:255|379:228,1,180.000001192092,0|2,0:0|0:0,0:0:0:0:
456,301,77902,1,2,0:0:0:0:
473,194,78245,6,0,L|486:102,1,90.000000596046,8|2,0:0|0:3,0:0:0:0:
409,27,78931,2,0,L|396:116,1,90.000000596046,2|2,0:0|0:3,0:0:0:0:
300,67,79616,2,0,L|200:78,2,90.000000596046,8|2|2,0:0|0:3|0:0,0:0:0:0:
316,174,80645,1,2,0:3:0:0:
211,201,80988,6,0,P|165:183|118:196,1,90.000000596046,8|2,0:0|0:3,0:0:0:0:
56,273,81674,2,0,L|144:294,1,90.000000596046,2|2,0:0|0:3,0:0:0:0:
226,362,82359,2,0,L|320:352,2,90.000000596046,2|2|2,0:3|0:3|0:3,0:0:0:0:
240,254,83388,1,2,0:3:0:0:
347,239,83731,6,0,P|412:268|450:261,1,90.000000596046,2|2,0:3|0:3,0:0:0:0:
502,187,84416,2,0,L|512:89,1,90.000000596046,2|2,0:3|0:3,0:0:0:0:
424,32,85102,2,0,P|379:35|342:59,1,90.000000596046,2|2,0:3|0:3,0:0:0:0:
242,102,85788,2,0,L|147:88,1,90.000000596046,2|2,0:3|0:3,0:0:0:0:
56,138,86474,6,0,P|43:95|51:51,2,90.000000596046,2|2|2,0:3|0:3|0:3,0:0:0:0:
147,195,87502,1,2,0:3:0:0:
246,152,87845,2,0,L|433:173,1,180.000001192092,4|8,0:3|0:0,0:0:0:0:
297,346,89216,6,0,P|258:327|194:338,1,90.000000596046,8|4,0:0|0:0,0:0:0:0:
134,254,89902,2,0,P|95:273|31:262,1,90.000000596046,8|4,0:0|0:0,0:0:0:0:
10,169,90588,2,0,L|26:64,1,90.000000596046,8|4,0:0|0:0,0:0:0:0:
119,29,91274,1,8,0:0:0:0:
146,133,91616,1,4,0:0:0:0:
233,69,91959,6,0,P|280:47|336:60,1,90.000000596046,8|4,0:0|0:0,0:0:0:0:
375,142,92645,2,0,L|472:160,1,90.000000596046,8|4,0:0|0:0,0:0:0:0:
491,263,93331,2,0,L|402:246,1,90.000000596046,8|4,0:0|0:0,0:0:0:0:
295,233,94016,1,8,0:0:0:0:
331,334,94358,1,4,0:0:0:0:
224,314,94702,6,0,L|108:330,1,90.000000596046,8|4,0:0|0:0,0:0:0:0:
42,269,95388,2,0,B|22:223|22:223|50:160,1,90.000000596046,8|4,0:0|0:0,0:0:0:0:
121,117,96074,2,0,L|133:14,1,90.000000596046,8|4,0:0|0:0,0:0:0:0:
210,101,96759,1,8,0:0:0:0:
306,52,97102,1,4,0:0:0:0:
300,159,97445,6,0,P|345:181|402:171,1,90.000000596046,8|2,0:0|0:0,0:0:0:0:
487,208,98131,2,0,L|479:317,1,90.000000596046,2|2,0:0|0:0,0:0:0:0:
375,273,98816,2,0,L|383:382,2,90.000000596046,2|2|2,0:0|0:0|0:0,0:0:0:0:
287,336,99845,1,0,0:0:0:0:
214,258,100188,6,0,L|108:271,1,90.000000596046,8|4,0:0|0:0,0:0:0:0:
50,189,100874,2,0,L|139:178,1,90.000000596046,8|4,0:0|0:0,0:0:0:0:
204,92,101559,2,0,P|265:113|313:100,1,90.000000596046,8|4,0:0|0:0,0:0:0:0:
373,42,102245,1,8,0:0:0:0:
479,61,102588,1,4,0:0:0:0:
409,143,102931,6,0,L|416:249,1,90.000000596046,10|4,0:0|0:0,0:0:0:0:
483,316,103616,2,0,P|441:330|398:319,1,90.000000596046,8|6,0:0|0:0,0:0:0:0:
318,261,104302,2,0,L|226:272,1,90.000000596046,10|4,0:0|0:0,0:0:0:0:
141,336,104988,1,8,0:0:0:0:
35,310,105331,1,4,0:0:0:0:
110,232,105674,6,0,L|121:132,1,90.000000596046,8|4,0:0|0:0,0:0:0:0:
51,58,106359,2,0,P|98:44|154:61,1,90.000000596046,8|4,0:0|0:0,0:0:0:0:
213,100,107045,2,0,L|321:89,1,90.000000596046,8|4,0:0|0:0,0:0:0:0:
378,13,107731,1,8,0:0:0:0:
480,48,108074,1,4,0:0:0:0:
399,119,108416,6,0,L|411:215,1,90.000000596046,8|4,0:0|0:0,0:0:0:0:
464,302,109102,2,0,B|417:313|417:313|378:298,1,90.000000596046,8|4,0:0|0:0,0:0:0:0:
290,233,109788,2,0,L|184:247,1,90.000000596046
107,189,110474,1,4,0:0:0:0:
59,285,110816,1,4,0:0:0:0:
3,192,111159,6,0,L|18:88,1,90.000000596046,8|4,0:0|0:0,0:0:0:0:
109,46,111845,2,0,P|152:79|201:75,1,90.000000596046,8|4,0:0|0:0,0:0:0:0:
282,30,112531,2,0,L|294:119,1,90.000000596046,8|4,0:0|0:0,0:0:0:0:
374,190,113216,1,8,0:0:0:0:
473,147,113559,1,4,0:0:0:0:
459,254,113902,6,0,P|470:297|453:346,1,90.000000596046,10|4,0:0|0:0,0:0:0:0:
351,316,114588,2,0,L|261:329,1,90.000000596046,8|6,0:0|0:0,0:0:0:0:
164,284,115274,2,0,P|119:303|67:290,1,90.000000596046,10|4,0:0|0:0,0:0:0:0:
14,210,115959,1,8,0:0:0:0:
102,148,116301,1,4,0:0:0:0:
95,40,116645,6,0,P|52:17|2:17,2,90.000000596046,8|4|8,0:0|0:0|0:0,0:0:0:0:
179,107,117674,1,4,0:0:0:0:
273,54,118016,2,0,L|384:69,1,90.000000596046,8|4,0:0|0:0,0:0:0:0:
394,169,118702,2,0,L|505:184,1,90.000000596046,8|4,0:0|0:0,0:0:0:0:
503,287,119388,6,0,B|462:305|462:305|412:288,1,90.000000596046,8|4,0:0|0:0,0:0:0:0:
316,258,120074,2,0,L|306:364,1,90.000000596046,8|6,0:0|0:0,0:0:0:0:
216,289,120759,2,0,L|224:199,1,90.000000596046,2|0,0:0|0:0,0:0:0:0:
308,131,121445,2,0,P|326:88|315:39,1,90.000000596046,2|6,0:0|0:0,0:0:0:0:
212,27,122131,6,0,L|112:39,1,90.000000596046,10|4,0:0|0:0,0:0:0:0:
16,57,122816,2,0,B|37:98|37:98|13:156,1,90.000000596046,8|4,0:0|0:0,0:0:0:0:
124,166,123502,2,0,L|131:263,1,90.000000596046,8|4,0:0|0:0,0:0:0:0:
58,336,124188,1,8,0:0:0:0:
156,381,124531,1,4,0:0:0:0:
224,296,124874,6,0,L|322:307,1,90.000000596046,10|4,0:0|0:0,0:0:0:0:
410,348,125559,2,0,P|430:301|416:243,1,90.000000596046,8|6,0:0|0:0,0:0:0:0:
499,183,126245,2,0,L|487:83,1,90.000000596046,10|4,0:0|0:0,0:0:0:0:
393,40,126931,1,8,0:0:0:0:
366,144,127273,1,4,0:0:0:0:
175,65,127959,6,0,P|133:47|80:57,1,90.000000596046,4|8,0:0|0:0,0:0:0:0:
13,128,128645,1,4,0:0:0:0:
73,217,128988,2,0,L|52:321,2,90.000000596046,8|4|8,0:0|0:0|0:0,0:0:0:0:
173,177,130016,1,6,0:0:0:0:
239,261,130359,6,0,P|286:243|338:254,1,90.000000596046,10|4,0:0|0:0,0:0:0:0:
402,323,131045,2,0,P|451:340|491:336,1,90.000000596046,8|6,0:0|0:0,0:0:0:0:
460,232,131731,2,0,L|451:122,2,90.000000596046,2|2|2,0:0|0:0|0:0,0:0:0:0:
135,128,144074,6,0,L|146:231,1,90.000000596046,2|2,0:0|0:0,0:0:0:0:
66,291,144759,2,0,P|101:318|151:325,1,90.000000596046,2|2,0:0|0:0,0:0:0:0:
248,357,145445,2,0,P|309:313|409:335,1,180.000001192092,2|2,0:0|0:0,0:0:0:0:
488,262,146474,1,2,0:0:0:0:
418,179,146816,6,0,L|427:81,1,90.000000596046,2|2,0:0|0:0,0:0:0:0:
337,26,147502,2,0,L|328:115,1,90.000000596046,2|2,0:0|0:0,0:0:0:0:
224,86,148188,2,0,P|130:55|79:111,1,180.000001192092,2|2,0:0|0:0,0:0:0:0:
163,175,149216,1,2,0:0:0:0:
67,226,149559,6,0,L|73:334,1,90.000000596046,2|2,0:0|0:0,0:0:0:0:
169,362,150245,2,0,L|164:272,1,90.000000596046,2|2,0:0|0:0,0:0:0:0:
269,294,150931,2,0,B|377:262|343:345|470:311,1,180.000001192092,2|2,0:0|0:0,0:0:0:0:
417,211,151959,1,2,0:0:0:0:
337,137,152302,6,0,L|231:148,1,90.000000596046,2|2,0:0|0:0,0:0:0:0:
185,57,152988,2,0,L|95:47,1,90.000000596046,2|2,0:0|0:0,0:0:0:0:
54,148,153674,2,0,B|20:204|20:204|46:323,1,180.000001192092,2|2,0:0|0:0,0:0:0:0:
129,248,154702,1,2,0:0:0:0:
204,325,155045,6,0,L|298:314,1,90.000000596046,8|2,0:0|0:3,0:0:0:0:
356,226,155731,2,0,L|450:237,1,90.000000596046,2|2,0:0|0:3,0:0:0:0:
483,135,156416,2,0,P|498:90|486:42,2,90.000000596046,8|2|2,0:0|0:3|0:0,0:0:0:0:
387,83,157445,1,2,0:3:0:0:
309,158,157788,6,0,L|205:144,1,90.000000596046,8|2,0:0|0:3,0:0:0:0:
146,65,158474,2,0,L|42:79,1,90.000000596046,2|2,0:0|0:3,0:0:0:0:
45,184,159159,2,0,P|18:231|31:288,2,90.000000596046,8|2|2,0:0|0:3|0:0,0:0:0:0:
128,253,160188,1,2,0:3:0:0:
198,334,160531,6,0,L|291:321,1,90.000000596046,2|2,0:3|0:3,0:0:0:0:
381,375,161216,2,0,P|396:324|379:270,1,90.000000596046,2|2,0:3|0:3,0:0:0:0:
482,233,161902,2,0,P|467:182|484:128,1,90.000000596046,2|2,0:3|0:3,0:0:0:0:
485,39,162588,2,0,L|388:23,1,90.000000596046,2|2,0:3|0:3,0:0:0:0:
310,90,163274,6,0,L|213:106,2,90.000000596046,2|2|0,0:3|0:3|0:0,0:0:0:0:
382,169,164302,1,2,0:3:0:0:
484,136,164645,2,0,B|523:217|523:217|487:320,1,180.000001192092,8|8,0:0|0:0,0:0:0:0:
295,213,166016,6,0,L|311:108,1,90.000000596046,8|4,0:0|0:0,0:0:0:0:
242,38,166702,2,0,P|185:64|141:50,1,90.000000596046,8|4,0:0|0:0,0:0:0:0:
59,19,167388,2,0,P|36:73|51:121,1,90.000000596046,8|4,0:0|0:0,0:0:0:0:
132,160,168074,1,8,0:0:0:0:
110,265,168416,1,4,0:0:0:0:
42,349,168759,6,0,P|80:371|124:372,1,90.000000596046,8|4,0:0|0:0,0:0:0:0:
202,295,169445,2,0,L|300:307,1,90.000000596046,8|4,0:0|0:0,0:0:0:0:
386,358,170131,2,0,P|428:377|485:372,1,90.000000596046,8|4,0:0|0:0,0:0:0:0:
451,270,170816,1,8,0:0:0:0:
509,178,171159,1,4,0:0:0:0:
482,73,171502,6,0,P|437:72|396:91,1,90.000000596046,8|4,0:0|0:0,0:0:0:0:
300,42,172188,2,0,L|199:27,1,90.000000596046,8|4,0:0|0:0,0:0:0:0:
132,104,172874,2,0,B|87:86|87:86|28:98,1,90.000000596046,8|4,0:0|0:0,0:0:0:0:
10,196,173559,1,8,0:0:0:0:
19,303,173902,1,4,0:0:0:0:
112,247,174245,6,0,L|99:344,1,90.000000596046,8|4,0:0|0:0,0:0:0:0:
213,301,174931,2,0,P|268:278|319:296,1,90.000000596046,8|4,0:0|0:0,0:0:0:0:
383,218,175616,2,0,P|438:244|480:243,1,90.000000596046,2|0,0:0|0:0,0:0:0:0:
456,137,176302,1,2,0:0:0:0:
375,64,176645,1,0,0:0:0:0:
278,112,176988,6,0,L|180:98,1,90.000000596046,10|4,0:0|0:0,0:0:0:0:
98,39,177674,2,0,P|79:80|86:131,1,90.000000596046,8|4,0:0|0:0,0:0:0:0:
151,207,178359,2,0,L|25:218,1,90.000000596046,8|4,0:0|0:0,0:0:0:0:
118,307,179045,1,8,0:0:0:0:
219,271,179387,1,4,0:0:0:0:
313,323,179731,6,0,P|326:282|316:227,1,90.000000596046,10|4,0:0|0:0,0:0:0:0:
223,188,180416,2,0,P|210:147|220:92,1,90.000000596046,8|6,0:0|0:0,0:0:0:0:
296,28,181102,2,0,L|207:14,1,90.000000596046,10|4,0:0|0:0,0:0:0:0:
131,91,181788,1,8,0:0:0:0:
26,65,182131,1,4,0:0:0:0:
57,168,182474,6,0,P|31:221|53:260,2,90.000000596046,8|4|8,0:0|0:0|0:0,0:0:0:0:
164,176,183502,1,4,0:0:0:0:
232,259,183845,2,0,B|342:248,1,90.000000596046,8|4,0:0|0:0,0:0:0:0:
404,319,184531,2,0,B|446:301|446:301|505:317,1,90.000000596046,8|4,0:0|0:0,0:0:0:0:
441,208,185216,6,0,P|431:161|454:125,1,90.000000596046,8|4,0:0|0:0,0:0:0:0:
374,51,185902,2,0,P|324:38|278:58,1,90.000000596046,8|6,0:0|0:0,0:0:0:0:
186,83,186588,2,0,L|197:181,1,90.000000596046,10|4,0:0|0:0,0:0:0:0:
290,226,187274,1,8,0:0:0:0:
240,321,187616,1,6,0:0:0:0:
143,272,187959,6,0,L|40:284,1,90.000000596046,10|4,0:0|0:0,0:0:0:0:
1,187,188645,2,0,L|90:176,1,90.000000596046,8|4,0:0|0:0,0:0:0:0:
197,192,189331,2,0,P|213:146|197:98,1,90.000000596046,8|4,0:0|0:0,0:0:0:0:
284,36,190016,1,8,0:0:0:0:
376,91,190359,1,4,0:0:0:0:
474,44,190702,6,0,B|483:83|483:83|463:128,1,90.000000596046,10|4,0:0|0:0,0:0:0:0:
365,176,191388,2,0,L|376:284,1,90.000000596046,8|6,0:0|0:0,0:0:0:0:
453,339,192074,2,0,L|351:359,1,90.000000596046,10|4,0:0|0:0,0:0:0:0:
291,276,192759,1,8,0:0:0:0:
183,276,193101,1,4,0:0:0:0:
98,343,193445,6,0,L|0:329,2,90.000000596046,8|4|8,0:0|0:0|0:0,0:0:0:0:
95,234,194474,1,4,0:0:0:0:
46,137,194816,2,0,P|31:85|59:48,1,90.000000596046,8|4,0:0|0:0,0:0:0:0:
152,27,195502,2,0,L|259:38,1,90.000000596046,8|4,0:0|0:0,0:0:0:0:
314,116,196188,6,0,P|379:95|426:109,1,90.000000596046,8|4,0:0|0:0,0:0:0:0:
492,151,196874,2,0,L|485:256,1,90.000000596046,8|6,0:0|0:0,0:0:0:0:
381,269,197559,2,0,L|388:374,2,90.000000596046,2|0|2,0:0|0:0|0:0,0:0:0:0:
294,204,198588,1,2,0:0:0:0:
227,289,198931,6,0,L|136:302,1,90.000000596046,10|4,0:0|0:0,0:0:0:0:
37,263,199616,2,0,P|21:222|43:166,1,90.000000596046,8|4,0:0|0:0,0:0:0:0:
139,161,200302,1,8,0:0:0:0:
114,55,200645,1,4,0:0:0:0:
215,92,200988,2,0,B|263:79|263:79|315:98,1,90.000000596046,8|4,0:0|0:0,0:0:0:0:
376,170,201674,6,0,L|474:184,1,90.000000596046,8|4,0:0|0:0,0:0:0:0:
501,284,202359,2,0,L|411:271,1,90.000000596046,8|4,0:0|0:0,0:0:0:0:
331,343,203045,1,8,0:0:0:0:
312,236,203388,1,4,0:0:0:0:
226,302,203731,2,0,L|136:314,1,90.000000596046,8|4,0:0|0:0,0:0:0:0:
34,291,204416,6,0,P|54:246|43:194,1,90.000000596046,2|4,0:0|0:0,0:0:0:0:
14,103,205102,2,0,L|102:118,1,90.000000596046,8|4,0:0|0:0,0:0:0:0:
190,55,205788,2,0,L|278:39,1,90.000000596046,8|4,0:0|0:0,0:0:0:0:
355,115,206474,2,0,L|443:130,1,90.000000596046,8|4,0:0|0:0,0:0:0:0:
460,236,207159,6,0,P|477:290|463:338,2,90.000000596046,2|0|0,0:0|0:0|0:0,0:0:0:0:
367,292,208188,1,2,0:0:0:0:
287,218,208531,2,0,B|182:191|224:274|106:251,1,180.000001192092,2|2,0:0|0:0,0:0:0:0:
