osu file format v14

[General]
AudioFilename: audio.mp3
AudioLeadIn: 0
PreviewTime: 111074
Countdown: 0
SampleSet: Soft
StackLeniency: 0.4
Mode: 0
LetterboxInBreaks: 0
WidescreenStoryboard: 0

[Editor]
Bookmarks: 12416,34359,45331,89216,100188,111159,133102,166016,176988
DistanceSpacing: 1.2
BeatDivisor: 4
GridSize: 32
TimelineZoom: 2

[Metadata]
Title:Catchit (Radio Edit)
TitleUnicode:Catchit (Radio Edit)
Artist:S3RL
ArtistUnicode:S3RL
Creator:StarrStyx
Version:Chaoz's Hard
Source:
Tags:anime featured artist mappers' guild chaoslitz handsome
BeatmapID:1649593
BeatmapSetID:785731

[Difficulty]
HPDrainRate:5
CircleSize:4
OverallDifficulty:6
ApproachRate:8
SliderMultiplier:1.3
SliderTickRate:1

[Events]
//Background and Video events
0,0,"catchit.png",0,0
//Break Periods
2,155244,163895
//Storyboard Layer 0 (Background)
//Storyboard Layer 1 (Fail)
//Storyboard Layer 2 (Pass)
//Storyboard Layer 3 (Foreground)
//Storyboard Sound Samples

[TimingPoints]
74,342.857142857143,4,2,1,50,1,0
28874,-100,4,2,2,70,0,0
31616,-100,4,2,1,68,0,0
33674,-100,4,2,1,60,0,0
34016,-111.111111111111,4,2,1,60,0,0
34359,-90.9090909090909,4,2,2,75,0,0
43959,-100,4,2,2,75,0,0
45331,-100,4,2,1,60,0,0
50131,-100,4,2,1,50,0,0
50816,-111.111111111111,4,2,1,50,0,0
52188,-125,4,2,1,50,0,0
53559,-142.857142857143,4,2,1,50,0,0
56302,-100,4,2,1,50,0,0
58616,-100,4,2,1,50,0,0
58702,-100,4,2,1,50,0,0
58959,-100,4,2,1,50,0,0
59045,-100,4,2,1,50,0,0
62045,-100,4,2,1,50,0,0
62131,-100,4,2,1,50,0,0
62388,-100,4,2,1,50,0,0
62474,-100,4,2,1,50,0,0
64788,-100,4,2,1,50,0,0
64874,-100,4,2,1,50,0,0
65131,-100,4,2,1,50,0,0
65216,-100,4,2,1,50,0,0
68645,-100,4,2,1,50,0,0
68816,-100,4,2,1,50,0,0
68988,-100,4,2,1,50,0,0
69159,-100,4,2,1,50,0,0
69331,-100,4,2,1,50,0,0
78245,-100,4,2,1,60,0,0
82359,-100,4,2,1,68,0,0
83731,-100,4,2,1,75,0,0
86474,-100,4,2,1,80,0,0
87845,-100,4,2,1,70,0,0
88531,-100,4,2,1,60,0,0
88874,-111.111111111111,4,2,1,60,0,0
89216,-90.9090909090909,4,2,2,75,0,0
100188,-90.9090909090909,4,2,2,70,0,0
111159,-90.9090909090909,4,2,2,75,0,0
116645,-90.9090909090909,4,2,2,80,0,0
119388,-90.9090909090909,4,2,2,75,0,0
120759,-90.9090909090909,4,2,2,60,0,0
121616,-90.9090909090909,4,2,1,83,0,0
122131,-90.9090909090909,4,2,1,75,0,0
131731,-100,4,2,1,75,0,0
133102,-100,4,2,1,50,0,0
142702,-100,4,2,1,58,0,0
143045,-100,4,2,1,70,0,0
143388,-100,4,2,1,78,0,0
143731,-100,4,2,1,90,0,0
144074,-100,4,2,1,50,0,0
155045,-100,4,2,1,60,0,0
160531,-100,4,2,1,75,0,0
163274,-100,4,2,1,80,0,0
164645,-111.111111111111,4,2,1,70,0,0
165331,-125,4,2,1,60,0,0
166016,-90.9090909090909,4,2,2,75,0,0
175616,-90.9090909090909,4,2,2,60,0,0
176302,-90.9090909090909,4,2,2,68,0,0
176988,-90.9090909090909,4,2,2,75,0,0
182474,-90.9090909090909,4,2,2,80,0,0
185216,-90.9090909090909,4,2,2,75,0,0
187445,-90.9090909090909,4,2,2,83,0,0
187959,-90.9090909090909,4,2,2,75,0,0
193445,-90.9090909090909,4,2,2,80,0,0
196188,-90.9090909090909,4,2,2,75,0,0
197559,-90.9090909090909,4,2,2,60,0,0
198245,-90.9090909090909,4,2,2,68,0,0
198931,-90.9090909090909,4,2,2,75,0,0
208531,-100,4,2,2,60,0,0

[Colours]
Combo1 : 255,241,70
Combo2 : 0,221,0
Combo3 : 244,244,0
Combo4 : 0,179,45
Combo5 : 253,82,0
Combo6 : 121,255,83

[HitObjects]
55,44,12416,6,0,L|184:29,2,130,8|2|2,0:3|0:3|0:3,0:0:0:0:
26,211,13445,2,0,L|90:203,1,65,2|0,0:3|0:0,0:0:0:0:
165,243,13788,6,0,B|175:155|175:155|155:118,2,130,2|2|2,0:3|0:3|0:3,0:0:0:0:
155,327,14645,1,0,0:0:0:0:
155,327,14816,2,0,L|219:319,1,65,2|0,0:3|0:0,0:0:0:0:
301,339,15159,6,0,P|350:376|417:353,2,130,2|2|2,0:3|0:3|0:3,0:0:0:0:
276,258,16016,1,0,0:0:0:0:
276,258,16188,2,0,L|283:193,1,65,2|0,0:3|0:0,0:0:0:0:
258,112,16531,6,0,B|306:106|306:106|334:120|334:120|392:113,2,130,2|2|2,0:3|0:3|0:3,0:0:0:0:
130,217,17559,1,2,0:3:0:0:
130,217,17731,1,0,0:0:0:0:
78,151,17902,6,0,P|138:133|194:164,2,130,2|2|0,0:3|0:3|0:0,0:0:0:0:
4,304,18931,2,0,L|68:296,1,65,2|0,0:3|0:0,0:0:0:0:
140,342,19274,6,0,B|120:305|120:305|130:217,2,130,2|2|2,0:3|0:3|0:3,0:0:0:0:
219,371,20131,2,0,L|283:363,2,65,0|2|0,0:0|0:3|0:0,0:0:0:0:
204,287,20645,5,2,0:3:0:0:
204,287,20816,1,0,0:0:0:0:
268,232,20988,2,0,P|320:220|376:273,1,130,2|2,0:3|0:3,0:0:0:0:
362,351,21503,1,0,0:0:0:0:
362,351,21674,2,0,L|426:343,1,65,2|0,0:3|0:0,0:0:0:0:
504,375,22016,6,0,B|468:340|468:340|477:260,1,130,0|0,0:0|0:0,0:0:0:0:
411,104,22702,1,0,0:0:0:0:
462,37,22874,5,8,0:0:0:0:
495,115,23045,1,8,0:0:0:0:
444,182,23216,1,8,0:0:0:0:
360,171,23388,6,0,L|296:163,1,65,4|0,0:3|0:0,0:0:0:0:
244,229,23731,2,0,L|180:221,1,65,8|0,0:0|0:0,0:0:0:0:
143,144,24074,2,0,P|84:131|31:192,1,130,4|8,0:3|0:0,0:0:0:0:
12,255,24588,1,0,0:0:0:0:
53,328,24759,6,0,L|117:320,1,65,4|0,0:3|0:0,0:0:0:0:
193,357,25102,2,0,L|257:349,1,65,8|0,0:0|0:0,0:0:0:0:
335,315,25445,1,4,0:3:0:0:
335,315,25616,2,0,B|343:332|343:332|337:377,2,65,0|8|0,0:0|0:0|0:0,0:0:0:0:
266,264,26131,6,0,B|257:246|257:246|263:201,1,65,4|0,0:3|0:0,0:0:0:0:
233,122,26474,2,0,P|279:79|340:92,1,130,8|4,0:0|0:3,0:0:0:0:
408,41,26988,1,0,0:0:0:0:
408,41,27159,2,0,P|422:71|424:104,1,65,8|0,0:0|0:0,0:0:0:0:
373,169,27502,6,0,P|433:152|491:203,1,130,4|8,0:3|0:0,0:0:0:0:
512,268,28016,1,0,0:0:0:0:
468,340,28188,2,0,B|445:363|445:363|348:352,1,130,4|8,0:3|0:0,0:0:0:0:
281,300,28702,1,0,0:0:0:0:
228,367,28874,6,0,L|164:359,1,65,8|0,0:0|0:0,0:0:0:0:
79,364,29216,2,0,L|87:300,1,65,4|0,0:0|0:0,0:0:0:0:
64,217,29559,2,0,P|113:253|178:241,1,130,8|4,0:0|0:0,0:0:0:0:
219,166,30074,1,0,0:0:0:0:
186,88,30245,6,0,L|122:96,1,65,8|0,0:0|0:0,0:0:0:0:
88,18,30588,2,0,L|152:10,1,65,4|0,0:0|0:0,0:0:0:0:
237,20,30931,1,8,0:0:0:0:
237,20,31102,2,0,L|301:12,2,65,0|4|0,0:0|0:0|0:0,0:0:0:0:
186,88,31616,5,4,0:3:0:0:
186,88,31788,1,0,0:0:0:0:
219,166,31959,2,0,B|267:160|267:160|295:174|295:174|353:167,1,130,8|4,0:0|0:3,0:0:0:0:
421,129,32474,1,0,0:0:0:0:
421,129,32645,2,0,B|430:147|430:147|424:192,1,65,8|0,0:0|0:0,0:0:0:0:
363,247,32988,6,0,B|357:292|357:292|366:310,1,65,2|0,0:3|0:0,0:0:0:0:
423,371,33331,2,0,L|487:363,1,65,2|0,0:3|0:0,0:0:0:0:
507,280,33674,2,0,L|443:288,1,65,2|0,0:3|0:0,0:0:0:0:
366,310,34016,6,0,B|301:317|301:317|288:341,1,87.7499973220826,0|0,0:0|0:0,0:0:0:0:
282,353,34359,6,0,L|198:363,1,71.5000021820069,8|0,0:0|0:0,0:0:0:0:
126,376,34702,2,0,L|115:292,1,71.5000021820069,4|0,0:0|0:0,0:0:0:0:
80,226,35045,2,0,P|146:168|210:196,1,143.000004364014,8|4,0:0|0:0,0:0:0:0:
256,237,35559,1,0,0:0:0:0:
319,179,35731,6,0,P|385:173|409:190,1,71.5000021820069,8|0,0:0|0:0,0:0:0:0:
466,207,36074,2,0,L|455:290,1,71.5000021820069,4|0,0:0|0:0,0:0:0:0:
461,363,36416,2,0,L|377:352,1,71.5000021820069,8|0,0:0|0:0,0:0:0:0:
320,303,36759,1,4,0:0:0:0:
271,373,36931,1,0,0:0:0:0:
198,331,37102,6,0,L|114:320,1,71.5000021820069,8|0,0:0|0:0,0:0:0:0:
53,367,37445,2,0,B|85:335|85:335|74:238,1,143.000004364014,4|8,0:0|0:0,0:0:0:0:
21,171,37959,1,0,0:0:0:0:
53,91,38131,1,4,0:0:0:0:
138,80,38302,1,0,0:0:0:0:
191,147,38474,6,0,B|198:201|198:201|187:223,1,71.5000021820069,8|0,0:0|0:0,0:0:0:0:
155,294,38816,2,0,B|169:301|169:301|224:294,1,71.5000021820069,4|0,0:0|0:0,0:0:0:0:
275,226,39159,2,0,P|326:207|396:272,1,143.000004364014,8|4,0:0|0:0,0:0:0:0:
411,339,39674,1,0,0:0:0:0:
495,321,39845,6,0,B|487:306|487:306|494:251,1,71.5000021820069,8|0,0:0|0:0,0:0:0:0:
452,176,40188,2,0,L|463:91,1,71.5000021820069,4|0,0:0|0:0,0:0:0:0:
419,29,40531,2,0,P|359:10|315:91,1,143.000004364014,8|4,0:0|0:0,0:0:0:0:
256,130,41045,1,0,0:0:0:0:
200,64,41216,6,0,P|134:58|110:75,1,71.5000021820069,8|0,0:0|0:0,0:0:0:0:
58,105,41559,2,0,L|67:175,1,71.5000021820069,4|0,0:0|0:0,0:0:0:0:
7,237,41902,2,0,P|72:215|135:288,1,143.000004364014,8|4,0:0|0:0,0:0:0:0:
150,338,42416,1,0,0:0:0:0:
209,276,42588,6,0,L|279:266,1,71.5000021820069,8|0,0:0|0:0,0:0:0:0:
307,348,42931,2,0,L|377:338,1,71.5000021820069,4|0,0:0|0:0,0:0:0:0:
421,264,43274,1,8,0:0:0:0:
495,307,43445,2,0,B|503:322|503:322|496:377,2,71.5000021820069,0|4|0,0:0|0:0|0:0,0:0:0:0:
421,264,43959,6,0,B|413:249|413:249|420:194,1,65,2|0,0:0|0:0,0:0:0:0:
430,117,44302,2,0,L|346:128,1,65,2|0,0:0|0:0,0:0:0:0:
296,174,44645,2,0,B|196:144|213:235|113:206,1,195,2|0,0:0|0:0,0:0:0:0:
71,132,45331,6,0,L|51:341,1,195,4|0,0:3|0:0,0:0:0:0:
125,368,46016,1,4,0:3:0:0:
125,368,46359,2,0,L|199:361,1,65,8|0,0:0|0:0,0:0:0:0:
264,322,46702,6,0,B|364:293|347:384|447:354,1,195,4|0,0:3|0:0,0:0:0:0:
412,276,47388,1,4,0:3:0:0:
412,276,48074,6,0,B|466:244|466:244|453:112,1,195,4|0,0:3|0:0,0:0:0:0:
412,38,48759,1,4,0:3:0:0:
412,38,49445,6,0,P|337:17|289:109,1,195,4|0,0:3|0:0,0:0:0:0:
312,187,50131,1,4,0:3:0:0:
312,187,50816,6,0,L|119:168,1,175.499994644165,4|0,0:3|0:0,0:0:0:0:
76,124,51502,1,0,0:0:0:0:
76,124,52188,6,0,B|100:153|100:153|89:270,1,156,0|0,0:0|0:0,0:0:0:0:
28,319,52874,1,0,0:0:0:0:
28,319,53559,6,0,P|79:297|165:384,1,181.999994445801,0|0,0:0|0:0,0:0:0:0:
335,330,56302,6,0,L|469:317,2,130,2|2|2,0:0|0:0|0:0,0:0:0:0:
190,241,57331,2,0,L|254:234,1,65,2|0,0:0|0:0,0:0:0:0:
339,227,57674,1,2,0:0:0:0:
335,221,58016,5,2,0:0:0:0:
343,136,58188,1,2,0:0:0:0:
351,52,58359,2,0,P|299:40|248:81,1,97.5,2|0,0:0|0:0,0:0:0:0:
251,72,58702,2,0,P|199:84|148:43,1,97.5,2|0,0:0|0:0,0:0:0:0:
152,50,59045,6,0,L|88:58,1,65,2|0,0:0|0:0,0:0:0:0:
2,52,59388,2,0,L|10:115,1,65,2|0,0:0|0:0,0:0:0:0:
12,201,59731,2,0,P|82:186|132:235,1,130,2|2,0:0|0:0,0:0:0:0:
169,290,60245,1,0,0:0:0:0:
213,360,60416,6,0,L|347:347,2,130,2|2|2,0:0|0:0|0:0,0:0:0:0:
124,219,61445,1,2,0:0:0:0:
124,219,61616,1,2,0:0:0:0:
49,258,61788,6,0,B|35:231|35:231|44:164,1,97.5,2|0,0:0|0:0,0:0:0:0:
38,149,62131,2,0,L|138:136,1,97.5,2|0,0:0|0:0,0:0:0:0:
150,140,62474,1,2,0:0:0:0:
307,79,62816,2,0,L|243:87,1,65,2|2,0:0|0:0,0:0:0:0:
193,17,63159,6,0,L|201:80,1,65,2|0,0:0|0:0,0:0:0:0:
228,161,63502,2,0,L|236:224,1,65,2|0,0:0|0:0,0:0:0:0:
203,303,63845,1,2,0:0:0:0:
253,369,64016,1,0,0:0:0:0:
337,357,64188,2,0,L|437:344,1,97.5,2|0,0:0|0:0,0:0:0:0:
444,356,64531,6,0,B|430:329|430:329|439:262,1,97.5,2|0,0:0|0:0,0:0:0:0:
448,248,64874,2,0,B|434:221|434:221|443:154,1,97.5,2|0,0:0|0:0,0:0:0:0:
452,140,65216,1,2,0:0:0:0:
301,62,65559,2,0,L|304:30,2,32.5,2|0|0,0:0|0:0|0:0,0:0:0:0:
352,130,65902,6,0,P|288:147|230:109,1,130,2|2,0:0|0:0,0:0:0:0:
156,86,66416,1,2,0:0:0:0:
156,86,66588,2,0,L|148:149,1,65,2|0,0:0|0:0,0:0:0:0:
213,203,66931,2,0,L|200:299,1,97.5,2|0,0:0|0:0,0:0:0:0:
203,315,67274,6,0,L|74:297,1,130,2|2,0:0|0:0,0:0:0:0:
19,132,67959,2,0,L|148:150,1,130,2|2,0:0|0:0,0:0:0:0:
213,203,68474,1,0,0:0:0:0:
296,191,68645,6,0,L|288:254,1,65,2|0,0:0|0:0,0:0:0:0:
370,235,68988,2,0,L|362:298,1,65,2|0,0:0|0:0,0:0:0:0:
414,365,69331,1,2,0:0:0:0:
492,335,69502,1,2,0:0:0:0:
492,335,69588,1,2,0:0:0:0:
492,335,69674,2,0,L|500:270,1,65,2|2,0:0|0:0,0:0:0:0:
506,186,70016,6,0,B|488:177|488:177|443:183,1,65,2|0,0:0|0:0,0:0:0:0:
358,193,70359,2,0,B|313:198|313:198|295:189,1,65,2|0,0:0|0:0,0:0:0:0:
222,147,70702,1,2,0:0:0:0:
179,220,70874,1,2,0:0:0:0:
102,184,71045,2,0,L|39:192,1,65,2|0,0:0|0:0,0:0:0:0:
15,276,71388,6,0,B|100:265|100:265|142:297,1,130,2|2,0:0|0:0,0:0:0:0:
202,344,71902,1,0,0:0:0:0:
256,278,72074,1,2,0:0:0:0:
256,278,72245,1,2,0:0:0:0:
310,344,72416,2,0,L|374:335,1,65,2|0,0:0|0:0,0:0:0:0:
451,370,72759,6,0,B|460:352|460:352|454:307,1,65,2|0,0:0|0:0,0:0:0:0:
390,252,73102,2,0,B|381:234|381:234|387:189,1,65,2|0,0:0|0:0,0:0:0:0:
444,127,73445,1,2,0:0:0:0:
401,53,73616,1,2,0:0:0:0:
317,71,73788,2,0,B|299:80|299:80|254:74,1,65,2|2,0:0|0:0,0:0:0:0:
180,33,74131,6,0,P|111:17|63:72,1,130,2|2,0:0|0:0,0:0:0:0:
35,129,74645,1,2,0:0:0:0:
90,192,74816,2,0,L|154:184,2,65,2|0|2,0:0|0:0|0:0,0:0:0:0:
0,336,75502,6,0,L|156:317,1,130,2|2,0:0|0:0,0:0:0:0:
192,264,76016,1,0,0:0:0:0:
208,340,76188,2,0,L|212:378,2,32.5,2|0|0,0:0|0:0|0:0,0:0:0:0:
286,341,76531,2,0,L|282:308,1,32.5
274,270,76702,6,0,B|377:242|339:348|446:321,1,195,2|0,0:0|0:0,0:0:0:0:
447,321,77302,1,2,0:0:0:0:
447,321,77388,1,2,0:0:0:0:
421,247,77559,2,0,L|425:214,2,32.5,2|2|2,0:0|0:0|0:0,0:0:0:0:
498,257,77902,2,0,B|505:186|505:186|493:156,1,97.5,2|0,2:0|0:0,0:0:0:0:
486,147,78245,6,0,P|477:68|427:39,2,130,8|2|2,0:0|0:3|0:0,0:0:0:0:
344,240,79274,2,0,L|353:176,1,65,2|0,0:3|0:0,0:0:0:0:
414,117,79616,6,0,L|284:132,1,130,8|2,0:0|0:3,0:0:0:0:
210,174,80131,1,0,0:0:0:0:
210,174,80302,1,2,0:0:0:0:
72,69,80645,2,0,L|80:133,1,65,2|0,0:3|0:0,0:0:0:0:
19,192,80988,6,0,P|85:180|134:247,1,130,8|2,0:0|0:3,0:0:0:0:
118,303,81502,1,0,0:0:0:0:
118,303,81674,1,2,0:0:0:0:
273,368,82016,2,0,L|281:304,1,65,2|0,0:3|0:0,0:0:0:0:
343,245,82359,6,0,L|213:260,2,130,2|2|2,0:3|0:3|0:3,0:0:0:0:
412,90,83388,2,0,L|348:98,1,65,2|0,0:3|0:0,0:0:0:0:
294,163,83731,6,0,P|264:115|292:35,1,130,2|2,0:3|0:3,0:0:0:0:
465,25,84416,2,0,P|494:72|466:152,1,130,2|2,0:3|0:3,0:0:0:0:
409,190,84931,1,0,0:0:0:0:
465,252,85102,6,0,L|449:381,2,130,2|2|2,0:3|0:3|0:3,0:0:0:0:
412,90,86131,1,2,0:3:0:0:
244,110,86474,6,0,L|186:117,3,32.5,2|0|0|0,0:3|0:0|0:0|0:0,0:0:0:0:
191,104,86816,2,0,L|133:111,3,32.5,2|0|0|0,0:3|0:0|0:0|0:0,0:0:0:0:
135,106,87159,2,0,B|126:173|126:173|140:200,1,97.5,2|2,0:3|0:3,0:0:0:0:
146,214,87502,2,0,L|138:278,1,65,2|0,0:3|0:0,0:0:0:0:
183,357,87845,6,0,P|119:368|60:324,2,130,4|4|8,0:3|0:3|0:0,0:0:0:0:
249,206,88874,6,0,B|241:270|241:270|257:285,1,87.7499973220826,0|0,0:0|0:0,0:0:0:0:
271,296,89216,6,0,L|263:367,1,71.5000021820069,8|0,0:0|0:0,0:0:0:0:
348,384,89559,2,0,L|355:312,1,71.5000021820069,4|0,0:0|0:0,0:0:0:0:
327,232,89902,2,0,P|399:283|455:256,1,143.000004364014,8|4,0:0|0:0,0:0:0:0:
507,208,90416,1,0,0:0:0:0:
457,138,90588,6,0,B|462:88|462:88|454:67,1,71.5000021820069,8|0,0:0|0:0,0:0:0:0:
383,19,90931,2,0,L|311:26,1,71.5000021820069,4|0,0:0|0:0,0:0:0:0:
256,91,91274,2,0,L|184:98,1,71.5000021820069,8|0,0:0|0:0,0:0:0:0:
112,55,91616,1,4,0:0:0:0:
45,111,91788,1,0,0:0:0:0:
77,192,91959,6,0,L|66:276,1,71.5000021820069,8|0,0:0|0:0,0:0:0:0:
25,338,92302,2,0,P|44:308|161:320,1,143.000004364014,4|8,0:0|0:0,0:0:0:0:
212,350,92816,1,0,0:0:0:0:
261,279,92988,1,4,0:0:0:0:
330,328,93159,1,0,0:0:0:0:
379,257,93331,6,0,L|451:250,1,71.5000021820069,8|0,0:0|0:0,0:0:0:0:
465,165,93674,2,0,L|393:172,1,71.5000021820069,4|0,0:0|0:0,0:0:0:0:
313,202,94016,2,0,B|286:167|286:167|299:68,1,143.000004364014,8|4,0:0|0:0,0:0:0:0:
231,15,94531,1,0,0:0:0:0:
177,83,94702,6,0,B|164:100|164:100|114:106,1,71.5000021820069,8|0,0:0|0:0,0:0:0:0:
28,102,95045,2,0,L|35:174,1,71.5000021820069,4|0,0:0|0:0,0:0:0:0:
7,254,95388,2,0,P|58:208|125:225,1,143.000004364014,8|4,0:0|0:0,0:0:0:0:
176,294,95902,1,0,0:0:0:0:
226,362,96074,6,0,L|298:355,1,71.5000021820069,8|0,0:0|0:0,0:0:0:0:
358,295,96416,2,0,L|430:288,1,71.5000021820069,4|0,0:0|0:0,0:0:0:0:
494,344,96759,2,0,B|467:309|467:309|480:210,1,143.000004364014,8|4,0:0|0:0,0:0:0:0:
491,124,97274,1,0,0:0:0:0:
501,37,97445,6,0,L|429:44,1,71.5000021820069,8|0,0:0|0:0,0:0:0:0:
372,107,97788,2,0,L|300:114,1,71.5000021820069,2|0,0:0|0:0,0:0:0:0:
235,170,98131,1,2,0:0:0:0:
218,84,98302,2,0,B|204:67|204:67|209:17,2,71.5000021820069,0|2|0,0:0|0:0|0:0,0:0:0:0:
235,170,98816,6,0,L|231:205,3,35.7500010910034,2|0|0|0,0:0|0:0|0:0|0:0,0:0:0:0:
241,228,99159,2,0,L|237:263,3,35.7500010910034,2|0|0|0,0:0|0:0|0:0|0:0,0:0:0:0:
247,286,99502,1,2,0:0:0:0:
203,360,99674,1,0,0:0:0:0:
203,360,99759,2,0,L|131:353,1,71.5000021820069,2|0,0:0|0:0,0:0:0:0:
113,352,100016,1,2,0:0:0:0:
27,362,100188,6,0,L|35:291,1,71.5000021820069,8|0,0:0|0:0,0:0:0:0:
22,205,100531,2,0,L|30:134,1,71.5000021820069,4|0,0:0|0:0,0:0:0:0:
30,47,100874,2,0,P|98:40|142:93,1,143.000004364014,8|4,0:0|0:0,0:0:0:0:
120,176,101388,1,0,0:0:0:0:
202,154,101559,6,0,L|274:147,1,71.5000021820069,8|0,0:0|0:0,0:0:0:0:
339,201,101902,2,0,L|411:194,1,71.5000021820069,4|0,0:0|0:0,0:0:0:0:
494,177,102245,2,0,L|487:249,1,71.5000021820069,8|0,0:0|0:0,0:0:0:0:
512,330,102588,1,6,0:0:0:0:
442,380,102759,1,2,0:0:0:0:
372,328,102931,6,0,L|300:335,1,71.5000021820069,10|0,0:0|0:0,0:0:0:0:
221,368,103274,2,0,B|194:333|194:333|207:234,1,143.000004364014,4|8,0:0|0:0,0:0:0:0:
218,149,103788,1,0,0:0:0:0:
149,96,103959,1,6,0:0:0:0:
69,130,104131,1,2,0:0:0:0:
59,217,104302,6,0,L|52:289,1,71.5000021820069,10|0,0:0|0:0,0:0:0:0:
34,372,104645,2,0,L|106:365,1,71.5000021820069,4|0,0:0|0:0,0:0:0:0:
160,298,104988,2,0,P|231:284|276:339,1,143.000004364014,8|4,0:0|0:0,0:0:0:0:
349,372,105502,1,0,0:0:0:0:
422,326,105674,6,0,B|408:309|408:309|413:259,1,71.5000021820069,8|0,0:0|0:0,0:0:0:0:
424,175,106016,2,0,L|352:182,1,71.5000021820069,4|0,0:0|0:0,0:0:0:0:
280,134,106359,2,0,L|123:149,1,143.000004364014,8|4,0:0|0:0,0:0:0:0:
57,115,106874,1,0,0:0:0:0:
69,200,107045,6,0,L|62:272,1,71.5000021820069,8|0,0:0|0:0,0:0:0:0:
55,357,107388,2,0,L|127:350,1,71.5000021820069,4|0,0:0|0:0,0:0:0:0:
209,369,107731,2,0,L|222:226,1,143.000004364014,8|4,0:0|0:0,0:0:0:0:
178,152,108245,1,0,0:0:0:0:
236,89,108416,6,0,L|308:82,1,71.5000021820069,8|0,0:0|0:0,0:0:0:0:
389,57,108759,2,0,L|382:128,1,71.5000021820069,4|0,0:0|0:0,0:0:0:0:
418,206,109102,1,8,0:0:0:0:
454,283,109274,2,0,L|447:355,2,71.5000021820069,0|4|0,0:0|0:0|0:0,0:0:0:0:
418,206,109788,6,0,B|368:212|368:212|355:229,1,71.5000021820069,0|0,0:0|0:0,0:0:0:0:
313,304,110131,2,0,B|300:321|300:321|250:327,1,71.5000021820069,0|0,0:0|0:0,0:0:0:0:
173,361,110473,1,4,0:0:0:0:
90,344,110644,1,2,0:0:0:0:
32,283,110816,1,4,0:0:0:0:
19,199,110987,1,2,0:0:0:0:
56,124,111159,6,0,L|198:110,1,143.000004364014,8|4,0:0|0:0,0:0:0:0:
256,174,111674,1,0,0:0:0:0:
328,129,111845,2,0,L|413:120,1,71.5000021820069,8|0,0:0|0:0,0:0:0:0:
471,75,112188,1,4,0:0:0:0:
511,150,112359,1,0,0:0:0:0:
454,214,112531,6,0,L|445:299,1,71.5000021820069,8|0,0:0|0:0,0:0:0:0:
448,371,112874,2,0,L|363:362,1,71.5000021820069,4|0,0:0|0:0,0:0:0:0:
318,300,113216,1,8,0:0:0:0:
318,300,113388,2,0,L|325:228,2,71.5000021820069,0|6|2,0:0|0:0|0:0,0:0:0:0:
262,365,113902,6,0,L|177:356,1,71.5000021820069,10|0,0:0|0:0,0:0:0:0:
106,371,114245,2,0,L|114:286,1,71.5000021820069,4|0,0:0|0:0,0:0:0:0:
56,234,114588,1,8,0:0:0:0:
125,184,114759,2,0,L|196:191,2,71.5000021820069,0|6|2,0:0|0:0|0:0,0:0:0:0:
95,102,115274,6,0,L|237:116,1,143.000004364014,10|4,0:0|0:0,0:0:0:0:
289,184,115788,1,0,0:0:0:0:
355,129,115959,2,0,P|407:111|481:168,1,143.000004364014,8|4,0:0|0:0,0:0:0:0:
494,240,116474,1,0,0:0:0:0:
456,316,116645,6,0,L|371:307,1,71.5000021820069,8|0,0:0|0:0,0:0:0:0:
329,374,116988,2,0,L|244:365,1,71.5000021820069,4|0,0:0|0:0,0:0:0:0:
218,290,117331,2,0,P|172:273|96:333,1,143.000004364014,8|4,0:0|0:0,0:0:0:0:
20,355,117845,1,0,0:0:0:0:
34,270,118016,6,0,L|25:185,1,71.5000021820069,8|0,0:0|0:0,0:0:0:0:
5,115,118359,2,0,L|90:106,1,71.5000021820069,4|0,0:0|0:0,0:0:0:0:
161,97,118702,1,8,0:0:0:0:
161,97,118874,2,0,L|152:12,2,71.5000021820069,0|4|0,0:0|0:0|0:0,0:0:0:0:
170,182,119388,6,0,L|255:173,1,71.5000021820069,8|0,0:0|0:0,0:0:0:0:
305,117,119731,2,0,P|364:98|431:157,1,143.000004364014,4|8,0:0|0:0,0:0:0:0:
454,236,120245,1,0,0:0:0:0:
383,284,120416,2,0,L|374:369,1,71.5000021820069,6|2,0:0|0:0,0:0:0:0:
291,372,120759,6,0,L|298:300,1,71.5000021820069,2|0,0:0|0:0,0:0:0:0:
240,237,121102,2,0,B|213:202|213:202|226:103,1,143.000004364014,0|2,0:0|0:0,0:0:0:0:
236,18,121616,1,4,0:0:0:0:
306,71,121788,1,6,0:0:0:0:
226,104,121959,1,6,0:0:0:0:
156,51,122131,6,0,L|84:58,1,71.5000021820069,10|0,0:0|0:0,0:0:0:0:
71,143,122474,2,0,L|142:135,1,71.5000021820069,4|0,0:0|0:0,0:0:0:0:
226,104,122816,2,0,P|285:98|325:173,1,143.000004364014,8|4,0:0|0:0,0:0:0:0:
288,240,123331,1,0,0:0:0:0:
315,321,123502,6,0,L|386:313,1,71.5000021820069,8|0,0:0|0:0,0:0:0:0:
468,339,123845,2,0,L|475:267,1,71.5000021820069,4|0,0:0|0:0,0:0:0:0:
437,190,124188,1,8,0:0:0:0:
437,190,124360,2,0,L|444:118,2,71.5000021820069,0|6|2,0:0|0:0|0:0,0:0:0:0:
359,232,124874,6,0,L|287:239,1,71.5000021820069,10|0,0:0|0:0,0:0:0:0:
234,306,125216,2,0,L|162:313,1,71.5000021820069,4|0,0:0|0:0,0:0:0:0:
94,365,125559,1,8,0:0:0:0:
86,279,125731,2,0,L|14:286,2,71.5000021820069,0|6|2,0:0|0:0|0:0,0:0:0:0:
163,313,126245,6,0,B|170:293|170:293|165:243,1,71.5000021820069,10|0,0:0|0:0,0:0:0:0:
199,164,126588,2,0,L|191:92,1,71.5000021820069,4|0,0:0|0:0,0:0:0:0:
147,18,126931,2,0,P|92:8|43:73,1,143.000004364014,8|4,0:0|0:0,0:0:0:0:
93,140,127445,1,0,0:0:0:0:
29,196,127616,5,0,0:0:0:0:
29,196,127959,2,0,L|36:267,1,71.5000021820069,4|0,0:0|0:0,0:0:0:0:
0,345,128302,2,0,P|28:312|126:314,1,143.000004364014,8|4,0:0|0:0,0:0:0:0:
185,368,128816,1,0,0:0:0:0:
262,331,128988,6,0,L|333:323,1,71.5000021820069,8|0,0:0|0:0,0:0:0:0:
416,346,129331,2,0,L|423:274,1,71.5000021820069,4|0,0:0|0:0,0:0:0:0:
371,206,129674,2,0,L|378:134,1,71.5000021820069,8|0,0:0|0:0,0:0:0:0:
387,49,130016,1,6,0:0:0:0:
387,49,130188,1,2,0:0:0:0:
310,87,130359,6,0,L|238:94,1,71.5000021820069,10|0,0:0|0:0,0:0:0:0:
166,48,130702,2,0,B|193:83|193:83|180:182,1,143.000004364014,4|8,0:0|0:0,0:0:0:0:
215,259,131216,1,0,0:0:0:0:
162,327,131388,2,0,L|90:319,1,71.5000021820069,6|2,0:0|0:0,0:0:0:0:
8,340,131731,6,0,B|-13:311|-13:311|-1:218,2,130,2|2|2,0:0|0:0|0:0,0:0:0:0:
321,373,133102,5,2,0:0:0:0:
321,373,133445,1,2,0:0:0:0:
411,230,133788,2,0,L|339:238,1,65,2|0,0:0|0:0,0:0:0:0:
283,294,134131,2,0,L|211:302,1,65,2|0,0:0|0:0,0:0:0:0:
155,358,134474,5,2,0:0:0:0:
155,358,134817,1,2,0:0:0:0:
40,234,135159,2,0,L|32:298,2,65,2|2|2,0:0|0:0|0:0,0:0:0:0:
16,66,135845,6,0,P|106:64|130:102,1,130,2|2,0:0|0:0,0:0:0:0:
158,167,136359,1,0,0:0:0:0:
215,104,136531,2,0,L|279:96,1,65,2|0,0:0|0:0,0:0:0:0:
360,70,136874,2,0,L|367:134,1,65,2|0,0:0|0:0,0:0:0:0:
420,200,137216,6,0,P|330:198|306:236,1,130,2|2,0:0|0:0,0:0:0:0:
209,359,137902,2,0,P|119:361|95:323,1,130,2|2,0:0|0:0,0:0:0:0:
45,175,138588,5,2,0:0:0:0:
45,175,138931,1,2,0:0:0:0:
199,105,139274,2,0,L|206:40,2,65,2|0|2,0:0|0:0|0:0,0:0:0:0:
122,140,139788,1,0,0:0:0:0:
188,191,139959,6,0,B|209:220|209:220|197:313,1,130,2|2,0:0|0:0,0:0:0:0:
264,365,140474,1,2,0:0:0:0:
312,295,140645,2,0,L|320:230,2,65,2|2|2,0:0|0:0|0:0,0:0:0:0:
465,366,141331,5,2,0:0:0:0:
465,366,141674,1,2,0:0:0:0:
312,295,142016,2,0,L|320:230,1,65,2|0,0:0|0:0,0:0:0:0:
401,207,142359,2,0,L|409:142,1,65,2|0,0:0|0:0,0:0:0:0:
465,79,142702,6,0,B|436:100|436:100|343:88,1,130,2|2,0:0|0:0,0:0:0:0:
189,14,143388,2,0,B|210:43|210:43|198:136,1,130,2|2,0:0|0:0,0:0:0:0:
71,249,144074,6,0,P|109:214|192:232,2,130,2|2|2,0:0|0:0|0:0,0:0:0:0:
188,371,145102,2,0,L|196:306,1,65,2|0,0:0|0:0,0:0:0:0:
182,223,145445,6,0,P|220:258|303:240,1,130,2|2,0:0|0:0,0:0:0:0:
347,183,145959,1,2,0:0:0:0:
378,261,146131,2,0,B|366:354|366:354|387:383,1,130,2|2,0:0|0:0,0:0:0:0:
500,258,146816,6,0,B|512:165|512:165|491:136,1,130,2|2,0:0|0:0,0:0:0:0:
338,60,147502,2,0,B|326:153|326:153|347:182,1,130,2|2,0:0|0:0,0:0:0:0:
378,261,148016,1,2,0:0:0:0:
293,248,148188,5,2,0:0:0:0:
293,248,148359,1,0,0:0:0:0:
238,313,148531,2,0,L|173:321,1,65,2|0,0:0|0:0,0:0:0:0:
100,364,148874,2,0,P|63:339|65:251,1,130,2|2,0:0|0:0,0:0:0:0:
178,140,149559,5,2,0:0:0:0:
178,140,149902,1,2,0:0:0:0:
51,27,150245,2,0,L|42:91,1,65,2|2,0:0|0:0,0:0:0:0:
30,175,150588,2,0,L|94:166,1,65,2|2,0:0|0:0,0:0:0:0:
178,140,150931,6,0,L|169:204,1,65,2|0,0:0|0:0,0:0:0:0:
246,241,151274,2,0,L|237:305,1,65,2|0,0:0|0:0,0:0:0:0:
285,374,151616,2,0,P|327:377|354:362,1,65,2|2,0:0|0:0,0:0:0:0:
389,295,151959,2,0,P|419:283|451:289,1,65,2|0,0:0|0:0,0:0:0:0:
511,347,152302,6,0,B|490:318|490:318|502:225,1,130,2|2,0:0|0:0,0:0:0:0:
479,142,152816,1,2,0:0:0:0:
403,180,152988,1,2,0:0:0:0:
340,123,153159,2,0,L|345:77,2,32.5,2|2|2,0:0|0:0|0:0,0:0:0:0:
264,161,153502,1,2,0:0:0:0:
264,161,153674,6,0,P|200:145|146:193,1,130,2|2,0:0|0:0,0:0:0:0:
115,256,154188,1,2,0:0:0:0:
171,327,154359,2,0,L|309:309,2,130,2|2|8,0:0|0:0|0:0,0:0:0:0:
56,366,164645,6,0,L|72:237,1,116.999996429443,8|8,0:0|0:0,0:0:0:0:
43,117,165331,6,0,B|135:90|120:174|212:146,1,182,8|0,0:0|0:0,0:0:0:0:
230,140,166016,6,0,L|240:58,1,71.5000021820069,8|0,0:0|0:0,0:0:0:0:
322,89,166359,2,0,L|313:159,1,71.5000021820069,4|0,0:0|0:0,0:0:0:0:
251,220,166702,2,0,B|349:209|349:209|384:237,1,143.000004364014,8|4,0:0|0:0,0:0:0:0:
441,301,167216,1,0,0:0:0:0:
395,371,167388,6,0,L|324:379,1,71.5000021820069,8|0,0:0|0:0,0:0:0:0:
267,314,167731,2,0,L|196:322,1,71.5000021820069,4|0,0:0|0:0,0:0:0:0:
110,329,168074,2,0,L|118:258,1,71.5000021820069,8|0,0:0|0:0,0:0:0:0:
82,180,168416,1,4,0:0:0:0:
135,112,168588,1,0,0:0:0:0:
98,34,168759,6,0,L|168:25,1,71.5000021820069,8|0,0:0|0:0,0:0:0:0:
254,14,169102,2,0,L|234:170,1,143.000004364014,4|8,0:0|0:0,0:0:0:0:
226,241,169616,1,0,0:0:0:0:
157,189,169788,1,4,0:0:0:0:
236,156,169959,1,0,0:0:0:0:
305,207,170131,6,0,L|375:198,1,71.5000021820069,8|0,0:0|0:0,0:0:0:0:
452,158,170474,2,0,B|461:178|461:178|456:228,1,71.5000021820069,4|0,0:0|0:0,0:0:0:0:
508,295,170816,2,0,P|465:273|387:320,1,143.000004364014,8|4,0:0|0:0,0:0:0:0:
323,371,171331,1,0,0:0:0:0:
263,309,171502,6,0,L|192:317,1,71.5000021820069,8|0,0:0|0:0,0:0:0:0:
107,332,171845,2,0,L|115:261,1,71.5000021820069,4|0,0:0|0:0,0:0:0:0:
166,191,172188,2,0,P|108:228|44:203,1,143.000004364014,8|4,0:0|0:0,0:0:0:0:
2,128,172702,1,0,0:0:0:0:
33,47,172874,6,0,L|103:38,1,71.5000021820069,8|0,0:0|0:0,0:0:0:0:
173,87,173216,2,0,L|243:78,1,71.5000021820069,4|0,0:0|0:0,0:0:0:0:
315,29,173559,2,0,P|377:22|421:96,1,143.000004364014,8|4,0:0|0:0,0:0:0:0:
365,147,174074,1,0,0:0:0:0:
438,190,174245,6,0,L|429:260,1,71.5000021820069,8|0,0:0|0:0,0:0:0:0:
421,346,174588,2,0,L|350:337,1,71.5000021820069,4|0,0:0|0:0,0:0:0:0:
269,366,174931,1,8,0:0:0:0:
282,281,175102,2,0,L|290:210,2,71.5000021820069,0|4|0,0:0|0:0|0:0,0:0:0:0:
269,366,175616,6,0,L|198:357,1,71.5000021820069,2|0,0:0|0:0,0:0:0:0:
153,283,175959,2,0,L|82:274,1,71.5000021820069,0|0,0:0|0:0,0:0:0:0:
23,211,176302,2,0,P|-4:259|10:320,2,107.25000327301,2|2|2,0:0|0:0|0:0,0:0:0:0:
96,166,176988,6,0,L|166:174,1,71.5000021820069,10|0,0:0|0:0,0:0:0:0:
252,162,177331,2,0,L|243:232,1,71.5000021820069,4|0,0:0|0:0,0:0:0:0:
169,277,177674,2,0,P|226:266|291:322,1,143.000004364014,8|4,0:0|0:0,0:0:0:0:
356,369,178188,1,0,0:0:0:0:
431,329,178359,6,0,L|439:258,1,71.5000021820069,8|0,0:0|0:0,0:0:0:0:
399,182,178702,2,0,L|407:111,1,71.5000021820069,4|0,0:0|0:0,0:0:0:0:
375,31,179045,1,8,0:0:0:0:
375,31,179216,2,0,L|446:23,2,71.5000021820069,0|6|2,0:0|0:0|0:0,0:0:0:0:
326,102,179731,6,0,L|255:110,1,71.5000021820069,10|0,0:0|0:0,0:0:0:0:
205,181,180074,2,0,L|134:189,1,71.5000021820069,4|0,0:0|0:0,0:0:0:0:
56,225,180416,1,8,0:0:0:0:
66,139,180588,2,0,L|58:68,2,71.5000021820069,0|6|2,0:0|0:0|0:0,0:0:0:0:
56,225,181102,6,0,P|113:214|158:288,1,143.000004364014,10|4,0:0|0:0,0:0:0:0:
95,334,181616,1,0,0:0:0:0:
171,373,181788,2,0,L|319:356,1,143.000004364014,8|4,0:0|0:0,0:0:0:0:
395,381,182302,1,0,0:0:0:0:
376,296,182474,6,0,L|384:225,1,71.5000021820069,8|0,0:0|0:0,0:0:0:0:
318,169,182816,2,0,L|326:98,1,71.5000021820069,4|0,0:0|0:0,0:0:0:0:
380,31,183159,2,0,P|335:67|247:50,1,143.000004364014,8|4,0:0|0:0,0:0:0:0:
184,4,183674,1,0,0:0:0:0:
159,85,183845,6,0,L|88:93,1,71.5000021820069,8|0,0:0|0:0,0:0:0:0:
61,178,184188,2,0,L|132:170,1,71.5000021820069,4|0,0:0|0:0,0:0:0:0:
217,183,184531,1,8,0:0:0:0:
217,183,184702,2,0,L|288:175,2,71.5000021820069,0|4|0,0:0|0:0|0:0,0:0:0:0:
158,245,185216,6,0,L|150:316,1,71.5000021820069,8|0,0:0|0:0,0:0:0:0:
86,374,185559,2,0,L|234:357,1,143.000004364014,4|8,0:0|0:0,0:0:0:0:
290,298,186074,1,0,0:0:0:0:
336,370,186245,2,0,L|407:362,1,71.5000021820069,6|2,0:0|0:0,0:0:0:0:
492,369,186588,6,0,L|500:298,1,71.5000021820069,10|0,0:0|0:0,0:0:0:0:
506,212,186931,2,0,P|484:177|373:200,1,143.000004364014,4|8,0:0|0:0,0:0:0:0:
318,219,187445,1,4,0:0:0:0:
235,203,187616,1,6,0:0:0:0:
183,137,187788,1,6,0:0:0:0:
185,53,187959,6,0,L|114:61,1,71.5000021820069,10|0,0:0|0:0,0:0:0:0:
28,67,188302,2,0,L|36:138,1,71.5000021820069,4|0,0:0|0:0,0:0:0:0:
0,216,188645,2,0,P|25:184|122:193,1,143.000004364014,8|4,0:0|0:0,0:0:0:0:
165,262,189159,1,0,0:0:0:0:
201,340,189331,6,0,L|272:332,1,71.5000021820069,8|0,0:0|0:0,0:0:0:0:
348,292,189674,2,0,L|419:284,1,71.5000021820069,4|0,0:0|0:0,0:0:0:0:
504,274,190016,1,8,0:0:0:0:
504,274,190188,2,0,L|496:345,2,71.5000021820069,0|6|2,0:0|0:0|0:0,0:0:0:0:
453,203,190702,6,0,L|461:132,1,71.5000021820069,10|0,0:0|0:0,0:0:0:0:
474,46,191045,2,0,L|403:54,1,71.5000021820069,4|0,0:0|0:0,0:0:0:0:
320,29,191388,1,8,0:0:0:0:
342,111,191559,2,0,L|334:182,2,71.5000021820069,0|6|2,0:0|0:0|0:0,0:0:0:0:
320,29,192074,6,0,L|249:37,1,71.5000021820069,10|0,0:0|0:0,0:0:0:0:
198,106,192416,2,0,L|127:114,1,71.5000021820069,4|0,0:0|0:0,0:0:0:0:
56,64,192759,2,0,P|-2:98|27:189,1,143.000004364014,8|4,0:0|0:0,0:0:0:0:
47,239,193274,1,0,0:0:0:0:
37,324,193445,6,0,L|108:316,1,71.5000021820069,8|0,0:0|0:0,0:0:0:0:
175,369,193788,2,0,L|246:361,1,71.5000021820069,4|0,0:0|0:0,0:0:0:0:
292,288,194131,2,0,P|351:270|418:327,1,143.000004364014,8|4,0:0|0:0,0:0:0:0:
482,369,194645,1,0,0:0:0:0:
494,284,194816,6,0,L|502:213,1,71.5000021820069,8|0,0:0|0:0,0:0:0:0:
512,128,195159,2,0,L|441:136,1,71.5000021820069,4|0,0:0|0:0,0:0:0:0:
366,179,195502,2,0,L|295:187,1,71.5000021820069,8|0,0:0|0:0,0:0:0:0:
225,136,195845,1,4,0:0:0:0:
225,136,196016,1,0,0:0:0:0:
201,218,196188,6,0,L|130:226,1,71.5000021820069,8|0,0:0|0:0,0:0:0:0:
48,252,196531,2,0,B|21:217|21:217|34:118,1,143.000004364014,4|8,0:0|0:0,0:0:0:0:
26,33,197045,1,0,0:0:0:0:
26,33,197216,2,0,L|97:25,1,71.5000021820069,6|2,0:0|0:0,0:0:0:0:
148,94,197559,6,0,L|296:77,1,143.000004364014,2|0,0:0|0:0,0:0:0:0:
454,25,198245,2,0,L|446:96,1,71.5000021820069,2|2,0:0|0:0,0:0:0:0:
465,179,198588,2,0,L|457:250,1,71.5000021820069,2|2,0:0|0:0,0:0:0:0:
475,334,198931,6,0,L|404:326,1,71.5000021820069,10|0,0:0|0:0,0:0:0:0:
332,373,199274,2,0,L|261:365,1,71.5000021820069,4|0,0:0|0:0,0:0:0:0:
216,292,199616,2,0,P|170:271|91:333,1,143.000004364014,8|4,0:0|0:0,0:0:0:0:
23,367,200131,1,0,0:0:0:0:
13,282,200302,6,0,L|21:211,1,71.5000021820069,8|0,0:0|0:0,0:0:0:0:
11,125,200645,2,0,L|82:133,1,71.5000021820069,4|0,0:0|0:0,0:0:0:0:
157,174,200988,2,0,P|203:195|282:133,1,143.000004364014,8|4,0:0|0:0,0:0:0:0:
294,66,201502,1,0,0:0:0:0:
357,124,201674,6,0,L|428:116,1,71.5000021820069,8|0,0:0|0:0,0:0:0:0:
511,110,202016,2,0,L|503:181,1,71.5000021820069,4|0,0:0|0:0,0:0:0:0:
488,265,202359,2,0,L|345:281,1,143.000004364014,8|4,0:0|0:0,0:0:0:0:
272,326,202874,1,0,0:0:0:0:
201,276,203045,6,0,L|130:284,1,71.5000021820069,8|0,0:0|0:0,0:0:0:0:
44,297,203388,2,0,L|52:226,1,71.5000021820069,4|0,0:0|0:0,0:0:0:0:
14,148,203731,2,0,P|39:100|136:112,1,143.000004364014,8|4,0:0|0:0,0:0:0:0:
191,146,204245,1,0,0:0:0:0:
234,72,204416,5,2,0:0:0:0:
234,72,204588,1,2,0:0:0:0:
303,122,204759,2,0,L|374:114,1,71.5000021820069,4|0,0:0|0:0,0:0:0:0:
427,46,205102,2,0,B|414:143|414:143|441:178,1,143.000004364014,8|4,0:0|0:0,0:0:0:0:
511,336,205788,6,0,L|368:352,1,143.000004364014,8|4,0:0|0:0,0:0:0:0:
304,294,206302,1,0,0:0:0:0:
304,294,206474,2,0,L|161:310,1,143.000004364014,8|4,0:0|0:0,0:0:0:0:
41,187,207159,6,0,L|147:174,1,107.25000327301,2|2,0:0|0:0,0:0:0:0:
173,48,207674,2,0,L|66:60,2,107.25000327301,2|2|2,0:0|0:0|0:0,0:0:0:0:
303,122,208531,6,0,L|445:105,2,130,2|2|2,0:0|0:0|0:0,0:0:0:0:
