osu file format v14

[General]
AudioFilename: audio.mp3
AudioLeadIn: 0
PreviewTime: 89131
Countdown: 0
SampleSet: Soft
StackLeniency: 0.4
Mode: 0
LetterboxInBreaks: 0
WidescreenStoryboard: 1

[Editor]
DistanceSpacing: 1.3
BeatDivisor: 4
GridSize: 32
TimelineZoom: 1.7

[Metadata]
Title:Catchit (Radio Edit)
TitleUnicode:Catchit (Radio Edit)
Artist:S3RL
ArtistUnicode:S3RL
Creator:Rolniczy
Version:Hard
Source:
Tags:serl featured artist anime rave happy hardcore catchy
BeatmapID:1764731
BeatmapSetID:839864

[Difficulty]
HPDrainRate:4.5
CircleSize:3.5
OverallDifficulty:7
ApproachRate:8
SliderMultiplier:1.49999990463257
SliderTickRate:1

[Events]
//Background and Video events
0,0,"matsune.png",0,0
//Break Periods
//Storyboard Layer 0 (Background)
//Storyboard Layer 1 (Fail)
//Storyboard Layer 2 (Pass)
//Storyboard Layer 3 (Foreground)
//Storyboard Sound Samples

[TimingPoints]
74,342.857142857143,4,2,3,40,1,0
1445,-133.333333333333,4,2,3,40,0,0
12416,-117.647058823529,4,2,3,50,0,0
22874,-117.647058823529,4,2,3,70,0,0
23388,-100,4,2,3,80,0,0
34359,-90.9090909090909,4,2,3,80,0,1
35045,-90.9090909090909,4,2,3,80,0,0
43959,-100,4,2,3,40,0,0
45331,-100,4,2,3,70,0,0
48074,-100,4,2,3,65,0,0
50816,-100,4,2,3,60,0,0
52188,-100,4,2,3,55,0,0
54931,-100,4,2,0,25,0,0
56302,-117.647058823529,4,2,3,50,0,0
78245,-100,4,2,3,55,0,0
83731,-100,4,2,3,70,0,0
89216,-90.9090909090909,4,2,3,80,0,1
89902,-90.9090909090909,4,2,3,80,0,0
98474,-90.9090909090909,4,2,3,70,0,0
98816,-100,4,2,3,60,0,0
99159,-100,4,2,3,50,0,0
99674,-100,4,2,3,60,0,0
99931,-100,4,2,3,70,0,0
100188,-90.9090909090909,4,2,3,80,0,1
100874,-90.9090909090909,4,2,3,80,0,0
111159,-90.9090909090909,4,2,3,80,0,1
111845,-90.9090909090909,4,2,3,80,0,0
121616,-100,4,2,3,80,0,0
122131,-90.9090909090909,4,2,3,80,0,1
127616,-90.9090909090909,4,2,3,80,0,0
127959,-90.9090909090909,4,2,3,80,0,1
131731,-133.333333333333,4,2,3,60,0,0
133102,-117.647058823529,4,2,3,50,0,0
155045,-100,4,2,3,55,0,0
160531,-100,4,2,3,70,0,0
166016,-90.9090909090909,4,2,3,80,0,1
166702,-90.9090909090909,4,2,3,80,0,0
174931,-100,4,2,3,70,0,0
175274,-100,4,2,3,60,0,0
175616,-111.111111111111,4,2,3,50,0,0
176302,-100,4,2,3,60,0,0
176731,-100,4,2,3,70,0,0
176988,-90.9090909090909,4,2,3,80,0,1
177674,-90.9090909090909,4,2,3,80,0,0
187274,-100,4,2,3,80,0,0
187959,-90.9090909090909,4,2,3,80,0,1
196874,-100,4,2,3,70,0,1
197559,-100,4,2,3,60,0,0
197902,-100,4,2,3,50,0,0
198416,-100,4,2,3,60,0,0
198931,-100,4,2,3,70,0,1
199616,-100,4,2,3,70,0,0
201674,-100,4,2,3,60,0,0
204416,-100,4,2,3,50,0,0
204759,-100,4,2,3,60,0,0
208531,-133.333333333333,4,2,3,50,0,0
209559,-100,4,2,3,40,0,0
209902,-100,4,2,3,30,0,0
210245,-100,4,2,3,15,0,0
210588,-100,4,2,0,5,0,0

[Colours]
Combo1 : 189,189,198
Combo2 : 145,135,231
Combo3 : 159,159,159
Combo4 : 117,153,213

[HitObjects]
256,192,74,12,4,1445,3:2:0:0:
81,269,1959,5,0,0:0:0:0:
81,269,2131,2,0,P|133:293|240:258,1,168.749995708466,0|0,0:0|0:0,0:0:0:0:
290,206,2816,2,0,P|366:173|444:199,1,168.749995708466,2|0,0:0|0:0,0:0:0:0:
388,255,3502,2,0,P|362:176|394:100,1,168.749995708466,0|0,0:0|0:0,0:0:0:0:
463,62,4188,6,0,P|384:87|308:55,1,168.749995708466,2|0,0:0|0:0,0:0:0:0:
236,87,4874,2,0,P|157:61|81:93,1,168.749995708466,0|0,0:0|0:0,0:0:0:0:
97,170,5559,2,0,P|122:248|90:324,1,168.749995708466,2|0,0:0|0:0,0:0:0:0:
32,270,6245,2,0,P|110:244|202:284,1,168.749995708466,2|0,0:0|0:0,0:0:0:0:
238,333,6931,5,2,0:0:0:0:
446,216,7445,1,0,0:0:0:0:
446,216,7616,2,0,P|368:235|272:195,1,168.749995708466,0|0,0:0|0:0,0:0:0:0:
280,128,8302,2,0,P|202:109|106:149,1,168.749995708466,2|0,0:0|0:0,0:0:0:0:
127,216,8988,2,0,P|205:235|301:195,1,168.749995708466,0|0,0:0|0:0,0:0:0:0:
280,128,9674,5,2,0:0:0:0:
436,304,10188,1,0,0:0:0:0:
357,302,10359,1,0,0:0:0:0:
430,76,10874,1,0,0:0:0:0:
468,146,11045,1,2,1:2:0:0:
468,146,11388,2,0,L|405:160,2,56.2499985694885,0|0|0,1:0|0:0|1:0,0:0:0:0:
124,245,12416,6,0,L|256:283,2,127.499994325638,6|2|2,3:2|3:2|3:2,0:0:0:0:
124,245,13445,1,0,3:0:0:0:
84,165,13616,1,0,0:0:0:0:
128,87,13788,2,0,L|260:49,2,127.499994325638,0|0|0,3:0|3:0|3:0,0:0:0:0:
84,165,14645,1,2,0:2:0:0:
124,245,14816,2,0,L|161:308,1,63.7499971628189,2|2,3:2|0:2,0:0:0:0:
237,261,15159,6,0,P|282:239|365:258,2,127.499994325638,0|0|0,3:0|3:0|3:0,0:0:0:0:
156,299,16016,1,2,0:2:0:0:
67,315,16188,2,0,P|25:305|-4:284,1,63.7499971628189,2|2,3:2|0:2,0:0:0:0:
8,205,16531,2,0,L|27:59,2,127.499994325638,0|0|0,3:0|3:0|3:0,0:0:0:0:
8,205,17559,1,2,3:2:0:0:
94,228,17731,1,2,0:2:0:0:
159,167,17902,6,0,L|178:21,2,127.499994325638,0|0|0,3:0|3:0|3:0,0:0:0:0:
159,167,18931,1,0,3:0:0:0:
245,190,19103,1,0,0:0:0:0:
310,129,19274,2,0,L|329:-17,2,127.499994325638,0|0|0,3:0|3:0|3:0,0:0:0:0:
328,216,20131,1,2,0:2:0:0:
397,160,20302,2,0,L|405:96,1,63.7499971628189,2|2,3:2|0:2,0:0:0:0:
484,54,20645,6,0,L|492:117,1,63.7499971628189,0|0,3:0|0:0,0:0:0:0:
480,206,20988,2,0,P|468:268|468:333,1,127.499994325638,0|0,3:0|3:0,0:0:0:0:
383,361,21502,1,2,0:2:0:0:
293,366,21674,2,0,P|261:361|231:352,1,63.7499971628189,2|2,3:2|0:2,0:0:0:0:
147,322,22016,5,0,0:0:0:0:
147,322,22359,1,0,0:0:0:0:
147,322,22702,1,0,0:0:0:0:
104,243,22874,2,0,P|94:207|96:171,2,63.7499971628189,0|0|0,1:0|1:0|1:0,0:0:0:0:
147,322,23388,6,0,P|187:329|239:319,1,74.9999952316285,6|0,1:2|0:0,0:0:0:0:
313,274,23731,2,0,P|353:267|405:277,1,74.9999952316285,2|0,1:0|0:0,0:0:0:0:
453,352,24074,2,0,P|385:381|312:369,1,149.999990463257,2|2,1:0|1:0,0:0:0:0:
220,324,24588,1,2,0:0:0:0:
196,221,24759,2,0,P|199:147|242:86,2,149.999990463257,2|2|2,1:0|1:0|1:0,0:0:0:0:
220,324,25616,1,2,0:0:0:0:
313,274,25788,2,0,P|353:267|405:277,1,74.9999952316285,2|0,1:0|0:0,0:0:0:0:
480,318,26131,6,0,P|473:281|476:244,1,74.9999952316285,2|0,1:0|0:0,0:0:0:0:
491,139,26474,2,0,P|454:132|417:135,1,74.9999952316285,2|0,1:0|0:0,0:0:0:0:
319,175,26816,1,2,1:0:0:0:
215,193,26988,2,0,P|155:192|123:181,2,74.9999952316285,2|2|2,0:0|1:0|0:0,0:0:0:0:
319,175,27502,2,0,P|331:101|302:33,2,149.999990463257,2|2|2,1:0|1:0|1:0,0:0:0:0:
319,175,28531,1,2,1:0:0:0:
215,193,28702,1,2,0:0:0:0:
116,155,28874,6,0,P|64:174|35:275,2,149.999990463257,2|10|2,1:0|1:0|1:0,0:0:0:0:
116,155,29902,1,10,1:0:0:0:
215,193,30074,1,2,0:0:0:0:
319,175,30245,2,0,P|371:194|400:295,2,149.999990463257,2|10|2,1:0|1:0|1:0,0:0:0:0:
215,193,31102,1,2,0:0:0:0:
204,297,31274,2,0,L|194:381,1,74.9999952316285,10|2,1:0|0:0,0:0:0:0:
93,345,31616,6,0,L|84:270,1,74.9999952316285,2|2,1:0|0:0,0:0:0:0:
74,165,31959,2,0,P|102:96|196:62,1,149.999990463257,10|2,1:0|1:0,0:0:0:0:
271,73,32474,2,0,P|321:79|367:65,2,74.9999952316285,2|10|2,0:0|1:0|0:0,0:0:0:0:
166,62,32988,5,2,3:2:0:0:
166,62,33331,1,2,3:2:0:0:
166,62,33674,1,2,3:2:0:0:
371,23,34016,1,8,3:1:0:0:
371,23,34359,6,0,P|375:75|392:115,1,82.4999972724915,6|0,1:2|0:0,0:0:0:0:
459,192,34702,2,0,P|460:243|438:284,1,82.4999972724915,10|0,1:0|0:0,0:0:0:0:
386,370,35045,1,2,1:0:0:0:
386,370,35388,2,0,P|347:373|281:354,1,82.4999972724915,10|2,1:0|0:0,0:0:0:0:
196,322,35731,2,0,P|146:323|103:347,1,82.4999972724915,2|0,1:0|0:0,0:0:0:0:
7,305,36074,2,0,P|26:268|30:228,1,82.4999972724915,10|0,1:0|0:0,0:0:0:0:
19,113,36416,1,2,1:0:0:0:
117,174,36588,2,0,P|153:193|193:197,2,82.4999972724915,2|10|2,0:0|1:0|0:0,0:0:0:0:
153,63,37102,6,0,P|193:67|229:86,1,82.4999972724915,2|0,1:0|0:0,0:0:0:0:
308,171,37445,2,0,P|327:207|331:247,1,82.4999972724915,10|0,1:0|0:0,0:0:0:0:
312,362,37788,1,2,1:0:0:0:
230,280,37959,2,0,P|210:243|206:203,2,82.4999972724915,2|10|2,0:0|1:0|0:0,0:0:0:0:
312,362,38474,2,0,P|366:359|408:334,1,82.4999972724915,2|0,1:0|0:0,0:0:0:0:
480,274,38816,2,0,P|495:235|494:194,1,82.4999972724915,10|0,1:0|0:0,0:0:0:0:
474,80,39159,1,2,1:0:0:0:
474,80,39502,2,0,P|450:46|416:23,1,82.4999972724915,10|2,1:0|0:0,0:0:0:0:
345,115,39845,6,0,P|306:130|265:129,1,82.4999972724915,2|0,1:0|0:0,0:0:0:0:
200,33,40188,2,0,P|161:17|120:18,1,82.4999972724915,10|0,1:0|0:0,0:0:0:0:
38,99,40531,1,2,1:0:0:0:
38,99,40874,2,0,P|22:136|22:177,1,82.4999972724915,10|2,1:0|0:0,0:0:0:0:
92,268,41216,2,0,P|100:307|91:347,1,82.4999972724915,2|0,1:0|0:0,0:0:0:0:
192,291,41559,2,0,P|229:273|270:272,1,82.4999972724915,10|0,1:0|0:0,0:0:0:0:
365,339,41902,1,2,1:0:0:0:
365,339,42245,2,0,P|380:301|380:260,1,82.4999972724915,10|2,1:0|0:0,0:0:0:0:
341,151,42588,6,0,P|400:162|437:151,1,82.4999972724915,2|0,1:0|0:0,0:0:0:0:
430,42,42931,2,0,P|371:31|334:42,1,82.4999972724915,10|0,1:0|0:0,0:0:0:0:
250,94,43274,1,2,1:0:0:0:
142,136,43445,2,0,P|101:140|61:129,2,82.4999972724915,2|10|2,0:0|1:0|0:0,0:0:0:0:
250,94,43959,1,2,0:0:0:0:
250,94,44302,1,2,0:0:0:0:
250,94,44645,1,2,0:0:0:0:
250,94,45331,6,0,P|314:82|390:134,1,149.999990463257,6|0,3:2|3:0,0:0:0:0:
395,228,45845,1,2,0:0:0:0:
302,178,46016,1,2,3:2:0:0:
302,178,46359,1,2,3:2:0:0:
211,231,46531,1,2,0:2:0:0:
108,211,46702,2,0,P|75:162|110:64,1,149.999990463257,2|0,3:2|3:0,0:0:0:0:
186,26,47216,1,2,0:2:0:0:
284,63,47388,2,0,P|353:85|417:49,1,149.999990463257,2|0,3:2|3:0,0:0:0:0:
417,49,48074,6,0,P|381:112|403:182,1,149.999990463257,2|0,3:2|3:0,0:0:0:0:
469,263,48588,1,2,0:2:0:0:
364,268,48759,2,0,P|293:287|260:352,1,149.999990463257,2|0,3:2|3:0,0:0:0:0:
260,352,49445,2,0,P|226:287|156:267,1,149.999990463257,2|0,3:2|3:0,0:0:0:0:
59,276,49959,1,2,0:2:0:0:
17,187,50131,2,0,P|0:117|21:37,2,149.999990463257,2|0|2,3:2|3:0|3:2,0:0:0:0:
256,192,50902,12,0,54931,0:0:0:0:
26,164,56302,6,0,P|97:182|154:166,2,127.499994325638,4|0|0,3:2|0:0|0:0,0:0:0:0:
26,164,57331,2,0,P|28:213|23:238,1,63.7499971628189,0|0,0:0|0:0,0:0:0:0:
7,308,57674,1,2,0:0:0:0:
7,308,58016,2,0,P|56:306|81:311,1,63.7499971628189,0|0,0:0|0:0,0:0:0:0:
151,327,58359,1,0,0:0:0:0:
151,327,58702,1,0,0:0:0:0:
151,327,59045,6,0,P|216:340|296:329,2,127.499994325638,2|0|0,0:0|0:0|0:0,0:0:0:0:
151,327,60074,2,0,P|147:279|154:249,1,63.7499971628189,0|0,0:0|0:0,0:0:0:0:
162,182,60416,2,0,P|167:118|150:57,2,127.499994325638,2|0|2,0:0|0:0|0:0,0:0:0:0:
162,182,61445,2,0,P|199:176|243:184,1,63.7499971628189,0|0,0:0|0:0,0:0:0:0:
306,195,61788,6,0,P|384:206|446:192,2,127.499994325638,2|0|0,0:0|0:0|0:0,0:0:0:0:
306,195,62816,2,0,P|306:233|309:264,1,63.7499971628189,0|0,0:0|0:0,0:0:0:0:
321,340,63159,2,0,P|359:340|390:337,1,63.7499971628189,2|0,0:0|0:0,0:0:0:0:
466,325,63502,2,0,P|466:287|463:256,1,63.7499971628189,0|0,0:0|0:0,0:0:0:0:
452,178,63845,2,0,P|452:140|455:109,1,63.7499971628189,0|0,0:0|0:0,0:0:0:0:
465,31,64188,1,0,0:0:0:0:
465,31,64531,6,0,P|402:40|339:28,2,127.499994325638,2|0|0,0:0|0:0|0:0,0:0:0:0:
465,31,65559,2,0,P|465:73|468:105,1,63.7499971628189,0|0,0:0|0:0,0:0:0:0:
471,177,65902,1,2,0:0:0:0:
471,177,66245,2,0,P|429:177|397:180,1,63.7499971628189,0|0,0:0|0:0,0:0:0:0:
325,183,66588,1,2,0:0:0:0:
325,183,66931,1,0,0:0:0:0:
325,183,67274,6,0,P|260:191|175:171,2,127.499994325638,4|0|0,0:2|0:0|0:0,0:0:0:0:
325,183,68302,2,0,P|317:139|318:97,1,63.7499971628189,0|0,0:0|0:0,0:0:0:0:
320,37,68645,2,0,P|263:42|185:26,1,127.499994325638,2|0,0:0|0:0,0:0:0:0:
194,29,69331,1,0,0:0:0:0:
141,92,69502,1,0,0:0:0:0:
141,92,69588,1,0,0:0:0:0:
141,92,69674,1,0,0:0:0:0:
80,148,69845,1,0,0:0:0:0:
159,172,70016,6,0,P|233:185|313:168,1,127.499994325638,2|0,0:0|0:0,0:0:0:0:
284,177,70702,2,0,P|273:218|277:253,1,63.7499971628189,0|0,0:0|0:0,0:0:0:0:
270,322,71045,2,0,P|229:311|194:315,1,63.7499971628189,0|0,0:0|0:0,0:0:0:0:
124,315,71388,1,2,0:0:0:0:
124,315,71731,2,0,P|131:272|124:235,1,63.7499971628189,0|0,0:0|0:0,0:0:0:0:
128,169,72074,2,0,P|126:137|132:106,1,63.7499971628189,2|0,0:0|0:0,0:0:0:0:
146,24,72417,1,0,0:0:0:0:
146,24,72759,6,0,P|82:11|10:25,1,127.499994325638,2|0,0:0|0:0,0:0:0:0:
21,20,73445,2,0,P|17:60|21:91,1,63.7499971628189,0|0,0:0|0:0,0:0:0:0:
32,165,73788,2,0,P|36:205|32:236,1,63.7499971628189,0|0,0:0|0:0,0:0:0:0:
24,310,74131,1,2,0:0:0:0:
24,310,74474,2,0,P|64:306|95:310,1,63.7499971628189,0|0,0:0|0:0,0:0:0:0:
169,321,74817,2,0,P|209:325|240:321,1,63.7499971628189,0|0,0:0|0:0,0:0:0:0:
314,313,75160,1,0,0:0:0:0:
314,313,75502,6,0,P|322:244|305:177,1,127.499994325638,2|2,0:0|0:0,0:0:0:0:
160,261,76188,1,2,0:0:0:0:
160,261,76274,1,2,0:0:0:0:
160,261,76359,1,2,0:0:0:0:
202,189,76531,2,0,L|227:147,2,31.8749985814095,2|2|2,0:0|0:0|0:0,0:0:0:0:
134,140,76874,1,2,0:0:0:0:
134,140,77216,6,0,L|127:92,2,31.8749985814095,2|2|2,0:0|0:0|0:0,0:0:0:0:
54,165,77559,1,2,0:0:0:0:
54,165,77645,1,2,0:0:0:0:
54,165,77730,1,2,0:0:0:0:
58,81,77902,1,2,0:0:0:0:
35,265,78245,5,6,3:2:0:0:
35,265,78588,1,2,3:2:0:0:
35,265,78931,1,2,3:2:0:0:
35,265,79274,2,0,L|127:290,1,74.9999952316285,2|2,3:2|0:2,0:0:0:0:
175,215,79616,1,2,3:2:0:0:
175,215,79959,1,2,3:2:0:0:
175,215,80302,1,2,3:2:0:0:
175,215,80645,2,0,L|267:190,1,74.9999952316285,2|2,3:2|0:2,0:0:0:0:
319,261,80988,5,2,3:2:0:0:
319,261,81331,1,2,3:2:0:0:
319,261,81674,1,2,3:2:0:0:
319,261,82017,2,0,L|411:286,1,74.9999952316285,2|2,3:2|0:2,0:0:0:0:
459,210,82359,2,0,P|470:164|458:124,1,74.9999952316285,2|2,3:2|0:2,0:0:0:0:
404,60,82702,1,2,3:2:0:0:
404,60,83045,1,2,3:2:0:0:
404,60,83388,2,0,L|320:45,1,74.9999952316285,2|2,3:2|0:2,0:0:0:0:
233,37,83731,6,0,L|185:115,1,74.9999952316285,10|8,3:1|0:1,0:0:0:0:
256,175,84074,2,0,L|238:264,1,74.9999952316285,10|8,3:1|0:1,0:0:0:0:
327,296,84416,2,0,L|363:378,1,74.9999952316285,10|8,3:1|0:1,0:0:0:0:
454,353,84759,1,10,3:1:0:0:
454,353,85102,6,0,L|501:274,1,74.9999952316285,10|8,3:1|0:1,0:0:0:0:
428,213,85445,2,0,L|444:122,1,74.9999952316285,10|8,3:1|0:1,0:0:0:0:
359,92,85787,2,0,L|321:8,1,74.9999952316285,10|8,3:1|0:1,0:0:0:0:
232,36,86130,1,10,3:1:0:0:
232,36,86474,5,10,3:1:0:0:
225,61,86559,1,8,0:1:0:0:
219,87,86645,1,8,0:1:0:0:
212,112,86731,1,8,0:1:0:0:
205,138,86816,2,0,L|194:185,3,37.4999976158143,10|8|8|8,3:1|2:1|2:1|2:1,0:0:0:0:
192,226,87159,2,0,P|236:230|307:277,2,112.499992847443,10|8|8,3:1|0:1|0:1,0:0:0:0:
93,262,87845,5,2,3:2:0:0:
291,193,88188,1,2,3:2:0:0:
399,371,88531,1,2,1:2:0:0:
399,371,89216,6,0,B|408:328|408:328|390:273,1,82.4999972724915,6|0,1:2|0:0,0:0:0:0:
350,184,89559,2,0,B|341:141|341:141|352:104,1,82.4999972724915,2|0,1:0|0:0,0:0:0:0:
429,18,89902,1,2,1:0:0:0:
429,18,90245,2,0,B|440:55|440:55|431:98,1,82.4999972724915,2|2,1:0|0:0,0:0:0:0:
350,184,90588,2,0,B|339:221|339:221|348:264,1,82.4999972724915,2|0,1:0|0:0,0:0:0:0:
399,371,90931,2,0,B|356:362|356:362|301:380,1,82.4999972724915,2|0,1:0|0:0,0:0:0:0:
205,351,91274,1,2,1:0:0:0:
146,251,91445,2,0,B|134:214|134:214|143:171,2,82.4999972724915,2|2|2,0:0|1:0|0:0,0:0:0:0:
261,251,91959,6,0,B|270:208|270:208|258:171,1,82.4999972724915,2|0,1:0|0:0,0:0:0:0:
143,171,92302,2,0,B|100:180|100:180|63:168,1,82.4999972724915,2|0,1:0|0:0,0:0:0:0:
6,67,92645,1,2,1:0:0:0:
110,18,92816,2,0,B|153:9|153:9|190:21,2,82.4999972724915,2|2|2,0:0|1:0|0:0,0:0:0:0:
6,67,93331,2,0,B|-6:104|-6:104|3:147,1,82.4999972724915,2|0,1:0|0:0,0:0:0:0:
73,238,93674,2,0,B|116:247|116:247|153:235,1,82.4999972724915,2|0,1:0|0:0,0:0:0:0:
250,174,94016,1,2,1:0:0:0:
250,174,94359,2,0,B|287:162|287:162|330:171,1,82.4999972724915,2|2,1:0|0:0,0:0:0:0:
334,286,94702,6,0,B|297:298|297:298|254:289,1,82.4999972724915,2|0,1:0|0:0,0:0:0:0:
250,174,95045,2,0,B|241:131|241:131|253:94,1,82.4999972724915,10|0,1:0|0:0,0:0:0:0:
335,12,95388,1,2,1:0:0:0:
335,12,95731,2,0,B|372:0|372:0|415:9,1,82.4999972724915,10|2,1:0|0:0,0:0:0:0:
445,120,96074,2,0,B|408:132|408:132|365:123,1,82.4999972724915,2|0,1:0|0:0,0:0:0:0:
252,94,96416,2,0,B|215:82|215:82|172:91,1,82.4999972724915,10|0,1:0|0:0,0:0:0:0:
63,131,96759,1,2,1:0:0:0:
63,131,97102,2,0,B|51:168|51:168|60:211,1,82.4999972724915,10|2,1:0|0:0,0:0:0:0:
105,317,97445,6,0,B|134:341|134:341|178:349,1,82.4999972724915,2|0,1:0|3:0,0:0:0:0:
293,350,97788,2,0,B|336:342|336:342|366:317,1,82.4999972724915,10|0,1:0|3:0,0:0:0:0:
409,210,98131,2,0,L|414:167,3,41.2499986362457,2|0|2|0,1:0|3:0|3:2|3:0,0:0:0:0:
388,138,98474,2,0,L|377:95,3,41.2499986362457,10|0|2|0,3:1|3:0|3:2|3:0,0:0:0:0:
333,86,98816,2,0,L|304:53,3,37.4999976158143,2|0|0|0,1:0|3:0|3:0|3:0,0:0:0:0:
261,59,99159,2,0,L|222:39,3,37.4999976158143,2|0|0|0,1:0|3:0|3:0|3:0,0:0:0:0:
187,52,99502,2,0,B|128:50|128:50|62:92,2,112.499992847443,2|10|10,1:0|0:1|0:1,0:0:0:0:
302,52,100188,6,0,L|298:136,1,82.4999972724915,6|0,1:2|0:0,0:0:0:0:
195,187,100531,2,0,L|199:271,1,82.4999972724915,8|0,1:0|0:0,0:0:0:0:
281,350,100874,1,2,1:0:0:0:
281,350,101216,2,0,L|284:267,1,82.4999972724915,10|2,1:0|0:0,0:0:0:0:
389,217,101559,2,0,L|385:134,1,82.4999972724915,2|0,1:0|0:0,0:0:0:0:
302,52,101902,2,0,L|219:48,1,82.4999972724915,10|0,1:0|0:0,0:0:0:0:
115,99,102245,1,2,1:0:0:0:
109,214,102416,2,0,L|105:296,2,82.4999972724915,2|10|2,0:0|1:0|0:0,0:0:0:0:
115,99,102931,6,0,L|197:95,1,82.4999972724915,2|0,1:0|0:0,0:0:0:0:
245,200,103274,2,0,L|327:204,1,82.4999972724915,10|0,1:0|0:0,0:0:0:0:
442,193,103616,1,2,1:0:0:0:
379,95,103788,2,0,L|297:91,2,82.4999972724915,2|10|2,0:0|1:0|0:0,0:0:0:0:
442,193,104302,2,0,L|438:275,1,82.4999972724915,2|0,1:0|0:0,0:0:0:0:
343,342,104645,2,0,L|261:338,1,82.4999972724915,10|0,1:0|0:0,0:0:0:0:
162,276,104988,1,2,1:0:0:0:
162,276,105331,2,0,L|80:280,1,82.4999972724915,10|2,1:0|0:0,0:0:0:0:
20,180,105674,6,0,L|16:98,1,82.4999972724915,2|0,1:0|0:0,0:0:0:0:
135,15,106016,2,0,L|131:97,1,82.4999972724915,10|0,1:0|0:0,0:0:0:0:
124,213,106359,1,2,1:0:0:0:
124,213,106702,2,0,L|206:209,1,82.4999972724915,10|2,1:0|0:0,0:0:0:0:
322,202,107045,2,0,L|404:198,1,82.4999972724915,2|0,1:0|0:0,0:0:0:0:
487,317,107387,2,0,L|405:313,1,82.4999972724915,10|0,1:0|0:0,0:0:0:0:
289,306,107730,1,2,1:0:0:0:
289,306,108074,2,0,L|207:302,1,82.4999972724915,10|2,1:0|0:0,0:0:0:0:
125,219,108416,6,0,L|129:137,1,82.4999972724915,2|0,1:0|0:0,0:0:0:0:
213,57,108759,2,0,L|295:61,1,82.4999972724915,10|0,1:0|0:0,0:0:0:0:
377,144,109102,2,0,L|373:226,1,82.4999972724915,2|2,1:0|0:0,0:0:0:0:
289,306,109445,2,0,L|207:302,1,82.4999972724915,10|2,1:0|0:0,0:0:0:0:
125,219,109788,1,2,3:2:0:0:
125,219,110131,1,2,3:2:0:0:
125,219,110474,5,10,0:1:0:0:
194,126,110645,1,10,0:1:0:0:
299,105,110816,1,10,0:1:0:0:
394,153,110988,1,10,0:1:0:0:
415,257,111159,6,0,P|408:293|368:353,1,82.4999972724915,6|0,1:2|0:0,0:0:0:0:
285,297,111502,2,0,P|291:260|331:200,1,82.4999972724915,2|0,1:0|0:0,0:0:0:0:
394,153,111845,2,0,P|412:91|351:13,1,164.999994544983,2|2,1:0|1:0,0:0:0:0:
262,67,112359,1,2,0:0:0:0:
155,53,112531,2,0,L|57:29,1,82.4999972724915,2|0,1:0|0:0,0:0:0:0:
51,138,112874,2,0,L|149:162,1,82.4999972724915,2|0,1:0|0:0,0:0:0:0:
234,186,113216,1,2,1:0:0:0:
217,292,113388,2,0,P|190:331|138:353,2,82.4999972724915,2|2|2,0:0|1:0|0:0,0:0:0:0:
234,186,113902,6,0,P|260:146|312:124,1,82.4999972724915,2|0,1:0|0:0,0:0:0:0:
372,199,114245,2,0,P|345:238|293:260,1,82.4999972724915,2|0,1:0|0:0,0:0:0:0:
217,292,114588,1,2,1:0:0:0:
135,223,114759,2,0,P|88:214|35:235,2,82.4999972724915,2|2|2,0:0|1:0|0:0,0:0:0:0:
217,292,115274,2,0,P|278:343|368:341,2,164.999994544983,2|2|2,1:0|1:0|1:0,0:0:0:0:
217,292,116302,1,2,1:0:0:0:
315,248,116474,1,2,1:0:0:0:
227,186,116645,6,0,P|183:191|132:224,1,82.4999972724915,2|0,1:0|0:0,0:0:0:0:
43,229,116988,2,0,P|61:192|65:151,1,82.4999972724915,10|0,1:0|0:0,0:0:0:0:
55,44,117331,2,0,P|128:73|230:37,1,164.999994544983,2|10,1:0|1:0,0:0:0:0:
312,21,117845,1,2,0:0:0:0:
410,62,118016,2,0,P|450:96|456:146,1,82.4999972724915,2|0,1:0|0:0,0:0:0:0:
372,189,118359,2,0,P|338:165|324:127,1,82.4999972724915,10|0,1:0|0:0,0:0:0:0:
312,21,118702,1,2,1:0:0:0:
217,71,118874,2,0,P|178:85|131:87,2,82.4999972724915,2|10|2,0:0|1:0|0:0,0:0:0:0:
312,21,119388,6,0,P|351:9|398:9,1,82.4999972724915,2|2,1:0|0:0,0:0:0:0:
493,44,119731,1,10,3:1:0:0:
493,44,120074,1,2,3:2:0:0:
439,138,120245,1,2,0:0:0:0:
472,239,120416,2,0,P|464:297|442:330,1,82.4999972724915,2|2,3:2|0:0,0:0:0:0:
347,337,120759,1,2,3:2:0:0:
347,337,121102,1,2,3:2:0:0:
347,337,121445,1,2,0:0:0:0:
321,242,121616,2,0,P|321:205|335:170,2,74.9999952316285,2|2|2,3:2|3:2|3:2,0:0:0:0:
347,337,122131,6,0,P|309:323|263:324,1,82.4999972724915,6|0,1:2|0:0,0:0:0:0:
164,354,122474,2,0,P|125:368|79:367,1,82.4999972724915,10|0,1:0|0:0,0:0:0:0:
10,291,122816,2,0,P|10:249|24:211,1,82.4999972724915,2|0,1:0|0:0,0:0:0:0:
79,118,123159,1,10,1:0:0:0:
131,211,123331,1,2,0:0:0:0:
188,120,123502,2,0,P|247:89|292:91,1,82.4999972724915,2|0,1:0|0:0,0:0:0:0:
312,182,123845,2,0,P|253:213|208:211,1,82.4999972724915,10|0,1:0|0:0,0:0:0:0:
131,211,124188,1,2,1:0:0:0:
175,113,124359,2,0,P|179:60|149:9,2,82.4999972724915,2|10|2,0:0|1:0|0:0,0:0:0:0:
131,211,124874,6,0,P|127:264|157:315,1,82.4999972724915,2|0,1:0|0:0,0:0:0:0:
228,346,125216,2,0,P|267:334|307:339,1,82.4999972724915,10|0,1:0|0:0,0:0:0:0:
413,360,125559,1,2,1:0:0:0:
434,254,125731,1,2,0:0:0:0:
328,235,125902,1,10,1:0:0:0:
343,131,126074,1,2,0:0:0:0:
449,144,126245,2,0,P|466:88|454:50,1,82.4999972724915,2|0,1:0|0:0,0:0:0:0:
355,52,126588,2,0,P|338:108|350:146,1,82.4999972724915,10|0,1:0|0:0,0:0:0:0:
458,147,126931,2,0,P|475:91|463:53,1,82.4999972724915,2|0,1:0|0:0,0:0:0:0:
355,52,127274,2,0,P|314:57|276:43,1,82.4999972724915,10|2,1:0|0:0,0:0:0:0:
176,6,127616,5,2,0:0:0:0:
176,6,127959,6,0,P|181:47|167:85,1,82.4999972724915,14|0,1:0|0:0,0:0:0:0:
117,180,128302,2,0,P|102:218|108:258,1,82.4999972724915,2|0,1:0|0:0,0:0:0:0:
166,349,128645,1,10,1:0:0:0:
220,256,128816,1,2,0:0:0:0:
108,258,128988,2,0,P|71:276|47:309,1,82.4999972724915,2|0,1:0|0:0,0:0:0:0:
18,205,129331,2,0,P|32:166|26:126,1,82.4999972724915,10|0,1:0|0:0,0:0:0:0:
69,27,129674,2,0,P|87:63|120:87,1,82.4999972724915,2|2,1:0|0:0,0:0:0:0:
227,91,130016,2,0,P|265:78|306:84,1,82.4999972724915,10|2,1:0|0:0,0:0:0:0:
390,151,130359,5,2,1:0:0:0:
297,205,130531,1,2,0:0:0:0:
387,261,130702,1,10,1:0:0:0:
181,321,131045,2,0,P|214:344|255:347,1,82.4999972724915,2|2,1:0|0:0,0:0:0:0:
217,246,131388,2,0,P|183:222|142:219,1,82.4999972724915,10|2,1:0|0:0,0:0:0:0:
60,246,131731,2,0,P|36:280|44:357,2,112.499997138977,2|2|2,0:0|0:0|0:0,0:0:0:0:
318,38,133102,6,0,P|330:104|319:176,1,127.499994325638,4|0,3:2|0:0,0:0:0:0:
322,163,133788,2,0,L|305:226,1,63.7499971628189,0|0,0:0|0:0,0:0:0:0:
224,242,134131,2,0,L|241:305,1,63.7499971628189,0|0,0:0|0:0,0:0:0:0:
306,354,134474,2,0,P|375:331|443:355,1,127.499994325638,2|0,0:0|0:0,0:0:0:0:
426,344,135159,2,0,P|423:295|430:269,1,63.7499971628189,0|0,0:0|0:0,0:0:0:0:
442,199,135502,1,0,0:0:0:0:
442,199,135845,6,0,P|383:209|287:193,1,127.499994325638,2|0,0:0|0:0,0:0:0:0:
239,169,136359,1,0,0:0:0:0:
155,166,136531,2,0,P|107:173|79:182,1,63.7499971628189,0|0,0:0|0:0,0:0:0:0:
132,250,136874,2,0,P|180:243|208:234,1,63.7499971628189,0|0,0:0|0:0,0:0:0:0:
239,169,137216,2,0,P|247:124|214:37,1,127.499994325638,2|0,0:0|0:0,0:0:0:0:
222,47,137902,2,0,P|280:23|343:30,1,127.499994325638,2|0,0:0|0:0,0:0:0:0:
343,30,138588,6,0,P|336:92|359:151,1,127.499994325638,2|0,0:0|0:0,0:0:0:0:
359,151,139274,2,0,L|290:136,1,63.7499971628189,0|0,0:0|0:0,0:0:0:0:
244,201,139616,2,0,L|175:216,1,63.7499971628189,0|0,0:0|0:0,0:0:0:0:
111,170,139959,1,2,0:0:0:0:
111,170,140302,2,0,P|63:178|33:207,1,63.7499971628189,0|0,0:0|0:0,0:0:0:0:
11,259,140645,2,0,P|8:290|19:320,1,63.7499971628189,0|0,0:0|0:0,0:0:0:0:
80,377,140988,1,0,0:0:0:0:
80,377,141331,6,0,P|163:358|220:375,1,127.499994325638,2|0,0:0|0:0,0:0:0:0:
202,367,142016,2,0,P|233:369|263:359,1,63.7499971628189,0|0,0:0|0:0,0:0:0:0:
317,296,142359,2,0,P|326:265|324:234,1,63.7499971628189,0|0,0:0|0:0,0:0:0:0:
245,207,142702,2,0,P|235:176|299:84,1,127.499994325638,2|0,0:0|0:0,0:0:0:0:
435,134,143388,2,0,P|444:164|381:257,1,127.499994325638,2|0,0:0|0:0,0:0:0:0:
245,207,144074,6,0,P|194:170|132:178,1,127.499994325638,4|0,0:0|0:0,0:0:0:0:
273,94,144759,2,0,P|323:57|385:65,1,127.499994325638,0|0,0:0|0:0,0:0:0:0:
445,123,145274,1,0,0:0:0:0:
417,200,145445,2,0,P|366:236|304:228,1,127.499994325638,2|0,0:0|0:0,0:0:0:0:
241,175,145959,1,0,0:0:0:0:
187,111,146131,2,0,P|125:102|74:139,1,127.499994325638,0|0,0:0|0:0,0:0:0:0:
74,139,146816,6,0,L|75:280,2,127.499994325638,2|0|0,0:0|0:0|0:0,0:0:0:0:
74,139,147845,2,0,P|111:144|144:138,1,63.7499971628189,0|0,0:0|0:0,0:0:0:0:
210,101,148188,1,2,0:0:0:0:
292,101,148359,1,0,0:0:0:0:
332,173,148531,2,0,P|337:204|333:235,1,63.7499971628189,0|0,0:0|0:0,0:0:0:0:
275,295,148874,2,0,P|331:282|423:302,1,127.499994325638,2|0,0:0|0:0,0:0:0:0:
399,291,149559,6,0,P|412:229|455:175,1,127.499994325638,2|0,0:0|0:0,0:0:0:0:
450,178,150245,2,0,L|368:158,1,63.7499971628189,0|0,0:0|0:0,0:0:0:0:
313,199,150588,2,0,L|231:219,1,63.7499971628189,0|0,0:0|0:0,0:0:0:0:
184,164,150931,1,2,0:0:0:0:
184,164,151274,1,0,0:0:0:0:
184,164,151616,2,0,L|102:144,1,63.7499971628189,0|0,0:0|0:0,0:0:0:0:
64,208,151959,2,0,L|-18:228,1,63.7499971628189,0|0,0:0|0:0,0:0:0:0:
5,306,152302,6,0,P|79:329|139:297,1,127.499994325638,2|2,0:0|0:0,0:0:0:0:
194,269,152816,2,0,P|248:256|275:262,1,63.7499971628189,2|2,0:0|0:0,0:0:0:0:
341,291,153159,1,2,0:0:0:0:
341,291,153245,1,2,0:0:0:0:
341,291,153331,1,2,0:0:0:0:
419,315,153502,1,2,0:0:0:0:
471,250,153674,2,0,P|486:195|457:112,1,127.499994325638,2|2,0:0|0:0,0:0:0:0:
415,64,154188,1,2,0:0:0:0:
340,100,154359,2,0,P|280:120|216:117,1,127.499994325638,2|2,0:0|0:0,0:0:0:0:
45,22,155045,5,4,3:2:0:0:
45,22,155388,1,0,3:0:0:0:
45,22,155731,2,0,P|34:75|41:104,1,74.9999952316285,0|0,3:0|0:0,0:0:0:0:
86,179,156074,1,0,3:0:0:0:
86,179,156416,2,0,P|97:232|90:261,1,74.9999952316285,0|0,3:0|0:0,0:0:0:0:
50,339,156759,1,0,3:0:0:0:
50,339,157102,2,0,P|125:304|191:329,1,149.999990463257,0|0,3:0|3:0,0:0:0:0:
185,324,157788,5,0,3:0:0:0:
379,332,158131,1,0,3:0:0:0:
286,160,158474,1,0,3:0:0:0:
185,324,158816,2,0,P|233:336|265:329,1,74.9999952316285,0|0,3:0|0:0,0:0:0:0:
253,234,159159,2,0,P|205:222|173:229,1,74.9999952316285,0|0,3:0|0:0,0:0:0:0:
104,288,159502,2,0,P|66:291|31:280,1,74.9999952316285,0|0,3:0|0:0,0:0:0:0:
10,184,159845,2,0,P|4:117|59:33,1,149.999990463257,0|0,3:0|3:0,0:0:0:0:
135,17,160359,1,0,0:0:0:0:
232,26,160531,6,0,P|244:80|236:123,1,74.9999952316285,8|8,3:1|0:1,0:0:0:0:
330,141,160874,2,0,P|300:187|264:212,1,74.9999952316285,8|8,3:1|0:1,0:0:0:0:
298,296,161216,2,0,P|243:308|200:300,1,74.9999952316285,8|8,3:1|0:1,0:0:0:0:
137,351,161559,1,8,3:1:0:0:
137,351,161902,6,0,P|125:297|133:254,1,74.9999952316285,8|8,3:1|0:1,0:0:0:0:
39,236,162245,2,0,P|68:189|104:164,1,74.9999952316285,8|8,3:1|0:1,0:0:0:0:
71,81,162587,2,0,P|125:69|168:77,1,74.9999952316285,8|8,3:1|0:1,0:0:0:0:
232,26,162930,1,8,3:1:0:0:
232,26,163274,5,8,3:1:0:0:
258,28,163359,1,8,2:1:0:0:
283,35,163445,1,8,2:1:0:0:
305,48,163531,1,8,2:1:0:0:
325,66,163616,2,0,L|359:93,3,37.4999976158143,8|8|8|8,3:1|0:1|0:1|0:1,0:0:0:0:
391,121,163959,2,0,P|428:90|444:25,2,112.499992847443,8|8|8,3:1|0:1|0:1,0:0:0:0:
297,151,164645,5,0,3:0:0:0:
488,187,164988,1,0,3:0:0:0:
506,381,165331,1,0,1:0:0:0:
506,381,166016,6,0,P|498:330|475:284,1,82.4999972724915,6|0,1:2|0:0,0:0:0:0:
392,233,166359,2,0,P|353:247|312:252,1,82.4999972724915,2|0,1:0|0:0,0:0:0:0:
197,247,166702,1,2,1:0:0:0:
197,247,167045,2,0,P|177:188|184:144,1,82.4999972724915,2|2,1:0|0:0,0:0:0:0:
199,54,167388,2,0,P|140:74|96:67,1,82.4999972724915,2|0,1:0|0:0,0:0:0:0:
7,46,167731,2,0,P|27:105|20:149,1,82.4999972724915,2|0,1:0|0:0,0:0:0:0:
10,239,168074,1,2,1:0:0:0:
70,337,168245,2,0,P|107:353|148:356,2,82.4999972724915,2|2|2,0:0|1:0|0:0,0:0:0:0:
10,239,168759,6,0,P|3:178|13:137,1,82.4999972724915,2|0,1:0|0:0,0:0:0:0:
66,58,169102,2,0,P|127:51|168:61,1,82.4999972724915,2|0,1:0|0:0,0:0:0:0:
251,106,169445,1,2,1:0:0:0:
177,195,169616,2,0,P|136:198|95:191,2,82.4999972724915,2|2|2,0:0|1:0|0:0,0:0:0:0:
251,106,170131,2,0,P|291:98|332:102,1,82.4999972724915,2|0,1:0|0:0,0:0:0:0:
419,178,170474,2,0,P|426:218|422:259,1,82.4999972724915,2|0,1:0|0:0,0:0:0:0:
348,347,170816,1,2,1:0:0:0:
348,347,171159,2,0,P|293:330|255:338,1,82.4999972724915,2|2,1:0|0:0,0:0:0:0:
155,355,171502,6,0,P|170:317|168:276,1,82.4999972724915,2|0,1:0|0:0,0:0:0:0:
126,167,171845,2,0,P|164:182|205:180,1,82.4999972724915,10|0,1:0|0:0,0:0:0:0:
316,147,172188,1,2,1:0:0:0:
316,147,172531,2,0,P|301:185|303:226,1,82.4999972724915,10|2,1:0|0:0,0:0:0:0:
335,337,172874,2,0,P|297:322|256:324,1,82.4999972724915,2|0,1:0|0:0,0:0:0:0:
146,359,173216,2,0,P|108:374|67:372,1,82.4999972724915,10|0,1:0|0:0,0:0:0:0:
6,273,173559,1,2,1:0:0:0:
6,273,173902,2,0,P|46:266|85:276,1,82.4999972724915,10|2,1:0|0:0,0:0:0:0:
180,343,174245,6,0,P|195:305|193:264,1,82.4999972724915,2|0,1:0|0:0,0:0:0:0:
136,172,174588,2,0,P|121:134|123:93,1,82.4999972724915,10|0,1:0|0:0,0:0:0:0:
195,29,174931,1,2,3:1:0:0:
284,68,175102,2,0,P|319:79|356:77,2,74.9999952316285,2|2|2,0:0|3:1|0:0,0:0:0:0:
195,29,175616,2,0,P|161:29|129:40,1,67.4999936485293,2|2,3:1|0:0,0:0:0:0:
64,99,175959,2,0,P|52:130|53:164,1,67.4999936485293,2|2,3:2|0:0,0:0:0:0:
74,259,176302,2,0,P|82:325|58:382,2,112.499992847443,2|10|10,3:2|0:1|0:1,0:0:0:0:
153,186,176988,6,0,P|217:195|253:182,1,82.4999972724915,6|0,1:2|0:0,0:0:0:0:
305,111,177331,2,0,P|369:102|405:115,1,82.4999972724915,10|0,1:0|0:0,0:0:0:0:
464,178,177674,2,0,P|490:231|473:336,1,164.999994544983,2|10,1:0|1:0,0:0:0:0:
376,376,178188,1,2,0:0:0:0:
282,323,178359,2,0,P|258:261|264:227,1,82.4999972724915,2|0,1:0|0:0,0:0:0:0:
189,164,178702,2,0,P|177:203|150:234,1,82.4999972724915,10|0,1:0|0:0,0:0:0:0:
56,285,179045,1,2,1:0:0:0:
50,178,179216,2,0,P|61:138|88:107,2,82.4999972724915,2|10|2,0:0|1:0|0:0,0:0:0:0:
56,285,179731,6,0,P|67:325|94:356,1,82.4999972724915,2|0,1:0|0:0,0:0:0:0:
202,331,180074,2,0,P|240:317|281:322,1,82.4999972724915,10|0,1:0|0:0,0:0:0:0:
383,355,180416,1,2,1:0:0:0:
424,255,180588,2,0,P|428:214|415:175,2,82.4999972724915,2|10|2,0:0|1:0|0:0,0:0:0:0:
321,216,181102,2,0,P|323:135|390:77,2,164.999994544983,2|10|2,1:0|1:0|1:0,0:0:0:0:
321,216,182131,2,0,P|280:206|239:205,1,82.4999972724915,10|2,1:0|0:0,0:0:0:0:
135,232,182474,6,0,P|144:191|145:150,1,82.4999972724915,2|0,1:0|0:0,0:0:0:0:
127,45,182816,2,0,P|167:54|208:55,1,82.4999972724915,10|0,1:0|0:0,0:0:0:0:
313,32,183159,2,0,P|394:22|474:60,1,164.999994544983,2|10,1:0|1:0,0:0:0:0:
490,161,183674,1,2,0:0:0:0:
414,236,183845,2,0,P|361:243|325:226,1,82.4999972724915,2|0,1:0|0:0,0:0:0:0:
300,130,184188,2,0,P|353:123|389:140,1,82.4999972724915,10|0,1:0|0:0,0:0:0:0:
430,230,184531,1,2,1:0:0:0:
387,328,184702,2,0,P|327:349|284:338,2,82.4999972724915,2|10|2,0:0|1:0|0:0,0:0:0:0:
430,230,185216,6,0,P|370:209|327:220,1,82.4999972724915,2|2,1:0|0:0,0:0:0:0:
248,238,185559,1,10,1:0:0:0:
248,238,185902,1,2,1:0:0:0:
141,254,186074,1,2,0:0:0:0:
80,165,186245,2,0,P|72:98|87:58,1,82.4999972724915,10|2,1:0|0:0,0:0:0:0:
187,78,186588,2,0,P|195:145|180:185,1,82.4999972724915,2|0,1:0|0:0,0:0:0:0:
141,254,186931,2,0,P|133:321|148:361,1,82.4999972724915,10|0,1:0|0:0,0:0:0:0:
223,378,187274,5,10,1:0:0:0:
319,368,187445,1,10,0:1:0:0:
371,286,187616,1,10,0:1:0:0:
348,190,187788,1,10,0:1:0:0:
266,129,187959,6,0,L|175:133,1,82.4999972724915,6|0,1:2|0:0,0:0:0:0:
76,138,188302,2,0,L|80:229,1,82.4999972724915,2|0,1:0|0:0,0:0:0:0:
88,327,188645,2,0,L|179:323,1,82.4999972724915,2|0,1:0|0:0,0:0:0:0:
278,320,188988,1,2,1:0:0:0:
213,234,189159,1,2,0:0:0:0:
320,226,189331,2,0,P|360:222|397:203,1,82.4999972724915,2|0,1:0|0:0,0:0:0:0:
410,96,189674,2,0,P|369:99|332:118,1,82.4999972724915,2|0,1:0|0:0,0:0:0:0:
247,182,190016,1,2,1:0:0:0:
159,123,190188,2,0,L|146:32,2,82.4999972724915,2|2|2,0:0|1:0|0:0,0:0:0:0:
226,211,190702,6,0,P|176:225|126:217,1,82.4999972724915,2|0,1:0|0:0,0:0:0:0:
58,161,191045,2,0,P|50:120|58:80,1,82.4999972724915,2|0,1:0|0:0,0:0:0:0:
144,17,191388,1,2,1:0:0:0:
250,2,191559,1,2,0:0:0:0:
265,108,191731,1,2,1:0:0:0:
159,123,191902,1,2,0:0:0:0:
174,229,192074,2,0,P|171:275|192:323,1,82.4999972724915,2|0,1:0|0:0,0:0:0:0:
289,298,192416,2,0,P|291:251|270:203,1,82.4999972724915,2|0,1:0|0:0,0:0:0:0:
165,228,192759,2,0,P|162:274|183:322,1,82.4999972724915,0|0,1:0|0:0,0:0:0:0:
289,298,193102,2,0,P|328:285|368:289,1,82.4999972724915,2|2,1:0|1:0,0:0:0:0:
472,317,193445,6,0,P|453:258|475:142,2,164.999994544983,2|10|2,1:0|1:0|1:0,0:0:0:0:
472,317,194474,1,10,1:0:0:0:
368,289,194645,1,2,0:0:0:0:
363,182,194816,2,0,P|379:122|460:36,2,164.999994544983,2|10|2,1:0|1:0|1:0,0:0:0:0:
368,289,195674,2,0,L|385:379,2,82.4999972724915,2|10|2,0:0|1:0|0:0,0:0:0:0:
363,182,196188,5,2,1:0:0:0:
275,243,196359,1,2,0:0:0:0:
269,135,196531,2,0,P|210:77|112:110,1,164.999994544983,10|2,1:0|3:2,0:0:0:0:
99,179,197045,2,0,P|132:195|177:195,2,74.9999952316285,2|2|2,0:0|3:2|0:0,0:0:0:0:
33,106,197559,5,2,3:2:0:0:
33,106,197902,2,0,L|23:160,3,37.4999976158143,2|0|0|0,3:2|3:0|3:0|3:0,0:0:0:0:
61,177,198245,2,0,L|67:213,3,37.4999976158143,2|0|0|0,3:2|3:0|3:0|3:0,0:0:0:0:
39,253,198588,2,0,L|29:307,3,37.4999976158143,0|0|0|0,3:0|3:0|3:0|3:0,0:0:0:0:
24,338,198931,6,0,P|92:310|164:328,2,149.999990463257,6|10|2,1:2|1:0|1:0,0:0:0:0:
24,338,199959,1,10,1:0:0:0:
41,241,200131,1,2,0:0:0:0:
58,145,200302,2,0,P|124:112|197:125,2,149.999990463257,2|10|2,1:0|1:0|1:0,0:0:0:0:
58,145,201331,1,10,1:0:0:0:
138,199,201502,1,2,0:0:0:0:
224,245,201674,6,0,P|296:257|363:225,2,149.999990463257,2|10|2,1:0|1:0|1:0,0:0:0:0:
224,245,202702,1,10,1:0:0:0:
280,166,202873,1,2,0:0:0:0:
344,92,203045,2,0,P|410:59|483:71,2,149.999990463257,2|10|2,1:0|1:0|1:0,0:0:0:0:
344,92,204074,1,10,1:0:0:0:
280,166,204245,1,2,0:0:0:0:
224,86,204416,6,0,P|180:75|128:84,1,74.9999952316285,10|8,3:1|3:1,0:0:0:0:
122,170,204759,2,0,P|166:181|218:172,1,74.9999952316285,10|8,1:1|0:1,0:0:0:0:
225,77,205102,2,0,P|181:66|129:75,1,74.9999952316285,10|8,1:1|0:1,0:0:0:0:
123,161,205445,1,10,1:1:0:0:
123,161,205788,2,0,P|167:172|219:163,1,74.9999952316285,10|8,1:1|0:1,0:0:0:0:
226,68,206131,2,0,P|182:57|130:66,1,74.9999952316285,10|8,1:1|0:1,0:0:0:0:
124,152,206474,2,0,P|168:163|220:154,1,74.9999952316285,10|8,1:1|0:1,0:0:0:0:
229,60,206816,1,10,1:1:0:0:
229,60,207159,6,0,P|273:71|325:62,1,74.9999952316285,0|0,3:0|0:0,0:0:0:0:
399,61,207502,2,0,P|388:105|397:157,1,74.9999952316285,0|2,3:0|0:0,0:0:0:0:
402,231,207845,2,0,P|358:220|306:229,1,74.9999952316285,0|0,3:0|0:0,0:0:0:0:
231,232,208188,2,0,P|242:188|233:136,1,74.9999952316285,2|0,3:2|0:0,0:0:0:0:
302,68,208531,6,0,P|357:60|412:69,2,112.499997138977,2|2|2,0:0|0:0|0:0,0:0:0:0:
