osu file format v14

[General]
AudioFilename: audio.mp3
AudioLeadIn: 0
PreviewTime: 89131
Countdown: 0
SampleSet: Soft
StackLeniency: 0
Mode: 0
LetterboxInBreaks: 0
WidescreenStoryboard: 0

[Editor]
Bookmarks: 74,34359,45331,78245,89216,100188,111159,122131,133102,166016,176988,187959,198931,210588
DistanceSpacing: 0.1
BeatDivisor: 4
GridSize: 32
TimelineZoom: 2.1

[Metadata]
Title:Catchit (Radio Edit)
TitleUnicode:Catchit (Radio Edit)
Artist:S3RL
ArtistUnicode:S3RL
Creator:Rolniczy
Version:Ex
Source:
Tags:serl featured artist anime rave happy hardcore catchy
BeatmapID:1848985
BeatmapSetID:839864

[Difficulty]
HPDrainRate:5.3
CircleSize:3.3
OverallDifficulty:9
ApproachRate:9.3
SliderMultiplier:1.99999990463257
SliderTickRate:4

[Events]
//Background and Video events
0,0,"matsune.png",0,0
//Break Periods
//Storyboard Layer 0 (Background)
//Storyboard Layer 1 (Fail)
//Storyboard Layer 2 (Pass)
//Storyboard Layer 3 (Foreground)
//Storyboard Sound Samples

[TimingPoints]
74,342.857142857143,4,2,3,40,1,0
1445,-100,4,2,3,40,0,0
12416,-100,4,2,3,50,0,0
22874,-100,4,2,3,70,0,0
23388,-100,4,2,3,80,0,0
34359,-100,4,2,3,80,0,1
35045,-100,4,2,3,80,0,0
43959,-100,4,2,3,40,0,0
45331,-100,4,2,3,70,0,0
48074,-100,4,2,3,65,0,0
50816,-100,4,2,3,60,0,0
52188,-100,4,2,3,55,0,0
54931,-100,4,2,0,25,0,0
56302,-100,4,2,3,50,0,0
78245,-100,4,2,3,55,0,0
83731,-100,4,2,3,70,0,0
89216,-100,4,2,3,80,0,1
89902,-100,4,2,3,80,0,0
98474,-100,4,2,3,70,0,0
98816,-100,4,2,3,60,0,0
99159,-100,4,2,3,50,0,0
99674,-100,4,2,3,60,0,0
99931,-100,4,2,3,70,0,0
100188,-100,4,2,3,80,0,1
100874,-100,4,2,3,80,0,0
111159,-100,4,2,3,80,0,1
111845,-100,4,2,3,80,0,0
122131,-100,4,2,3,80,0,1
127616,-100,4,2,3,80,0,0
127959,-100,4,2,3,80,0,1
131731,-100,4,2,3,60,0,0
133102,-100,4,2,3,50,0,0
155045,-100,4,2,3,55,0,0
160531,-100,4,2,3,70,0,0
166016,-100,4,2,3,80,0,1
166702,-100,4,2,3,80,0,0
174931,-100,4,2,3,70,0,0
175274,-100,4,2,3,60,0,0
175616,-100,4,2,3,50,0,0
176302,-100,4,2,3,60,0,0
176731,-100,4,2,3,70,0,0
176988,-100,4,2,3,80,0,1
177674,-100,4,2,3,80,0,0
187959,-100,4,2,3,80,0,1
196874,-100,4,2,3,70,0,1
197559,-100,4,2,3,60,0,0
197902,-100,4,2,3,50,0,0
198416,-100,4,2,3,60,0,0
198931,-100,4,2,3,70,0,1
199616,-100,4,2,3,70,0,0
201674,-100,4,2,3,60,0,0
204416,-100,4,2,3,50,0,0
204759,-100,4,2,3,60,0,0
208531,-100,4,2,3,50,0,0
209559,-100,4,2,3,40,0,0
209902,-100,4,2,3,30,0,0
210245,-100,4,2,3,15,0,0
210588,-100,4,2,0,5,0,0

[Colours]
Combo1 : 189,189,198
Combo2 : 145,135,231
Combo3 : 159,159,159
Combo4 : 117,153,213

[HitObjects]
256,192,74,12,4,1445,3:2:0:0:
48,35,1959,5,0,0:0:0:0:
31,122,2131,1,0,0:0:0:0:
97,180,2645,5,0,0:0:0:0:
114,93,2817,1,2,0:0:0:0:
180,150,3331,5,0,0:0:0:0:
163,236,3503,1,0,0:0:0:0:
229,293,4016,5,0,0:0:0:0:
246,206,4188,1,2,0:0:0:0:
312,264,4702,5,0,0:0:0:0:
298,352,4874,1,0,0:0:0:0:
379,322,5388,5,0,0:0:0:0:
394,235,5560,1,2,0:0:0:0:
312,264,6074,5,0,0:0:0:0:
329,179,6246,1,2,0:0:0:0:
329,179,6931,5,2,0:0:0:0:
329,179,7445,5,0,0:0:0:0:
312,264,7617,1,0,0:0:0:0:
379,322,8131,5,0,0:0:0:0:
394,235,8303,1,2,0:0:0:0:
312,264,8817,5,0,0:0:0:0:
298,352,8989,1,0,0:0:0:0:
229,293,9503,5,0,0:0:0:0:
246,206,9675,1,2,0:0:0:0:
163,236,10188,5,0,0:0:0:0:
180,150,10360,1,0,0:0:0:0:
114,93,10874,5,0,0:0:0:0:
97,180,11046,1,2,1:2:0:0:
97,180,11388,5,0,1:0:0:0:
114,93,11560,1,0,0:0:0:0:
246,206,11732,5,0,1:0:0:0:
246,206,12416,5,4,3:2:0:0:
114,93,12759,1,0,3:2:0:0:
81,265,13102,1,0,3:2:0:0:
246,206,13445,5,0,3:0:0:0:
114,93,13616,1,0,0:0:0:0:
81,265,13788,1,0,3:0:0:0:
246,206,14131,5,0,3:0:0:0:
114,93,14474,1,0,3:0:0:0:
81,265,14645,5,2,0:2:0:0:
114,93,14817,5,2,3:2:0:0:
246,206,14988,5,2,0:2:0:0:
411,149,15159,5,0,3:0:0:0:
379,322,15503,1,0,3:0:0:0:
246,206,15845,1,0,3:0:0:0:
411,149,16016,5,2,0:2:0:0:
246,206,16187,5,2,3:2:0:0:
379,322,16359,5,2,0:2:0:0:
411,149,16531,5,0,3:0:0:0:
379,322,16874,1,0,3:0:0:0:
246,206,17216,1,0,3:0:0:0:
246,206,17559,5,2,3:2:0:0:
394,235,17731,5,2,0:2:0:0:
298,352,17902,5,0,3:0:0:0:
246,206,18245,1,0,3:0:0:0:
394,235,18588,1,0,3:0:0:0:
394,235,18931,5,0,3:0:0:0:
246,206,19102,1,0,0:0:0:0:
97,180,19274,5,0,3:0:0:0:
246,206,19616,1,0,3:0:0:0:
394,235,19959,1,0,3:0:0:0:
329,179,20131,5,2,0:2:0:0:
229,293,20302,5,2,3:2:0:0:
180,150,20474,5,2,0:2:0:0:
97,180,20645,5,0,3:0:0:0:
180,150,20816,1,0,0:0:0:0:
329,179,20988,1,0,3:0:0:0:
163,236,21331,1,0,3:0:0:0:
246,206,21502,5,2,0:2:0:0:
180,150,21674,5,2,3:2:0:0:
97,180,21845,5,2,0:2:0:0:
81,265,22016,5,0,0:0:0:0:
97,180,22359,1,0,0:0:0:0:
148,323,22702,1,0,0:0:0:0:
0,294,22874,5,0,1:0:0:0:
163,236,23045,5,0,1:0:0:0:
81,265,23216,5,0,1:0:0:0:
31,122,23388,5,6,1:2:0:0:
65,352,23559,1,0,0:0:0:0:
97,180,23731,1,2,1:0:0:0:
0,294,23902,1,0,0:0:0:0:
16,207,24074,1,2,1:0:0:0:
81,265,24245,1,0,0:0:0:0:
97,180,24416,1,2,1:0:0:0:
0,294,24587,1,2,0:0:0:0:
114,93,24759,5,2,1:0:0:0:
148,323,24930,1,0,0:0:0:0:
180,150,25102,1,2,1:0:0:0:
81,265,25273,1,0,0:0:0:0:
97,180,25445,1,2,1:0:0:0:
229,293,25616,5,2,0:0:0:0:
329,179,25788,5,2,1:0:0:0:
163,236,25958,5,2,0:0:0:0:
197,64,26131,5,2,1:0:0:0:
229,293,26302,1,0,0:0:0:0:
262,121,26474,1,2,1:0:0:0:
163,236,26645,1,0,0:0:0:0:
180,150,26816,1,2,1:0:0:0:
312,264,26988,5,2,0:0:0:0:
163,236,27160,5,2,1:0:0:0:
329,179,27330,5,2,0:0:0:0:
180,150,27502,5,2,1:0:0:0:
298,352,27673,1,0,0:0:0:0:
329,179,27845,1,2,1:0:0:0:
229,293,28016,1,0,0:0:0:0:
246,206,28188,1,2,1:0:0:0:
312,264,28359,1,0,0:0:0:0:
262,121,28531,5,2,1:0:0:0:
229,293,28701,5,2,0:0:0:0:
180,150,28874,5,2,1:0:0:0:
329,179,29045,1,0,0:0:0:0:
163,236,29216,1,10,1:0:0:0:
246,206,29388,1,0,0:0:0:0:
114,93,29559,5,2,1:0:0:0:
262,121,29730,1,0,0:0:0:0:
97,180,29901,1,10,1:0:0:0:
180,150,30073,1,2,0:0:0:0:
31,122,30245,5,2,1:0:0:0:
163,236,30416,1,0,0:0:0:0:
197,64,30588,1,10,1:0:0:0:
97,180,30759,1,0,0:0:0:0:
312,264,30931,5,2,1:0:0:0:
180,150,31102,5,2,0:0:0:0:
148,323,31274,5,10,1:0:0:0:
246,206,31445,5,2,0:0:0:0:
229,293,31616,5,2,1:0:0:0:
163,236,31788,1,2,0:0:0:0:
379,322,31959,5,10,1:0:0:0:
312,264,32130,1,0,0:0:0:0:
411,149,32302,5,2,1:0:0:0:
345,92,32473,5,2,0:0:0:0:
329,179,32645,5,10,1:0:0:0:
393,234,32816,5,2,0:0:0:0:
262,121,32988,5,2,3:2:0:0:
262,121,33331,5,2,3:2:0:0:
262,121,33674,5,2,3:2:0:0:
393,234,34016,5,8,3:1:0:0:
427,63,34359,5,6,1:2:0:0:
411,149,34531,1,0,0:0:0:0:
180,150,34702,5,10,1:0:0:0:
262,121,34874,1,0,0:0:0:0:
379,322,35045,5,2,1:0:0:0:
312,264,35216,1,0,0:0:0:0:
427,63,35388,5,10,1:0:0:0:
329,179,35559,1,2,0:0:0:0:
197,64,35731,5,2,1:0:0:0:
262,121,35902,1,0,0:0:0:0:
97,180,36073,5,10,1:0:0:0:
180,150,36245,1,0,0:0:0:0:
48,35,36416,5,2,1:0:0:0:
16,207,36588,1,2,0:0:0:0:
31,122,36759,5,10,1:0:0:0:
0,294,36931,1,2,0:0:0:0:
163,236,37102,5,2,1:0:0:0:
81,265,37274,1,0,0:0:0:0:
180,150,37445,5,10,1:0:0:0:
246,206,37616,1,0,0:0:0:0:
197,64,37788,5,2,1:0:0:0:
16,207,37959,1,2,0:0:0:0:
130,7,38131,5,10,1:0:0:0:
246,206,38302,1,2,0:0:0:0:
114,93,38474,5,2,1:0:0:0:
197,64,38645,1,0,0:0:0:0:
163,236,38816,5,10,1:0:0:0:
97,180,38988,1,0,0:0:0:0:
262,121,39159,5,2,1:0:0:0:
246,206,39331,1,0,0:0:0:0:
31,122,39502,5,10,1:0:0:0:
180,150,39674,1,2,0:0:0:0:
81,265,39845,5,2,1:0:0:0:
16,207,40016,1,0,0:0:0:0:
246,206,40188,5,10,1:0:0:0:
163,236,40359,1,0,0:0:0:0:
379,322,40531,5,2,1:0:0:0:
312,264,40702,1,0,0:0:0:0:
478,205,40874,5,10,1:0:0:0:
298,352,41045,1,2,0:0:0:0:
411,149,41216,5,2,1:0:0:0:
394,235,41388,1,0,0:0:0:0:
345,92,41559,5,10,1:0:0:0:
329,179,41731,1,0,0:0:0:0:
279,34,41902,5,2,1:0:0:0:
262,121,42074,1,0,0:0:0:0:
163,236,42245,5,10,1:0:0:0:
312,264,42416,1,2,0:0:0:0:
65,352,42588,5,2,1:0:0:0:
148,323,42759,1,0,0:0:0:0:
97,180,42931,5,10,1:0:0:0:
163,236,43102,1,0,0:0:0:0:
0,294,43274,5,2,1:0:0:0:
163,236,43445,1,2,0:0:0:0:
16,207,43616,5,10,1:0:0:0:
97,180,43788,1,2,0:0:0:0:
31,122,43959,5,2,0:0:0:0:
31,122,44302,5,2,0:0:0:0:
31,122,44645,5,2,0:0:0:0:
31,122,45331,5,6,3:2:0:0:
114,93,45502,1,0,0:0:0:0:
97,180,45674,1,0,3:0:0:0:
262,121,45845,5,2,0:0:0:0:
114,93,46016,1,2,3:2:0:0:
97,180,46188,1,0,0:0:0:0:
262,121,46359,5,2,3:2:0:0:
114,93,46530,1,2,0:2:0:0:
163,236,46702,5,2,3:2:0:0:
180,150,46874,1,0,0:0:0:0:
97,180,47045,1,0,3:0:0:0:
229,293,47216,5,2,0:2:0:0:
81,265,47388,1,2,3:2:0:0:
148,323,47559,1,0,0:0:0:0:
246,206,47731,5,0,3:0:0:0:
312,264,47902,1,0,0:0:0:0:
215,379,48074,5,2,3:2:0:0:
298,352,48245,1,0,0:0:0:0:
229,293,48416,1,0,3:0:0:0:
379,322,48588,5,2,0:2:0:0:
329,179,48759,1,2,3:2:0:0:
312,264,48931,1,0,0:0:0:0:
411,149,49102,5,0,3:0:0:0:
394,235,49274,1,0,0:0:0:0:
345,92,49445,5,2,3:2:0:0:
427,63,49616,1,0,0:0:0:0:
493,120,49788,1,0,3:0:0:0:
394,235,49959,5,2,0:2:0:0:
345,92,50131,1,2,3:2:0:0:
329,179,50302,1,0,0:0:0:0:
478,205,50474,5,0,3:0:0:0:
411,149,50645,1,0,0:0:0:0:
394,235,50816,5,2,3:2:0:0:
256,192,50902,12,0,54931,0:0:0:0:
509,34,56302,5,6,3:2:0:0:
427,63,56645,5,0,0:0:0:0:
493,120,56988,5,0,0:0:0:0:
411,149,57331,5,0,0:0:0:0:
478,205,57502,1,0,0:0:0:0:
394,235,57674,1,2,0:0:0:0:
463,293,58016,5,0,0:0:0:0:
379,322,58188,1,0,0:0:0:0:
445,378,58359,1,0,0:0:0:0:
379,322,58702,5,0,0:0:0:0:
298,352,59045,5,2,0:0:0:0:
215,379,59388,5,0,0:0:0:0:
229,293,59731,5,0,0:0:0:0:
148,323,60074,5,0,0:0:0:0:
81,265,60245,1,0,0:0:0:0:
65,352,60416,1,2,0:0:0:0:
0,294,60759,5,0,0:0:0:0:
16,207,61102,5,2,0:0:0:0:
97,180,61445,5,0,0:0:0:0:
31,122,61616,1,0,0:0:0:0:
114,93,61788,1,2,0:0:0:0:
48,35,62131,5,0,0:0:0:0:
130,7,62474,5,0,0:0:0:0:
197,64,62816,5,0,0:0:0:0:
180,150,62988,1,0,0:0:0:0:
262,121,63159,1,2,0:0:0:0:
279,34,63331,1,0,0:0:0:0:
361,6,63502,1,0,0:0:0:0:
345,92,63674,1,0,0:0:0:0:
329,179,63845,1,0,0:0:0:0:
312,264,64016,1,0,0:0:0:0:
246,206,64188,1,0,0:0:0:0:
163,236,64531,5,2,0:0:0:0:
163,236,64874,5,0,0:0:0:0:
163,236,65216,5,0,0:0:0:0:
163,236,65559,5,0,0:0:0:0:
246,206,65731,1,0,0:0:0:0:
229,293,65902,1,2,0:0:0:0:
229,293,66245,5,0,0:0:0:0:
246,206,66416,1,0,0:0:0:0:
163,236,66588,1,2,0:0:0:0:
163,236,66931,5,0,0:0:0:0:
246,206,67274,5,4,0:2:0:0:
329,179,67616,5,0,0:0:0:0:
262,121,67959,5,0,0:0:0:0:
180,150,68302,5,0,0:0:0:0:
163,236,68474,1,0,0:0:0:0:
229,293,68645,1,2,0:0:0:0:
312,264,68988,5,0,0:0:0:0:
394,235,69331,5,0,0:0:0:0:
411,149,69502,1,0,0:0:0:0:
411,149,69588,1,0,0:0:0:0:
411,149,69674,1,0,0:0:0:0:
345,92,69845,1,0,0:0:0:0:
279,34,70016,1,2,0:0:0:0:
197,64,70359,5,0,0:0:0:0:
114,93,70702,5,0,0:0:0:0:
97,180,70874,1,0,0:0:0:0:
81,265,71045,1,0,0:0:0:0:
148,323,71216,1,0,0:0:0:0:
215,379,71388,1,2,0:0:0:0:
298,352,71731,5,0,0:0:0:0:
379,322,71902,1,0,0:0:0:0:
461,292,72074,1,2,0:0:0:0:
478,205,72245,1,0,0:0:0:0:
493,120,72416,1,0,0:0:0:0:
427,63,72759,5,2,0:0:0:0:
509,34,73102,5,0,0:0:0:0:
427,63,73445,5,0,0:0:0:0:
361,6,73616,1,0,0:0:0:0:
279,34,73788,1,0,0:0:0:0:
345,92,73959,1,0,0:0:0:0:
329,179,74131,1,2,0:0:0:0:
262,121,74474,5,0,0:0:0:0:
246,206,74645,1,0,0:0:0:0:
180,150,74816,1,0,0:0:0:0:
163,236,74988,1,0,0:0:0:0:
97,180,75159,1,0,0:0:0:0:
246,206,75502,5,2,0:0:0:0:
81,265,75845,5,2,0:0:0:0:
114,93,76188,5,2,0:0:0:0:
114,93,76274,1,2,0:0:0:0:
114,93,76359,1,2,0:0:0:0:
163,236,76531,5,2,0:0:0:0:
163,236,76617,1,2,0:0:0:0:
163,236,76702,1,2,0:0:0:0:
163,236,76788,1,2,0:0:0:0:
163,236,76874,1,2,0:0:0:0:
411,149,77216,5,2,0:0:0:0:
411,149,77302,1,2,0:0:0:0:
411,149,77387,1,2,0:0:0:0:
361,6,77559,5,2,0:0:0:0:
361,6,77645,1,2,0:0:0:0:
361,6,77730,1,2,0:0:0:0:
345,92,77902,1,2,0:0:0:0:
509,34,78245,5,6,3:2:0:0:
427,63,78588,1,2,3:2:0:0:
345,92,78931,1,2,3:2:0:0:
345,92,79274,5,2,3:2:0:0:
411,149,79445,1,2,0:2:0:0:
427,63,79616,1,2,3:2:0:0:
345,92,79959,1,2,3:2:0:0:
262,121,80302,1,2,3:2:0:0:
262,121,80645,5,2,3:2:0:0:
329,179,80816,1,2,0:2:0:0:
345,92,80988,1,2,3:2:0:0:
262,121,81331,1,2,3:2:0:0:
180,150,81674,1,2,3:2:0:0:
180,150,82016,5,2,3:2:0:0:
246,206,82188,1,2,0:2:0:0:
262,121,82359,1,2,3:2:0:0:
197,64,82531,1,2,0:2:0:0:
279,34,82702,1,2,3:2:0:0:
345,92,83045,5,2,3:2:0:0:
329,179,83388,5,2,3:2:0:0:
312,264,83559,1,2,0:2:0:0:
298,352,83731,1,10,3:1:0:0:
229,293,83902,1,8,0:1:0:0:
246,206,84074,1,10,3:1:0:0:
312,264,84245,1,8,0:1:0:0:
229,293,84416,1,10,3:1:0:0:
163,236,84588,1,8,0:1:0:0:
180,150,84759,1,10,3:1:0:0:
180,150,85102,5,10,3:1:0:0:
97,180,85274,1,8,0:1:0:0:
114,93,85445,1,10,3:1:0:0:
197,64,85616,1,8,0:1:0:0:
180,150,85788,1,10,3:1:0:0:
114,93,85959,1,8,0:1:0:0:
130,7,86131,1,10,3:1:0:0:
130,7,86473,5,10,3:1:0:0:
146,20,86559,1,8,0:1:0:0:
162,33,86645,1,8,0:1:0:0:
178,46,86731,1,8,0:1:0:0:
197,64,86816,1,10,3:1:0:0:
191,88,86902,1,8,2:1:0:0:
188,108,86988,1,8,2:1:0:0:
184,130,87073,1,8,2:1:0:0:
180,150,87159,1,10,3:1:0:0:
31,122,87416,5,8,0:1:0:0:
31,122,87502,1,2,3:2:0:0:
130,7,87674,1,8,0:1:0:0:
97,180,87845,5,2,3:2:0:0:
48,35,88188,5,2,3:2:0:0:
31,122,88531,5,2,1:2:0:0:
246,206,89216,5,6,1:2:0:0:
229,293,89388,1,0,0:0:0:0:
411,149,89559,5,2,1:0:0:0:
478,205,89731,1,0,0:0:0:0:
279,34,89902,5,2,1:0:0:0:
279,34,90074,1,0,0:0:0:0:
229,293,90245,5,2,1:0:0:0:
394,235,90416,1,2,0:0:0:0:
262,121,90588,5,2,1:0:0:0:
329,179,90759,1,0,0:0:0:0:
215,379,90931,5,2,1:0:0:0:
298,352,91102,1,0,0:0:0:0:
163,236,91274,5,2,1:0:0:0:
312,264,91445,1,2,0:0:0:0:
81,265,91616,5,2,1:0:0:0:
246,206,91788,1,2,0:0:0:0:
16,207,91959,5,2,1:0:0:0:
0,294,92131,1,0,0:0:0:0:
114,93,92302,5,2,1:0:0:0:
180,150,92474,1,0,0:0:0:0:
48,35,92645,5,2,1:0:0:0:
81,265,92816,1,2,0:0:0:0:
279,34,92988,5,2,1:0:0:0:
114,93,93159,1,2,0:0:0:0:
411,149,93331,5,2,1:0:0:0:
345,92,93502,1,0,0:0:0:0:
461,292,93674,5,2,1:0:0:0:
478,205,93845,1,0,0:0:0:0:
445,378,94016,5,2,1:0:0:0:
445,378,94188,1,0,0:0:0:0:
411,149,94359,5,2,1:0:0:0:
461,292,94531,1,2,0:0:0:0:
262,121,94702,5,2,1:0:0:0:
345,92,94874,1,0,0:0:0:0:
163,236,95045,5,10,1:0:0:0:
180,150,95216,1,0,0:0:0:0:
215,379,95388,5,2,1:0:0:0:
148,323,95559,1,0,0:0:0:0:
461,292,95731,5,10,1:0:0:0:
298,352,95902,1,2,0:0:0:0:
411,149,96074,5,2,1:0:0:0:
394,235,96245,1,0,0:0:0:0:
279,34,96416,5,10,1:0:0:0:
345,92,96588,1,0,0:0:0:0:
114,93,96759,5,2,1:0:0:0:
197,64,96931,1,0,0:0:0:0:
48,35,97102,5,10,1:0:0:0:
262,121,97274,1,2,0:0:0:0:
81,265,97445,5,2,1:0:0:0:
81,265,97616,1,0,3:0:0:0:
229,293,97788,5,10,1:0:0:0:
229,293,97959,1,0,3:0:0:0:
379,322,98131,5,2,1:0:0:0:
380,311,98216,1,0,3:0:0:0:
382,300,98302,1,2,3:2:0:0:
384,289,98388,1,0,3:0:0:0:
386,278,98473,1,10,3:1:0:0:
388,268,98559,1,0,3:0:0:0:
390,257,98645,1,2,3:2:0:0:
392,246,98731,1,0,3:0:0:0:
394,235,98816,1,2,1:0:0:0:
396,226,98902,1,0,3:0:0:0:
398,215,98988,1,0,3:0:0:0:
400,204,99073,1,0,3:0:0:0:
403,193,99159,1,2,1:0:0:0:
405,182,99245,1,0,3:0:0:0:
407,172,99331,1,0,3:0:0:0:
409,161,99416,1,0,3:0:0:0:
411,149,99502,1,2,1:0:0:0:
246,206,99674,5,2,3:2:0:0:
246,206,99759,1,10,0:1:0:0:
114,93,99931,5,2,3:2:0:0:
114,93,100016,1,10,0:1:0:0:
279,34,100188,5,6,1:2:0:0:
345,92,100359,1,0,0:0:0:0:
97,180,100531,5,8,1:0:0:0:
180,150,100702,1,0,0:0:0:0:
215,379,100874,5,2,1:0:0:0:
229,293,101045,1,0,0:0:0:0:
215,379,101216,5,10,1:0:0:0:
246,206,101387,1,2,0:0:0:0:
0,294,101559,5,2,1:0:0:0:
81,265,101731,1,0,0:0:0:0:
379,322,101902,5,10,1:0:0:0:
312,264,102074,1,0,0:0:0:0:
97,180,102245,5,2,1:0:0:0:
180,150,102416,1,2,0:0:0:0:
16,207,102588,5,10,1:0:0:0:
262,121,102759,1,2,0:0:0:0:
48,35,102931,5,2,1:0:0:0:
114,93,103102,1,0,0:0:0:0:
345,92,103274,5,10,1:0:0:0:
262,121,103445,1,0,0:0:0:0:
148,323,103616,5,2,1:0:0:0:
197,64,103788,1,2,0:0:0:0:
163,236,103959,5,10,1:0:0:0:
114,93,104131,1,2,0:0:0:0:
345,92,104302,5,2,1:0:0:0:
262,121,104474,1,0,0:0:0:0:
48,35,104645,5,10,1:0:0:0:
114,93,104816,1,0,0:0:0:0:
148,323,104988,5,2,1:0:0:0:
163,236,105159,1,0,0:0:0:0:
148,323,105331,5,10,1:0:0:0:
180,150,105502,1,2,0:0:0:0:
394,235,105674,5,2,1:0:0:0:
312,264,105845,1,0,0:0:0:0:
279,34,106016,5,10,1:0:0:0:
345,92,106188,1,0,0:0:0:0:
163,236,106359,5,2,1:0:0:0:
180,150,106531,1,0,0:0:0:0:
148,323,106702,5,10,1:0:0:0:
197,64,106874,1,2,0:0:0:0:
411,149,107045,5,2,1:0:0:0:
329,179,107216,1,0,0:0:0:0:
445,378,107388,5,10,1:0:0:0:
461,292,107559,1,0,0:0:0:0:
229,293,107731,5,2,1:0:0:0:
298,352,107902,1,0,0:0:0:0:
411,149,108074,5,10,1:0:0:0:
379,322,108245,1,2,0:0:0:0:
427,63,108416,5,2,1:0:0:0:
493,120,108588,1,0,0:0:0:0:
279,34,108759,5,10,1:0:0:0:
361,6,108931,1,0,0:0:0:0:
130,7,109102,5,2,1:0:0:0:
262,121,109274,1,2,0:0:0:0:
48,35,109445,5,10,1:0:0:0:
197,64,109616,1,2,0:0:0:0:
31,122,109788,5,2,3:2:0:0:
31,122,110131,5,2,3:2:0:0:
31,122,110474,5,10,0:1:0:0:
65,352,110645,5,10,0:1:0:0:
180,150,110816,5,10,0:1:0:0:
148,323,110988,5,10,0:1:0:0:
329,179,111159,5,6,1:2:0:0:
163,236,111331,1,0,0:0:0:0:
262,121,111502,1,2,1:0:0:0:
394,235,111674,1,0,0:0:0:0:
345,92,111845,1,2,1:0:0:0:
180,150,112016,1,0,0:0:0:0:
279,34,112188,1,2,1:0:0:0:
329,179,112359,1,2,0:0:0:0:
197,64,112531,5,2,1:0:0:0:
345,92,112702,1,0,0:0:0:0:
163,236,112874,1,2,1:0:0:0:
262,121,113045,1,0,0:0:0:0:
298,352,113216,1,2,1:0:0:0:
148,323,113388,5,2,0:0:0:0:
97,180,113559,5,2,1:0:0:0:
197,64,113731,5,2,0:0:0:0:
345,92,113902,5,2,1:0:0:0:
180,150,114074,1,0,0:0:0:0:
394,235,114245,1,2,1:0:0:0:
246,206,114416,1,0,0:0:0:0:
379,322,114588,1,2,1:0:0:0:
478,205,114759,5,2,0:0:0:0:
427,63,114931,5,2,1:0:0:0:
262,121,115102,5,2,0:0:0:0:
411,149,115274,5,2,1:0:0:0:
312,264,115445,1,0,0:0:0:0:
262,121,115616,1,2,1:0:0:0:
394,235,115788,1,0,0:0:0:0:
427,63,115959,1,2,1:0:0:0:
329,179,116131,1,0,0:0:0:0:
279,34,116302,5,2,1:0:0:0:
493,120,116474,5,2,1:0:0:0:
312,264,116645,5,2,1:0:0:0:
345,92,116816,1,0,0:0:0:0:
180,150,116988,1,10,1:0:0:0:
329,179,117159,1,0,0:0:0:0:
197,64,117331,5,2,1:0:0:0:
163,236,117502,1,0,0:0:0:0:
329,179,117674,1,10,1:0:0:0:
180,150,117845,1,2,0:0:0:0:
229,293,118016,5,2,1:0:0:0:
262,121,118188,1,0,0:0:0:0:
97,180,118359,1,10,1:0:0:0:
246,206,118531,1,0,0:0:0:0:
114,93,118702,5,2,1:0:0:0:
262,121,118874,5,2,0:0:0:0:
163,236,119045,5,10,1:0:0:0:
229,293,119216,5,2,0:0:0:0:
215,379,119388,5,2,1:0:0:0:
148,323,119559,1,2,0:0:0:0:
163,236,119731,1,10,3:1:0:0:
246,206,119902,1,0,0:0:0:0:
312,264,120074,1,2,3:2:0:0:
298,352,120245,5,2,0:0:0:0:
229,293,120416,5,2,3:2:0:0:
312,264,120588,5,2,0:0:0:0:
379,322,120759,5,2,3:2:0:0:
379,322,121102,1,2,3:2:0:0:
379,322,121445,1,2,0:0:0:0:
478,205,121616,5,2,3:2:0:0:
329,179,121788,5,2,3:2:0:0:
394,235,121959,5,2,3:2:0:0:
148,323,122131,5,6,1:2:0:0:
197,64,122302,1,0,0:0:0:0:
81,265,122474,5,10,1:0:0:0:
262,121,122645,1,0,0:0:0:0:
97,180,122816,5,2,1:0:0:0:
246,206,122988,1,0,0:0:0:0:
114,93,123159,5,10,1:0:0:0:
229,293,123331,1,2,0:0:0:0:
197,64,123502,5,2,1:0:0:0:
148,323,123674,1,0,0:0:0:0:
279,34,123845,5,10,1:0:0:0:
81,265,124016,1,0,0:0:0:0:
411,149,124188,5,2,1:0:0:0:
180,150,124359,5,2,0:0:0:0:
493,120,124531,5,10,1:0:0:0:
246,206,124702,5,2,0:0:0:0:
427,63,124874,5,2,1:0:0:0:
379,322,125045,1,0,0:0:0:0:
345,92,125216,5,10,1:0:0:0:
461,292,125388,1,0,0:0:0:0:
246,206,125559,5,2,1:0:0:0:
493,120,125731,5,2,0:0:0:0:
262,121,125902,5,10,1:0:0:0:
478,205,126074,5,2,0:0:0:0:
229,293,126245,5,2,1:0:0:0:
493,120,126416,1,0,0:0:0:0:
163,236,126588,5,10,1:0:0:0:
394,235,126759,1,0,0:0:0:0:
97,180,126931,5,2,1:0:0:0:
312,264,127102,1,0,0:0:0:0:
31,122,127274,5,10,1:0:0:0:
81,265,127445,5,2,0:0:0:0:
97,180,127616,5,2,0:0:0:0:
97,180,127959,5,14,1:0:0:0:
394,235,128131,1,0,0:0:0:0:
180,150,128302,5,2,1:0:0:0:
312,264,128474,1,0,0:0:0:0:
114,93,128645,5,10,1:0:0:0:
229,293,128816,1,2,0:0:0:0:
197,64,128988,5,2,1:0:0:0:
148,323,129159,1,0,0:0:0:0:
279,34,129331,5,10,1:0:0:0:
81,265,129502,1,0,0:0:0:0:
361,6,129674,5,2,1:0:0:0:
97,180,129845,5,2,0:0:0:0:
411,149,130016,5,10,1:0:0:0:
197,64,130188,5,2,0:0:0:0:
427,63,130359,5,2,1:0:0:0:
478,205,130531,1,2,0:0:0:0:
345,92,130702,5,10,1:0:0:0:
493,120,130874,1,0,0:0:0:0:
394,235,131045,5,2,1:0:0:0:
329,179,131216,5,2,0:0:0:0:
312,264,131388,5,10,1:0:0:0:
379,322,131559,5,2,0:0:0:0:
461,292,131731,5,2,0:0:0:0:
478,205,132074,1,2,0:0:0:0:
411,149,132416,1,2,0:0:0:0:
394,235,133102,5,4,3:2:0:0:
394,235,133445,5,0,0:0:0:0:
394,235,133788,5,0,0:0:0:0:
461,292,133959,1,0,0:0:0:0:
445,378,134131,1,0,0:0:0:0:
379,322,134302,1,0,0:0:0:0:
298,352,134474,1,2,0:0:0:0:
298,352,134816,5,0,0:0:0:0:
298,352,135159,5,0,0:0:0:0:
312,264,135331,1,0,0:0:0:0:
329,179,135502,1,0,0:0:0:0:
329,179,135845,5,2,0:0:0:0:
329,179,136188,5,0,0:0:0:0:
345,92,136359,1,0,0:0:0:0:
411,149,136531,1,0,0:0:0:0:
478,205,136702,1,0,0:0:0:0:
493,120,136874,1,0,0:0:0:0:
509,34,137045,1,0,0:0:0:0:
427,63,137216,1,2,0:0:0:0:
427,63,137559,5,0,0:0:0:0:
361,6,137902,5,2,0:0:0:0:
361,6,138245,5,0,0:0:0:0:
345,92,138588,5,2,0:0:0:0:
345,92,138931,5,0,0:0:0:0:
279,34,139274,5,0,0:0:0:0:
262,121,139445,1,0,0:0:0:0:
180,150,139616,1,0,0:0:0:0:
97,180,139788,1,0,0:0:0:0:
114,93,139959,1,2,0:0:0:0:
114,93,140302,5,0,0:0:0:0:
197,64,140474,1,0,0:0:0:0:
130,7,140645,1,0,0:0:0:0:
48,35,140816,1,0,0:0:0:0:
31,122,140988,1,0,0:0:0:0:
31,122,141331,5,2,0:0:0:0:
31,122,141674,5,0,0:0:0:0:
31,122,142016,5,0,0:0:0:0:
16,207,142188,1,0,0:0:0:0:
0,294,142359,1,0,0:0:0:0:
65,352,142531,1,0,0:0:0:0:
148,323,142702,1,2,0:0:0:0:
81,265,143045,5,0,0:0:0:0:
215,379,143388,5,2,0:0:0:0:
246,206,143731,5,0,0:0:0:0:
163,236,144074,5,4,0:0:0:0:
262,121,144588,5,0,0:0:0:0:
329,179,144759,1,0,0:0:0:0:
197,64,145274,5,0,0:0:0:0:
180,150,145445,1,2,0:0:0:0:
361,6,145959,5,0,0:0:0:0:
427,63,146131,1,0,0:0:0:0:
262,121,146645,5,0,0:0:0:0:
246,206,146816,1,2,0:0:0:0:
31,122,147330,5,0,0:0:0:0:
97,180,147502,1,0,0:0:0:0:
130,7,148016,5,0,0:0:0:0:
114,93,148188,1,2,0:0:0:0:
329,179,148702,5,0,0:0:0:0:
246,206,148874,1,2,0:0:0:0:
461,292,149559,5,2,0:0:0:0:
229,293,150074,5,0,0:0:0:0:
312,264,150245,1,0,0:0:0:0:
81,265,150759,5,0,0:0:0:0:
148,323,150930,1,2,0:0:0:0:
379,322,151445,5,0,0:0:0:0:
298,352,151616,1,0,0:0:0:0:
163,236,152131,5,0,0:0:0:0:
229,293,152303,1,2,0:0:0:0:
312,264,152645,5,2,0:0:0:0:
329,179,152816,1,2,0:0:0:0:
246,206,152988,1,2,0:0:0:0:
180,150,153159,1,2,0:0:0:0:
180,150,153245,1,2,0:0:0:0:
180,150,153331,1,2,0:0:0:0:
197,64,153502,1,2,0:0:0:0:
262,121,153674,1,2,0:0:0:0:
345,92,154017,5,2,0:0:0:0:
411,149,154188,1,2,0:0:0:0:
394,235,154359,1,2,0:0:0:0:
312,264,154702,5,2,0:0:0:0:
246,206,155045,5,4,3:2:0:0:
329,179,155388,5,0,3:0:0:0:
312,264,155731,5,0,3:0:0:0:
229,293,155902,1,0,0:0:0:0:
163,236,156074,1,0,3:0:0:0:
180,150,156416,5,0,3:0:0:0:
246,206,156588,1,0,0:0:0:0:
229,293,156759,1,0,3:0:0:0:
148,323,157102,5,0,3:0:0:0:
81,265,157445,5,0,3:0:0:0:
97,180,157788,5,0,3:0:0:0:
163,236,158131,5,0,3:0:0:0:
148,323,158474,5,0,3:0:0:0:
65,352,158816,5,0,3:0:0:0:
0,294,158988,1,0,0:0:0:0:
16,207,159159,1,0,3:0:0:0:
97,180,159331,1,0,0:0:0:0:
163,236,159502,1,0,3:0:0:0:
246,206,159674,1,0,0:0:0:0:
312,264,159845,1,0,3:0:0:0:
394,235,160188,5,0,3:0:0:0:
329,179,160359,1,0,0:0:0:0:
246,206,160531,1,8,3:1:0:0:
312,264,160702,1,8,0:1:0:0:
329,179,160874,1,8,3:1:0:0:
163,236,161045,1,8,0:1:0:0:
229,293,161216,1,8,3:1:0:0:
180,150,161388,1,8,0:1:0:0:
81,265,161559,1,8,3:1:0:0:
81,265,161902,5,8,3:1:0:0:
148,323,162074,1,8,0:1:0:0:
97,180,162245,1,8,3:1:0:0:
0,294,162416,1,8,0:1:0:0:
163,236,162588,1,8,3:1:0:0:
16,207,162759,1,8,0:1:0:0:
65,352,162931,1,8,3:1:0:0:
65,352,163274,5,8,3:1:0:0:
84,345,163360,1,8,2:1:0:0:
105,337,163445,1,8,2:1:0:0:
124,330,163531,1,8,2:1:0:0:
148,323,163617,1,8,3:1:0:0:
154,298,163703,1,8,0:1:0:0:
157,277,163788,1,8,0:1:0:0:
160,257,163874,1,8,0:1:0:0:
163,237,163960,1,8,3:1:0:0:
16,207,164216,5,8,0:1:0:0:
16,207,164302,1,0,3:0:0:0:
65,352,164474,1,8,0:1:0:0:
97,180,164645,5,0,3:0:0:0:
0,294,164988,5,0,3:0:0:0:
16,207,165331,5,0,1:0:0:0:
379,322,166016,5,6,1:2:0:0:
445,378,166188,1,0,0:0:0:0:
246,206,166359,5,2,1:0:0:0:
163,236,166531,1,0,0:0:0:0:
345,92,166702,5,2,1:0:0:0:
345,92,166874,1,0,0:0:0:0:
478,205,167045,5,2,1:0:0:0:
379,322,167216,1,2,0:0:0:0:
246,206,167388,5,2,1:0:0:0:
329,179,167559,1,0,0:0:0:0:
130,7,167731,5,2,1:0:0:0:
197,64,167902,1,0,0:0:0:0:
16,207,168074,5,2,1:0:0:0:
114,93,168245,1,2,0:0:0:0:
0,294,168416,5,2,1:0:0:0:
31,122,168588,1,2,0:0:0:0:
65,352,168759,5,2,1:0:0:0:
0,294,168931,1,0,0:0:0:0:
246,206,169102,5,2,1:0:0:0:
163,236,169274,1,0,0:0:0:0:
461,292,169445,5,2,1:0:0:0:
262,121,169616,1,2,0:0:0:0:
411,149,169788,5,2,1:0:0:0:
180,150,169959,1,2,0:0:0:0:
345,92,170131,5,2,1:0:0:0:
329,179,170302,1,0,0:0:0:0:
180,150,170474,5,2,1:0:0:0:
163,236,170645,1,0,0:0:0:0:
16,207,170816,5,2,1:0:0:0:
16,207,170988,1,0,0:0:0:0:
163,236,171159,5,2,1:0:0:0:
0,294,171331,1,2,0:0:0:0:
312,264,171502,5,2,1:0:0:0:
229,293,171674,1,0,0:0:0:0:
31,122,171845,5,10,1:0:0:0:
97,180,172016,1,0,0:0:0:0:
345,92,172188,5,2,1:0:0:0:
262,121,172359,1,0,0:0:0:0:
48,35,172531,5,10,1:0:0:0:
16,207,172702,1,2,0:0:0:0:
262,121,172874,5,2,1:0:0:0:
197,64,173045,1,0,0:0:0:0:
394,235,173216,5,10,1:0:0:0:
411,149,173388,1,0,0:0:0:0:
215,379,173559,5,2,1:0:0:0:
298,352,173731,1,0,0:0:0:0:
97,180,173902,5,10,1:0:0:0:
65,352,174074,1,2,0:0:0:0:
229,293,174245,5,2,1:0:0:0:
229,293,174416,1,0,0:0:0:0:
163,236,174588,5,10,1:0:0:0:
163,236,174759,1,0,0:0:0:0:
246,206,174931,5,2,3:1:0:0:
229,293,175102,1,2,0:0:0:0:
163,236,175274,5,2,3:1:0:0:
180,150,175445,1,2,0:0:0:0:
262,121,175616,5,2,3:1:0:0:
329,179,175788,5,2,0:0:0:0:
246,206,175959,5,2,3:2:0:0:
312,264,176131,5,2,0:0:0:0:
229,293,176302,5,2,3:2:0:0:
394,235,176474,5,0,3:0:0:0:
394,235,176559,1,10,0:1:0:0:
262,121,176731,5,0,3:0:0:0:
262,121,176816,1,10,0:1:0:0:
379,322,176988,5,6,1:2:0:0:
493,120,177159,1,0,0:0:0:0:
312,264,177331,5,10,1:0:0:0:
478,205,177502,1,0,0:0:0:0:
246,206,177674,5,2,1:0:0:0:
394,235,177845,1,0,0:0:0:0:
180,150,178016,5,10,1:0:0:0:
312,264,178188,1,2,0:0:0:0:
114,93,178359,5,2,1:0:0:0:
163,236,178531,1,0,0:0:0:0:
197,64,178702,5,10,1:0:0:0:
97,180,178874,1,0,0:0:0:0:
262,121,179045,5,2,1:0:0:0:
114,93,179216,5,2,0:0:0:0:
16,207,179388,5,10,1:0:0:0:
65,352,179559,5,2,0:0:0:0:
215,379,179731,5,2,1:0:0:0:
97,180,179902,1,0,0:0:0:0:
312,264,180074,5,10,1:0:0:0:
148,323,180245,1,0,0:0:0:0:
262,121,180416,5,2,1:0:0:0:
312,264,180588,5,2,0:0:0:0:
262,121,180759,5,10,1:0:0:0:
114,93,180931,5,2,0:0:0:0:
163,236,181102,5,2,1:0:0:0:
329,179,181274,1,0,0:0:0:0:
148,323,181445,5,10,1:0:0:0:
246,206,181616,1,0,0:0:0:0:
215,379,181788,5,2,1:0:0:0:
163,236,181959,1,0,0:0:0:0:
298,352,182131,5,10,1:0:0:0:
148,323,182302,5,2,0:0:0:0:
379,322,182474,5,2,1:0:0:0:
215,379,182645,1,0,0:0:0:0:
394,235,182816,5,10,1:0:0:0:
229,293,182988,1,0,0:0:0:0:
411,149,183159,5,2,1:0:0:0:
246,206,183331,1,0,0:0:0:0:
478,205,183502,5,10,1:0:0:0:
262,121,183674,1,2,0:0:0:0:
509,34,183845,5,2,1:0:0:0:
394,235,184016,1,0,0:0:0:0:
361,6,184188,5,10,1:0:0:0:
411,149,184359,1,0,0:0:0:0:
279,34,184531,5,2,1:0:0:0:
427,63,184702,5,2,0:0:0:0:
329,179,184874,5,10,1:0:0:0:
345,92,185045,5,2,0:0:0:0:
312,264,185216,5,2,1:0:0:0:
262,121,185388,1,2,0:0:0:0:
394,235,185559,5,10,1:0:0:0:
180,150,185731,1,0,0:0:0:0:
478,205,185902,5,2,1:0:0:0:
246,206,186074,5,2,0:0:0:0:
461,292,186245,5,10,1:0:0:0:
312,264,186416,5,2,0:0:0:0:
379,322,186588,5,2,1:0:0:0:
394,235,186759,1,0,0:0:0:0:
180,150,186931,5,10,1:0:0:0:
246,206,187102,1,0,0:0:0:0:
427,63,187274,5,10,1:0:0:0:
312,264,187445,5,10,0:1:0:0:
329,179,187616,1,10,0:1:0:0:
394,235,187788,1,10,0:1:0:0:
148,323,187959,5,6,1:2:0:0:
196,61,188131,1,0,0:0:0:0:
81,265,188302,5,2,1:0:0:0:
262,121,188474,1,0,0:0:0:0:
97,180,188645,5,2,1:0:0:0:
246,206,188816,1,0,0:0:0:0:
114,93,188988,5,2,1:0:0:0:
229,293,189159,1,2,0:0:0:0:
180,150,189331,5,2,1:0:0:0:
148,323,189502,1,0,0:0:0:0:
262,121,189674,5,2,1:0:0:0:
81,265,189845,1,0,0:0:0:0:
345,92,190016,5,2,1:0:0:0:
97,180,190188,5,2,0:0:0:0:
329,179,190359,5,2,1:0:0:0:
114,93,190531,5,2,0:0:0:0:
312,264,190702,5,2,1:0:0:0:
279,34,190874,1,0,0:0:0:0:
163,236,191045,5,2,1:0:0:0:
345,92,191216,1,0,0:0:0:0:
180,150,191388,5,2,1:0:0:0:
478,205,191559,5,2,0:0:0:0:
262,121,191731,5,2,1:0:0:0:
394,235,191902,5,2,0:0:0:0:
361,6,192074,5,2,1:0:0:0:
298,352,192245,1,0,0:0:0:0:
427,63,192416,5,2,1:0:0:0:
229,293,192588,1,0,0:0:0:0:
329,179,192759,5,0,1:0:0:0:
329,179,192931,1,0,0:0:0:0:
246,206,193102,5,2,1:0:0:0:
411,149,193274,5,2,1:0:0:0:
180,150,193445,5,2,1:0:0:0:
394,235,193616,1,0,0:0:0:0:
262,121,193788,5,10,1:0:0:0:
379,322,193959,1,0,0:0:0:0:
329,179,194131,5,2,1:0:0:0:
298,352,194302,1,0,0:0:0:0:
411,149,194474,5,10,1:0:0:0:
229,293,194645,1,2,0:0:0:0:
478,205,194816,5,2,1:0:0:0:
163,236,194988,1,0,0:0:0:0:
461,292,195159,5,10,1:0:0:0:
97,180,195331,1,0,0:0:0:0:
445,378,195502,5,2,1:0:0:0:
180,150,195674,1,2,0:0:0:0:
298,352,195845,5,10,1:0:0:0:
262,121,196016,1,2,0:0:0:0:
229,293,196188,5,2,1:0:0:0:
345,92,196359,1,2,0:0:0:0:
163,236,196531,5,10,1:0:0:0:
163,236,196874,5,2,3:2:0:0:
246,206,197045,5,2,0:0:0:0:
180,150,197216,5,2,3:2:0:0:
97,180,197388,5,2,0:0:0:0:
81,265,197559,5,2,3:2:0:0:
81,265,197902,5,2,3:2:0:0:
85,243,197988,1,0,3:0:0:0:
89,221,198074,1,0,3:0:0:0:
93,199,198159,1,0,3:0:0:0:
97,180,198245,1,2,3:2:0:0:
138,165,198331,1,0,3:0:0:0:
180,150,198417,1,0,3:0:0:0:
213,178,198503,1,0,3:0:0:0:
247,207,198588,1,0,3:0:0:0:
238,250,198674,1,0,3:0:0:0:
230,293,198759,1,0,3:0:0:0:
222,336,198845,1,0,3:0:0:0:
215,379,198931,5,6,1:2:0:0:
215,379,199102,1,0,0:0:0:0:
97,180,199274,5,10,1:0:0:0:
97,180,199445,1,0,0:0:0:0:
329,179,199616,5,2,1:0:0:0:
329,179,199787,1,0,0:0:0:0:
148,323,199959,5,10,1:0:0:0:
114,93,200131,1,2,0:0:0:0:
329,179,200302,5,2,1:0:0:0:
329,179,200473,1,0,0:0:0:0:
148,323,200645,5,10,1:0:0:0:
148,323,200816,1,0,0:0:0:0:
114,93,200988,5,2,1:0:0:0:
114,93,201159,1,0,0:0:0:0:
312,264,201331,5,10,1:0:0:0:
163,236,201502,1,2,0:0:0:0:
262,121,201674,5,2,1:0:0:0:
262,121,201845,1,0,0:0:0:0:
312,264,202016,5,10,1:0:0:0:
312,264,202187,1,0,0:0:0:0:
163,236,202359,5,2,1:0:0:0:
163,236,202530,1,0,0:0:0:0:
329,179,202702,5,10,1:0:0:0:
180,150,202874,1,2,0:0:0:0:
279,34,203045,5,2,1:0:0:0:
279,34,203216,1,0,0:0:0:0:
345,92,203388,5,10,1:0:0:0:
345,92,203559,1,0,0:0:0:0:
262,121,203731,5,2,1:0:0:0:
262,121,203902,1,0,0:0:0:0:
361,6,204074,5,10,1:0:0:0:
427,63,204245,1,2,0:0:0:0:
509,34,204416,5,10,3:1:0:0:
509,34,204588,1,8,3:1:0:0:
262,121,204759,5,10,1:1:0:0:
262,121,204931,1,8,0:1:0:0:
493,120,205102,5,10,1:1:0:0:
493,120,205274,1,8,0:1:0:0:
329,179,205445,5,10,1:1:0:0:
478,205,205788,5,10,1:1:0:0:
478,205,205960,1,8,0:1:0:0:
394,235,206131,5,10,1:1:0:0:
394,235,206303,1,8,0:1:0:0:
461,292,206474,5,10,1:1:0:0:
461,292,206646,1,8,0:1:0:0:
379,322,206816,5,10,1:1:0:0:
329,179,207159,5,0,3:0:0:0:
246,206,207331,1,0,0:0:0:0:
246,206,207416,1,2,0:0:0:0:
246,206,207502,1,0,3:0:0:0:
229,293,207674,1,2,0:0:0:0:
298,352,207845,1,0,3:0:0:0:
298,352,207931,1,2,0:0:0:0:
298,352,208016,1,0,0:0:0:0:
379,322,208187,1,2,3:2:0:0:
329,179,208531,5,2,0:0:0:0:
229,293,208874,5,2,0:0:0:0:
180,150,209216,5,2,0:0:0:0:
