osu file format v14

[General]
AudioFilename: audio.mp3
AudioLeadIn: 0
PreviewTime: 111159
Countdown: 0
SampleSet: Normal
StackLeniency: 0.7
Mode: 1
LetterboxInBreaks: 0
WidescreenStoryboard: 0

[Editor]
Bookmarks: 105845
DistanceSpacing: 1.2
BeatDivisor: 4
GridSize: 4
TimelineZoom: 0.7999978

[Metadata]
Title:Catchit (Radio Edit)
TitleUnicode:Catchit (Radio Edit)
Artist:S3RL
ArtistUnicode:S3RL
Creator:Rhytoly
Version:Muzukashii
Source:
Tags:osu! okoratu taiko mapper's guild drum circle featured artist fa
BeatmapID:1913668
BeatmapSetID:915434

[Difficulty]
HPDrainRate:5.5
CircleSize:5
OverallDifficulty:4
ApproachRate:5
SliderMultiplier:1.4
SliderTickRate:1

[Events]
//Background and Video events
0,0,"catchit.png",0,0
//Break Periods
//Storyboard Layer 0 (Background)
//Storyboard Layer 1 (Fail)
//Storyboard Layer 2 (Pass)
//Storyboard Layer 3 (Foreground)
//Storyboard Layer 4 (Overlay)
//Storyboard Sound Samples

[TimingPoints]
74,342.857142857143,4,1,0,100,1,0
1445,-125,4,1,0,100,0,0
11388,-133.333333333333,4,1,0,100,0,0
11731,-142.857142857143,4,1,0,100,0,0
12416,-111.111111111111,4,1,0,100,0,0
23388,-100,4,1,0,100,0,0
33331,-111.111111111111,4,1,0,100,0,0
33674,-125,4,1,0,100,0,0
34359,-95.2380952380952,4,1,0,100,0,1
43959,-95.2380952380952,4,1,0,100,0,0
44302,-105.263157894737,4,1,0,100,0,0
44645,-117.647058823529,4,1,0,100,0,0
45331,-105.263157894737,4,1,0,100,0,0
50645,-108.108108108108,4,1,0,100,0,0
50816,-111.111111111111,4,1,0,100,0,0
56302,-117.647058823529,4,1,0,100,0,0
78245,-100,4,1,0,100,0,0
88188,-111.111111111111,4,1,0,100,0,0
88531,-125,4,1,0,100,0,0
89216,-95.2380952380952,4,1,0,100,0,1
97445,-95.2380952380952,4,1,0,100,0,0
99759,-93.4579439252336,4,1,0,100,0,0
100016,-91.743119266055,4,1,0,100,0,0
100188,-90.9090909090909,4,1,0,100,0,1
109788,-90.9090909090909,4,1,0,100,0,0
110131,-100,4,1,0,100,0,0
110474,-111.111111111111,4,1,0,100,0,0
111159,-86.9565217391304,4,1,0,100,0,1
119388,-86.9565217391304,4,1,0,100,0,0
119559,-87.719298245614,4,1,0,100,0,0
119731,-88.4955752212389,4,1,0,100,0,0
120074,-90.0900900900901,4,1,0,100,0,0
120245,-90.9090909090909,4,1,0,100,0,0
120416,-91.743119266055,4,1,0,100,0,0
120588,-92.5925925925926,4,1,0,100,0,0
120759,-93.4579439252336,4,1,0,100,0,0
121102,-95.2380952380952,4,1,0,100,0,0
121445,-97.0873786407767,4,1,0,100,0,0
122131,-83.3333333333333,4,1,0,100,0,1
127616,-83.3333333333333,4,1,0,100,0,0
127959,-83.3333333333333,4,1,0,100,0,1
131731,-83.3333333333333,4,1,0,100,0,0
132074,-90.9090909090909,4,1,0,100,0,0
132416,-100,4,1,0,100,0,0
133102,-117.647058823529,4,1,0,100,0,0
143045,-115.942028985507,4,1,0,100,0,0
143388,-114.285714285714,4,1,0,100,0,0
143731,-112.676056338028,4,1,0,100,0,0
144074,-111.111111111111,4,1,0,100,0,0
155045,-100,4,1,0,100,0,0
164988,-111.111111111111,4,1,0,100,0,0
165331,-125,4,1,0,100,0,0
166016,-90.9090909090909,4,1,0,100,0,1
174245,-90.9090909090909,4,1,0,100,0,0
176559,-89.2857142857143,4,1,0,100,0,0
176816,-87.719298245614,4,1,0,100,0,0
176988,-86.9565217391304,4,1,0,100,0,1
186931,-95.2380952380952,4,1,0,100,0,1
187274,-105.263157894737,4,1,0,100,0,1
187445,-86.9565217391304,4,1,0,100,0,0
187959,-90.9090909090909,4,1,0,100,0,1
196188,-90.9090909090909,4,1,0,100,0,0
196359,-91.743119266055,4,1,0,100,0,0
196531,-92.5925925925926,4,1,0,100,0,0
196874,-94.3396226415094,4,1,0,100,0,0
197045,-95.2380952380952,4,1,0,100,0,0
197216,-96.1538461538461,4,1,0,100,0,0
197388,-97.0873786407767,4,1,0,100,0,0
197559,-98.0392156862745,4,1,0,100,0,0
197902,-100,4,1,0,100,0,0
198245,-102.040816326531,4,1,0,100,0,0
198931,-95.2380952380952,4,1,0,100,0,1
204416,-95.2380952380952,4,1,0,100,0,0
204588,-97.5609756097561,4,1,0,100,0,0
204759,-100,4,1,0,100,0,1
207416,-99.009900990099,4,1,0,100,0,1
207674,-98.0392156862745,4,1,0,100,0,1
207931,-97.0873786407767,4,1,0,100,0,1
208188,-96.1538461538461,4,1,0,100,0,1
208531,-95.2380952380952,4,1,0,100,0,0
208874,-105.263157894737,4,1,0,100,0,0
209216,-117.647058823529,4,1,0,100,0,0

[HitObjects]
257,110,1445,5,4,0:0:0:0:
378,177,1959,1,8,0:0:0:0:
378,177,2131,1,0,0:0:0:0:
364,125,2645,1,8,0:0:0:0:
364,125,2816,1,8,0:0:0:0:
364,125,3331,1,8,0:0:0:0:
364,125,3502,1,0,0:0:0:0:
364,125,4016,1,0,0:0:0:0:
364,125,4188,1,8,0:0:0:0:
364,125,4702,1,8,0:0:0:0:
364,125,4874,1,0,0:0:0:0:
364,125,5388,1,8,0:0:0:0:
364,125,5559,1,8,0:0:0:0:
385,181,6074,1,8,0:0:0:0:
385,181,6245,1,0,0:0:0:0:
385,181,6931,1,8,0:0:0:0:
385,181,7445,1,8,0:0:0:0:
385,181,7616,1,0,0:0:0:0:
379,176,8131,1,0,0:0:0:0:
379,176,8302,1,8,0:0:0:0:
379,176,8816,1,8,0:0:0:0:
379,176,8988,1,0,0:0:0:0:
379,176,9502,1,0,0:0:0:0:
379,176,9674,1,0,0:0:0:0:
379,176,10188,1,0,0:0:0:0:
379,176,10359,1,8,0:0:0:0:
379,176,10874,1,8,0:0:0:0:
379,176,11045,1,0,0:0:0:0:
127,144,11388,1,0,0:0:0:0:
379,176,11731,1,0,0:0:0:0:
379,176,12416,1,0,0:0:0:0:
79,114,12759,1,8,0:0:0:0:
161,108,13102,1,0,0:0:0:0:
383,218,13445,1,8,0:0:0:0:
383,218,13616,1,0,0:0:0:0:
383,218,13788,1,8,0:0:0:0:
148,119,14131,1,8,0:0:0:0:
384,170,14474,1,0,0:0:0:0:
384,170,15159,1,8,0:0:0:0:
178,72,15502,1,8,0:0:0:0:
178,72,15845,1,0,0:0:0:0:
275,105,16531,1,0,0:0:0:0:
273,115,16874,1,0,0:0:0:0:
253,113,17216,1,8,0:0:0:0:
211,106,17902,1,8,0:0:0:0:
211,106,18245,1,8,0:0:0:0:
211,106,18588,1,0,0:0:0:0:
211,106,18931,1,8,0:0:0:0:
211,106,19102,1,0,0:0:0:0:
211,106,19274,1,8,0:0:0:0:
156,143,19616,1,8,0:0:0:0:
179,137,19959,1,0,0:0:0:0:
141,74,20644,1,0,0:0:0:0:
269,113,20816,1,0,0:0:0:0:
189,115,20988,1,8,0:0:0:0:
239,108,21331,1,8,0:0:0:0:
135,127,22016,1,0,0:0:0:0:
105,98,22359,1,0,0:0:0:0:
61,118,22702,1,8,0:0:0:0:
385,153,23388,1,12,0:0:0:0:
367,201,23731,1,0,0:0:0:0:
376,183,23902,1,0,0:0:0:0:
376,183,24074,1,8,0:0:0:0:
235,91,24416,1,8,0:0:0:0:
228,149,24588,1,0,0:0:0:0:
375,183,24759,1,8,0:0:0:0:
295,101,25102,1,8,0:0:0:0:
218,74,25445,1,0,0:0:0:0:
295,101,25616,1,0,0:0:0:0:
295,101,25788,1,8,0:0:0:0:
295,101,25959,1,8,0:0:0:0:
198,131,26131,1,8,0:0:0:0:
242,102,26474,1,8,0:0:0:0:
242,102,26816,1,0,0:0:0:0:
242,102,26988,1,8,0:0:0:0:
110,110,27159,1,8,0:0:0:0:
147,104,27331,1,0,0:0:0:0:
147,104,27502,1,0,0:0:0:0:
256,128,27845,1,0,0:0:0:0:
256,128,28188,1,8,0:0:0:0:
256,128,28531,1,0,0:0:0:0:
256,128,28703,1,0,0:0:0:0:
256,128,28874,1,8,0:0:0:0:
256,128,29216,1,8,0:0:0:0:
256,128,29388,1,0,0:0:0:0:
256,128,29559,1,8,0:0:0:0:
256,64,29902,1,8,0:0:0:0:
384,192,30074,1,0,0:0:0:0:
256,64,30245,1,8,0:0:0:0:
384,256,30588,1,8,0:0:0:0:
384,256,30759,1,8,0:0:0:0:
384,256,30931,1,0,0:0:0:0:
384,256,31274,1,8,0:0:0:0:
330,99,31445,1,8,0:0:0:0:
256,128,31616,1,0,0:0:0:0:
416,256,31788,1,0,0:0:0:0:
192,64,31959,1,8,0:0:0:0:
288,32,32302,1,8,0:0:0:0:
352,96,32474,1,0,0:0:0:0:
352,96,32645,1,8,0:0:0:0:
352,96,32816,1,8,0:0:0:0:
352,96,32988,1,0,0:0:0:0:
320,128,33331,1,0,0:0:0:0:
320,128,33674,1,8,0:0:0:0:
192,96,34359,1,12,0:0:0:0:
192,96,34702,1,12,0:0:0:0:
224,96,35045,1,4,0:0:0:0:
351,107,35388,1,8,0:0:0:0:
351,107,35474,1,8,0:0:0:0:
350,175,35559,1,0,0:0:0:0:
224,96,35731,1,12,0:0:0:0:
192,128,36074,1,12,0:0:0:0:
192,128,36416,1,4,0:0:0:0:
201,50,36588,1,0,0:0:0:0:
178,112,36674,1,0,0:0:0:0:
201,50,36759,1,8,0:0:0:0:
192,128,36931,1,8,0:0:0:0:
192,128,37102,1,12,0:0:0:0:
224,160,37445,1,12,0:0:0:0:
224,160,37788,1,4,0:0:0:0:
151,142,37959,1,8,0:0:0:0:
151,142,38045,1,8,0:0:0:0:
224,160,38131,1,0,0:0:0:0:
224,160,38302,1,0,0:0:0:0:
224,160,38474,1,12,0:0:0:0:
320,96,38816,1,12,0:0:0:0:
320,96,39159,1,4,0:0:0:0:
340,58,39502,1,0,0:0:0:0:
340,58,39588,1,0,0:0:0:0:
340,58,39674,1,8,0:0:0:0:
192,96,39845,1,12,0:0:0:0:
192,96,40188,1,12,0:0:0:0:
224,96,40531,1,4,0:0:0:0:
165,89,40874,1,8,0:0:0:0:
165,89,40959,1,8,0:0:0:0:
165,89,41045,1,0,0:0:0:0:
224,96,41217,1,12,0:0:0:0:
192,128,41560,1,12,0:0:0:0:
192,128,41902,1,4,0:0:0:0:
229,72,42245,1,0,0:0:0:0:
211,124,42331,1,0,0:0:0:0:
229,59,42416,1,8,0:0:0:0:
192,128,42588,1,4,0:0:0:0:
224,160,42931,1,4,0:0:0:0:
224,160,43274,1,12,0:0:0:0:
96,114,43445,1,0,0:0:0:0:
104,113,43531,1,0,0:0:0:0:
235,85,43616,1,0,0:0:0:0:
231,73,43788,1,0,0:0:0:0:
224,160,43960,1,12,0:0:0:0:
320,96,44302,1,8,0:0:0:0:
320,96,44645,1,8,0:0:0:0:
320,96,45331,1,4,0:0:0:0:
160,128,45674,1,0,0:0:0:0:
160,128,45845,1,8,0:0:0:0:
160,128,46016,1,0,0:0:0:0:
160,128,46359,1,8,0:0:0:0:
160,128,46531,1,0,0:0:0:0:
160,128,46702,1,8,0:0:0:0:
128,128,47045,1,0,0:0:0:0:
224,128,47216,1,8,0:0:0:0:
224,128,47388,1,0,0:0:0:0:
195,137,47731,1,0,0:0:0:0:
221,133,47902,1,0,0:0:0:0:
224,128,48074,1,8,0:0:0:0:
192,128,48416,1,0,0:0:0:0:
192,128,48588,1,8,0:0:0:0:
192,128,48759,1,0,0:0:0:0:
192,128,49102,1,0,0:0:0:0:
352,96,49274,1,0,0:0:0:0:
352,96,49445,1,8,0:0:0:0:
128,96,49788,1,0,0:0:0:0:
160,96,49959,1,8,0:0:0:0:
160,96,50131,1,0,0:0:0:0:
160,96,50474,1,8,0:0:0:0:
160,96,50645,1,8,0:0:0:0:
160,96,50816,1,0,0:0:0:0:
288,128,51331,1,8,0:0:0:0:
128,96,51502,1,0,0:0:0:0:
160,96,52016,1,0,0:0:0:0:
160,96,52188,1,8,0:0:0:0:
288,96,52702,1,8,0:0:0:0:
288,96,52874,1,8,0:0:0:0:
288,96,53388,1,0,0:0:0:0:
288,96,53559,1,8,0:0:0:0:
192,128,53902,1,0,0:0:0:0:
192,128,54074,1,0,0:0:0:0:
192,128,54245,1,8,0:0:0:0:
192,128,54759,1,8,0:0:0:0:
192,128,54931,1,8,0:0:0:0:
192,128,55274,1,0,0:0:0:0:
192,128,55445,1,8,0:0:0:0:
192,128,55616,1,8,0:0:0:0:
192,128,56302,1,8,0:0:0:0:
352,160,56645,1,8,0:0:0:0:
192,64,56988,1,0,0:0:0:0:
128,96,57331,1,0,0:0:0:0:
192,96,57502,1,0,0:0:0:0:
192,96,57674,1,8,0:0:0:0:
320,192,58016,1,8,0:0:0:0:
40,96,58188,1,0,0:0:0:0:
320,192,58359,1,8,0:0:0:0:
263,147,58702,1,8,0:0:0:0:
192,128,59045,1,0,0:0:0:0:
151,66,59388,1,0,0:0:0:0:
192,64,59731,1,8,0:0:0:0:
224,96,60074,1,0,0:0:0:0:
128,128,60245,1,8,0:0:0:0:
224,96,60416,1,0,0:0:0:0:
288,32,60759,1,8,0:0:0:0:
320,96,60931,1,0,0:0:0:0:
288,96,61102,1,8,0:0:0:0:
384,192,61788,1,8,0:0:0:0:
420,222,62131,1,0,0:0:0:0:
384,96,62474,1,8,0:0:0:0:
384,96,62816,1,0,0:0:0:0:
321,69,62988,1,0,0:0:0:0:
378,199,63159,1,8,0:0:0:0:
371,189,63331,1,0,0:0:0:0:
227,134,63502,1,8,0:0:0:0:
184,101,63845,1,0,0:0:0:0:
239,76,64016,1,0,0:0:0:0:
239,76,64188,1,8,0:0:0:0:
384,96,64531,1,0,0:0:0:0:
277,44,64874,1,0,0:0:0:0:
192,160,65216,1,8,0:0:0:0:
224,128,65559,1,0,0:0:0:0:
224,96,65731,1,0,0:0:0:0:
224,96,65902,1,8,0:0:0:0:
352,128,66245,1,0,0:0:0:0:
352,128,66416,1,8,0:0:0:0:
352,128,66588,1,0,0:0:0:0:
352,128,67274,1,0,0:0:0:0:
191,64,67616,1,0,0:0:0:0:
352,128,67959,1,8,0:0:0:0:
352,128,68302,1,8,0:0:0:0:
352,128,68474,1,8,0:0:0:0:
352,128,68645,1,0,0:0:0:0:
128,160,68988,1,0,0:0:0:0:
320,128,69331,1,8,0:0:0:0:
373,157,69502,1,0,0:0:0:0:
373,157,69674,1,8,0:0:0:0:
373,157,69845,1,8,0:0:0:0:
320,128,70016,1,0,0:0:0:0:
350,100,70359,1,0,0:0:0:0:
288,128,70702,1,8,0:0:0:0:
284,108,70874,1,8,0:0:0:0:
382,185,71045,1,0,0:0:0:0:
236,75,71216,1,0,0:0:0:0:
288,128,71388,1,8,0:0:0:0:
96,160,71731,1,0,0:0:0:0:
179,89,71902,1,0,0:0:0:0:
179,89,72074,1,8,0:0:0:0:
160,160,72759,1,0,0:0:0:0:
56,95,73102,1,0,0:0:0:0:
416,224,73445,1,0,0:0:0:0:
167,48,73616,1,0,0:0:0:0:
218,87,73788,1,8,0:0:0:0:
209,75,73959,1,0,0:0:0:0:
416,224,74131,1,8,0:0:0:0:
128,128,74474,1,8,0:0:0:0:
211,107,74816,1,0,0:0:0:0:
236,97,74988,1,8,0:0:0:0:
206,134,75159,1,0,0:0:0:0:
192,32,75502,1,0,0:0:0:0:
116,102,75845,1,0,0:0:0:0:
256,128,76188,1,8,0:0:0:0:
64,128,76531,1,0,0:0:0:0:
352,224,76702,1,8,0:0:0:0:
224,128,77216,1,8,0:0:0:0:
192,96,77559,1,8,0:0:0:0:
192,96,77902,1,8,0:0:0:0:
160,160,78245,1,4,0:0:0:0:
128,128,78588,1,8,0:0:0:0:
320,128,78931,1,0,0:0:0:0:
320,128,79616,1,8,0:0:0:0:
64,128,79959,1,0,0:0:0:0:
352,128,80131,1,8,0:0:0:0:
352,128,80474,1,0,0:0:0:0:
128,96,80645,1,8,0:0:0:0:
160,128,80988,1,0,0:0:0:0:
416,160,81331,1,8,0:0:0:0:
416,160,81674,1,0,0:0:0:0:
64,128,82359,1,8,0:0:0:0:
128,96,82702,1,8,0:0:0:0:
128,96,82874,1,8,0:0:0:0:
128,96,83045,1,0,0:0:0:0:
128,96,83216,1,8,0:0:0:0:
128,96,83388,1,0,0:0:0:0:
256,96,83731,1,8,0:0:0:0:
352,96,84074,1,0,0:0:0:0:
224,96,84245,1,8,0:0:0:0:
256,96,84416,1,0,0:0:0:0:
352,96,84588,1,0,0:0:0:0:
352,96,84759,1,8,0:0:0:0:
256,64,85103,1,0,0:0:0:0:
256,64,85446,1,8,0:0:0:0:
256,64,85617,1,0,0:0:0:0:
256,64,85788,1,8,0:0:0:0:
288,128,85960,1,8,0:0:0:0:
288,128,86131,1,0,0:0:0:0:
256,96,86474,1,8,0:0:0:0:
256,96,86645,1,0,0:0:0:0:
256,96,86816,1,8,0:0:0:0:
256,96,86988,1,0,0:0:0:0:
256,96,87159,1,8,0:0:0:0:
352,128,87416,1,8,0:0:0:0:
320,96,87674,1,8,0:0:0:0:
320,96,87845,1,4,0:0:0:0:
352,128,88188,1,4,0:0:0:0:
384,160,88531,1,4,0:0:0:0:
192,96,89216,1,12,0:0:0:0:
192,96,89559,1,12,0:0:0:0:
224,96,89902,1,4,0:0:0:0:
368,150,90245,1,8,0:0:0:0:
368,150,90331,1,8,0:0:0:0:
368,150,90416,1,0,0:0:0:0:
224,96,90588,1,12,0:0:0:0:
192,128,90931,1,12,0:0:0:0:
192,128,91273,1,4,0:0:0:0:
201,50,91445,1,0,0:0:0:0:
170,90,91531,1,0,0:0:0:0:
201,50,91616,1,8,0:0:0:0:
192,128,91788,1,8,0:0:0:0:
192,128,91959,1,12,0:0:0:0:
224,160,92302,1,12,0:0:0:0:
224,160,92645,1,4,0:0:0:0:
219,190,92816,1,8,0:0:0:0:
222,68,92902,1,8,0:0:0:0:
222,68,92988,1,0,0:0:0:0:
222,68,93159,1,0,0:0:0:0:
224,160,93331,1,12,0:0:0:0:
320,96,93673,1,12,0:0:0:0:
320,96,94016,1,4,0:0:0:0:
157,100,94359,1,0,0:0:0:0:
137,114,94445,1,0,0:0:0:0:
157,100,94531,1,8,0:0:0:0:
192,96,94702,1,12,0:0:0:0:
192,96,95045,1,12,0:0:0:0:
224,96,95388,1,4,0:0:0:0:
96,133,95731,1,8,0:0:0:0:
96,133,95816,1,8,0:0:0:0:
96,133,95902,1,0,0:0:0:0:
224,96,96074,1,12,0:0:0:0:
192,128,96417,1,12,0:0:0:0:
192,128,96759,1,4,0:0:0:0:
42,100,97102,1,0,0:0:0:0:
179,26,97188,1,0,0:0:0:0:
180,31,97274,1,8,0:0:0:0:
192,128,97445,1,4,0:0:0:0:
224,160,97788,5,0,0:0:0:0:
224,160,98131,1,8,0:0:0:0:
224,160,98817,1,8,0:0:0:0:
320,96,99159,1,0,0:0:0:0:
350,147,99331,1,0,0:0:0:0:
320,96,99502,1,8,0:0:0:0:
288,128,99759,1,8,0:0:0:0:
288,128,100016,1,8,0:0:0:0:
224,64,100188,1,4,0:0:0:0:
224,128,100531,1,8,0:0:0:0:
224,96,100702,1,8,0:0:0:0:
192,128,100874,1,0,0:0:0:0:
224,96,101216,1,8,0:0:0:0:
224,96,101388,1,0,0:0:0:0:
224,96,101559,1,8,0:0:0:0:
224,96,101902,1,8,0:0:0:0:
192,128,102074,1,8,0:0:0:0:
192,128,102245,1,0,0:0:0:0:
192,128,102417,1,0,0:0:0:0:
192,128,102502,1,0,0:0:0:0:
192,128,102588,1,8,0:0:0:0:
192,128,102760,1,0,0:0:0:0:
192,128,102931,1,8,0:0:0:0:
224,160,103274,1,8,0:0:0:0:
158,97,103445,1,8,0:0:0:0:
224,24,103616,5,0,0:0:0:0:
224,160,103788,1,8,0:0:0:0:
224,160,103874,1,8,0:0:0:0:
224,160,103960,1,8,0:0:0:0:
224,160,104131,1,8,0:0:0:0:
224,160,104303,1,0,0:0:0:0:
320,96,104644,1,8,0:0:0:0:
320,96,104988,1,0,0:0:0:0:
183,88,105331,1,0,0:0:0:0:
183,88,105502,1,0,0:0:0:0:
240,140,105674,1,8,0:0:0:0:
224,128,106017,1,8,0:0:0:0:
224,96,106188,1,8,0:0:0:0:
192,128,106360,1,0,0:0:0:0:
224,96,106703,1,8,0:0:0:0:
240,96,106874,1,0,0:0:0:0:
240,96,107045,1,8,0:0:0:0:
288,64,107388,1,8,0:0:0:0:
192,128,107559,1,8,0:0:0:0:
221,32,107731,1,0,0:0:0:0:
192,128,108074,1,0,0:0:0:0:
192,128,108245,1,8,0:0:0:0:
203,33,108331,1,8,0:0:0:0:
192,128,108416,1,0,0:0:0:0:
224,160,108759,1,8,0:0:0:0:
152,84,108931,1,0,0:0:0:0:
224,24,109102,1,8,0:0:0:0:
224,160,109274,1,0,0:0:0:0:
224,160,109359,1,0,0:0:0:0:
224,160,109445,1,8,0:0:0:0:
224,160,109616,1,8,0:0:0:0:
224,160,109788,1,0,0:0:0:0:
216,114,110131,1,0,0:0:0:0:
270,57,110474,1,8,0:0:0:0:
240,140,111159,1,12,0:0:0:0:
188,84,111502,1,8,0:0:0:0:
188,84,111674,1,0,0:0:0:0:
188,84,111845,1,8,0:0:0:0:
251,132,112188,1,0,0:0:0:0:
251,132,112359,1,0,0:0:0:0:
251,132,112531,1,8,0:0:0:0:
254,124,112874,1,8,0:0:0:0:
254,124,113045,1,8,0:0:0:0:
229,124,113216,1,0,0:0:0:0:
283,91,113388,1,0,0:0:0:0:
254,124,113474,1,0,0:0:0:0:
254,124,113559,1,8,0:0:0:0:
254,124,113731,1,0,0:0:0:0:
254,124,113902,1,8,0:0:0:0:
189,126,114245,1,8,0:0:0:0:
189,126,114416,1,8,0:0:0:0:
189,126,114588,1,0,0:0:0:0:
189,126,114759,1,8,0:0:0:0:
281,94,114845,1,8,0:0:0:0:
281,94,114931,1,0,0:0:0:0:
281,94,115102,1,8,0:0:0:0:
281,94,115274,1,0,0:0:0:0:
230,136,115616,1,0,0:0:0:0:
230,136,115959,1,8,0:0:0:0:
230,136,116302,1,0,0:0:0:0:
230,136,116474,1,0,0:0:0:0:
230,136,116645,1,8,0:0:0:0:
426,253,116988,1,8,0:0:0:0:
426,253,117159,1,8,0:0:0:0:
426,253,117331,1,0,0:0:0:0:
426,253,117674,1,8,0:0:0:0:
212,89,117845,1,0,0:0:0:0:
215,109,118016,1,8,0:0:0:0:
215,109,118359,1,8,0:0:0:0:
215,109,118531,1,0,0:0:0:0:
215,109,118702,1,8,0:0:0:0:
215,109,118874,1,8,0:0:0:0:
166,73,118959,1,8,0:0:0:0:
215,109,119045,1,8,0:0:0:0:
215,109,119216,1,8,0:0:0:0:
215,109,119388,1,0,0:0:0:0:
239,92,119559,1,0,0:0:0:0:
271,89,119731,1,8,0:0:0:0:
461,186,120074,1,8,0:0:0:0:
461,186,120245,1,0,0:0:0:0:
461,186,120416,1,0,0:0:0:0:
256,81,120588,1,8,0:0:0:0:
461,186,120759,1,0,0:0:0:0:
205,124,121102,1,0,0:0:0:0:
196,124,121445,1,8,0:0:0:0:
141,112,122131,1,12,0:0:0:0:
188,84,122474,1,8,0:0:0:0:
188,84,122646,1,0,0:0:0:0:
188,84,122817,1,8,0:0:0:0:
251,132,123160,1,0,0:0:0:0:
251,132,123331,1,0,0:0:0:0:
251,132,123503,1,8,0:0:0:0:
254,124,123846,1,8,0:0:0:0:
229,124,124017,1,0,0:0:0:0:
254,124,124188,1,8,0:0:0:0:
283,91,124360,1,0,0:0:0:0:
254,124,124446,1,0,0:0:0:0:
254,124,124531,1,8,0:0:0:0:
254,124,124703,1,0,0:0:0:0:
254,124,124874,1,8,0:0:0:0:
189,126,125217,1,8,0:0:0:0:
189,126,125388,1,8,0:0:0:0:
189,126,125560,1,0,0:0:0:0:
189,126,125731,1,8,0:0:0:0:
281,94,125817,1,8,0:0:0:0:
281,94,125903,1,8,0:0:0:0:
281,94,126074,1,0,0:0:0:0:
281,94,126246,1,8,0:0:0:0:
230,136,126588,1,0,0:0:0:0:
230,136,126931,1,8,0:0:0:0:
230,136,127274,1,0,0:0:0:0:
230,136,127446,1,0,0:0:0:0:
426,253,127960,1,8,0:0:0:0:
426,253,128131,1,8,0:0:0:0:
426,253,128303,1,0,0:0:0:0:
426,253,128646,1,8,0:0:0:0:
212,89,128817,1,0,0:0:0:0:
215,109,128988,1,8,0:0:0:0:
215,109,129331,1,8,0:0:0:0:
215,109,129503,1,0,0:0:0:0:
215,109,129674,1,8,0:0:0:0:
215,109,129846,1,0,0:0:0:0:
166,73,129931,1,0,0:0:0:0:
215,109,130017,1,8,0:0:0:0:
215,109,130188,1,8,0:0:0:0:
215,109,130360,1,0,0:0:0:0:
239,92,130531,1,0,0:0:0:0:
271,89,130703,1,8,0:0:0:0:
125,129,131045,1,8,0:0:0:0:
153,122,131216,1,0,0:0:0:0:
153,122,131388,1,0,0:0:0:0:
153,122,131559,1,8,0:0:0:0:
153,122,131731,1,0,0:0:0:0:
205,124,132074,5,0,0:0:0:0:
196,124,132416,1,8,0:0:0:0:
141,112,133102,1,8,0:0:0:0:
339,84,133445,1,8,0:0:0:0:
339,84,133788,1,0,0:0:0:0:
348,158,134131,1,0,0:0:0:0:
274,102,134302,1,8,0:0:0:0:
339,84,134474,1,0,0:0:0:0:
203,127,134816,1,0,0:0:0:0:
126,122,135159,1,8,0:0:0:0:
313,114,135331,1,8,0:0:0:0:
313,114,135502,1,0,0:0:0:0:
342,115,135845,1,8,0:0:0:0:
192,47,136188,1,8,0:0:0:0:
192,47,136359,1,0,0:0:0:0:
254,80,136531,1,8,0:0:0:0:
184,78,136874,1,0,0:0:0:0:
184,78,137045,1,8,0:0:0:0:
254,80,137216,1,8,0:0:0:0:
208,113,137559,1,8,0:0:0:0:
208,113,137902,1,0,0:0:0:0:
151,107,138588,5,0,0:0:0:0:
78,87,138931,1,0,0:0:0:0:
392,168,139274,1,8,0:0:0:0:
265,68,139445,1,0,0:0:0:0:
392,168,139616,1,0,0:0:0:0:
392,168,139959,1,8,0:0:0:0:
131,118,140302,1,8,0:0:0:0:
191,117,140474,1,0,0:0:0:0:
131,118,140645,1,8,0:0:0:0:
283,82,140816,1,8,0:0:0:0:
283,82,140988,1,0,0:0:0:0:
129,75,141331,1,8,0:0:0:0:
107,87,141674,1,8,0:0:0:0:
399,198,142016,1,0,0:0:0:0:
283,148,142359,1,8,0:0:0:0:
172,32,142531,1,8,0:0:0:0:
283,148,142702,1,0,0:0:0:0:
205,140,143045,1,0,0:0:0:0:
205,140,143388,1,8,0:0:0:0:
205,140,143731,1,8,0:0:0:0:
205,140,144074,1,0,0:0:0:0:
151,51,144416,1,0,0:0:0:0:
172,103,144759,1,8,0:0:0:0:
420,204,145102,1,8,0:0:0:0:
420,204,145274,1,0,0:0:0:0:
420,204,145445,1,8,0:0:0:0:
235,137,145788,1,0,0:0:0:0:
235,137,145959,1,0,0:0:0:0:
235,137,146131,1,8,0:0:0:0:
394,228,146474,1,0,0:0:0:0:
109,103,146816,1,8,0:0:0:0:
245,35,147159,1,0,0:0:0:0:
351,136,147502,1,8,0:0:0:0:
371,157,147845,1,0,0:0:0:0:
362,158,148016,1,0,0:0:0:0:
371,157,148188,1,8,0:0:0:0:
371,157,148359,1,8,0:0:0:0:
371,157,148531,1,0,0:0:0:0:
229,108,148874,1,8,0:0:0:0:
129,132,149559,1,0,0:0:0:0:
397,211,149902,1,0,0:0:0:0:
438,108,150245,1,0,0:0:0:0:
430,271,150416,1,0,0:0:0:0:
453,225,150588,1,8,0:0:0:0:
453,225,150759,1,0,0:0:0:0:
453,225,150931,1,8,0:0:0:0:
140,115,151274,1,8,0:0:0:0:
401,127,151616,1,0,0:0:0:0:
299,111,151788,1,8,0:0:0:0:
299,111,151959,1,0,0:0:0:0:
401,127,152302,1,8,0:0:0:0:
371,202,152645,1,8,0:0:0:0:
198,48,152816,1,8,0:0:0:0:
106,89,152988,1,0,0:0:0:0:
385,146,153331,1,0,0:0:0:0:
188,81,153674,1,8,0:0:0:0:
91,123,154016,1,0,0:0:0:0:
158,114,154188,1,0,0:0:0:0:
158,114,154359,1,8,0:0:0:0:
332,64,155045,1,4,0:0:0:0:
332,64,155388,1,0,0:0:0:0:
332,64,155731,1,8,0:0:0:0:
420,188,156416,1,0,0:0:0:0:
272,120,156588,1,8,0:0:0:0:
420,188,156759,1,0,0:0:0:0:
395,183,157102,1,8,0:0:0:0:
400,186,157445,1,8,0:0:0:0:
133,183,157788,1,0,0:0:0:0:
227,144,158131,1,0,0:0:0:0:
133,183,158474,1,8,0:0:0:0:
375,175,159159,1,8,0:0:0:0:
385,188,159331,1,0,0:0:0:0:
385,188,159502,1,0,0:0:0:0:
385,188,159845,1,8,0:0:0:0:
144,140,160188,1,0,0:0:0:0:
376,180,160531,1,8,0:0:0:0:
156,144,160874,1,8,0:0:0:0:
180,140,161045,1,8,0:0:0:0:
180,140,161216,1,0,0:0:0:0:
180,140,161388,1,0,0:0:0:0:
180,140,161559,1,8,0:0:0:0:
348,124,161902,1,0,0:0:0:0:
348,124,162245,1,8,0:0:0:0:
348,124,162416,1,0,0:0:0:0:
348,124,162588,1,8,0:0:0:0:
348,124,162759,1,8,0:0:0:0:
348,124,162931,1,0,0:0:0:0:
172,28,163274,1,8,0:0:0:0:
188,72,163445,1,0,0:0:0:0:
188,72,163616,1,8,0:0:0:0:
188,72,163788,1,0,0:0:0:0:
188,72,163959,1,8,0:0:0:0:
188,76,164216,1,8,0:0:0:0:
188,76,164474,1,8,0:0:0:0:
108,104,164645,1,4,0:0:0:0:
328,84,164988,1,4,0:0:0:0:
224,124,165331,1,4,0:0:0:0:
192,96,166016,1,12,0:0:0:0:
192,96,166359,1,12,0:0:0:0:
224,96,166702,1,4,0:0:0:0:
331,117,167045,1,8,0:0:0:0:
331,117,167131,1,8,0:0:0:0:
331,117,167216,1,0,0:0:0:0:
224,96,167388,1,12,0:0:0:0:
192,128,167731,1,12,0:0:0:0:
192,128,168073,1,4,0:0:0:0:
100,116,168245,1,0,0:0:0:0:
100,116,168331,1,0,0:0:0:0:
100,116,168416,1,8,0:0:0:0:
100,116,168588,1,8,0:0:0:0:
192,128,168759,1,12,0:0:0:0:
224,160,169102,1,12,0:0:0:0:
224,160,169445,1,4,0:0:0:0:
112,118,169616,1,8,0:0:0:0:
111,198,169702,1,8,0:0:0:0:
224,160,169788,1,0,0:0:0:0:
224,160,169959,1,0,0:0:0:0:
224,160,170131,1,12,0:0:0:0:
320,96,170473,1,12,0:0:0:0:
320,96,170816,1,4,0:0:0:0:
36,138,171159,1,0,0:0:0:0:
41,138,171245,1,0,0:0:0:0:
41,138,171331,1,8,0:0:0:0:
192,96,171502,1,12,0:0:0:0:
192,96,171845,1,12,0:0:0:0:
224,96,172188,1,4,0:0:0:0:
84,141,172531,1,8,0:0:0:0:
84,141,172616,1,8,0:0:0:0:
84,141,172702,1,0,0:0:0:0:
224,96,172874,1,12,0:0:0:0:
192,128,173217,1,12,0:0:0:0:
192,128,173559,1,4,0:0:0:0:
165,137,173902,1,0,0:0:0:0:
165,137,173988,1,0,0:0:0:0:
100,208,174074,1,8,0:0:0:0:
192,128,174245,1,4,0:0:0:0:
224,160,174588,5,0,0:0:0:0:
224,160,174931,1,8,0:0:0:0:
224,160,175617,1,8,0:0:0:0:
320,96,175959,1,0,0:0:0:0:
350,147,176131,1,0,0:0:0:0:
320,96,176302,1,8,0:0:0:0:
288,128,176559,1,8,0:0:0:0:
288,128,176816,1,8,0:0:0:0:
224,64,176988,1,4,0:0:0:0:
224,128,177331,1,8,0:0:0:0:
224,96,177502,1,8,0:0:0:0:
192,128,177674,1,0,0:0:0:0:
224,96,178016,1,8,0:0:0:0:
224,96,178188,1,0,0:0:0:0:
224,96,178359,1,8,0:0:0:0:
224,96,178702,1,8,0:0:0:0:
192,128,178874,1,8,0:0:0:0:
192,128,179045,1,0,0:0:0:0:
192,128,179217,1,0,0:0:0:0:
192,128,179302,1,0,0:0:0:0:
192,128,179388,1,8,0:0:0:0:
192,128,179560,1,0,0:0:0:0:
192,128,179731,1,8,0:0:0:0:
224,160,180074,1,8,0:0:0:0:
158,97,180245,1,8,0:0:0:0:
224,24,180416,5,0,0:0:0:0:
224,160,180588,1,8,0:0:0:0:
224,160,180674,1,8,0:0:0:0:
224,160,180760,1,0,0:0:0:0:
224,160,180931,1,8,0:0:0:0:
224,160,181103,1,0,0:0:0:0:
320,96,181444,1,8,0:0:0:0:
320,96,181788,1,0,0:0:0:0:
183,88,182131,1,0,0:0:0:0:
183,88,182302,1,0,0:0:0:0:
240,140,182474,1,8,0:0:0:0:
224,128,182817,1,8,0:0:0:0:
224,96,182988,1,8,0:0:0:0:
192,128,183160,1,0,0:0:0:0:
224,96,183503,1,8,0:0:0:0:
240,96,183674,1,0,0:0:0:0:
240,96,183845,1,8,0:0:0:0:
288,64,184188,1,8,0:0:0:0:
192,128,184359,1,8,0:0:0:0:
221,32,184531,1,0,0:0:0:0:
312,154,184702,1,8,0:0:0:0:
312,154,184788,1,8,0:0:0:0:
192,128,184874,1,8,0:0:0:0:
192,128,185045,1,8,0:0:0:0:
192,128,185216,1,0,0:0:0:0:
128,101,185388,1,0,0:0:0:0:
224,160,185559,1,8,0:0:0:0:
224,24,185902,1,8,0:0:0:0:
224,160,186074,1,0,0:0:0:0:
352,95,186159,1,0,0:0:0:0:
224,160,186245,1,0,0:0:0:0:
224,160,186416,1,8,0:0:0:0:
224,160,186588,1,0,0:0:0:0:
196,78,186931,1,0,0:0:0:0:
187,63,187274,1,8,0:0:0:0:
240,140,187959,1,12,0:0:0:0:
188,84,188302,1,8,0:0:0:0:
188,84,188474,1,0,0:0:0:0:
188,84,188645,1,8,0:0:0:0:
251,132,188988,1,0,0:0:0:0:
251,132,189159,1,0,0:0:0:0:
251,132,189331,1,8,0:0:0:0:
254,124,189674,1,8,0:0:0:0:
254,124,189845,1,8,0:0:0:0:
229,124,190016,1,0,0:0:0:0:
283,91,190188,1,0,0:0:0:0:
254,124,190274,1,0,0:0:0:0:
254,124,190359,1,8,0:0:0:0:
254,124,190531,1,0,0:0:0:0:
254,124,190702,1,8,0:0:0:0:
189,126,191045,1,8,0:0:0:0:
189,126,191216,1,8,0:0:0:0:
189,126,191388,1,0,0:0:0:0:
189,126,191559,1,8,0:0:0:0:
281,94,191645,1,8,0:0:0:0:
281,94,191731,1,8,0:0:0:0:
281,94,191902,1,0,0:0:0:0:
281,94,192074,1,8,0:0:0:0:
230,136,192416,1,0,0:0:0:0:
230,136,192759,1,8,0:0:0:0:
230,136,193102,1,0,0:0:0:0:
230,136,193274,1,0,0:0:0:0:
230,136,193445,1,8,0:0:0:0:
426,253,193788,1,8,0:0:0:0:
426,253,193959,1,8,0:0:0:0:
426,253,194131,1,0,0:0:0:0:
426,253,194474,1,8,0:0:0:0:
212,89,194645,1,0,0:0:0:0:
215,109,194816,1,8,0:0:0:0:
215,109,195159,1,8,0:0:0:0:
215,109,195331,1,0,0:0:0:0:
215,109,195502,1,8,0:0:0:0:
215,109,195674,1,8,0:0:0:0:
166,73,195759,1,8,0:0:0:0:
215,109,195845,1,8,0:0:0:0:
215,109,196016,1,8,0:0:0:0:
215,109,196188,1,0,0:0:0:0:
239,92,196359,1,0,0:0:0:0:
271,89,196531,1,8,0:0:0:0:
461,186,196874,5,8,0:0:0:0:
461,186,197045,1,0,0:0:0:0:
461,186,197216,1,0,0:0:0:0:
256,81,197388,1,8,0:0:0:0:
461,186,197559,1,0,0:0:0:0:
205,124,197902,1,0,0:0:0:0:
196,124,198245,1,8,0:0:0:0:
141,112,198931,1,12,0:0:0:0:
188,84,199274,1,8,0:0:0:0:
188,84,199616,1,0,0:0:0:0:
251,132,199959,1,8,0:0:0:0:
251,132,200130,1,0,0:0:0:0:
251,132,200302,1,8,0:0:0:0:
254,124,200645,1,8,0:0:0:0:
254,124,200987,1,0,0:0:0:0:
406,177,201159,1,0,0:0:0:0:
254,124,201330,1,8,0:0:0:0:
254,124,201502,1,8,0:0:0:0:
254,124,201673,1,0,0:0:0:0:
189,126,202016,1,8,0:0:0:0:
189,126,202359,1,0,0:0:0:0:
281,94,202702,1,8,0:0:0:0:
281,94,202873,1,0,0:0:0:0:
281,94,203045,1,8,0:0:0:0:
230,136,203388,1,8,0:0:0:0:
230,136,203731,1,0,0:0:0:0:
188,94,203902,1,0,0:0:0:0:
230,136,204073,1,8,0:0:0:0:
149,115,204245,1,8,0:0:0:0:
230,136,204416,1,0,0:0:0:0:
196,140,204588,1,0,0:0:0:0:
426,253,204759,1,8,0:0:0:0:
426,253,205102,1,8,0:0:0:0:
426,253,205273,1,0,0:0:0:0:
426,253,205445,1,8,0:0:0:0:
215,109,205787,1,8,0:0:0:0:
215,109,205959,1,0,0:0:0:0:
215,109,206130,1,8,0:0:0:0:
215,109,206473,1,8,0:0:0:0:
215,109,206645,1,0,0:0:0:0:
215,109,206816,1,8,0:0:0:0:
215,109,207159,1,8,0:0:0:0:
25,133,207416,1,8,0:0:0:0:
215,83,207674,1,8,0:0:0:0:
417,289,207931,1,8,0:0:0:0:
461,186,208188,1,8,0:0:0:0:
461,186,208531,1,4,0:0:0:0:
240,100,208874,1,4,0:0:0:0:
240,100,209216,1,4,0:0:0:0:
