osu file format v14

[General]
AudioFilename: audio.mp3
AudioLeadIn: 0
PreviewTime: -1
Countdown: 0
SampleSet: None
StackLeniency: 0.7
Mode: 0
LetterboxInBreaks: 0
WidescreenStoryboard: 0

[Editor]
Bookmarks: 12416
DistanceSpacing: 0.8
BeatDivisor: 4
GridSize: 8
TimelineZoom: 1.9

[Metadata]
Title:Catchit (Radio Edit)
TitleUnicode:Catchit (Radio Edit)
Artist:S3RL
ArtistUnicode:S3RL
Creator:RealXantoo
Version:Captured!
Source:
Tags:
BeatmapID:1383923
BeatmapSetID:652699

[Difficulty]
HPDrainRate:5
CircleSize:4.5
OverallDifficulty:6.5
ApproachRate:9.4
SliderMultiplier:2.7
SliderTickRate:2

[Events]
//Background and Video events
0,0,"catchy backggground.png",0,0
//Break Periods
//Storyboard Layer 0 (Background)
//Storyboard Layer 1 (Fail)
//Storyboard Layer 2 (Pass)
//Storyboard Layer 3 (Foreground)
//Storyboard Sound Samples

[TimingPoints]
74,342.857142857143,4,2,0,100,1,0
23302,-50,4,2,0,100,0,0

[HitObjects]
416,64,12416,5,0,0:0:0:0:
416,344,12759,1,0,0:0:0:0:
96,344,13102,1,0,0:0:0:0:
96,64,13445,1,0,0:0:0:0:
248,136,13616,1,0,0:0:0:0:
304,296,13788,1,0,0:0:0:0:
312,320,13959,1,0,0:0:0:0:
408,96,14131,1,0,0:0:0:0:
424,72,14302,1,0,0:0:0:0:
224,160,14474,6,0,L|104:264,1,135
288,224,14816,2,0,L|408:120,1,135
152,56,15159,1,0,0:0:0:0:
112,320,15331,1,0,0:0:0:0:
368,176,15502,1,0,0:0:0:0:
112,56,15674,1,0,0:0:0:0:
160,344,15845,1,0,0:0:0:0:
312,104,16016,2,0,L|392:8,1,67.5
400,192,16188,2,0,L|496:192,1,67.5
328,296,16359,2,0,L|408:360,1,67.5
248,192,16531,1,0,0:0:0:0:
72,320,16702,1,0,0:0:0:0:
248,192,16874,1,0,0:0:0:0:
80,80,17045,1,0,0:0:0:0:
248,192,17216,1,0,0:0:0:0:
72,320,17388,1,0,0:0:0:0:
240,120,17559,6,0,L|280:56,1,67.5
408,136,17731,2,0,L|384:40,1,67.5
320,240,17902,1,0,0:0:0:0:
32,312,18245,1,0,0:0:0:0:
488,120,18588,1,0,0:0:0:0:
192,64,18931,5,0,0:0:0:0:
160,336,19102,1,0,0:0:0:0:
232,256,19274,1,0,0:0:0:0:
128,224,19445,1,0,0:0:0:0:
208,160,19616,1,0,0:0:0:0:
304,208,19788,1,0,0:0:0:0:
288,104,19959,1,0,0:0:0:0:
104,104,20131,6,0,L|32:208,1,67.5
96,280,20302,2,0,L|160:200,1,67.5
264,192,20474,2,0,L|192:296,1,67.5
176,344,20645,1,0,0:0:0:0:
432,288,20816,1,0,0:0:0:0:
472,48,20988,1,0,0:0:0:0:
352,136,21159,1,0,0:0:0:0:
480,168,21331,1,0,0:0:0:0:
248,48,21502,1,0,0:0:0:0:
88,328,21674,1,0,0:0:0:0:
448,328,21845,1,0,0:0:0:0:
256,192,22016,12,0,22788,0:0:0:0:
152,240,22874,5,0,0:0:0:0:
448,32,23045,1,0,0:0:0:0:
400,312,23216,1,0,0:0:0:0:
152,80,23388,1,0,0:0:0:0:
256,152,23559,1,0,0:0:0:0:
112,152,23731,1,0,0:0:0:0:
240,64,23902,1,0,0:0:0:0:
192,200,24074,1,0,0:0:0:0:
144,64,24245,1,0,0:0:0:0:
440,88,24416,1,0,0:0:0:0:
296,320,24588,1,0,0:0:0:0:
184,56,24759,1,0,0:0:0:0:
456,128,24931,1,0,0:0:0:0:
240,304,25102,1,0,0:0:0:0:
216,32,25274,1,0,0:0:0:0:
464,184,25445,1,0,0:0:0:0:
208,200,25616,6,0,L|96:304,1,135
256,168,25788,2,0,L|384:296,1,135
232,224,25959,2,0,L|120:328,1,135
392,272,26131,1,0,0:0:0:0:
224,48,26302,1,0,0:0:0:0:
40,224,26474,1,0,0:0:0:0:
400,152,26645,1,0,0:0:0:0:
112,88,26816,1,0,0:0:0:0:
408,240,26988,2,0,L|248:320,1,135
144,288,27159,2,0,L|384:224,1,135
424,296,27331,2,0,L|248:240,1,135
160,136,27502,5,0,0:0:0:0:
456,64,27674,1,0,0:0:0:0:
304,352,27845,1,0,0:0:0:0:
264,48,28016,1,0,0:0:0:0:
112,328,28188,1,0,0:0:0:0:
400,152,28359,1,0,0:0:0:0:
184,88,28531,6,0,L|48:184,1,135
240,96,28702,2,0,L|104:192,1,135
104,200,28874,1,0,0:0:0:0:
456,216,29045,1,0,0:0:0:0:
88,72,29216,1,0,0:0:0:0:
464,88,29388,1,0,0:0:0:0:
88,240,29559,1,0,0:0:0:0:
448,304,29731,1,0,0:0:0:0:
312,32,29902,5,0,0:0:0:0:
312,352,30074,1,0,0:0:0:0:
107,83,30245,1,0,0:0:0:0:
439,192,30416,1,0,0:0:0:0:
107,300,30588,1,0,0:0:0:0:
312,32,30759,1,0,0:0:0:0:
312,352,30931,1,0,0:0:0:0:
144,168,31102,6,0,L|16:24,1,135
264,192,31274,2,0,L|136:296,1,135
216,112,31445,2,0,L|320:24,1,135
472,160,31616,1,0,0:0:0:0:
248,352,31788,1,0,0:0:0:0:
48,120,31959,1,0,0:0:0:0:
312,32,32131,1,0,0:0:0:0:
312,336,32302,1,0,0:0:0:0:
48,176,32474,1,0,0:0:0:0:
48,152,32645,1,0,0:0:0:0:
48,128,32816,1,0,0:0:0:0:
256,192,32988,12,0,34274,0:0:0:0:
328,48,34359,6,0,P|416:192|376:336,1,270
120,80,34702,1,0,0:0:0:0:
464,168,34874,1,0,0:0:0:0:
48,240,35045,1,0,0:0:0:0:
416,352,35216,1,0,0:0:0:0:
360,48,35388,2,0,P|152:128|72:216,1,270
432,320,35731,1,0,0:0:0:0:
304,32,35902,1,0,0:0:0:0:
112,296,36074,5,0,0:0:0:0:
96,328,36245,1,0,0:0:0:0:
400,144,36416,1,0,0:0:0:0:
288,64,36588,1,0,0:0:0:0:
160,120,36759,1,0,0:0:0:0:
80,288,36931,1,0,0:0:0:0:
328,344,37102,5,0,0:0:0:0:
472,312,37274,1,0,0:0:0:0:
176,208,37445,1,0,0:0:0:0:
32,176,37617,1,0,0:0:0:0:
424,72,37788,1,0,0:0:0:0:
240,192,37959,6,0,L|96:368,1,135
264,152,38130,2,0,L|408:-24,1,135
288,192,38302,2,0,L|144:368,1,135
224,120,38474,1,0,0:0:0:0:
480,336,38816,1,0,0:0:0:0:
40,112,39159,1,0,0:0:0:0:
375,52,39502,1,0,0:0:0:0:
427,275,39673,1,0,0:0:0:0:
203,327,39844,1,0,0:0:0:0:
408,96,40016,5,0,0:0:0:0:
440,56,40188,1,0,0:0:0:0:
136,264,40359,1,0,0:0:0:0:
72,312,40531,1,0,0:0:0:0:
344,40,40874,5,0,0:0:0:0:
184,328,41045,1,0,0:0:0:0:
480,176,41216,1,0,0:0:0:0:
104,56,41388,1,0,0:0:0:0:
472,248,41559,1,0,0:0:0:0:
64,96,41731,1,0,0:0:0:0:
472,320,41902,1,0,0:0:0:0:
120,232,42074,6,0,L|40:80,1,135
152,112,42245,2,0,L|296:48,1,135
368,216,42416,1,0,0:0:0:0:
104,312,42588,1,0,0:0:0:0:
480,40,42759,1,0,0:0:0:0:
352,344,42931,1,0,0:0:0:0:
48,40,43102,1,0,0:0:0:0:
472,160,43274,1,0,0:0:0:0:
168,272,43445,6,0,L|72:160,1,135
208,240,43616,2,0,L|152:104,1,135
120,296,43788,2,0,L|8:184,1,135
80,48,43959,1,0,0:0:0:0:
464,144,44302,1,0,0:0:0:0:
128,336,44645,1,0,0:0:0:0:
256,192,44731,12,0,45245,0:0:0:0:
440,40,45331,5,0,0:0:0:0:
112,344,45845,1,0,0:0:0:0:
112,176,46016,1,0,0:0:0:0:
336,96,46359,5,0,0:0:0:0:
448,208,46531,1,0,0:0:0:0:
128,328,46702,1,0,0:0:0:0:
344,56,47216,1,0,0:0:0:0:
480,112,47388,1,0,0:0:0:0:
256,360,48074,5,0,0:0:0:0:
72,48,48588,1,0,0:0:0:0:
280,152,48759,1,0,0:0:0:0:
472,304,49445,5,0,0:0:0:0:
48,128,49959,1,0,0:0:0:0:
272,40,50131,1,0,0:0:0:0:
112,344,50816,5,0,0:0:0:0:
480,48,51331,1,0,0:0:0:0:
480,256,51502,1,0,0:0:0:0:
104,144,52016,5,0,0:0:0:0:
304,240,52188,1,0,0:0:0:0:
304,32,52702,1,0,0:0:0:0:
176,240,52874,1,0,0:0:0:0:
464,336,53559,5,0,0:0:0:0:
320,88,54074,1,0,0:0:0:0:
168,200,54246,1,0,0:0:0:0:
256,192,54931,12,0,56302,0:0:0:0:
