osu file format v14

[General]
AudioFilename: audio.mp3
AudioLeadIn: 0
PreviewTime: -1
Countdown: 1
SampleSet: None
StackLeniency: 0.7
Mode: 0
LetterboxInBreaks: 0
WidescreenStoryboard: 1

[Editor]
DistanceSpacing: 0.8
BeatDivisor: 4
GridSize: 32
TimelineZoom: 1

[Metadata]
Title:Catchit (Radio Edit)
TitleUnicode:Catchit (Radio Edit)
Artist:S3RL
ArtistUnicode:S3RL
Creator:[Argon]
Version:Q
Source:
Tags:
BeatmapID:1527823
BeatmapSetID:723570

[Difficulty]
HPDrainRate:6
CircleSize:4
OverallDifficulty:8
ApproachRate:9.5
SliderMultiplier:1.4
SliderTickRate:1

[Events]
//Background and Video events
//Break Periods
//Storyboard Layer 0 (Background)
//Storyboard Layer 1 (Fail)
//Storyboard Layer 2 (Pass)
//Storyboard Layer 3 (Foreground)
//Storyboard Sound Samples

[TimingPoints]
74,342.857142857143,4,2,0,100,1,0

[HitObjects]
256,192,74,12,0,1445,0:0:0:0:
96,64,1959,5,0,0:0:0:0:
96,256,2131,1,0,0:0:0:0:
256,64,2645,5,0,0:0:0:0:
256,256,2816,1,0,0:0:0:0:
416,64,3331,5,0,0:0:0:0:
416,256,3502,1,0,0:0:0:0:
128,64,4016,5,0,0:0:0:0:
384,64,4188,1,0,0:0:0:0:
128,192,4702,5,0,0:0:0:0:
384,192,4874,1,0,0:0:0:0:
128,320,5388,5,0,0:0:0:0:
384,320,5559,1,0,0:0:0:0:
96,96,6074,5,0,0:0:0:0:
416,288,6245,1,0,0:0:0:0:
256,192,6931,5,0,0:0:0:0:
256,32,7445,5,0,0:0:0:0:
256,320,7616,1,0,0:0:0:0:
64,320,8131,5,0,0:0:0:0:
448,64,8302,1,0,0:0:0:0:
128,96,8816,5,0,0:0:0:0:
384,288,8988,1,0,0:0:0:0:
224,160,9502,5,0,0:0:0:0:
288,224,9674,1,0,0:0:0:0:
288,160,10188,5,0,0:0:0:0:
224,224,10359,1,0,0:0:0:0:
160,128,10874,5,0,0:0:0:0:
352,256,11045,1,0,0:0:0:0:
352,96,11559,5,0,0:0:0:0:
192,256,11731,1,0,0:0:0:0:
96,128,12416,6,0,P|192:128|192:96,1,140
96,64,12931,1,0,0:0:0:0:
192,64,13102,1,0,0:0:0:0:
256,192,13445,5,0,0:0:0:0:
256,96,13616,1,0,0:0:0:0:
352,96,13788,1,0,0:0:0:0:
352,192,14131,1,0,0:0:0:0:
256,192,14474,1,0,0:0:0:0:
160,96,14645,5,0,0:0:0:0:
352,96,14816,1,0,0:0:0:0:
160,288,14988,1,0,0:0:0:0:
352,288,15159,1,0,0:0:0:0:
192,160,15331,2,0,L|288:128,1,70
352,160,15674,5,0,0:0:0:0:
192,320,15845,1,0,0:0:0:0:
352,320,16016,1,0,0:0:0:0:
224,192,16188,1,0,0:0:0:0:
224,288,16359,1,0,0:0:0:0:
320,192,16531,1,0,0:0:0:0:
320,288,16874,1,0,0:0:0:0:
128,64,17216,1,0,0:0:0:0:
384,64,17559,5,0,0:0:0:0:
384,288,17731,5,0,0:0:0:0:
128,288,17902,5,0,0:0:0:0:
384,96,18245,5,0,0:0:0:0:
128,96,18588,1,0,0:0:0:0:
128,288,18931,1,0,0:0:0:0:
384,288,19102,1,0,0:0:0:0:
384,96,19274,1,0,0:0:0:0:
128,96,19616,1,0,0:0:0:0:
256,192,19959,5,0,0:0:0:0:
224,160,20131,1,0,0:0:0:0:
256,128,20302,1,0,0:0:0:0:
256,192,20474,1,0,0:0:0:0:
288,160,20645,1,0,0:0:0:0:
224,160,20816,1,0,0:0:0:0:
256,128,20988,1,0,0:0:0:0:
288,160,21159,1,0,0:0:0:0:
224,160,21331,1,0,0:0:0:0:
256,128,21502,1,0,0:0:0:0:
256,192,21674,1,0,0:0:0:0:
288,160,21845,1,0,0:0:0:0:
224,160,22016,1,0,0:0:0:0:
128,64,22359,5,0,0:0:0:0:
352,64,22702,5,0,0:0:0:0:
128,192,22874,5,0,0:0:0:0:
352,192,23045,1,0,0:0:0:0:
192,96,23216,1,0,0:0:0:0:
288,96,23388,1,0,0:0:0:0:
288,160,23559,1,0,0:0:0:0:
192,160,23731,1,0,0:0:0:0:
192,256,23902,1,0,0:0:0:0:
288,256,24074,1,0,0:0:0:0:
192,320,24245,1,0,0:0:0:0:
288,320,24416,1,0,0:0:0:0:
352,192,24588,5,0,0:0:0:0:
256,96,24759,1,0,0:0:0:0:
160,192,24931,1,0,0:0:0:0:
256,288,25102,1,0,0:0:0:0:
352,192,25274,1,0,0:0:0:0:
256,96,25445,1,0,0:0:0:0:
256,288,25616,1,0,0:0:0:0:
160,192,25788,1,0,0:0:0:0:
256,96,25959,1,0,0:0:0:0:
256,288,26131,1,0,0:0:0:0:
256,96,26302,5,0,0:0:0:0:
256,224,26474,1,0,0:0:0:0:
192,160,26645,1,0,0:0:0:0:
320,160,26816,1,0,0:0:0:0:
288,224,26988,1,0,0:0:0:0:
224,160,27159,1,0,0:0:0:0:
288,160,27331,1,0,0:0:0:0:
224,224,27502,1,0,0:0:0:0:
128,96,27845,5,0,0:0:0:0:
288,192,28188,5,0,0:0:0:0:
192,192,28531,5,0,0:0:0:0:
192,96,28702,1,0,0:0:0:0:
288,96,28874,1,0,0:0:0:0:
256,64,29216,1,0,0:0:0:0:
64,64,29559,1,0,0:0:0:0:
64,192,29902,1,0,0:0:0:0:
256,192,30074,1,0,0:0:0:0:
256,96,30245,1,0,0:0:0:0:
128,96,30588,1,0,0:0:0:0:
128,256,30931,1,0,0:0:0:0:
384,96,31102,5,0,0:0:0:0:
192,96,31274,1,0,0:0:0:0:
192,224,31445,1,0,0:0:0:0:
384,224,31616,1,0,0:0:0:0:
256,96,31788,1,0,0:0:0:0:
256,160,31959,1,0,0:0:0:0:
224,128,32131,1,0,0:0:0:0:
288,128,32302,1,0,0:0:0:0:
128,256,32474,1,0,0:0:0:0:
128,160,32645,1,0,0:0:0:0:
256,160,32816,1,0,0:0:0:0:
256,256,32988,5,0,0:0:0:0:
448,192,33331,5,0,0:0:0:0:
64,192,33674,5,0,0:0:0:0:
