osu file format v14

[General]
AudioFilename: audio.mp3
AudioLeadIn: 0
PreviewTime: 175269
Countdown: 1
SampleSet: None
StackLeniency: 0.7
Mode: 0
LetterboxInBreaks: 0
WidescreenStoryboard: 0

[Editor]
DistanceSpacing: 1.2
BeatDivisor: 4
GridSize: 4
TimelineZoom: 1

[Metadata]
Title:Catchit
TitleUnicode:Catchit
Artist:S3RL
ArtistUnicode:S3RL
Creator:Dubledo
Version:Insane
Source:
Tags:
BeatmapID:1329170
BeatmapSetID:629610

[Difficulty]
HPDrainRate:6
CircleSize:4
OverallDifficulty:7.8
ApproachRate:9
SliderMultiplier:1
SliderTickRate:1

[Events]
//Background and Video events
0,0,"Hatsune Miku.jpg",0,0
//Break Periods
//Storyboard Layer 0 (Background)
//Storyboard Layer 1 (Fail)
//Storyboard Layer 2 (Pass)
//Storyboard Layer 3 (Foreground)
//Storyboard Sound Samples

[TimingPoints]
69.1409986818154,342.857142857143,4,1,0,60,1,0
1440,-66.6666666666667,4,1,0,60,0,0
2126,-71.4285714285714,4,1,0,60,0,0
2811,-76.9230769230769,4,1,0,60,0,0
3497,-83.3333333333333,4,1,0,60,0,0
4183,-90.9090909090909,4,1,0,60,0,0
4869,-100,4,1,0,60,0,0
5554,-111.111111111111,4,1,0,60,0,0
6240,-125,4,1,0,60,0,0
6926,-125,4,1,0,60,0,0
7611,-111.111111111111,4,1,0,60,0,0
8297,-100,4,1,0,60,0,0
8983,-90.9090909090909,4,1,0,60,0,0
9669,-83.3333333333333,4,1,0,60,0,0
10354,-100,4,1,0,60,0,0
11040,-71.4285714285714,4,1,0,60,0,0
12411,-66.6666666666667,4,1,0,75,0,0
23383,-62.5,4,1,0,85,0,0
34011,-62.5,4,1,0,95,0,0
34354,-62.5,4,1,0,90,0,1
36583,-76.9230769230769,4,1,0,90,0,1
37097,-62.5,4,1,0,90,0,1
37954,-76.9230769230769,4,1,0,90,0,1
38469,-62.5,4,1,0,90,0,1
43440,-76.9230769230769,4,1,0,90,0,1
43954,-62.5,4,1,0,70,0,1
44297,-76.9230769230769,4,1,0,60,0,1
44640,-100,4,1,0,50,0,1
44983,-142.857142857143,4,1,0,80,0,1
45326,-76.9230769230769,4,1,0,70,0,0
48069,-76.9230769230769,4,1,0,60,0,0
50811,-83.3333333333333,4,1,0,50,0,0
52183,-90.9090909090909,4,1,0,40,0,0
56297,-71.4285714285714,4,1,0,70,0,0
63669,-83.3333333333333,4,1,0,70,0,0
64526,-71.4285714285714,4,1,0,70,0,0
66583,-100,4,1,0,70,0,0
66926,-125,4,1,0,70,0,0
67269,-71.4285714285714,4,1,0,70,0,0
71383,-100,4,1,0,70,0,0
71726,-71.4285714285714,4,1,0,70,0,0
72411,-100,4,1,0,70,0,0
72754,-71.4285714285714,4,1,0,70,0,0
75497,-100,4,1,0,70,0,0
75840,-76.9230769230769,4,1,0,70,0,0
76183,-62.5,4,1,0,70,0,0
76526,-71.4285714285714,4,1,0,70,0,0
77211,-62.5,4,1,0,70,0,0
77554,-100,4,1,0,70,0,0
77897,-71.4285714285714,4,1,0,70,0,0
78240,-83.3333333333333,4,1,0,70,0,0
80983,-100,4,1,0,70,0,0

[HitObjects]
164,164,1440,6,0,P|188:232|152:304,1,150.000005722046,2|0,2:0|0:0,0:0:0:0:
100,224,1954,1,2,2:0:0:0:
96,104,2126,2,0,P|152:72|224:96,1,139.999995727539,2|0,2:2|0:0,0:0:0:0:
288,152,2640,1,2,2:0:0:0:
304,272,2811,2,0,P|277:204|289:148,1,129.999994049073,2|0,2:0|0:0,0:0:0:0:
368,200,3326,1,2,2:0:0:0:
376,312,3497,2,0,P|316:352|256:344,1,119.999996337891,2|0,2:0|0:0,0:0:0:0:
200,288,4011,1,2,2:0:0:0:
90,280,4183,6,0,L|210:288,1,110.000003356934,2|0,2:0|0:0,0:0:0:0:
288,240,4697,1,2,2:0:0:0:
200,188,4869,1,2,2:0:0:0:
296,120,5040,2,0,L|364:120,2,50,2|2|2,2:2|0:2|2:2,0:0:0:0:
200,188,5554,2,0,L|96:188,1,89.999997253418,2|0,2:0|0:0,0:0:0:0:
0,188,6069,1,2,2:0:0:0:
268,144,6240,2,0,P|280:164|272:236,1,80,2|0,2:0|0:0,0:0:0:0:
64,200,6926,6,0,P|112:188|144:196,1,80,2|0,2:0|0:0,0:0:0:0:
244,249,7440,1,2,2:0:0:0:
284,168,7611,2,0,L|241:257,1,89.999997253418,2|0,2:0|0:0,0:0:0:0:
208,336,8126,1,2,2:0:0:0:
336,276,8297,2,0,P|396:260|436:276,1,100,2|0,2:0|0:0,0:0:0:0:
396,340,8811,1,2,2:0:0:0:
364,176,8983,2,0,L|344:68,1,110.000003356934,2|0,2:0|0:0,0:0:0:0:
228,132,9497,5,2,2:0:0:0:
280,216,9669,2,0,P|304:284|288:352,1,119.999996337891,2|0,2:0|0:0,0:0:0:0:
176,216,10183,5,2,2:0:0:0:
228,132,10354,2,0,P|280:100|324:96,1,100,2|0,2:0|0:0,0:0:0:0:
236,296,10869,5,2,2:0:0:0:
176,216,11040,2,0,P|144:176|136:136,1,69.9999978637696,2|0,3:2|0:0,0:0:0:0:
264,20,11383,2,0,P|284:64|284:96,1,69.9999978637696,2|0,3:2|0:0,0:0:0:0:
260,192,11726,2,0,P|248:248|256:296,1,104.999996795654,2|0,3:2|0:0,0:0:0:0:
292,328,12069,2,2,L|304:368,2,34.9999989318848,2|2|2,0:3|0:3|0:3,0:3:0:0:
392,272,12411,6,0,L|476:292,1,75.0000028610231,0|0,2:0|0:0,0:0:0:0:
260,192,12754,2,0,P|244:236|244:280,1,75.0000028610231,0|0,2:0|0:0,0:0:0:0:
416,152,13097,2,0,P|420:112|408:80,1,75.0000028610231,0|0,2:0|0:0,0:0:0:0:
208,88,13440,1,0,2:0:0:0:
260,192,13611,1,0,2:0:0:0:
312,296,13783,2,0,L|352:204,1,75.0000028610231,0|0,2:0|0:0,0:0:0:0:
152,268,14126,2,0,L|116:344,1,75.0000028610231,0|0,2:0|0:0,0:0:0:0:
260,192,14469,5,0,2:0:0:0:
136,216,14640,5,2,2:2:0:0:
260,192,14811,1,2,2:2:0:0:
100,132,14983,1,2,2:2:0:0:
284,112,15154,6,0,P|324:132|352:180,1,75.0000028610231,0|0,2:0|0:0,0:0:0:0:
316,352,15497,2,0,L|280:252,1,75.0000028610231,0|0,2:0|0:0,0:0:0:0:
260,192,15840,5,0,2:0:0:0:
420,132,16011,5,2,2:2:0:0:
260,192,16182,1,2,2:2:0:0:
384,216,16354,1,2,2:2:0:0:
300,296,16526,2,0,P|296:348|304:380,1,75.0000028610231,0|0,2:0|0:0,0:0:0:0:
464,248,16869,2,0,P|464:188|448:152,1,75.0000028610231,0|0,2:0|0:0,0:0:0:0:
376,88,17211,2,0,P|328:112|248:96,1,112.500004291535,0|0,2:0|0:0,0:0:0:0:
224,96,17554,6,0,L|200:48,1,37.5000014305115,0|0,2:0|2:0,0:0:0:0:
116,104,17726,2,0,L|96:144,1,37.5000014305115,0|0,2:0|2:0,0:0:0:0:
196,176,17897,6,0,L|272:232,1,75.0000028610231,0|0,2:0|0:0,0:0:0:0:
76,236,18240,2,0,L|-16:240,1,75.0000028610231,0|0,2:0|0:0,0:0:0:0:
192,296,18583,2,0,P|205:244|184:160,1,112.500004291535,0|0,2:0|0:0,0:0:0:0:
179,153,18926,1,0,2:0:0:0:
112,244,19097,1,0,2:0:0:0:
270,112,19269,2,0,P|250:81|220:60,1,75.0000028610231,0|0,2:0|0:0,0:0:0:0:
112,244,19611,2,0,P|144:288|171:307,1,75.0000028610231,0|0,2:0|0:0,0:0:0:0:
304,248,19954,1,0,2:0:0:0:
192,224,20126,5,2,2:0:0:0:
400,240,20297,1,2,2:0:0:0:
240,320,20469,5,2,2:0:0:0:
440,332,20640,2,0,L|520:336,1,75.0000028610231,0|0,2:0|0:0,0:0:0:0:
340,184,20983,2,0,L|248:216,1,75.0000028610231,0|0,2:0|0:0,0:0:0:0:
96,264,21326,1,0,2:0:0:0:
200,192,21497,5,2,2:0:0:0:
0,204,21668,1,2,2:0:0:0:
248,96,21840,5,2,2:0:0:0:
40,112,22011,1,2,2:0:0:0:
32,140,22354,1,2,2:0:0:0:
20,176,22697,5,2,2:0:0:0:
88,304,22869,1,2,3:0:0:0:
144,204,23040,1,2,3:0:0:0:
216,352,23211,1,2,3:0:0:0:
244,192,23383,6,0,P|224:136|184:104,1,80,0|0,3:0|0:0,0:0:0:0:
143,329,23726,2,0,P|189:353|223:349,1,80,0|0,3:0|0:0,0:0:0:0:
112,240,24069,1,0,3:0:0:0:
56,356,24240,1,0,0:0:0:0:
180,176,24411,2,0,P|140:152|100:152,1,80,0|0,3:0|0:0,0:0:0:0:
188,336,24754,6,0,L|276:356,1,80,0|0,3:0|0:0,0:0:0:0:
448,248,25097,2,0,L|368:256,1,80,0|0,3:0|0:0,0:0:0:0:
236,268,25440,1,0,3:0:0:0:
180,176,25611,5,2,3:0:0:0:
192,340,25783,1,2,3:0:0:0:
300,200,25954,1,2,3:0:0:0:
116,296,26126,6,0,P|100:344|108:384,1,80,0|0,3:0|0:0,0:0:0:0:
312,268,26469,2,0,P|316:224|304:184,1,80,0|0,3:0|0:0,0:0:0:0:
228,96,26811,1,0,3:0:0:0:
172,196,26983,5,2,3:2:0:0:
332,120,27154,1,2,3:2:0:0:
120,76,27326,1,2,3:2:0:0:
276,192,27497,6,0,L|368:256,1,80,0|0,3:0|0:0,0:0:0:0:
176,288,27840,2,0,L|92:312,1,80,0|0,3:0|0:0,0:0:0:0:
320,344,28183,2,0,L|464:364,1,120,0|0,3:0|0:0,0:0:0:0:
468,364,28526,2,0,L|508:336,1,40,2|2,3:2|3:2,3:2:0:0:
440,232,28697,2,0,L|428:280,1,40,2|2,3:2|3:2,3:2:0:0:
500,168,28869,6,0,P|456:148|404:160,1,80,0|0,3:0|0:0,0:0:0:0:
260,248,29211,2,0,P|324:260|364:248,1,80,0|0,3:0|0:0,0:0:0:0:
192,160,29554,2,0,P|168:208|172:276,1,120,0|0,3:0|0:0,0:0:0:0:
188,308,29897,1,0,3:0:0:0:
296,212,30069,1,0,3:0:0:0:
92,276,30240,2,0,L|76:368,1,80,0|0,3:0|0:0,0:0:0:0:
148,176,30583,2,0,P|100:156|64:164,1,80,0|0,3:0|0:0,0:0:0:0:
196,300,30926,1,0,3:0:0:0:
256,164,31097,5,2,3:0:0:0:
292,348,31269,1,2,3:0:0:0:
180,212,31440,1,2,3:0:0:0:
372,216,31611,5,2,3:2:0:0:
192,312,31783,1,2,3:2:0:0:
276,136,31954,1,2,3:2:0:0:
300,270,32126,2,0,P|303:309|291:347,1,80,0|2,0:0|3:2,0:0:0:0:
104,280,32469,5,2,3:0:0:0:
224,304,32640,1,2,3:0:0:0:
40,344,32811,5,2,3:0:0:0:
200,224,32983,1,2,3:2:0:0:
208,260,33326,1,2,3:2:0:0:
216,296,33669,1,2,3:2:0:0:
224,336,34011,6,0,L|228:360,1,20,2|0,3:2|3:3,0:0:0:0:
380,232,34354,6,0,L|288:212,1,80,2|0,3:0|0:0,0:0:0:0:
488,188,34697,2,0,P|504:232|492:288,1,80,2|0,3:0|0:0,0:0:0:0:
304,368,35040,2,0,P|288:316|300:244,1,120,2|0,3:0|0:0,0:0:0:0:
312,220,35383,1,2,3:0:0:0:
412,292,35554,1,2,3:0:0:0:
208,288,35726,2,0,L|112:288,1,80,2|0,3:0|0:0,0:0:0:0:
248,208,36069,5,2,3:3:0:0:
308,300,36240,1,0,0:3:0:0:
408,204,36411,1,2,3:3:0:0:
212,292,36583,6,0,L|240:332,1,32.4999985122681,2|0,2:2|2:2,2:2:0:0:
320,224,36754,2,0,L|292:188,1,32.4999985122681,2|0,2:2|2:2,2:2:0:0:
116,248,36926,2,0,L|144:292,1,32.4999985122681,2|0,2:2|2:2,2:2:0:0:
148,168,37097,6,0,P|100:164|44:196,1,80,2|0,3:0|0:0,0:0:0:0:
220,272,37440,2,0,L|324:328,1,80,2|0,3:0|0:0,0:0:0:0:
380,356,37783,1,2,3:0:0:0:
512,296,37954,6,0,L|460:292,1,32.4999985122681,2|0,2:0|2:0,2:0:0:0:
328,256,38126,2,0,L|384:252,1,32.4999985122681,2|0,2:0|2:0,2:0:0:0:
464,176,38297,2,0,L|408:176,1,32.4999985122681,2|0,2:0|2:0,2:0:0:0:
264,136,38469,6,0,P|256:188|264:224,1,80,2|0,3:0|0:0,0:0:0:0:
464,176,38811,2,0,P|468:116|452:84,1,80,2|0,3:0|0:0,0:0:0:0:
324,224,39154,1,0,3:0:0:0:
376,128,39326,1,2,3:2:0:0:
432,248,39497,1,2,3:2:0:0:
288,148,39669,1,2,3:2:0:0:
508,200,39840,6,0,P|520:248|504:304,1,80,2|0,3:0|0:0,0:0:0:0:
304,236,40183,2,0,L|188:212,1,80,2|0,3:0|0:0,0:0:0:0:
404,136,40526,2,0,P|436:212|416:280,1,120,2|0,3:0|0:0,0:0:0:0:
412,280,40869,1,2,3:0:0:0:
276,200,41040,1,2,3:0:0:0:
280,344,41211,5,2,3:0:0:0:
368,200,41383,1,0,0:0:0:0:
376,360,41554,1,2,3:0:0:0:
228,264,41726,2,0,L|148:264,1,80,0|2,0:0|3:0,0:0:0:0:
20,332,42069,5,2,0:2:0:0:
76,236,42240,1,2,3:2:0:0:
140,352,42411,1,2,0:2:0:0:
228,264,42583,2,0,L|316:284,1,80,2|0,3:0|0:0,0:0:0:0:
76,236,42926,2,0,L|-20:268,1,80,2|0,3:0|0:0,0:0:0:0:
184,144,43269,1,2,3:0:0:0:
232,272,43440,6,0,L|240:232,1,32.4999985122681,2|0,2:0|2:0,2:0:0:0:
312,136,43611,2,0,L|328:176,1,32.4999985122681,2|0,2:0|2:0,2:0:0:0:
384,280,43783,2,0,L|408:240,1,32.4999985122681,2|0,2:0|2:0,2:0:0:0:
448,160,43954,6,0,P|488:192|500:224,1,80,2|0,2:2|0:0,0:0:0:0:
236,212,44297,6,0,P|224:172|224:144,1,64.9999970245363,2|0,2:2|0:0,0:0:0:0:
408,280,44640,6,0,P|392:324|376:344,1,50,2|0,2:2|0:0,0:0:0:0:
304,132,44983,6,0,P|328:120|352:116,1,34.9999989318848,2|0,2:2|0:0,0:0:0:0:
364,296,45326,6,0,B|260:340|260:340|276:304,1,129.999994049073,2|0,3:2|3:0,0:0:0:0:
364,200,45840,2,0,P|380:204|408:220,1,32.4999985122681,0|0,2:0|2:0,0:0:0:0:
452,284,46011,2,0,P|464:324|456:368,1,64.9999970245363,0|0,3:0|0:0,0:0:0:0:
296,340,46354,1,0,3:0:0:0:
376,308,46526,1,0,0:0:0:0:
200,360,46697,6,0,P|192:324|196:292,1,64.9999970245363,0|0,3:0|0:0,0:0:0:0:
232,208,47040,1,0,3:0:0:0:
351,266,47211,2,0,P|335:253|309:241,1,32.4999985122681,0|0,2:0|2:0,0:0:0:0:
232,208,47383,2,0,P|180:206|147:221,1,64.9999970245363,0|0,3:0|0:0,0:0:0:0:
232,356,47726,5,0,3:0:0:0:
200,280,47897,1,0,0:0:0:0:
328,328,48069,2,0,L|404:356,1,64.9999970245363,0|0,3:0|0:0,0:0:0:0:
244,212,48411,1,0,3:0:0:0:
108,240,48583,1,0,2:0:0:0:
108,240,48669,1,0,2:0:0:0:
108,240,48754,2,0,P|104:276|120:316,1,64.9999970245363,0|0,2:0|0:0,0:0:0:0:
244,212,49097,2,0,P|236:168|208:140,1,64.9999970245363,0|0,3:0|0:0,0:0:0:0:
68,148,49440,5,0,3:0:0:0:
120,240,49611,1,0,0:0:0:0:
156,104,49783,1,0,3:0:0:0:
224,300,49954,6,0,L|212:252,1,32.4999985122681,0|0,2:0|2:0,2:0:0:0:
192,184,50126,1,0,2:0:0:0:
312,304,50297,1,0,0:0:0:0:
288,216,50469,1,0,3:0:0:0:
400,308,50640,1,0,0:0:0:0:
376,192,50811,6,0,P|344:148|320:132,1,59.9999981689454,0|0,3:0|0:0,0:0:0:0:
248,264,51154,2,0,P|272:230|300:206,1,59.9999981689454,0|0,3:0|0:0,0:0:0:0:
344,352,51497,2,0,P|336:304|320:280,1,59.9999981689454,0|0,3:0|0:0,0:0:0:0:
164,296,51840,1,0,3:0:0:0:
248,336,52011,1,0,0:0:0:0:
96,220,52183,6,0,L|68:288,1,55.0000016784668,0|0,3:0|0:0,0:0:0:0:
160,140,52526,2,0,L|180:212,1,55.0000016784668,0|0,3:0|0:0,0:0:0:0:
180,56,52869,2,0,L|228:84,1,55.0000016784668,0|0,3:0|0:0,0:0:0:0:
320,136,53211,1,0,3:0:0:0:
320,136,53383,1,0,3:0:0:0:
248,224,53554,6,0,P|232:268|232:292,2,55.0000016784668,0|0|0,3:0|0:0|3:0,0:0:0:0:
320,136,54240,1,0,3:0:0:0:
256,192,54583,12,0,56126,0:0:0:0:
120,164,56297,6,0,L|188:192,1,69.9999978637696,4|0,2:2|0:0,0:0:0:0:
248,272,56640,2,0,P|280:240|288:204,1,69.9999978637696,2|0,2:2|0:0,0:0:0:0:
184,190,56983,2,0,P|156:226|148:302,1,104.999996795654,0|0,2:0|0:0,0:0:0:0:
152,308,57326,2,0,L|160:368,1,34.9999989318848,2|0,2:2|2:0,0:0:0:0:
259,345,57497,2,0,L|248:312,1,34.9999989318848,0|0,2:0|0:0,0:0:0:0:
348,296,57669,6,0,L|416:360,1,69.9999978637696,0|0,2:0|0:0,0:0:0:0:
264,224,58011,1,2,2:2:0:0:
248,312,58183,1,0,2:0:0:0:
440,276,58354,2,0,L|516:268,1,69.9999978637696,0|0,2:0|0:0,0:0:0:0:
319,181,58697,2,0,L|251:233,1,69.9999978637696,2|0,2:2|0:0,0:0:0:0:
136,336,59040,6,0,P|108:304|96:256,1,69.9999978637696,0|0,2:0|0:0,0:0:0:0:
216,176,59383,2,0,P|253:207|273:247,1,69.9999978637696,2|0,2:2|0:0,0:0:0:0:
96,164,59726,2,0,L|72:152,3,17.4999994659424,0|0|0|0,2:0|2:0|2:0|2:0,0:0:0:0:
160,271,60069,6,0,P|184:277|204:275,1,34.9999989318848,2|0,2:2|0:0,0:0:0:0:
249,168,60240,2,0,P|229:169|209:178,1,34.9999989318848,0|0,2:0|0:0,0:0:0:0:
288,264,60411,2,0,P|340:276|380:272,1,69.9999978637696,0|0,2:0|0:0,0:0:0:0:
468,176,60754,6,0,P|432:164|416:164,1,34.9999989318848,2|0,2:2|0:0,0:0:0:0:
328,168,60926,2,0,P|300:176|288:184,1,34.9999989318848,0|0,2:0|0:0,0:0:0:0:
200,268,61097,2,0,P|184:312|192:352,1,69.9999978637696,0|0,2:0|0:0,0:0:0:0:
380,308,61440,6,0,L|392:344,1,34.9999989318848,2|0,2:2|0:0,0:0:0:0:
369,274,61611,2,0,L|381:314,1,34.9999989318848,0|0,2:0|0:0,0:0:0:0:
344,176,61783,6,0,L|336:152,4,17.4999994659424,0|0|0|0|0,2:0|0:0|2:0|2:0|2:0,0:0:0:0:
200,232,62126,1,2,2:2:0:0:
296,348,62297,1,0,2:0:0:0:
112,220,62469,6,0,L|88:229,4,17.4999994659424,0|0|0|0|0,2:0|2:0|0:0|2:0|2:0,0:0:0:0:
175,360,62812,1,2,2:2:0:0:
285,258,62983,1,0,2:0:0:0:
68,356,63154,6,0,L|80:320,1,34.9999989318848,0|0,2:0|0:0,0:0:0:0:
124,196,63326,2,0,L|136:240,1,34.9999989318848,0|0,2:0|0:0,0:0:0:0:
175,360,63497,1,2,2:2:0:0:
248,196,63669,6,0,L|264:232,1,29.9999990844727,0|0,2:0|0:0,0:0:0:0:
296,312,63840,2,0,L|316:276,1,29.9999990844727,0|0,2:0|0:0,0:0:0:0:
356,196,64011,2,0,L|376:232,1,29.9999990844727,0|0,2:0|0:0,0:0:0:0:
416,312,64183,1,2,2:2:0:0:
416,312,64354,1,0,2:0:0:0:
400,124,64526,6,0,P|356:112|308:128,1,69.9999978637696,0|0,2:0|0:0,0:0:0:0:
188,212,64869,2,0,P|220:224|260:220,1,69.9999978637696,2|0,2:2|0:0,0:0:0:0:
80,180,65211,2,0,P|74:231|105:297,1,104.999996795654,0|0,2:0|0:0,0:0:0:0:
107,305,65554,2,0,P|120:322|153:337,1,34.9999989318848,2|0,2:2|2:0,0:0:0:0:
256,264,65726,2,0,P|228:264|208:272,1,34.9999989318848,0|0,2:0|0:0,0:0:0:0:
308,360,65897,2,0,P|360:372|408:364,1,69.9999978637696,0|0,2:0|0:0,0:0:0:0:
360,180,66240,5,2,2:2:0:0:
408,292,66411,2,0,L|396:264,1,17.4999994659424,0|0,2:0|2:0,0:0:0:0:
344,144,66583,2,0,L|316:80,1,50,0|0,2:0|0:0,0:0:0:0:
168,88,66926,6,0,P|144:104|128:124,1,40,2|0,2:2|0:0,0:0:0:0:
188,296,67269,6,0,L|160:220,1,69.9999978637696,0|0,2:0|0:0,0:0:0:0:
308,292,67611,2,0,L|400:332,1,69.9999978637696,2|0,2:0|0:0,0:0:0:0:
244,156,67954,2,0,L|228:136,4,17.4999994659424,0|0|0|0|0,2:0|2:0|0:0|2:0|2:0,0:0:0:0:
368,192,68297,6,0,L|416:208,1,34.9999989318848,2|0,2:0|0:0,0:0:0:0:
296,68,68469,2,0,L|240:76,1,34.9999989318848,0|0,2:0|0:0,0:0:0:0:
181,187,68640,6,0,L|261:147,1,69.9999978637696,0|0,2:0|0:0,0:0:0:0:
28,144,68983,2,0,P|20:188|36:236,1,69.9999978637696,2|0,2:0|0:0,0:0:0:0:
104,320,69326,5,0,2:0:0:0:
184,220,69497,1,0,2:0:0:0:
184,220,69583,1,0,2:0:0:0:
184,220,69669,1,2,2:0:0:0:
256,352,69840,1,0,2:0:0:0:
276,172,70011,6,0,P|288:216|280:264,1,69.9999978637696,0|0,2:0|0:0,0:0:0:0:
80,140,70354,2,0,P|88:96|108:56,1,69.9999978637696,2|0,2:0|0:0,0:0:0:0:
172,228,70697,6,0,P|168:200|172:180,1,34.9999989318848,0|0,2:0|0:0,0:0:0:0:
248,128,70869,2,0,P|256:156|256:176,1,34.9999989318848,0|0,2:0|0:0,0:0:0:0:
96,256,71040,6,0,P|92:220|96:196,1,34.9999989318848,2|0,2:0|2:0,0:0:0:0:
328,108,71211,2,0,P|327:125|323:142,1,34.9999989318848,0|0,2:0|0:0,0:0:0:0:
240,244,71383,2,0,P|228:280|228:308,1,50,0|0,2:0|0:0,0:0:0:0:
428,328,71726,6,0,L|384:312,1,34.9999989318848,2|0,2:0|0:0,0:0:0:0:
304,288,71897,2,0,L|356:248,1,34.9999989318848,0|0,2:0|2:0,0:0:0:0:
432,196,72069,1,0,2:0:0:0:
432,196,72241,1,0,2:0:0:0:
240,244,72411,2,0,P|228:280|228:308,1,50,2|0,2:0|0:0,0:0:0:0:
356,236,72754,6,0,P|348:184|328:160,1,69.9999978637696,0|0,2:0|0:0,0:0:0:0:
144,244,73097,2,0,P|156:288|176:312,1,69.9999978637696,2|0,2:0|0:0,0:0:0:0:
352,236,73440,6,0,L|316:240,1,34.9999989318848,0|0,2:0|0:0,0:0:0:0:
200,116,73611,2,0,L|248:128,1,34.9999989318848,0|0,2:0|0:0,0:0:0:0:
140,240,73783,2,0,L|80:224,1,34.9999989318848,2|0,2:0|0:0,0:0:0:0:
32,148,73954,1,0,2:0:0:0:
244,48,74126,6,0,P|272:80|284:128,1,69.9999978637696,0|0,2:0|0:0,0:0:0:0:
208,272,74469,2,0,P|196:244|196:228,1,34.9999989318848,2|0,2:0|0:0,0:0:0:0:
196,108,74640,2,0,P|216:132|220:160,1,34.9999989318848,0|0,2:0|0:0,0:0:0:0:
100,228,74811,6,0,L|144:220,1,34.9999989318848,0|0,2:0|2:0,0:0:0:0:
264,204,74983,2,0,L|308:196,1,34.9999989318848,0|0,2:0|0:0,0:0:0:0:
432,180,75154,2,0,L|512:172,1,69.9999978637696,2|0,2:0|0:0,0:0:0:0:
372,328,75497,6,0,P|344:328|324:324,1,25,0|0,2:0|0:0,0:0:0:0:
236,300,75669,1,0,2:0:0:0:
402,162,75840,6,0,P|426:174|448:196,1,32.4999985122681,2|0,2:0|0:0,0:0:0:0:
488,260,76011,1,0,2:0:0:0:
304,128,76183,6,0,P|320:100|332:88,1,40,0|0,2:0|0:0,0:0:0:0:
408,44,76354,1,0,2:0:0:0:
496,212,76526,5,2,2:0:0:0:
496,212,76611,1,0,2:0:0:0:
496,212,76697,2,0,L|500:236,9,17.4999994659424,0|0|0|0|0|0|0|0|0|0,2:0|2:0|2:0|2:0|2:0|2:0|2:0|0:0|2:0|2:0,0:0:0:0:
400,216,77211,6,0,L|328:208,1,40,2|0,2:0|0:0,0:0:0:0:
240,196,77383,1,0,2:0:0:0:
156,284,77554,6,0,L|200:280,1,25,2|0,2:0|0:0,0:0:0:0:
316,264,77726,1,0,2:0:0:0:
140,184,77897,2,0,L|112:172,5,17.4999994659424,2|0|0|0|0|0,2:0|2:0|2:0|2:0|2:0|2:0,0:0:0:0:
223,138,78240,6,0,P|239:186|239:218,1,59.9999981689454,2|0,0:3|0:0,0:0:0:0:
307,321,78583,2,0,P|307:285|323:253,1,59.9999981689454,2|0,0:3|0:0,0:0:0:0:
372,180,78926,1,2,0:3:0:0:
372,180,79097,1,2,0:3:0:0:
448,272,79269,2,0,L|504:332,1,59.9999981689454,2|0,0:3|0:0,0:0:0:0:
480,156,79611,5,2,0:3:0:0:
372,180,79783,1,2,0:3:0:0:
480,156,79954,1,2,0:3:0:0:
288,152,80126,2,0,P|284:192|296:232,1,59.9999981689454,2|0,0:3|0:0,0:0:0:0:
356,96,80469,1,2,0:3:0:0:
224,244,80640,2,0,P|240:272|264:296,1,59.9999981689454,2|0,0:3|0:0,0:0:0:0:
452,200,80983,6,0,L|384:188,1,50,2|0,0:3|0:0,0:0:0:0:
252,168,81326,2,0,L|180:156,1,50,2|0,0:3|0:0,0:0:0:0:
56,148,81669,1,2,0:3:0:0:
16,256,81840,1,2,0:3:0:0:
56,148,82011,1,2,0:3:0:0:
80,316,82183,1,0,0:0:0:0:
144,136,82354,6,0,P|128:96|108:76,2,50,2|2|2,0:3|0:3|0:3,0:0:0:0:
192,236,82869,2,0,L|252:264,1,50,2|0,0:3|0:0,0:0:0:0:
236,168,83211,1,2,0:3:0:0:
236,348,83383,2,0,L|296:376,1,50,2|0,0:3|0:0,0:0:0:0:
400,212,83726,5,0,0:0:0:0:
376,328,83897,1,0,0:0:0:0:
480,232,84069,5,0,0:0:0:0:
292,312,84240,1,0,0:0:0:0:
488,148,84411,6,0,P|513:156|536:172,1,50
452,344,84754,1,0,0:0:0:0:
308,140,85097,5,0,0:0:0:0:
348,336,85269,1,0,0:0:0:0:
368,192,85440,5,0,0:0:0:0:
296,280,85611,1,0,0:0:0:0:
456,192,85783,6,0,P|448:156|428:128,1,50
212,180,86126,1,0,0:0:0:0:
88,104,86469,5,0,0:0:0:0:
66,116,86554,1,0,0:0:0:0:
50,135,86640,1,0,0:0:0:0:
39,157,86726,1,0,0:0:0:0:
36,182,86811,1,0,0:0:0:0:
39,207,86897,1,0,0:0:0:0:
50,229,86983,1,0,0:0:0:0:
67,247,87069,1,0,0:0:0:0:
84,264,87154,6,0,P|116:272|136:272,1,50,8|0,0:3|0:0,0:0:0:0:
192,324,87411,6,0,P|208:292|208:272,1,50,8|0,0:3|0:0,0:0:0:0:
192,192,87669,5,8,0:3:0:0:
