osu file format v14

[General]
AudioFilename: audio.mp3
AudioLeadIn: 0
PreviewTime: 88166
Countdown: 0
SampleSet: Soft
StackLeniency: 0.7
Mode: 3
LetterboxInBreaks: 0
EpilepsyWarning: 1
SpecialStyle: 0
WidescreenStoryboard: 1

[Editor]
Bookmarks: 11708,22680,33651,44451,49937,55594,77537
DistanceSpacing: 0.6
BeatDivisor: 6
GridSize: 16
TimelineZoom: 1.199999

[Metadata]
Title:Candy (feat. Sara)
TitleUnicode:Candy (feat. Sara)
Artist:S3RL
ArtistUnicode:S3RL
Creator:_Asha
Version:DH's 7K Hard
Source:osu!
Tags:happy hardcore emfa music serl cut tv size featured artist fa dudehacker Draftnell Remuring Affirmation
BeatmapID:2002101
BeatmapSetID:953777

[Difficulty]
HPDrainRate:7.5
CircleSize:7
OverallDifficulty:7.5
ApproachRate:5
SliderMultiplier:1.4
SliderTickRate:1

[Events]
//Background and Video events
0,0,"candy bg2.jpg",0,0
//Break Periods
//Storyboard Layer 0 (Background)
//Storyboard Layer 1 (Fail)
//Storyboard Layer 2 (Pass)
//Storyboard Layer 3 (Foreground)
//Storyboard Layer 4 (Overlay)
//Storyboard Sound Samples
Sample,83022,0,"LR_Hat Synth.wav",70
Sample,83365,0,"LR_Hat Synth.wav",70

[TimingPoints]
737,342.857142857143,4,2,1,70,1,0
88508,-100,4,2,1,70,0,1
99479,-100,4,2,1,70,0,0
100165,-100,4,2,1,70,0,1
107708,-100,4,2,1,70,0,0

[HitObjects]
36,192,736,128,0,2108:0:0:0:0:
182,192,1422,128,0,2108:0:0:0:0:
329,192,1765,128,0,2108:0:0:0:0:
475,192,2108,128,0,3479:0:0:0:0:
256,192,2451,128,0,3479:0:0:0:0:
36,192,2794,128,0,3479:0:0:0:0:
109,192,3479,128,0,4965:0:0:0:0:
256,192,4165,128,0,4965:0:0:0:0:
402,192,4508,128,0,4965:0:0:0:0:
475,192,4965,128,0,6222:0:0:0:0:
36,192,6222,128,0,7594:0:0:0:0:
182,192,6908,128,0,7594:0:0:0:0:
329,192,7165,128,0,7594:0:0:0:0:
475,192,7594,128,0,8965:0:0:0:0:
256,192,8279,128,0,8965:0:0:0:0:
109,192,8622,128,0,8965:0:0:0:0:
36,192,8965,128,0,10451:0:0:0:0:
256,192,9765,128,0,10451:0:0:0:0:
402,192,9994,128,0,10451:0:0:0:0:
475,192,10451,128,0,11708:0:0:0:0:
36,192,11708,1,2,0:0:0:0:
109,192,11708,1,0,0:0:0:0:
182,192,11708,1,0,0:0:0:0:
36,192,12051,128,0,12137:0:0:0:0:
182,192,12222,128,0,12308:0:0:0:0:
329,192,12394,1,8,0:0:0:0:
402,192,12394,1,0,0:0:0:0:
475,192,12394,1,0,0:0:0:0:
36,192,12737,1,2,0:0:0:0:
109,192,12737,1,0,0:0:0:0:
182,192,12737,1,0,0:0:0:0:
402,192,13079,1,0,0:0:0:0:
329,192,13165,1,0,0:0:0:0:
36,192,13422,1,0,0:0:0:0:
109,192,13508,1,0,0:0:0:0:
182,192,13594,1,0,0:0:0:0:
329,192,13765,1,8,0:0:0:0:
402,192,13765,1,0,0:0:0:0:
475,192,13765,1,0,0:0:0:0:
36,192,14108,128,0,14194:0:0:0:0:
182,192,14279,128,0,14365:0:0:0:0:
256,192,14451,1,2,0:0:0:0:
329,192,14451,1,0,0:0:0:0:
402,192,14451,1,0,0:0:0:0:
109,192,14794,128,0,14879:0:0:0:0:
256,192,14965,128,0,15051:0:0:0:0:
329,192,15137,1,8,0:0:0:0:
402,192,15137,1,0,0:0:0:0:
475,192,15137,1,0,0:0:0:0:
109,192,15479,1,2,0:0:0:0:
182,192,15479,1,0,0:0:0:0:
256,192,15479,1,0,0:0:0:0:
402,192,15822,1,0,0:0:0:0:
329,192,15908,1,0,0:0:0:0:
36,192,16165,1,2,0:0:0:0:
109,192,16251,1,0,0:0:0:0:
182,192,16337,1,0,0:0:0:0:
256,192,16508,1,8,0:0:0:0:
329,192,16508,1,0,0:0:0:0:
402,192,16508,1,0,0:0:0:0:
36,192,16679,1,2,0:0:0:0:
109,192,16679,1,0,0:0:0:0:
182,192,16679,1,0,0:0:0:0:
402,192,16851,128,0,16937:0:0:0:0:
109,192,17022,128,0,17108:0:0:0:0:
182,192,17194,1,2,0:0:0:0:
256,192,17194,1,0,0:0:0:0:
329,192,17194,1,0,0:0:0:0:
475,192,17537,128,0,17622:0:0:0:0:
329,192,17708,128,0,17794:0:0:0:0:
36,192,17879,1,8,0:0:0:0:
109,192,17879,1,0,0:0:0:0:
182,192,17879,1,0,0:0:0:0:
256,192,18222,1,2,0:0:0:0:
329,192,18222,1,0,0:0:0:0:
402,192,18222,1,0,0:0:0:0:
36,192,18394,128,0,18479:0:0:0:0:
182,192,18565,1,0,0:0:0:0:
256,192,18651,1,0,0:0:0:0:
402,192,18908,1,0,0:0:0:0:
329,192,18994,1,0,0:0:0:0:
256,192,19079,1,0,0:0:0:0:
36,192,19251,1,8,0:0:0:0:
109,192,19251,1,0,0:0:0:0:
182,192,19251,1,0,0:0:0:0:
109,192,19594,128,0,19679:0:0:0:0:
256,192,19765,128,0,19851:0:0:0:0:
329,192,19937,1,2,0:0:0:0:
402,192,19937,1,0,0:0:0:0:
475,192,19937,1,0,0:0:0:0:
256,192,20279,128,0,20365:0:0:0:0:
402,192,20451,128,0,20537:0:0:0:0:
109,192,20622,1,8,0:0:0:0:
182,192,20622,1,0,0:0:0:0:
256,192,20622,1,0,0:0:0:0:
256,192,20965,1,2,0:0:0:0:
329,192,20965,1,0,0:0:0:0:
402,192,20965,1,0,0:0:0:0:
36,192,21308,128,0,21479:0:0:0:0:
475,192,21308,128,0,21479:0:0:0:0:
256,192,21651,128,0,21737:0:0:0:0:
182,192,21822,128,0,21908:0:0:0:0:
109,192,21994,128,0,22165:0:0:0:0:
329,192,22165,1,2,0:0:0:0:
402,192,22165,1,0,0:0:0:0:
475,192,22165,1,0,0:0:0:0:
36,192,22337,1,0,0:0:0:0:
256,192,22337,1,0,0:0:0:0:
109,192,22508,1,8,0:0:0:0:
402,192,22508,1,0,0:0:0:0:
36,192,22679,128,2,23365:0:0:0:0:
182,192,22679,1,4,0:0:0:0:
329,192,22679,1,0,0:0:0:0:
475,192,22679,128,0,23365:0:0:0:0:
109,192,23022,1,0,0:0:0:0:
182,192,23194,1,0,0:0:0:0:
256,192,23365,1,8,0:0:0:0:
329,192,23365,1,0,0:0:0:0:
402,192,23365,1,0,0:0:0:0:
109,192,23708,128,2,24051:0:0:0:0:
402,192,23708,128,0,24051:0:0:0:0:
182,192,24051,1,0,0:0:0:0:
109,192,24394,128,2,24737:0:0:0:0:
402,192,24394,128,0,24737:0:0:0:0:
36,192,24565,1,0,0:0:0:0:
182,192,24737,1,8,0:0:0:0:
256,192,24737,1,0,0:0:0:0:
329,192,24737,1,0,0:0:0:0:
36,192,25079,1,0,0:0:0:0:
36,192,25422,128,2,26108:0:0:0:0:
329,192,25422,128,0,26108:0:0:0:0:
475,192,25765,1,0,0:0:0:0:
402,192,25937,1,0,0:0:0:0:
109,192,26108,1,8,0:0:0:0:
182,192,26108,1,0,0:0:0:0:
256,192,26108,1,0,0:0:0:0:
182,192,26451,128,2,26794:0:0:0:0:
329,192,26451,128,0,26794:0:0:0:0:
475,192,26794,1,0,0:0:0:0:
109,192,27137,128,2,27479:0:0:0:0:
256,192,27137,128,0,27479:0:0:0:0:
329,192,27479,1,8,0:0:0:0:
402,192,27479,1,0,0:0:0:0:
475,192,27479,1,0,0:0:0:0:
109,192,27651,128,2,27994:0:0:0:0:
256,192,27651,128,0,27994:0:0:0:0:
36,192,28165,128,2,28851:0:0:0:0:
475,192,28165,128,0,28851:0:0:0:0:
109,192,28508,1,0,0:0:0:0:
182,192,28679,1,0,0:0:0:0:
402,192,28851,1,8,0:0:0:0:
256,192,28851,1,0,0:0:0:0:
329,192,28851,1,0,0:0:0:0:
256,192,29194,128,2,29537:0:0:0:0:
475,192,29194,128,0,29537:0:0:0:0:
36,192,29537,1,0,0:0:0:0:
256,192,29879,128,2,30222:0:0:0:0:
475,192,29879,128,0,30222:0:0:0:0:
329,192,30051,1,0,0:0:0:0:
36,192,30222,1,8,0:0:0:0:
109,192,30222,1,0,0:0:0:0:
182,192,30222,1,0,0:0:0:0:
329,192,30565,1,0,0:0:0:0:
182,192,30908,128,2,31594:0:0:0:0:
475,192,30908,128,0,31594:0:0:0:0:
36,192,31251,1,0,0:0:0:0:
109,192,31422,1,0,0:0:0:0:
256,192,31594,1,8,0:0:0:0:
329,192,31594,1,0,0:0:0:0:
402,192,31594,1,0,0:0:0:0:
182,192,31937,128,2,32279:0:0:0:0:
402,192,31937,128,0,32279:0:0:0:0:
475,192,32279,1,0,0:0:0:0:
329,192,32451,1,0,0:0:0:0:
36,192,32622,128,2,32965:0:0:0:0:
256,192,32622,128,0,32965:0:0:0:0:
329,192,32794,1,2,0:0:0:0:
402,192,32794,1,0,0:0:0:0:
109,192,32965,1,8,0:0:0:0:
182,192,32965,1,0,0:0:0:0:
475,192,32965,128,0,33137:0:0:0:0:
329,192,33137,128,0,33308:0:0:0:0:
182,192,33308,128,0,33651:0:0:0:0:
36,192,33651,1,0,0:0:0:0:
36,192,33994,1,0,0:0:0:0:
402,192,34165,1,0,0:0:0:0:
36,192,34337,1,0,0:0:0:0:
402,192,34508,1,0,0:0:0:0:
36,192,34679,1,0,0:0:0:0:
402,192,34851,1,0,0:0:0:0:
109,192,35022,1,0,0:0:0:0:
256,192,35108,1,0,0:0:0:0:
329,192,35194,1,0,0:0:0:0:
402,192,35279,1,0,0:0:0:0:
109,192,35365,1,0,0:0:0:0:
475,192,35365,1,0,0:0:0:0:
329,192,35537,1,0,0:0:0:0:
109,192,35708,1,0,0:0:0:0:
256,192,35708,128,0,35794:0:0:0:0:
329,192,35879,1,0,0:0:0:0:
109,192,36051,1,0,0:0:0:0:
256,192,36051,128,0,36137:0:0:0:0:
329,192,36222,1,0,0:0:0:0:
182,192,36394,1,0,0:0:0:0:
402,192,36394,128,0,36479:0:0:0:0:
475,192,36565,1,0,0:0:0:0:
36,192,36737,128,0,36822:0:0:0:0:
182,192,36737,1,0,0:0:0:0:
475,192,36908,1,0,0:0:0:0:
182,192,37079,1,0,0:0:0:0:
329,192,37079,128,0,37165:0:0:0:0:
475,192,37251,1,0,0:0:0:0:
36,192,37422,128,0,37508:0:0:0:0:
182,192,37422,1,0,0:0:0:0:
475,192,37594,1,0,0:0:0:0:
109,192,37765,1,0,0:0:0:0:
182,192,37851,1,0,0:0:0:0:
256,192,37937,1,0,0:0:0:0:
329,192,38022,1,0,0:0:0:0:
109,192,38108,1,0,0:0:0:0:
402,192,38108,1,0,0:0:0:0:
256,192,38279,1,0,0:0:0:0:
475,192,38279,128,0,38365:0:0:0:0:
109,192,38451,1,0,0:0:0:0:
329,192,38451,128,0,38537:0:0:0:0:
36,192,38622,128,0,38708:0:0:0:0:
256,192,38622,1,0,0:0:0:0:
109,192,38794,1,0,0:0:0:0:
402,192,38794,128,0,38879:0:0:0:0:
256,192,38965,1,0,0:0:0:0:
36,192,39137,1,0,0:0:0:0:
182,192,39308,128,0,39394:0:0:0:0:
402,192,39308,1,0,0:0:0:0:
36,192,39479,1,0,0:0:0:0:
256,192,39479,128,0,39565:0:0:0:0:
402,192,39651,1,0,0:0:0:0:
36,192,39822,1,0,0:0:0:0:
329,192,39822,128,0,39908:0:0:0:0:
402,192,39994,1,0,0:0:0:0:
36,192,40165,1,0,0:0:0:0:
256,192,40165,128,0,40251:0:0:0:0:
402,192,40337,1,0,0:0:0:0:
36,192,40508,1,0,0:0:0:0:
182,192,40508,1,0,0:0:0:0:
256,192,40594,1,0,0:0:0:0:
329,192,40679,1,0,0:0:0:0:
402,192,40765,1,0,0:0:0:0:
36,192,40851,1,0,0:0:0:0:
475,192,40851,1,0,0:0:0:0:
182,192,41022,128,0,41108:0:0:0:0:
329,192,41022,1,0,0:0:0:0:
36,192,41194,1,0,0:0:0:0:
402,192,41194,128,0,41279:0:0:0:0:
329,192,41365,1,0,0:0:0:0:
475,192,41365,128,0,41451:0:0:0:0:
36,192,41537,1,0,0:0:0:0:
256,192,41537,128,0,41622:0:0:0:0:
329,192,41708,1,0,0:0:0:0:
109,192,41879,1,0,0:0:0:0:
475,192,41879,128,0,41965:0:0:0:0:
402,192,42051,1,0,0:0:0:0:
109,192,42222,1,0,0:0:0:0:
256,192,42222,128,0,42308:0:0:0:0:
402,192,42394,1,0,0:0:0:0:
109,192,42565,1,0,0:0:0:0:
329,192,42565,128,0,42651:0:0:0:0:
402,192,42737,1,0,0:0:0:0:
109,192,42908,1,0,0:0:0:0:
182,192,42908,128,0,42994:0:0:0:0:
402,192,43079,1,0,0:0:0:0:
36,192,43251,128,0,43422:0:0:0:0:
182,192,43251,128,0,43422:0:0:0:0:
475,192,43422,128,0,43594:0:0:0:0:
329,192,43422,128,0,43594:0:0:0:0:
36,192,43594,128,0,43765:0:0:0:0:
182,192,43594,128,0,43765:0:0:0:0:
475,192,43765,128,0,43937:0:0:0:0:
329,192,43765,128,0,43937:0:0:0:0:
36,192,43937,128,0,44108:0:0:0:0:
182,192,43937,128,0,44108:0:0:0:0:
475,192,44108,128,0,44279:0:0:0:0:
329,192,44108,128,0,44279:0:0:0:0:
36,192,44279,128,0,44451:0:0:0:0:
182,192,44279,128,0,44451:0:0:0:0:
475,192,44451,128,0,44622:0:0:0:0:
256,192,44451,128,2,44622:0:0:0:0:
109,192,44622,1,2,0:0:0:0:
402,192,44622,1,0,0:0:0:0:
182,192,44794,1,2,0:0:0:0:
329,192,44794,1,0,0:0:0:0:
109,192,44965,1,2,0:0:0:0:
402,192,44965,1,0,0:0:0:0:
182,192,45137,1,2,0:0:0:0:
329,192,45137,1,0,0:0:0:0:
109,192,45308,1,2,0:0:0:0:
402,192,45308,1,0,0:0:0:0:
182,192,45479,1,2,0:0:0:0:
329,192,45479,1,0,0:0:0:0:
109,192,45651,1,2,0:0:0:0:
402,192,45651,1,0,0:0:0:0:
182,192,45822,1,2,0:0:0:0:
329,192,45822,1,0,0:0:0:0:
36,192,45994,1,2,0:0:0:0:
475,192,45994,1,0,0:0:0:0:
182,192,46165,1,2,0:0:0:0:
329,192,46165,1,0,0:0:0:0:
36,192,46337,1,2,0:0:0:0:
475,192,46337,1,0,0:0:0:0:
182,192,46508,1,2,0:0:0:0:
329,192,46508,1,0,0:0:0:0:
36,192,46679,1,2,0:0:0:0:
475,192,46679,1,0,0:0:0:0:
182,192,46851,1,2,0:0:0:0:
329,192,46851,1,0,0:0:0:0:
36,192,47022,1,2,0:0:0:0:
475,192,47022,1,0,0:0:0:0:
182,192,47194,1,2,0:0:0:0:
329,192,47194,1,0,0:0:0:0:
109,192,47365,1,2,0:0:0:0:
402,192,47365,1,0,0:0:0:0:
182,192,47537,1,2,0:0:0:0:
329,192,47537,1,0,0:0:0:0:
109,192,47708,1,2,0:0:0:0:
402,192,47708,1,0,0:0:0:0:
182,192,47879,1,2,0:0:0:0:
329,192,47879,1,0,0:0:0:0:
109,192,48051,1,2,0:0:0:0:
402,192,48051,1,0,0:0:0:0:
182,192,48222,1,2,0:0:0:0:
329,192,48222,1,0,0:0:0:0:
109,192,48394,1,2,0:0:0:0:
402,192,48394,1,0,0:0:0:0:
182,192,48565,1,2,0:0:0:0:
329,192,48565,1,0,0:0:0:0:
36,192,48737,1,2,0:0:0:0:
475,192,48737,1,0,0:0:0:0:
182,192,48908,1,2,0:0:0:0:
329,192,48908,1,0,0:0:0:0:
36,192,49079,1,2,0:0:0:0:
475,192,49079,1,0,0:0:0:0:
182,192,49251,1,2,0:0:0:0:
329,192,49251,1,0,0:0:0:0:
36,192,49422,1,2,0:0:0:0:
475,192,49422,1,0,0:0:0:0:
182,192,49594,1,2,0:0:0:0:
329,192,49594,1,0,0:0:0:0:
36,192,49765,1,2,0:0:0:0:
109,192,49765,1,4,0:0:0:0:
475,192,49765,1,0,0:0:0:0:
182,192,49937,1,2,0:0:0:0:
109,192,50022,1,2,0:0:0:0:
256,192,50108,1,2,0:0:0:0:
329,192,50194,1,2,0:0:0:0:
402,192,50279,1,2,0:0:0:0:
475,192,50365,1,2,0:0:0:0:
182,192,50451,1,2,0:0:0:0:
256,192,50537,1,2,0:0:0:0:
329,192,50622,1,2,0:0:0:0:
402,192,50708,1,2,0:0:0:0:
109,192,50794,1,2,0:0:0:0:
182,192,50879,1,2,0:0:0:0:
256,192,50965,1,2,0:0:0:0:
329,192,51051,1,2,0:0:0:0:
36,192,51137,1,2,0:0:0:0:
109,192,51222,1,2,0:0:0:0:
182,192,51308,1,2,0:0:0:0:
256,192,51394,1,2,0:0:0:0:
475,192,51479,1,2,0:0:0:0:
402,192,51565,1,2,0:0:0:0:
329,192,51651,1,2,0:0:0:0:
256,192,51737,1,2,0:0:0:0:
182,192,51822,1,2,0:0:0:0:
109,192,51908,1,2,0:0:0:0:
36,192,51994,1,2,0:0:0:0:
475,192,52079,1,2,0:0:0:0:
402,192,52165,1,2,0:0:0:0:
329,192,52251,1,2,0:0:0:0:
256,192,52337,1,2,0:0:0:0:
182,192,52422,1,2,0:0:0:0:
109,192,52508,1,2,0:0:0:0:
36,192,52594,1,2,0:0:0:0:
402,192,52679,1,2,0:0:0:0:
329,192,52765,1,2,0:0:0:0:
36,192,52851,1,2,0:0:0:0:
109,192,52851,1,4,0:0:0:0:
182,192,52937,1,2,0:0:0:0:
256,192,53022,1,2,0:0:0:0:
402,192,53108,1,2,0:0:0:0:
475,192,53108,1,4,0:0:0:0:
329,192,53194,1,2,0:0:0:0:
182,192,53279,1,2,0:0:0:0:
36,192,53365,1,2,0:0:0:0:
109,192,53365,1,4,0:0:0:0:
256,192,53451,1,2,0:0:0:0:
329,192,53537,1,2,0:0:0:0:
402,192,53622,1,2,0:0:0:0:
475,192,53622,1,4,0:0:0:0:
182,192,53708,1,2,0:0:0:0:
256,192,53794,1,2,0:0:0:0:
36,192,53879,1,2,0:0:0:0:
109,192,53879,1,4,0:0:0:0:
329,192,53965,1,2,0:0:0:0:
182,192,54051,1,6,0:0:0:0:
256,192,54137,1,2,0:0:0:0:
329,192,54222,1,2,0:0:0:0:
402,192,54222,1,4,0:0:0:0:
475,192,54222,1,0,0:0:0:0:
109,192,54565,1,0,0:0:0:70:LR_Snare Normal.wav
182,192,54565,1,0,0:0:0:0:
109,192,54737,1,0,0:0:0:70:LR_Snare Normal.wav
182,192,54737,1,0,0:0:0:0:
256,192,54908,1,0,0:0:0:70:LR_Drum EDge.wav
329,192,54994,1,0,0:0:0:70:LR_Drum EDge.wav
402,192,55079,1,0,0:0:0:70:LR_Drum EDge.wav
475,192,55165,1,0,0:0:0:70:LR_Drum EDge.wav
36,192,55251,1,0,0:0:0:70:LR_Drum EDge.wav
109,192,55337,1,0,0:0:0:70:LR_Drum EDge.wav
182,192,55422,1,0,0:0:0:70:LR_Drum EDge.wav
256,192,55508,1,0,0:0:0:70:LR_Drum EDge.wav
329,192,55594,1,0,0:0:0:70:LR4_KickTBCD.wav
402,192,55594,1,0,0:0:0:0:
475,192,55594,1,0,0:0:0:0:
36,192,55765,128,0,55851:0:0:0:70:LR_Hat Synth.wav
109,192,55937,1,0,0:0:0:70:LR4_KickTBCD.wav
182,192,55937,1,0,0:0:0:0:
256,192,55937,128,0,56022:0:0:0:0:
109,192,56279,1,0,0:0:0:70:LR4_KickTBCD.wav
182,192,56279,1,0,0:0:0:0:
475,192,56279,128,0,56365:0:0:0:0:
402,192,56451,128,0,56537:0:0:0:70:LR_Hat Synth.wav
109,192,56622,1,0,0:0:0:70:LR4_KickTBCD.wav
182,192,56622,1,0,0:0:0:0:
329,192,56622,128,0,56708:0:0:0:0:
36,192,56965,1,0,0:0:0:70:LR4_KickTBCD.wav
475,192,56965,1,0,0:0:0:0:
402,192,57051,1,0,0:0:0:0:
329,192,57137,1,0,0:0:0:70:LR_Hat Synth.wav
256,192,57222,1,0,0:0:0:0:
36,192,57308,1,0,0:0:0:70:LR4_KickTBCD.wav
182,192,57308,1,0,0:0:0:0:
256,192,57479,128,0,57565:0:0:0:70:LR_Hat Synth.wav
36,192,57651,1,0,0:0:0:70:LR4_KickTBCD.wav
109,192,57651,1,0,0:0:0:0:
475,192,57651,128,0,57737:0:0:0:0:
329,192,57822,128,0,57908:0:0:0:70:LR_Hat Synth.wav
36,192,57994,1,0,0:0:0:70:LR4_KickTBCD.wav
109,192,57994,1,0,0:0:0:0:
182,192,57994,128,0,58079:0:0:0:0:
256,192,58337,128,0,58422:0:0:0:70:LR4_KickTBCD.wav
402,192,58337,1,0,0:0:0:0:
475,192,58337,1,0,0:0:0:0:
182,192,58679,128,0,58765:0:0:0:70:LR4_KickTBCD.wav
402,192,58679,1,0,0:0:0:0:
475,192,58679,1,0,0:0:0:0:
109,192,59022,128,0,59108:0:0:0:70:LR4_KickTBCD.wav
402,192,59022,1,0,0:0:0:0:
475,192,59022,1,0,0:0:0:0:
256,192,59194,128,0,59279:0:0:0:70:LR_Hat Synth.wav
36,192,59365,128,0,59451:0:0:0:70:LR4_KickTBCD.wav
402,192,59365,1,0,0:0:0:0:
475,192,59365,1,0,0:0:0:0:
109,192,59708,1,0,0:0:0:70:LR4_KickTBCD.wav
182,192,59708,1,0,0:0:0:0:
256,192,59794,1,0,0:0:0:0:
329,192,59879,1,0,0:0:0:0:
402,192,59965,1,0,0:0:0:0:
109,192,60051,1,0,0:0:0:70:LR4_KickTBCD.wav
182,192,60051,1,0,0:0:0:0:
475,192,60051,1,0,0:0:0:0:
256,192,60222,128,0,60308:0:0:0:0:
109,192,60394,1,0,0:0:0:70:LR4_KickTBCD.wav
182,192,60394,1,0,0:0:0:0:
475,192,60394,128,0,60479:0:0:0:0:
402,192,60565,128,0,60651:0:0:0:0:
109,192,60737,1,0,0:0:0:70:LR4_KickTBCD.wav
182,192,60737,1,0,0:0:0:0:
329,192,60737,128,0,60822:0:0:0:0:
36,192,61079,1,0,0:0:0:70:LR4_KickTBCD.wav
109,192,61079,1,0,0:0:0:70:LR_Hat Synth.wav
256,192,61251,128,0,61337:0:0:0:0:
36,192,61422,1,0,0:0:0:70:LR_Hat Synth.wav
109,192,61422,1,0,0:0:0:70:LR4_KickTBCD.wav
402,192,61422,128,0,61508:0:0:0:0:
36,192,61765,1,0,0:0:0:70:LR4_KickTBCD.wav
109,192,61765,1,0,0:0:0:70:LR_Hat Synth.wav
475,192,61765,128,0,61851:0:0:0:0:
329,192,61937,128,0,62022:0:0:0:0:
36,192,62108,1,0,0:0:0:70:LR4_KickTBCD.wav
109,192,62108,1,0,0:0:0:70:LR_Hat Synth.wav
182,192,62108,128,0,62194:0:0:0:0:
329,192,62451,1,0,0:0:0:70:LR4_KickTBCD.wav
402,192,62451,1,0,0:0:0:70:LR_Hat Synth.wav
256,192,62537,1,0,0:0:0:0:
182,192,62622,1,0,0:0:0:0:
109,192,62708,1,0,0:0:0:0:
36,192,62794,1,0,0:0:0:70:LR_Hat Synth.wav
329,192,62794,1,0,0:0:0:70:LR4_KickTBCD.wav
402,192,62794,1,0,0:0:0:0:
475,192,62965,128,0,63051:0:0:0:0:
36,192,63137,128,0,63222:0:0:0:70:LR_Hat Synth.wav
329,192,63137,1,0,0:0:0:70:LR4_KickTBCD.wav
402,192,63137,1,0,0:0:0:0:
109,192,63308,128,0,63394:0:0:0:0:
182,192,63479,128,0,63565:0:0:0:70:LR_Hat Synth.wav
329,192,63479,1,0,0:0:0:70:LR4_KickTBCD.wav
402,192,63479,1,0,0:0:0:0:
36,192,63822,1,0,0:0:0:70:LR4_KickTBCD.wav
109,192,63822,1,0,0:0:0:70:LR_Hat Synth.wav
402,192,63822,128,0,63908:0:0:0:0:
36,192,64165,1,0,0:0:0:70:LR4_KickTBCD.wav
109,192,64165,1,0,0:0:0:70:LR_Hat Synth.wav
256,192,64165,128,0,64251:0:0:0:0:
36,192,64508,1,0,0:0:0:70:LR_Hat Synth.wav
109,192,64508,1,0,0:0:0:70:LR4_KickTBCD.wav
475,192,64508,128,0,64594:0:0:0:0:
329,192,64679,128,0,64765:0:0:0:0:
36,192,64851,1,0,0:0:0:70:LR4_KickTBCD.wav
109,192,64851,1,0,0:0:0:70:LR_Hat Synth.wav
182,192,64851,128,0,64937:0:0:0:0:
36,192,65194,128,0,65365:0:0:0:0:
182,192,65194,128,0,65365:0:0:0:0:
475,192,65365,128,0,65537:0:0:0:0:
329,192,65365,128,0,65537:0:0:0:0:
36,192,65537,128,0,65708:0:0:0:0:
182,192,65537,128,0,65708:0:0:0:0:
475,192,65708,128,0,65879:0:0:0:0:
329,192,65708,128,0,65879:0:0:0:0:
36,192,65879,128,0,66051:0:0:0:0:
182,192,65879,128,0,66051:0:0:0:0:
475,192,66051,128,0,66222:0:0:0:0:
329,192,66051,128,0,66222:0:0:0:0:
36,192,66222,128,0,66394:0:0:0:0:
182,192,66222,128,0,66394:0:0:0:0:
402,192,66394,1,0,0:0:0:0:
329,192,66394,1,0,0:0:0:70:LR4_KickTBCD.wav
329,192,66565,1,0,0:0:0:70:LR4_KickTBCD.wav
402,192,66565,1,0,0:0:0:0:
109,192,66737,1,0,0:0:0:70:LR_Hat Normal.wav
475,192,66737,128,0,66822:0:0:0:0:
36,192,66908,128,0,66994:0:0:0:70:LR4_KickTBCD.wav
182,192,66908,1,0,0:0:0:0:
256,192,66908,1,0,0:0:0:0:
475,192,67079,1,0,0:0:0:70:LR_Hat Normal.wav
182,192,67251,1,0,0:0:0:70:LR4_KickTBCD.wav
256,192,67251,1,0,0:0:0:0:
402,192,67251,128,0,67337:0:0:0:0:
109,192,67422,1,0,0:0:0:70:LR_Hat Normal.wav
329,192,67422,128,0,67508:0:0:0:0:
36,192,67594,128,0,67679:0:0:0:70:LR4_KickTBCD.wav
182,192,67594,1,0,0:0:0:0:
256,192,67594,1,0,0:0:0:0:
475,192,67765,1,0,0:0:0:70:LR_Hat Normal.wav
36,192,67937,1,0,0:0:0:70:LR4_KickTBCD.wav
109,192,67937,1,0,0:0:0:0:
182,192,68022,1,0,0:0:0:0:
256,192,68108,1,0,0:0:0:70:LR_Hat Normal.wav
329,192,68194,1,0,0:0:0:0:
402,192,68279,1,0,0:0:0:70:LR4_KickTBCD.wav
475,192,68279,1,0,0:0:0:0:
36,192,68451,128,0,68537:0:0:0:70:LR_Hat Normal.wav
329,192,68451,1,0,0:0:0:0:
182,192,68622,128,0,68708:0:0:0:70:LR4_KickTBCD.wav
402,192,68622,1,0,0:0:0:0:
475,192,68622,1,0,0:0:0:0:
109,192,68794,128,0,68879:0:0:0:70:LR_Hat Normal.wav
329,192,68794,1,0,0:0:0:0:
256,192,68965,128,0,69051:0:0:0:70:LR4_KickTBCD.wav
402,192,68965,1,0,0:0:0:0:
475,192,68965,1,0,0:0:0:0:
329,192,69137,1,0,0:0:0:70:LR_Hat Normal.wav
36,192,69308,1,0,0:0:0:70:LR4_KickTBCD.wav
109,192,69308,1,0,0:0:0:0:
475,192,69308,128,0,69394:0:0:0:0:
182,192,69479,1,0,0:0:0:70:LR_Hat Normal.wav
36,192,69651,1,0,0:0:0:70:LR4_KickTBCD.wav
109,192,69651,1,0,0:0:0:0:
402,192,69651,128,0,69737:0:0:0:0:
182,192,69822,1,0,0:0:0:70:LR_Hat Normal.wav
36,192,69994,1,0,0:0:0:70:LR4_KickTBCD.wav
109,192,69994,1,0,0:0:0:0:
329,192,69994,128,0,70079:0:0:0:0:
182,192,70165,1,0,0:0:0:70:LR_Hat Normal.wav
36,192,70337,1,0,0:0:0:70:LR4_KickTBCD.wav
109,192,70337,1,0,0:0:0:0:
256,192,70337,128,0,70422:0:0:0:0:
182,192,70508,1,0,0:0:0:70:LR_Hat Normal.wav
36,192,70679,1,0,0:0:0:70:LR4_KickTBCD.wav
109,192,70679,1,0,0:0:0:0:
182,192,70765,1,0,0:0:0:0:
256,192,70851,1,0,0:0:0:70:LR_Hat Normal.wav
329,192,70937,1,0,0:0:0:0:
402,192,71022,1,0,0:0:0:70:LR4_KickTBCD.wav
475,192,71022,1,0,0:0:0:0:
109,192,71194,128,0,71279:0:0:0:70:LR_Hat Normal.wav
329,192,71194,1,0,0:0:0:0:
182,192,71365,128,0,71451:0:0:0:70:LR4_KickTBCD.wav
402,192,71365,1,0,0:0:0:0:
475,192,71365,1,0,0:0:0:0:
109,192,71537,128,0,71622:0:0:0:70:LR_Hat Normal.wav
329,192,71537,1,0,0:0:0:0:
36,192,71708,128,0,71794:0:0:0:70:LR4_KickTBCD.wav
402,192,71708,1,0,0:0:0:0:
475,192,71708,1,0,0:0:0:0:
329,192,71879,1,0,0:0:0:70:LR_Hat Normal.wav
182,192,72051,1,0,0:0:0:70:LR4_KickTBCD.wav
256,192,72051,1,8,0:0:0:70:LR_Hat Synth.wav
36,192,72222,128,0,72308:0:0:0:70:LR_Hat Normal.wav
475,192,72222,1,0,0:0:0:0:
182,192,72394,1,0,0:0:0:70:LR4_KickTBCD.wav
256,192,72394,1,0,0:0:0:0:
402,192,72394,128,0,72479:0:0:0:0:
475,192,72565,1,0,0:0:0:70:LR_Hat Normal.wav
109,192,72737,128,0,72822:0:0:0:70:LR4_KickTBCD.wav
182,192,72737,1,0,0:0:0:0:
256,192,72737,1,0,0:0:0:0:
329,192,72908,128,0,72994:0:0:0:70:LR_Hat Normal.wav
475,192,72908,1,0,0:0:0:0:
182,192,73079,1,0,0:0:0:70:LR4_KickTBCD.wav
256,192,73079,1,0,0:0:0:0:
402,192,73079,128,0,73165:0:0:0:0:
475,192,73251,1,0,0:0:0:70:LR_Hat Normal.wav
36,192,73422,1,0,0:0:0:70:LR4_KickTBCD.wav
109,192,73422,1,0,0:0:0:0:
182,192,73508,1,0,0:0:0:0:
256,192,73594,1,0,0:0:0:70:LR_Hat Normal.wav
329,192,73679,1,0,0:0:0:0:
402,192,73765,1,0,0:0:0:70:LR4_KickTBCD.wav
475,192,73765,1,0,0:0:0:0:
182,192,73937,128,0,74022:0:0:0:70:LR_Hat Normal.wav
329,192,73937,1,0,0:0:0:0:
36,192,74108,128,0,74194:0:0:0:70:LR4_KickTBCD.wav
402,192,74108,1,0,0:0:0:0:
475,192,74108,1,0,0:0:0:0:
256,192,74279,128,0,74365:0:0:0:70:LR_Hat Normal.wav
329,192,74279,1,0,0:0:0:0:
109,192,74451,128,0,74537:0:0:0:70:LR4_KickTBCD.wav
402,192,74451,1,0,0:0:0:0:
475,192,74451,1,0,0:0:0:0:
329,192,74622,1,0,0:0:0:70:LR_Hat Normal.wav
36,192,74794,128,8,74879:0:0:0:70:LR_Hat Synth.wav
182,192,74794,1,0,0:0:0:70:LR4_KickTBCD.wav
256,192,74794,1,0,0:0:0:0:
402,192,74965,1,0,0:0:0:70:LR_Hat Normal.wav
182,192,75137,1,0,0:0:0:70:LR4_KickTBCD.wav
256,192,75137,1,0,0:0:0:0:
475,192,75137,128,0,75222:0:0:0:0:
402,192,75308,1,0,0:0:0:70:LR_Hat Normal.wav
182,192,75479,1,0,0:0:0:70:LR4_KickTBCD.wav
256,192,75479,1,0,0:0:0:0:
329,192,75479,128,0,75565:0:0:0:0:
36,192,75651,128,0,75737:0:0:0:70:LR_Hat Normal.wav
402,192,75651,1,0,0:0:0:0:
109,192,75822,128,0,75908:0:0:0:70:LR4_KickTBCD.wav
182,192,75822,1,0,0:0:0:0:
256,192,75822,1,0,0:0:0:0:
402,192,75994,1,0,0:0:0:70:LR_Hat Normal.wav
36,192,76165,1,0,0:0:0:0:
109,192,76251,1,0,0:0:0:0:
182,192,76337,1,0,0:0:0:0:
256,192,76422,1,0,0:0:0:0:
329,192,76508,1,0,0:0:0:0:
475,192,76679,1,0,0:0:0:0:
109,192,76851,1,0,0:0:0:0:
402,192,77022,1,0,0:0:0:0:
182,192,77194,1,0,0:0:0:0:
36,192,77537,1,0,0:0:0:40:LR4_KickGBDV.wav
109,192,77537,1,0,0:0:0:70:LR_Hat Synth.wav
475,192,77537,1,0,0:0:0:0:
402,192,77708,1,0,0:0:0:0:
36,192,77879,1,0,0:0:0:70:LR_Hat Synth.wav
109,192,77879,1,0,0:0:0:40:LR4_KickGBDV.wav
256,192,77879,1,0,0:0:0:0:
402,192,78051,1,0,0:0:0:0:
36,192,78222,1,0,0:0:0:70:LR_Hat Synth.wav
109,192,78222,1,0,0:0:0:40:LR4_KickGBDV.wav
329,192,78222,1,0,0:0:0:0:
402,192,78394,1,0,0:0:0:0:
36,192,78565,1,0,0:0:0:40:LR4_KickGBDV.wav
109,192,78565,1,0,0:0:0:70:LR_Hat Synth.wav
182,192,78565,1,0,0:0:0:0:
402,192,78737,1,0,0:0:0:0:
256,192,78908,1,0,0:0:0:40:LR4_KickGBDV.wav
329,192,78908,1,0,0:0:0:70:LR_Hat Synth.wav
475,192,78908,1,0,0:0:0:0:
36,192,79079,1,0,0:0:0:0:
109,192,79251,1,0,0:0:0:70:LR_Hat Synth.wav
256,192,79251,1,0,0:0:0:40:LR4_KickGBDV.wav
329,192,79251,1,0,0:0:0:0:
36,192,79422,1,0,0:0:0:0:
256,192,79594,1,0,0:0:0:70:LR_Hat Synth.wav
329,192,79594,1,0,0:0:0:40:LR4_KickGBDV.wav
402,192,79594,1,0,0:0:0:0:
36,192,79765,1,0,0:0:0:0:
256,192,79937,1,0,0:0:0:40:LR4_KickGBDV.wav
329,192,79937,1,0,0:0:0:70:LR_Hat Synth.wav
182,192,79937,1,0,0:0:0:0:
36,192,80108,1,0,0:0:0:0:
182,192,80279,1,0,0:0:0:40:LR4_KickGBDV.wav
402,192,80279,1,0,0:0:0:70:LR_Hat Synth.wav
475,192,80279,1,0,0:0:0:0:
109,192,80451,1,0,0:0:0:0:
256,192,80622,1,0,0:0:0:70:LR_Hat Synth.wav
402,192,80622,1,0,0:0:0:40:LR4_KickGBDV.wav
475,192,80622,1,0,0:0:0:0:
109,192,80794,1,0,0:0:0:0:
329,192,80965,1,0,0:0:0:70:LR_Hat Synth.wav
402,192,80965,1,0,0:0:0:40:LR4_KickGBDV.wav
475,192,80965,1,0,0:0:0:0:
109,192,81137,1,0,0:0:0:0:
36,192,81308,1,0,0:0:0:40:LR4_KickGBDV.wav
402,192,81308,1,0,0:0:0:70:LR_Hat Synth.wav
475,192,81308,1,0,0:0:0:0:
109,192,81479,1,0,0:0:0:0:
182,192,81651,1,0,0:0:0:40:LR4_KickGBDV.wav
256,192,81651,1,0,0:0:0:70:LR_Hat Synth.wav
329,192,81651,1,0,0:0:0:0:
402,192,81822,1,0,0:0:0:0:
109,192,81994,1,0,0:0:0:70:LR_Hat Synth.wav
182,192,81994,1,0,0:0:0:40:LR4_KickGBDV.wav
329,192,81994,1,0,0:0:0:0:
402,192,82165,1,0,0:0:0:0:
36,192,82337,1,0,0:0:0:70:LR_Hat Synth.wav
182,192,82337,1,0,0:0:0:40:LR4_KickGBDV.wav
329,192,82337,1,0,0:0:0:0:
402,192,82508,1,0,0:0:0:0:
182,192,82679,1,0,0:0:0:40:LR4_KickGBDV.wav
329,192,82679,1,0,0:0:0:70:LR_Hat Synth.wav
475,192,82679,1,0,0:0:0:0:
402,192,82851,1,2,0:0:0:0:
329,192,82937,1,2,0:0:0:0:
256,192,83022,1,2,0:0:0:0:
182,192,83108,1,2,0:0:0:0:
109,192,83194,1,2,0:0:0:0:
36,192,83279,1,2,0:0:0:0:
329,192,83365,1,2,0:0:0:0:
256,192,83451,1,0,0:0:0:0:
182,192,83537,1,0,0:0:0:0:
109,192,83622,1,0,0:0:0:0:
402,192,83708,1,0,0:0:0:70:LR_Hat Synth.wav
329,192,83794,1,0,0:0:0:0:
256,192,83879,1,0,0:0:0:0:
182,192,83965,1,0,0:0:0:0:
475,192,84051,1,0,0:0:0:70:LR_Hat Synth.wav
402,192,84137,1,0,0:0:0:0:
329,192,84222,1,0,0:0:0:0:
256,192,84308,1,0,0:0:0:0:
36,192,84394,1,0,0:0:0:70:LR_Hat Synth.wav
475,192,84479,1,0,0:0:0:0:
402,192,84565,1,0,0:0:0:0:
329,192,84651,1,0,0:0:0:0:
182,192,84737,1,0,0:0:0:70:LR_Hat Synth.wav
256,192,84822,1,0,0:0:0:0:
329,192,84908,1,0,0:0:0:0:
402,192,84994,1,0,0:0:0:0:
109,192,85079,1,0,0:0:0:70:LR_Hat Synth.wav
182,192,85165,1,0,0:0:0:0:
256,192,85251,1,0,0:0:0:0:
329,192,85337,1,0,0:0:0:0:
36,192,85422,1,0,0:0:0:70:LR_Hat Synth.wav
109,192,85508,1,0,0:0:0:0:
182,192,85594,1,0,0:0:0:0:
256,192,85679,1,0,0:0:0:0:
475,192,85765,1,0,0:0:0:70:LR_Hat Synth.wav
109,192,85937,1,0,0:0:0:0:
475,192,86108,1,0,0:0:0:70:LR_Hat Synth.wav
109,192,86279,1,0,0:0:0:0:
475,192,86451,1,0,0:0:0:70:LR_Hat Synth.wav
109,192,86622,1,0,0:0:0:0:
475,192,86794,1,0,0:0:0:70:LR_Hat Synth.wav
109,192,86965,1,0,0:0:0:0:
36,192,87822,1,0,0:0:0:70:LR_Drum EDge.wav
109,192,87908,1,0,0:0:0:70:LR_Drum EDge.wav
182,192,87994,1,0,0:0:0:70:LR_Drum EDge.wav
256,192,88079,1,0,0:0:0:70:LR_Drum EDge.wav
475,192,88165,1,0,0:0:0:70:LR_Drum EDge.wav
402,192,88251,1,0,0:0:0:70:LR_Drum EDge.wav
329,192,88337,1,0,0:0:0:70:LR_Drum EDge.wav
256,192,88422,1,0,0:0:0:70:LR_Drum EDge.wav
36,192,88508,1,0,0:0:0:70:LR4_KickTBCD.wav
109,192,88508,1,0,0:0:0:0:
182,192,88508,1,0,0:0:0:0:
402,192,88679,128,0,88851:0:0:0:70:LR_Hat Normal.wav
109,192,88851,1,0,0:0:0:70:LR4_KickTBCD.wav
182,192,88851,1,0,0:0:0:0:
475,192,88851,1,0,0:0:0:0:
402,192,89022,128,0,89194:0:0:0:70:LR_Hat Normal.wav
36,192,89194,1,0,0:0:0:70:LR4_KickTBCD.wav
256,192,89194,1,0,0:0:0:0:
329,192,89194,1,0,0:0:0:0:
109,192,89365,128,0,89537:0:0:0:70:LR_Hat Normal.wav
256,192,89537,1,0,0:0:0:70:LR4_KickTBCD.wav
329,192,89537,1,0,0:0:0:0:
475,192,89537,1,0,0:0:0:0:
109,192,89708,128,0,89879:0:0:0:70:LR_Hat Normal.wav
182,192,89879,1,0,0:0:0:70:LR4_KickTBCD.wav
402,192,89879,1,0,0:0:0:0:
475,192,89879,1,0,0:0:0:0:
256,192,90051,128,0,90222:0:0:0:70:LR_Hat Normal.wav
36,192,90222,1,0,0:0:0:70:LR4_KickTBCD.wav
402,192,90222,1,0,0:0:0:0:
475,192,90222,1,0,0:0:0:0:
256,192,90394,128,0,90565:0:0:0:70:LR_Hat Normal.wav
109,192,90565,1,0,0:0:0:70:LR4_KickTBCD.wav
182,192,90565,1,0,0:0:0:0:
329,192,90565,1,0,0:0:0:0:
475,192,90737,128,0,90908:0:0:0:70:LR_Hat Normal.wav
36,192,90908,1,0,0:0:0:70:LR4_KickTBCD.wav
109,192,90908,1,0,0:0:0:0:
182,192,90908,1,0,0:0:0:0:
475,192,91079,128,0,91251:0:0:0:70:LR_Hat Normal.wav
256,192,91251,1,0,0:0:0:70:LR4_KickTBCD.wav
329,192,91251,1,0,0:0:0:0:
402,192,91251,1,0,0:0:0:0:
36,192,91422,128,0,91594:0:0:0:70:LR_Hat Normal.wav
182,192,91594,1,0,0:0:0:70:LR4_KickTBCD.wav
256,192,91594,1,0,0:0:0:0:
329,192,91594,1,0,0:0:0:0:
36,192,91765,128,0,91937:0:0:0:70:LR_Hat Normal.wav
109,192,91937,1,0,0:0:0:70:LR4_KickTBCD.wav
182,192,91937,1,0,0:0:0:0:
475,192,91937,1,0,0:0:0:0:
402,192,92108,128,0,92279:0:0:0:70:LR_Hat Normal.wav
109,192,92279,1,0,0:0:0:70:LR4_KickTBCD.wav
182,192,92279,1,0,0:0:0:0:
256,192,92279,1,0,0:0:0:0:
402,192,92451,128,0,92622:0:0:0:70:LR_Hat Normal.wav
36,192,92622,1,0,0:0:0:70:LR4_KickTBCD.wav
329,192,92622,1,0,0:0:0:0:
475,192,92622,1,0,0:0:0:0:
256,192,92794,128,0,92965:0:0:0:70:LR_Hat Normal.wav
109,192,92965,1,0,0:0:0:70:LR4_KickTBCD.wav
329,192,92965,1,0,0:0:0:0:
475,192,92965,1,0,0:0:0:0:
256,192,93137,128,0,93308:0:0:0:70:LR_Hat Normal.wav
109,192,93308,1,0,0:0:0:70:LR4_KickTBCD.wav
182,192,93308,1,0,0:0:0:0:
475,192,93308,1,0,0:0:0:0:
402,192,93479,128,0,93651:0:0:0:70:LR_Hat Normal.wav
36,192,93651,1,0,0:0:0:70:LR4_KickTBCD.wav
109,192,93651,1,0,0:0:0:0:
182,192,93651,1,0,0:0:0:0:
402,192,93822,128,0,93994:0:0:0:70:LR_Hat Normal.wav
182,192,93994,1,0,0:0:0:70:LR4_KickTBCD.wav
256,192,93994,1,0,0:0:0:0:
329,192,93994,1,0,0:0:0:0:
36,192,94165,128,0,94337:0:0:0:70:LR_Hat Normal.wav
256,192,94337,1,0,0:0:0:70:LR4_KickTBCD.wav
329,192,94337,1,0,0:0:0:0:
475,192,94337,1,0,0:0:0:0:
36,192,94508,128,0,94679:0:0:0:70:LR_Hat Normal.wav
109,192,94679,1,0,0:0:0:70:LR4_KickTBCD.wav
402,192,94679,1,0,0:0:0:0:
475,192,94679,1,0,0:0:0:0:
182,192,94851,128,0,95022:0:0:0:70:LR_Hat Normal.wav
256,192,95022,1,0,0:0:0:70:LR4_KickTBCD.wav
402,192,95022,1,0,0:0:0:0:
475,192,95022,1,0,0:0:0:0:
182,192,95194,128,0,95365:0:0:0:70:LR_Hat Normal.wav
36,192,95365,1,0,0:0:0:70:LR4_KickTBCD.wav
109,192,95365,1,0,0:0:0:0:
329,192,95365,1,0,0:0:0:0:
402,192,95537,128,0,95708:0:0:0:70:LR_Hat Normal.wav
36,192,95708,1,0,0:0:0:70:LR4_KickTBCD.wav
109,192,95708,1,0,0:0:0:0:
475,192,95708,1,0,0:0:0:0:
402,192,95879,128,0,96051:0:0:0:70:LR_Hat Normal.wav
182,192,96051,1,0,0:0:0:70:LR4_KickTBCD.wav
256,192,96051,1,0,0:0:0:0:
329,192,96051,1,0,0:0:0:0:
36,192,96222,128,0,96394:0:0:0:70:LR_Hat Normal.wav
256,192,96394,1,0,0:0:0:70:LR4_KickTBCD.wav
329,192,96394,1,0,0:0:0:0:
475,192,96394,1,0,0:0:0:0:
36,192,96565,128,0,96737:0:0:0:70:LR_Hat Normal.wav
109,192,96737,1,0,0:0:0:70:LR4_KickTBCD.wav
182,192,96737,1,0,0:0:0:0:
402,192,96737,1,0,0:0:0:0:
329,192,96908,128,0,97079:0:0:0:70:LR_Hat Normal.wav
109,192,97079,1,0,0:0:0:70:LR4_KickTBCD.wav
182,192,97079,1,0,0:0:0:0:
475,192,97079,1,0,0:0:0:0:
329,192,97251,128,0,97422:0:0:0:70:LR_Hat Normal.wav
256,192,97422,1,0,0:0:0:70:LR4_KickTBCD.wav
402,192,97422,1,0,0:0:0:0:
475,192,97422,1,0,0:0:0:0:
36,192,97594,128,0,97765:0:0:0:70:LR_Hat Normal.wav
182,192,97765,1,0,0:0:0:70:LR4_KickTBCD.wav
402,192,97765,1,0,0:0:0:0:
475,192,97765,1,0,0:0:0:0:
36,192,97937,128,0,98108:0:0:0:70:LR_Hat Normal.wav
109,192,98108,1,0,0:0:0:70:LR4_KickTBCD.wav
256,192,98108,1,0,0:0:0:0:
329,192,98108,1,0,0:0:0:0:
475,192,98279,128,0,98451:0:0:0:70:LR_Hat Normal.wav
182,192,98451,1,0,0:0:0:70:LR4_KickTBCD.wav
256,192,98451,1,0,0:0:0:0:
329,192,98451,1,0,0:0:0:0:
475,192,98622,128,0,98794:0:0:0:70:LR_Hat Normal.wav
36,192,98794,1,0,0:0:0:70:LR4_KickTBCD.wav
109,192,98794,1,0,0:0:0:0:
402,192,98794,1,0,0:0:0:0:
329,192,98965,128,0,99137:0:0:0:70:LR_Hat Normal.wav
36,192,99137,1,0,0:0:0:70:LR4_KickTBCD.wav
109,192,99137,1,0,0:0:0:0:
182,192,99137,1,0,0:0:0:0:
329,192,99308,128,0,99479:0:0:0:70:LR_Hat Normal.wav
256,192,99479,128,0,99994:0:0:0:0:
36,192,99994,1,0,0:0:0:70:LR4_KickTBCD.wav
109,192,99994,1,0,0:0:0:0:
182,192,99994,1,0,0:0:0:0:
329,192,100165,1,0,0:0:0:70:LR4_KickTBCD.wav
402,192,100165,1,0,0:0:0:70:LR_Drum Finish.wav
475,192,100165,1,0,0:0:0:0:
109,192,100337,128,0,100508:0:0:0:70:LR_Hat Normal.wav
182,192,100508,1,0,0:0:0:70:LR4_KickTBCD.wav
402,192,100508,1,0,0:0:0:0:
475,192,100508,1,0,0:0:0:0:
109,192,100679,128,0,100851:0:0:0:70:LR_Hat Normal.wav
36,192,100851,1,0,0:0:0:70:LR4_KickTBCD.wav
256,192,100851,1,0,0:0:0:0:
329,192,100851,1,0,0:0:0:0:
475,192,101022,128,0,101194:0:0:0:70:LR_Hat Normal.wav
182,192,101194,1,0,0:0:0:70:LR4_KickTBCD.wav
256,192,101194,1,0,0:0:0:0:
329,192,101194,1,0,0:0:0:0:
475,192,101365,128,0,101537:0:0:0:70:LR_Hat Normal.wav
36,192,101537,1,0,0:0:0:70:LR4_KickTBCD.wav
109,192,101537,1,0,0:0:0:0:
402,192,101537,1,0,0:0:0:0:
329,192,101708,128,0,101879:0:0:0:70:LR_Hat Normal.wav
36,192,101879,1,0,0:0:0:70:LR4_KickTBCD.wav
109,192,101879,1,0,0:0:0:0:
182,192,101879,1,0,0:0:0:0:
329,192,102051,128,0,102222:0:0:0:70:LR_Hat Normal.wav
36,192,102222,1,0,0:0:0:70:LR4_KickTBCD.wav
402,192,102222,1,0,0:0:0:0:
475,192,102222,1,0,0:0:0:0:
182,192,102394,128,0,102565:0:0:0:70:LR_Hat Normal.wav
256,192,102565,1,0,0:0:0:70:LR4_KickTBCD.wav
402,192,102565,1,0,0:0:0:0:
475,192,102565,1,0,0:0:0:0:
182,192,102737,128,0,102908:0:0:0:70:LR_Hat Normal.wav
36,192,102908,1,0,0:0:0:70:LR4_KickTBCD.wav
109,192,102908,1,0,0:0:0:0:
475,192,102908,1,0,0:0:0:0:
329,192,103079,128,0,103251:0:0:0:70:LR_Hat Normal.wav
36,192,103251,1,0,0:0:0:70:LR4_KickTBCD.wav
109,192,103251,1,0,0:0:0:0:
256,192,103251,1,0,0:0:0:0:
329,192,103422,128,0,103594:0:0:0:70:LR_Hat Normal.wav
182,192,103594,1,0,0:0:0:70:LR4_KickTBCD.wav
256,192,103594,1,0,0:0:0:0:
475,192,103594,1,0,0:0:0:0:
36,192,103765,128,0,103937:0:0:0:70:LR_Hat Normal.wav
182,192,103937,1,0,0:0:0:70:LR4_KickTBCD.wav
256,192,103937,1,0,0:0:0:0:
329,192,103937,1,0,0:0:0:0:
36,192,104108,128,0,104279:0:0:0:70:LR_Hat Normal.wav
182,192,104279,1,0,0:0:0:70:LR4_KickTBCD.wav
402,192,104279,1,0,0:0:0:0:
475,192,104279,1,0,0:0:0:0:
109,192,104451,128,0,104622:0:0:0:70:LR_Hat Normal.wav
329,192,104622,1,0,0:0:0:70:LR4_KickTBCD.wav
402,192,104622,1,0,0:0:0:0:
475,192,104622,1,0,0:0:0:0:
109,192,104794,128,0,104965:0:0:0:70:LR_Hat Normal.wav
36,192,104965,1,0,0:0:0:70:LR4_KickTBCD.wav
182,192,104965,1,0,0:0:0:0:
256,192,104965,1,0,0:0:0:0:
475,192,105137,128,0,105308:0:0:0:70:LR_Hat Normal.wav
182,192,105308,1,0,0:0:0:70:LR4_KickTBCD.wav
256,192,105308,1,0,0:0:0:0:
329,192,105308,1,0,0:0:0:0:
475,192,105479,128,0,105651:0:0:0:70:LR_Hat Normal.wav
36,192,105651,1,0,0:0:0:70:LR4_KickTBCD.wav
109,192,105651,1,0,0:0:0:0:
402,192,105651,1,0,0:0:0:0:
329,192,105822,128,0,105994:0:0:0:70:LR_Hat Normal.wav
36,192,105994,1,0,0:0:0:70:LR4_KickTBCD.wav
109,192,105994,1,0,0:0:0:0:
182,192,105994,1,0,0:0:0:0:
329,192,106165,128,0,106337:0:0:0:70:LR_Hat Normal.wav
256,192,106337,1,0,0:0:0:70:LR4_KickTBCD.wav
402,192,106337,1,0,0:0:0:0:
475,192,106337,1,0,0:0:0:0:
109,192,106508,128,0,106679:0:0:0:70:LR_Hat Normal.wav
36,192,106679,1,0,0:0:0:70:LR4_KickTBCD.wav
402,192,106679,1,0,0:0:0:0:
475,192,106679,1,0,0:0:0:0:
109,192,106851,128,0,107022:0:0:0:70:LR_Hat Normal.wav
182,192,107022,1,0,0:0:0:70:LR4_KickTBCD.wav
256,192,107022,1,0,0:0:0:0:
329,192,107022,1,0,0:0:0:0:
402,192,107194,128,0,107365:0:0:0:70:LR_Hat Normal.wav
36,192,107365,1,0,0:0:0:70:LR4_KickTBCD.wav
182,192,107365,1,0,0:0:0:0:
256,192,107365,1,0,0:0:0:0:
402,192,107537,128,0,107708:0:0:0:70:LR_Hat Normal.wav
109,192,107708,128,0,108051:0:0:0:0:
182,192,108051,128,0,108222:0:0:0:0:
256,192,108222,128,0,108394:0:0:0:0:
329,192,108394,128,0,108737:0:0:0:0:
475,192,108737,128,0,109079:0:0:0:0:
36,192,109079,1,0,0:0:0:0:
182,192,109422,1,0,0:0:0:0:
256,192,109594,1,0,0:0:0:0:
329,192,109765,1,0,0:0:0:0:
