osu file format v14

[General]
AudioFilename: audio.mp3
AudioLeadIn: 0
PreviewTime: 88166
Countdown: 0
SampleSet: Soft
StackLeniency: 0.7
Mode: 3
LetterboxInBreaks: 0
EpilepsyWarning: 1
SpecialStyle: 0
WidescreenStoryboard: 1

[Editor]
DistanceSpacing: 0.6
BeatDivisor: 6
GridSize: 16
TimelineZoom: 1.7

[Metadata]
Title:Candy (feat. Sara)
TitleUnicode:Candy (feat. Sara)
Artist:S3RL
ArtistUnicode:S3RL
Creator:_Asha
Version:7K Normal
Source:osu!
Tags:happy hardcore emfa music serl cut tv size featured artist fa dudehacker Draftnell Remuring Affirmation
BeatmapID:1991431
BeatmapSetID:953777

[Difficulty]
HPDrainRate:7
CircleSize:7
OverallDifficulty:7
ApproachRate:5
SliderMultiplier:1.4
SliderTickRate:1

[Events]
//Background and Video events
0,0,"candy bg2.jpg",0,0
//Break Periods
//Storyboard Layer 0 (Background)
//Storyboard Layer 1 (Fail)
//Storyboard Layer 2 (Pass)
//Storyboard Layer 3 (Foreground)
//Storyboard Layer 4 (Overlay)
//Storyboard Sound Samples
Sample,83022,0,"LR_Hat Synth.wav",70
Sample,83365,0,"LR_Hat Synth.wav",70

[TimingPoints]
737,342.857142857143,4,2,1,70,1,0
88508,-100,4,2,1,70,0,1
99479,-100,4,2,1,70,0,0
100165,-100,4,2,1,70,0,1
107708,-100,4,2,1,70,0,0

[HitObjects]
182,192,736,128,0,2108:0:0:0:0:
402,192,2108,128,0,3479:0:0:0:0:
109,192,3479,128,0,4965:0:0:0:0:
329,192,4965,128,0,6222:0:0:0:0:
475,192,6222,128,0,7594:0:0:0:0:
36,192,7594,128,0,8965:0:0:0:0:
402,192,8965,128,0,10451:0:0:0:0:
256,192,10451,128,0,11708:0:0:0:0:
475,192,11708,1,2,0:0:0:0:
36,192,11708,1,0,0:0:0:0:
475,192,12051,1,0,0:0:0:0:
329,192,12222,1,0,0:0:0:0:
36,192,12394,1,8,0:0:0:0:
182,192,12394,1,0,0:0:0:0:
402,192,12737,1,2,0:0:0:0:
109,192,13079,1,0,0:0:0:0:
109,192,13422,1,0,0:0:0:0:
402,192,13594,1,0,0:0:0:0:
36,192,13765,1,8,0:0:0:0:
182,192,13765,1,0,0:0:0:0:
475,192,14451,1,2,0:0:0:0:
36,192,14794,1,0,0:0:0:0:
182,192,14965,1,0,0:0:0:0:
475,192,15137,1,8,0:0:0:0:
329,192,15137,1,0,0:0:0:0:
109,192,15479,1,2,0:0:0:0:
402,192,15822,1,0,0:0:0:0:
182,192,16165,1,2,0:0:0:0:
36,192,16337,1,0,0:0:0:0:
329,192,16508,1,8,0:0:0:0:
475,192,16508,1,0,0:0:0:0:
182,192,16679,1,2,0:0:0:0:
329,192,17194,1,2,0:0:0:0:
329,192,17537,1,0,0:0:0:0:
182,192,17708,1,0,0:0:0:0:
36,192,17879,1,8,0:0:0:0:
475,192,17879,1,0,0:0:0:0:
402,192,18222,1,2,0:0:0:0:
109,192,18394,1,0,0:0:0:0:
475,192,18565,1,0,0:0:0:0:
182,192,18908,1,0,0:0:0:0:
329,192,19079,1,0,0:0:0:0:
36,192,19251,1,8,0:0:0:0:
475,192,19251,1,0,0:0:0:0:
475,192,19937,1,2,0:0:0:0:
402,192,20279,1,0,0:0:0:0:
329,192,20451,1,0,0:0:0:0:
109,192,20622,1,8,0:0:0:0:
182,192,20622,1,0,0:0:0:0:
182,192,20965,1,2,0:0:0:0:
36,192,21308,1,0,0:0:0:0:
109,192,21651,1,0,0:0:0:0:
182,192,21822,1,0,0:0:0:0:
329,192,21994,1,0,0:0:0:0:
182,192,22165,1,2,0:0:0:0:
36,192,22165,1,0,0:0:0:0:
402,192,22337,1,0,0:0:0:0:
36,192,22508,1,8,0:0:0:0:
182,192,22508,1,0,0:0:0:0:
475,192,22679,1,2,0:0:0:0:
329,192,22679,128,4,23365:0:0:0:0:
256,192,23365,1,8,0:0:0:0:
36,192,23365,1,0,0:0:0:0:
329,192,23708,128,2,24051:0:0:0:0:
109,192,24051,1,0,0:0:0:0:
402,192,24394,128,2,24737:0:0:0:0:
256,192,24737,1,8,0:0:0:0:
36,192,24737,1,0,0:0:0:0:
329,192,25079,1,0,0:0:0:0:
182,192,25422,128,2,26108:0:0:0:0:
256,192,26108,1,8,0:0:0:0:
475,192,26108,1,0,0:0:0:0:
182,192,26451,128,2,26794:0:0:0:0:
402,192,26794,1,0,0:0:0:0:
109,192,27137,128,2,27479:0:0:0:0:
329,192,27479,1,8,0:0:0:0:
256,192,27479,1,0,0:0:0:0:
109,192,27651,128,2,27994:0:0:0:0:
36,192,28165,128,2,28851:0:0:0:0:
256,192,28851,1,8,0:0:0:0:
402,192,28851,1,0,0:0:0:0:
36,192,29194,128,2,29537:0:0:0:0:
329,192,29537,1,0,0:0:0:0:
182,192,29879,128,2,30222:0:0:0:0:
256,192,30222,1,8,0:0:0:0:
475,192,30222,1,0,0:0:0:0:
109,192,30565,1,0,0:0:0:0:
402,192,30908,128,2,31594:0:0:0:0:
256,192,31594,1,8,0:0:0:0:
182,192,31594,1,0,0:0:0:0:
402,192,31937,128,2,32279:0:0:0:0:
109,192,32279,1,0,0:0:0:0:
475,192,32622,128,2,32965:0:0:0:0:
36,192,32794,1,2,0:0:0:0:
182,192,32965,1,8,0:0:0:0:
329,192,32965,1,0,0:0:0:0:
256,192,35022,128,0,35365:0:0:0:0:
475,192,35365,1,0,0:0:0:0:
329,192,35537,1,0,0:0:0:0:
182,192,35708,1,0,0:0:0:0:
36,192,35879,1,0,0:0:0:0:
329,192,36051,1,0,0:0:0:0:
109,192,36394,1,0,0:0:0:0:
402,192,36737,1,0,0:0:0:0:
402,192,37079,1,0,0:0:0:0:
256,192,37251,1,0,0:0:0:0:
109,192,37422,1,0,0:0:0:0:
475,192,37765,128,0,38108:0:0:0:0:
36,192,38108,1,0,0:0:0:0:
182,192,38279,1,0,0:0:0:0:
475,192,38451,1,0,0:0:0:0:
329,192,38622,1,0,0:0:0:0:
182,192,38794,1,0,0:0:0:0:
182,192,39308,1,0,0:0:0:0:
475,192,39479,1,0,0:0:0:0:
402,192,39822,1,0,0:0:0:0:
256,192,39994,1,0,0:0:0:0:
109,192,40165,1,0,0:0:0:0:
36,192,40508,128,0,40851:0:0:0:0:
475,192,40851,1,0,0:0:0:0:
329,192,41022,1,0,0:0:0:0:
182,192,41194,1,0,0:0:0:0:
36,192,41365,1,0,0:0:0:0:
329,192,41537,1,0,0:0:0:0:
402,192,41879,1,0,0:0:0:0:
109,192,42222,1,0,0:0:0:0:
109,192,42565,1,0,0:0:0:0:
256,192,42737,1,0,0:0:0:0:
402,192,42908,1,0,0:0:0:0:
182,192,43251,128,0,43594:0:0:0:0:
329,192,43594,1,0,0:0:0:0:
36,192,43765,1,0,0:0:0:0:
475,192,43937,1,0,0:0:0:0:
182,192,44108,1,0,0:0:0:0:
329,192,44279,1,0,0:0:0:0:
36,192,44451,1,2,0:0:0:0:
109,192,44451,1,0,0:0:0:0:
475,192,44622,1,2,0:0:0:0:
402,192,44622,1,0,0:0:0:0:
36,192,44965,1,2,0:0:0:0:
182,192,45137,1,2,0:0:0:0:
475,192,45308,1,2,0:0:0:0:
329,192,45479,1,2,0:0:0:0:
36,192,45651,1,2,0:0:0:0:
182,192,45822,1,2,0:0:0:0:
475,192,45994,1,2,0:0:0:0:
329,192,46165,1,2,0:0:0:0:
36,192,46337,1,2,0:0:0:0:
182,192,46508,1,2,0:0:0:0:
475,192,46679,1,2,0:0:0:0:
329,192,46851,1,2,0:0:0:0:
256,192,47022,128,2,47365:0:0:0:0:
182,192,47365,1,2,0:0:0:0:
36,192,47537,1,2,0:0:0:0:
329,192,47708,1,2,0:0:0:0:
475,192,47879,1,2,0:0:0:0:
182,192,48051,1,2,0:0:0:0:
36,192,48222,1,2,0:0:0:0:
329,192,48394,1,2,0:0:0:0:
475,192,48565,1,2,0:0:0:0:
182,192,48737,1,2,0:0:0:0:
36,192,48908,1,2,0:0:0:0:
329,192,49079,1,2,0:0:0:0:
475,192,49251,1,2,0:0:0:0:
182,192,49422,1,2,0:0:0:0:
36,192,49594,1,2,0:0:0:0:
402,192,49765,128,2,50108:0:0:0:0:
109,192,49765,128,4,50108:0:0:0:0:
256,192,50108,1,2,0:0:0:0:
329,192,50279,1,2,0:0:0:0:
402,192,50451,1,2,0:0:0:0:
475,192,50622,1,2,0:0:0:0:
256,192,50794,1,2,0:0:0:0:
182,192,50965,1,2,0:0:0:0:
109,192,51137,1,2,0:0:0:0:
36,192,51308,1,2,0:0:0:0:
475,192,51479,1,2,0:0:0:0:
402,192,51651,1,2,0:0:0:0:
329,192,51822,1,2,0:0:0:0:
256,192,51994,1,2,0:0:0:0:
36,192,52165,1,2,0:0:0:0:
109,192,52337,1,2,0:0:0:0:
182,192,52508,1,2,0:0:0:0:
256,192,52679,1,2,0:0:0:0:
475,192,52851,1,2,0:0:0:0:
329,192,52851,1,4,0:0:0:0:
329,192,53108,1,2,0:0:0:0:
475,192,53108,1,4,0:0:0:0:
182,192,53365,1,2,0:0:0:0:
36,192,53365,1,4,0:0:0:0:
36,192,53622,1,2,0:0:0:0:
182,192,53622,1,4,0:0:0:0:
329,192,53879,1,2,0:0:0:0:
402,192,53879,1,4,0:0:0:0:
109,192,54051,1,2,0:0:0:0:
182,192,54051,1,4,0:0:0:0:
475,192,54222,128,2,54737:0:0:0:0:
36,192,54222,128,4,54737:0:0:0:0:
256,192,54737,1,0,0:0:0:70:LR_Snare Normal.wav
256,192,54908,128,0,55079:0:0:0:70:LR_Drum EDge.wav
109,192,55079,128,0,55251:0:0:0:70:LR_Drum EDge.wav
402,192,55251,128,0,55422:0:0:0:70:LR_Drum EDge.wav
109,192,55422,128,0,55594:0:0:0:70:LR_Drum EDge.wav
475,192,55594,1,0,0:0:0:70:LR4_KickTBCD.wav
329,192,55594,1,0,0:0:0:0:
182,192,55765,1,0,0:0:0:70:LR_Hat Synth.wav
36,192,55937,1,0,0:0:0:70:LR4_KickTBCD.wav
402,192,55937,1,0,0:0:0:0:
109,192,56279,1,0,0:0:0:70:LR4_KickTBCD.wav
475,192,56279,1,0,0:0:0:0:
329,192,56451,1,0,0:0:0:70:LR_Hat Synth.wav
36,192,56622,1,0,0:0:0:70:LR4_KickTBCD.wav
182,192,56622,1,0,0:0:0:0:
402,192,56965,1,0,0:0:0:70:LR4_KickTBCD.wav
329,192,56965,128,0,57308:0:0:0:0:
36,192,57308,1,0,0:0:0:70:LR4_KickTBCD.wav
109,192,57308,1,0,0:0:0:0:
402,192,57479,1,0,0:0:0:70:LR_Hat Synth.wav
329,192,57651,1,0,0:0:0:70:LR4_KickTBCD.wav
182,192,57651,1,0,0:0:0:0:
109,192,57822,1,0,0:0:0:70:LR_Hat Synth.wav
402,192,57994,1,0,0:0:0:70:LR4_KickTBCD.wav
475,192,57994,1,0,0:0:0:0:
475,192,58337,1,0,0:0:0:70:LR4_KickTBCD.wav
36,192,58337,1,0,0:0:0:0:
109,192,58679,1,0,0:0:0:70:LR4_KickTBCD.wav
402,192,58679,1,0,0:0:0:0:
109,192,59022,1,0,0:0:0:70:LR4_KickTBCD.wav
402,192,59022,1,0,0:0:0:0:
329,192,59194,1,0,0:0:0:70:LR_Hat Synth.wav
256,192,59365,1,0,0:0:0:70:LR4_KickTBCD.wav
182,192,59365,1,0,0:0:0:0:
36,192,59708,128,0,60051:0:0:0:70:LR4_KickTBCD.wav
475,192,59708,1,0,0:0:0:0:
109,192,60051,1,0,0:0:0:70:LR4_KickTBCD.wav
329,192,60051,1,0,0:0:0:0:
182,192,60222,1,0,0:0:0:0:
256,192,60394,1,0,0:0:0:70:LR4_KickTBCD.wav
475,192,60394,1,0,0:0:0:0:
36,192,60565,1,0,0:0:0:0:
182,192,60737,1,0,0:0:0:70:LR4_KickTBCD.wav
402,192,60737,1,0,0:0:0:0:
109,192,61079,1,0,0:0:0:70:LR4_KickTBCD.wav
36,192,61079,1,0,0:0:0:70:LR_Hat Synth.wav
475,192,61251,1,0,0:0:0:0:
329,192,61422,1,0,0:0:0:70:LR4_KickTBCD.wav
402,192,61422,1,0,0:0:0:70:LR_Hat Synth.wav
182,192,61765,1,0,0:0:0:70:LR4_KickTBCD.wav
109,192,61765,1,0,0:0:0:70:LR_Hat Synth.wav
36,192,61937,1,0,0:0:0:0:
402,192,62108,1,0,0:0:0:70:LR4_KickTBCD.wav
475,192,62108,1,0,0:0:0:70:LR_Hat Synth.wav
182,192,62451,128,0,62794:0:0:0:70:LR4_KickTBCD.wav
329,192,62451,1,0,0:0:0:70:LR_Hat Synth.wav
36,192,62794,1,0,0:0:0:70:LR4_KickTBCD.wav
475,192,62794,1,0,0:0:0:70:LR_Hat Synth.wav
402,192,62965,1,0,0:0:0:0:
182,192,63137,1,0,0:0:0:70:LR4_KickTBCD.wav
329,192,63137,1,0,0:0:0:70:LR_Hat Synth.wav
109,192,63308,1,0,0:0:0:0:
256,192,63479,1,0,0:0:0:70:LR4_KickTBCD.wav
475,192,63479,1,0,0:0:0:70:LR_Hat Synth.wav
36,192,63822,1,0,0:0:0:70:LR4_KickTBCD.wav
109,192,63822,1,0,0:0:0:70:LR_Hat Synth.wav
402,192,64165,1,0,0:0:0:70:LR4_KickTBCD.wav
329,192,64165,1,0,0:0:0:70:LR_Hat Synth.wav
402,192,64508,1,0,0:0:0:70:LR4_KickTBCD.wav
329,192,64508,1,0,0:0:0:70:LR_Hat Synth.wav
182,192,64679,1,0,0:0:0:0:
402,192,64851,1,0,0:0:0:70:LR4_KickTBCD.wav
475,192,64851,1,0,0:0:0:70:LR_Hat Synth.wav
36,192,65194,128,0,65365:0:0:0:0:
329,192,65365,1,0,0:0:0:0:
109,192,65537,128,0,65708:0:0:0:0:
402,192,65708,1,0,0:0:0:0:
475,192,65879,128,0,66051:0:0:0:0:
182,192,66051,1,0,0:0:0:0:
402,192,66222,128,0,66394:0:0:0:0:
36,192,66394,1,0,0:0:0:70:LR4_KickTBCD.wav
109,192,66394,1,0,0:0:0:0:
329,192,66565,1,0,0:0:0:70:LR4_KickTBCD.wav
256,192,66565,1,0,0:0:0:0:
182,192,66737,1,0,0:0:0:70:LR_Hat Normal.wav
475,192,66908,1,0,0:0:0:70:LR4_KickTBCD.wav
329,192,66908,1,0,0:0:0:0:
182,192,67251,1,0,0:0:0:70:LR4_KickTBCD.wav
36,192,67251,1,0,0:0:0:0:
402,192,67422,1,0,0:0:0:70:LR_Hat Normal.wav
256,192,67594,1,0,0:0:0:70:LR4_KickTBCD.wav
109,192,67594,1,0,0:0:0:0:
182,192,67937,1,0,0:0:0:70:LR4_KickTBCD.wav
329,192,67937,128,0,68279:0:0:0:0:
475,192,68279,1,0,0:0:0:70:LR4_KickTBCD.wav
36,192,68279,1,0,0:0:0:0:
402,192,68451,1,0,0:0:0:70:LR_Hat Normal.wav
329,192,68622,1,0,0:0:0:70:LR4_KickTBCD.wav
182,192,68622,1,0,0:0:0:0:
109,192,68794,1,0,0:0:0:70:LR_Hat Normal.wav
256,192,68965,1,0,0:0:0:70:LR4_KickTBCD.wav
475,192,68965,1,0,0:0:0:0:
182,192,69308,1,0,0:0:0:70:LR4_KickTBCD.wav
109,192,69308,1,0,0:0:0:0:
329,192,69651,1,0,0:0:0:70:LR4_KickTBCD.wav
402,192,69651,1,0,0:0:0:0:
329,192,69994,1,0,0:0:0:70:LR4_KickTBCD.wav
402,192,69994,1,0,0:0:0:0:
36,192,70165,1,0,0:0:0:70:LR_Hat Normal.wav
402,192,70337,1,0,0:0:0:70:LR4_KickTBCD.wav
475,192,70337,1,0,0:0:0:0:
256,192,70679,1,0,0:0:0:70:LR4_KickTBCD.wav
109,192,70679,128,0,71022:0:0:0:0:
182,192,71022,1,0,0:0:0:70:LR4_KickTBCD.wav
329,192,71022,1,0,0:0:0:0:
402,192,71194,1,0,0:0:0:70:LR_Hat Normal.wav
475,192,71365,1,0,0:0:0:70:LR4_KickTBCD.wav
36,192,71365,1,0,0:0:0:0:
182,192,71537,1,0,0:0:0:70:LR_Hat Normal.wav
402,192,71708,1,0,0:0:0:70:LR4_KickTBCD.wav
256,192,71708,1,0,0:0:0:0:
182,192,72051,1,0,0:0:0:70:LR4_KickTBCD.wav
36,192,72051,1,8,0:0:0:70:LR_Hat Synth.wav
109,192,72222,1,0,0:0:0:70:LR_Hat Normal.wav
475,192,72394,1,0,0:0:0:70:LR4_KickTBCD.wav
329,192,72394,1,0,0:0:0:0:
256,192,72737,1,0,0:0:0:70:LR4_KickTBCD.wav
182,192,72737,1,0,0:0:0:0:
109,192,72908,1,0,0:0:0:70:LR_Hat Normal.wav
329,192,73079,1,0,0:0:0:70:LR4_KickTBCD.wav
402,192,73079,1,0,0:0:0:0:
109,192,73422,1,0,0:0:0:70:LR4_KickTBCD.wav
182,192,73422,128,0,73765:0:0:0:0:
475,192,73765,1,0,0:0:0:70:LR4_KickTBCD.wav
256,192,73765,1,0,0:0:0:0:
109,192,73937,1,0,0:0:0:70:LR_Hat Normal.wav
182,192,74108,1,0,0:0:0:70:LR4_KickTBCD.wav
402,192,74108,1,0,0:0:0:0:
329,192,74279,1,0,0:0:0:70:LR_Hat Normal.wav
256,192,74451,1,0,0:0:0:70:LR4_KickTBCD.wav
36,192,74451,1,0,0:0:0:0:
36,192,74794,1,0,0:0:0:70:LR4_KickTBCD.wav
182,192,74794,1,8,0:0:0:70:LR_Hat Synth.wav
182,192,75137,1,0,0:0:0:70:LR4_KickTBCD.wav
329,192,75137,1,0,0:0:0:0:
182,192,75479,1,0,0:0:0:70:LR4_KickTBCD.wav
329,192,75479,1,0,0:0:0:0:
109,192,75651,1,0,0:0:0:70:LR_Hat Normal.wav
475,192,75822,1,0,0:0:0:70:LR4_KickTBCD.wav
329,192,75822,1,0,0:0:0:0:
256,192,76165,128,0,76508:0:0:0:0:
109,192,76508,1,0,0:0:0:0:
182,192,76679,1,0,0:0:0:0:
402,192,76851,1,0,0:0:0:0:
329,192,77022,1,0,0:0:0:0:
256,192,77194,1,0,0:0:0:0:
36,192,77537,1,0,0:0:0:40:LR4_KickGBDV.wav
109,192,77537,1,0,0:0:0:70:LR_Hat Synth.wav
475,192,77708,1,0,0:0:0:0:
182,192,77879,1,0,0:0:0:40:LR4_KickGBDV.wav
402,192,77879,1,0,0:0:0:70:LR_Hat Synth.wav
329,192,78051,1,0,0:0:0:0:
36,192,78222,1,0,0:0:0:40:LR4_KickGBDV.wav
182,192,78222,1,0,0:0:0:70:LR_Hat Synth.wav
329,192,78394,1,0,0:0:0:0:
109,192,78565,1,0,0:0:0:40:LR4_KickGBDV.wav
402,192,78565,1,0,0:0:0:70:LR_Hat Synth.wav
182,192,78737,1,0,0:0:0:0:
256,192,78908,1,0,0:0:0:40:LR4_KickGBDV.wav
475,192,78908,1,0,0:0:0:70:LR_Hat Synth.wav
36,192,79079,1,0,0:0:0:0:
182,192,79251,1,0,0:0:0:40:LR4_KickGBDV.wav
402,192,79251,1,0,0:0:0:70:LR_Hat Synth.wav
329,192,79422,1,0,0:0:0:0:
36,192,79594,1,0,0:0:0:40:LR4_KickGBDV.wav
182,192,79594,1,0,0:0:0:70:LR_Hat Synth.wav
475,192,79765,1,0,0:0:0:0:
109,192,79937,1,0,0:0:0:40:LR4_KickGBDV.wav
329,192,79937,1,0,0:0:0:70:LR_Hat Synth.wav
256,192,80108,1,0,0:0:0:0:
36,192,80279,1,0,0:0:0:40:LR4_KickGBDV.wav
182,192,80279,1,0,0:0:0:70:LR_Hat Synth.wav
475,192,80451,1,0,0:0:0:0:
182,192,80622,1,0,0:0:0:40:LR4_KickGBDV.wav
109,192,80622,1,0,0:0:0:70:LR_Hat Synth.wav
329,192,80794,1,0,0:0:0:0:
109,192,80965,1,0,0:0:0:40:LR4_KickGBDV.wav
402,192,80965,1,0,0:0:0:70:LR_Hat Synth.wav
182,192,81137,1,0,0:0:0:0:
402,192,81308,1,0,0:0:0:40:LR4_KickGBDV.wav
475,192,81308,1,0,0:0:0:70:LR_Hat Synth.wav
36,192,81479,1,0,0:0:0:0:
329,192,81651,1,0,0:0:0:40:LR4_KickGBDV.wav
109,192,81651,1,0,0:0:0:70:LR_Hat Synth.wav
182,192,81822,1,0,0:0:0:0:
475,192,81994,1,0,0:0:0:40:LR4_KickGBDV.wav
329,192,81994,1,0,0:0:0:70:LR_Hat Synth.wav
36,192,82165,1,0,0:0:0:0:
182,192,82337,1,0,0:0:0:40:LR4_KickGBDV.wav
402,192,82337,1,0,0:0:0:70:LR_Hat Synth.wav
256,192,82508,1,0,0:0:0:0:
109,192,82679,1,0,0:0:0:40:LR4_KickGBDV.wav
36,192,82679,1,0,0:0:0:70:LR_Hat Synth.wav
329,192,82851,1,2,0:0:0:0:
475,192,83022,1,2,0:0:0:0:
402,192,83194,1,2,0:0:0:0:
329,192,83365,1,2,0:0:0:0:
256,192,83537,1,0,0:0:0:0:
182,192,83708,1,0,0:0:0:70:LR_Hat Synth.wav
402,192,83879,1,0,0:0:0:0:
109,192,84051,1,0,0:0:0:70:LR_Hat Synth.wav
329,192,84222,1,0,0:0:0:0:
36,192,84394,1,0,0:0:0:70:LR_Hat Synth.wav
109,192,84565,1,0,0:0:0:0:
182,192,84737,1,0,0:0:0:70:LR_Hat Synth.wav
256,192,84908,1,0,0:0:0:0:
329,192,85079,1,0,0:0:0:70:LR_Hat Synth.wav
182,192,85251,1,0,0:0:0:0:
402,192,85422,1,0,0:0:0:70:LR_Hat Synth.wav
109,192,85594,1,0,0:0:0:0:
329,192,85765,128,0,87137:0:0:0:70:LR_Hat Synth.wav
475,192,87822,128,0,87994:0:0:0:70:LR_Drum EDge.wav
182,192,87994,128,0,88165:0:0:0:70:LR_Drum EDge.wav
329,192,88165,128,0,88337:0:0:0:70:LR_Drum EDge.wav
36,192,88337,128,0,88508:0:0:0:70:LR_Drum EDge.wav
329,192,88508,1,0,0:0:0:0:
475,192,88508,1,0,0:0:0:70:LR4_KickTBCD.wav
109,192,88679,1,0,0:0:0:70:LR_Hat Normal.wav
402,192,88851,1,0,0:0:0:70:LR4_KickTBCD.wav
182,192,88851,1,0,0:0:0:0:
329,192,89022,1,0,0:0:0:70:LR_Hat Normal.wav
182,192,89194,1,0,0:0:0:70:LR4_KickTBCD.wav
36,192,89194,1,0,0:0:0:0:
475,192,89365,1,0,0:0:0:70:LR_Hat Normal.wav
402,192,89537,1,0,0:0:0:70:LR4_KickTBCD.wav
109,192,89537,1,0,0:0:0:0:
256,192,89708,1,0,0:0:0:70:LR_Hat Normal.wav
182,192,89879,1,0,0:0:0:70:LR4_KickTBCD.wav
329,192,89879,1,0,0:0:0:0:
36,192,90051,1,0,0:0:0:70:LR_Hat Normal.wav
475,192,90222,1,0,0:0:0:70:LR4_KickTBCD.wav
329,192,90222,1,0,0:0:0:0:
109,192,90394,1,0,0:0:0:70:LR_Hat Normal.wav
402,192,90565,1,0,0:0:0:70:LR4_KickTBCD.wav
182,192,90565,1,0,0:0:0:0:
256,192,90737,128,0,90908:0:0:0:70:LR_Hat Normal.wav
182,192,90908,1,0,0:0:0:70:LR4_KickTBCD.wav
329,192,90908,128,0,91251:0:0:0:0:
256,192,91251,1,0,0:0:0:70:LR4_KickTBCD.wav
109,192,91251,1,0,0:0:0:0:
402,192,91422,1,0,0:0:0:70:LR_Hat Normal.wav
329,192,91594,1,0,0:0:0:70:LR4_KickTBCD.wav
36,192,91594,1,0,0:0:0:0:
182,192,91765,1,0,0:0:0:70:LR_Hat Normal.wav
475,192,91937,1,0,0:0:0:70:LR4_KickTBCD.wav
256,192,91937,1,0,0:0:0:0:
402,192,92108,1,0,0:0:0:70:LR_Hat Normal.wav
329,192,92279,1,0,0:0:0:70:LR4_KickTBCD.wav
36,192,92279,1,0,0:0:0:0:
109,192,92451,1,0,0:0:0:70:LR_Hat Normal.wav
182,192,92622,1,0,0:0:0:70:LR4_KickTBCD.wav
402,192,92622,1,0,0:0:0:0:
329,192,92794,1,0,0:0:0:70:LR_Hat Normal.wav
36,192,92965,1,0,0:0:0:70:LR4_KickTBCD.wav
256,192,92965,1,0,0:0:0:0:
475,192,93137,1,0,0:0:0:70:LR_Hat Normal.wav
402,192,93308,1,0,0:0:0:70:LR4_KickTBCD.wav
109,192,93308,1,0,0:0:0:0:
256,192,93479,128,0,93651:0:0:0:70:LR_Hat Normal.wav
329,192,93651,1,0,0:0:0:70:LR4_KickTBCD.wav
182,192,93651,128,0,93994:0:0:0:0:
36,192,93994,1,0,0:0:0:70:LR4_KickTBCD.wav
402,192,93994,1,0,0:0:0:0:
256,192,94165,1,0,0:0:0:70:LR_Hat Normal.wav
329,192,94337,1,0,0:0:0:70:LR4_KickTBCD.wav
475,192,94337,1,0,0:0:0:0:
109,192,94508,1,0,0:0:0:70:LR_Hat Normal.wav
182,192,94679,1,0,0:0:0:70:LR4_KickTBCD.wav
402,192,94679,1,0,0:0:0:0:
329,192,94851,1,0,0:0:0:70:LR_Hat Normal.wav
36,192,95022,1,0,0:0:0:70:LR4_KickTBCD.wav
256,192,95022,1,0,0:0:0:0:
182,192,95194,1,0,0:0:0:70:LR_Hat Normal.wav
109,192,95365,1,0,0:0:0:70:LR4_KickTBCD.wav
475,192,95365,1,0,0:0:0:0:
402,192,95537,1,0,0:0:0:70:LR_Hat Normal.wav
182,192,95708,1,0,0:0:0:70:LR4_KickTBCD.wav
329,192,95708,1,0,0:0:0:0:
36,192,95879,1,0,0:0:0:70:LR_Hat Normal.wav
475,192,96051,1,0,0:0:0:70:LR4_KickTBCD.wav
256,192,96051,1,0,0:0:0:0:
182,192,96222,128,0,96394:0:0:0:70:LR_Hat Normal.wav
402,192,96394,1,0,0:0:0:70:LR4_KickTBCD.wav
109,192,96394,128,0,96737:0:0:0:0:
182,192,96737,1,0,0:0:0:70:LR4_KickTBCD.wav
329,192,96737,1,0,0:0:0:0:
475,192,96908,1,0,0:0:0:70:LR_Hat Normal.wav
109,192,97079,1,0,0:0:0:70:LR4_KickTBCD.wav
256,192,97079,1,0,0:0:0:0:
182,192,97251,1,0,0:0:0:70:LR_Hat Normal.wav
329,192,97422,1,0,0:0:0:70:LR4_KickTBCD.wav
475,192,97422,1,0,0:0:0:0:
36,192,97594,1,0,0:0:0:70:LR_Hat Normal.wav
109,192,97765,1,0,0:0:0:70:LR4_KickTBCD.wav
402,192,97765,1,0,0:0:0:0:
182,192,97937,1,0,0:0:0:70:LR_Hat Normal.wav
256,192,98108,1,0,0:0:0:70:LR4_KickTBCD.wav
475,192,98108,1,0,0:0:0:0:
36,192,98279,1,0,0:0:0:70:LR_Hat Normal.wav
182,192,98451,1,0,0:0:0:70:LR4_KickTBCD.wav
402,192,98451,1,0,0:0:0:0:
329,192,98622,1,0,0:0:0:70:LR_Hat Normal.wav
36,192,98794,1,0,0:0:0:70:LR4_KickTBCD.wav
109,192,98794,1,0,0:0:0:0:
182,192,98965,128,0,99137:0:0:0:70:LR_Hat Normal.wav
475,192,99137,1,0,0:0:0:70:LR4_KickTBCD.wav
256,192,99137,128,0,99479:0:0:0:0:
109,192,99479,128,0,99994:0:0:0:0:
402,192,99479,128,0,99994:0:0:0:0:
329,192,99994,1,0,0:0:0:70:LR4_KickTBCD.wav
182,192,99994,1,0,0:0:0:0:
36,192,100165,1,0,0:0:0:70:LR4_KickTBCD.wav
475,192,100165,1,0,0:0:0:70:LR_Drum Finish.wav
256,192,100337,1,0,0:0:0:70:LR_Hat Normal.wav
329,192,100508,1,0,0:0:0:70:LR4_KickTBCD.wav
109,192,100508,1,0,0:0:0:0:
182,192,100679,1,0,0:0:0:70:LR_Hat Normal.wav
402,192,100851,1,0,0:0:0:70:LR4_KickTBCD.wav
475,192,100851,1,0,0:0:0:0:
36,192,101022,1,0,0:0:0:70:LR_Hat Normal.wav
329,192,101194,1,0,0:0:0:70:LR4_KickTBCD.wav
109,192,101194,1,0,0:0:0:0:
402,192,101365,1,0,0:0:0:70:LR_Hat Normal.wav
182,192,101537,1,0,0:0:0:70:LR4_KickTBCD.wav
475,192,101537,1,0,0:0:0:0:
256,192,101708,128,0,101879:0:0:0:70:LR_Hat Normal.wav
36,192,101879,1,0,0:0:0:70:LR4_KickTBCD.wav
329,192,101879,128,0,102222:0:0:0:0:
109,192,102222,1,0,0:0:0:70:LR4_KickTBCD.wav
402,192,102222,1,0,0:0:0:0:
256,192,102394,1,0,0:0:0:70:LR_Hat Normal.wav
36,192,102565,1,0,0:0:0:70:LR4_KickTBCD.wav
475,192,102565,1,0,0:0:0:0:
402,192,102737,1,0,0:0:0:70:LR_Hat Normal.wav
329,192,102908,1,0,0:0:0:70:LR4_KickTBCD.wav
109,192,102908,1,0,0:0:0:0:
182,192,103079,1,0,0:0:0:70:LR_Hat Normal.wav
36,192,103251,1,0,0:0:0:70:LR4_KickTBCD.wav
402,192,103251,1,0,0:0:0:0:
475,192,103422,1,0,0:0:0:70:LR_Hat Normal.wav
329,192,103594,1,0,0:0:0:70:LR4_KickTBCD.wav
109,192,103594,1,0,0:0:0:0:
182,192,103765,1,0,0:0:0:70:LR_Hat Normal.wav
475,192,103937,1,0,0:0:0:70:LR4_KickTBCD.wav
256,192,103937,1,0,0:0:0:0:
402,192,104108,1,0,0:0:0:70:LR_Hat Normal.wav
329,192,104279,1,0,0:0:0:70:LR4_KickTBCD.wav
36,192,104279,1,0,0:0:0:0:
256,192,104451,128,0,104622:0:0:0:70:LR_Hat Normal.wav
475,192,104622,1,0,0:0:0:70:LR4_KickTBCD.wav
182,192,104622,128,0,104965:0:0:0:0:
402,192,104965,1,0,0:0:0:70:LR4_KickTBCD.wav
109,192,104965,1,0,0:0:0:0:
256,192,105137,1,0,0:0:0:70:LR_Hat Normal.wav
182,192,105308,1,0,0:0:0:70:LR4_KickTBCD.wav
475,192,105308,1,0,0:0:0:0:
402,192,105479,1,0,0:0:0:70:LR_Hat Normal.wav
329,192,105651,1,0,0:0:0:70:LR4_KickTBCD.wav
36,192,105651,1,0,0:0:0:0:
109,192,105822,1,0,0:0:0:70:LR_Hat Normal.wav
256,192,105994,1,0,0:0:0:70:LR4_KickTBCD.wav
475,192,105994,1,0,0:0:0:0:
329,192,106165,1,0,0:0:0:70:LR_Hat Normal.wav
36,192,106337,1,0,0:0:0:70:LR4_KickTBCD.wav
402,192,106337,1,0,0:0:0:0:
109,192,106508,1,0,0:0:0:70:LR_Hat Normal.wav
182,192,106679,1,0,0:0:0:70:LR4_KickTBCD.wav
475,192,106679,1,0,0:0:0:0:
402,192,106851,1,0,0:0:0:70:LR_Hat Normal.wav
256,192,107022,1,0,0:0:0:70:LR4_KickTBCD.wav
36,192,107022,1,0,0:0:0:0:
182,192,107194,128,0,107365:0:0:0:70:LR_Hat Normal.wav
402,192,107365,1,0,0:0:0:70:LR4_KickTBCD.wav
329,192,107365,128,0,107708:0:0:0:0:
36,192,107708,128,0,108737:0:0:0:0:
475,192,107708,128,0,108737:0:0:0:0:
256,192,108737,128,0,109079:0:0:0:0:
36,192,109079,128,0,109422:0:0:0:0:
402,192,109422,128,0,109594:0:0:0:0:
109,192,109594,128,0,109765:0:0:0:0:
475,192,109765,128,0,110108:0:0:0:0:
