osu file format v14

[General]
AudioFilename: audio.mp3
AudioLeadIn: 0
PreviewTime: 88166
Countdown: 0
SampleSet: Soft
StackLeniency: 0.7
Mode: 3
LetterboxInBreaks: 0
EpilepsyWarning: 1
SpecialStyle: 0
WidescreenStoryboard: 1

[Editor]
DistanceSpacing: 0.6
BeatDivisor: 6
GridSize: 16
TimelineZoom: 1.8

[Metadata]
Title:Candy (feat. Sara)
TitleUnicode:Candy (feat. Sara)
Artist:S3RL
ArtistUnicode:S3RL
Creator:_Asha
Version:4K Insane
Source:osu!
Tags:happy hardcore emfa music serl cut tv size featured artist fa dudehacker Draftnell Remuring Affirmation
BeatmapID:1991413
BeatmapSetID:953777

[Difficulty]
HPDrainRate:8
CircleSize:4
OverallDifficulty:8
ApproachRate:5
SliderMultiplier:1.4
SliderTickRate:1

[Events]
//Background and Video events
0,0,"candy bg2.jpg",0,0
//Break Periods
//Storyboard Layer 0 (Background)
//Storyboard Layer 1 (Fail)
//Storyboard Layer 2 (Pass)
//Storyboard Layer 3 (Foreground)
//Storyboard Layer 4 (Overlay)
//Storyboard Sound Samples
Sample,83365,0,"LR_Hat Synth.wav",70

[TimingPoints]
737,342.857142857143,4,2,1,70,1,0
88508,-100,4,2,1,70,0,1
99479,-100,4,2,1,70,0,0
100165,-100,4,2,1,70,0,1
107708,-100,4,2,1,70,0,0

[HitObjects]
64,192,736,128,0,2108:0:0:0:0:
192,192,736,128,0,1251:0:0:0:0:
192,192,1422,128,0,1765:0:0:0:0:
448,192,1765,128,0,2108:0:0:0:0:
320,192,2108,128,0,3479:0:0:0:0:
192,192,2108,128,0,2451:0:0:0:0:
448,192,2451,128,0,2794:0:0:0:0:
64,192,2794,128,0,3479:0:0:0:0:
192,192,3479,128,0,4965:0:0:0:0:
448,192,3479,128,0,3994:0:0:0:0:
448,192,4165,128,0,4508:0:0:0:0:
64,192,4508,128,0,4965:0:0:0:0:
448,192,4965,128,0,6222:0:0:0:0:
320,192,4965,128,0,5365:0:0:0:0:
64,192,6222,128,0,7594:0:0:0:0:
192,192,6222,128,0,6908:0:0:0:0:
448,192,6908,128,0,7165:0:0:0:0:
320,192,7165,128,0,7594:0:0:0:0:
192,192,7594,128,0,8965:0:0:0:0:
448,192,7594,128,0,7937:0:0:0:0:
64,192,8279,128,0,8965:0:0:0:0:
448,192,8965,128,0,10451:0:0:0:0:
320,192,8965,128,0,9737:0:0:0:0:
192,192,9737,128,0,9994:0:0:0:0:
64,192,9994,128,0,10451:0:0:0:0:
192,192,10451,128,0,10851:0:0:0:0:
320,192,10451,128,0,11708:0:0:0:0:
448,192,11708,1,2,0:0:0:0:
64,192,11708,1,0,0:0:0:0:
192,192,11708,1,0,0:0:0:0:
448,192,12051,1,0,0:0:0:0:
192,192,12222,1,0,0:0:0:0:
320,192,12394,1,8,0:0:0:0:
448,192,12394,1,0,0:0:0:0:
64,192,12394,1,0,0:0:0:0:
320,192,12737,1,2,0:0:0:0:
192,192,12737,1,0,0:0:0:0:
64,192,13079,1,0,0:0:0:0:
192,192,13165,1,0,0:0:0:0:
448,192,13422,1,0,0:0:0:0:
192,192,13594,1,0,0:0:0:0:
448,192,13765,1,8,0:0:0:0:
192,192,13765,1,0,0:0:0:0:
64,192,13765,1,0,0:0:0:0:
320,192,14108,1,0,0:0:0:0:
192,192,14279,1,0,0:0:0:0:
448,192,14451,1,2,0:0:0:0:
64,192,14451,1,0,0:0:0:0:
192,192,14794,1,0,0:0:0:0:
320,192,14965,1,0,0:0:0:0:
448,192,15137,1,8,0:0:0:0:
192,192,15137,1,0,0:0:0:0:
64,192,15137,1,0,0:0:0:0:
320,192,15479,1,2,0:0:0:0:
192,192,15479,1,0,0:0:0:0:
448,192,15822,1,0,0:0:0:0:
320,192,15908,1,0,0:0:0:0:
64,192,16165,1,2,0:0:0:0:
192,192,16165,1,0,0:0:0:0:
320,192,16251,1,0,0:0:0:0:
448,192,16337,1,0,0:0:0:0:
64,192,16508,1,8,0:0:0:0:
192,192,16508,1,0,0:0:0:0:
448,192,16508,1,0,0:0:0:0:
64,192,16679,1,2,0:0:0:0:
192,192,16679,1,0,0:0:0:0:
448,192,16851,1,0,0:0:0:0:
64,192,17022,1,0,0:0:0:0:
320,192,17194,1,2,0:0:0:0:
192,192,17194,1,0,0:0:0:0:
320,192,17537,1,0,0:0:0:0:
192,192,17708,1,0,0:0:0:0:
448,192,17879,1,8,0:0:0:0:
320,192,17879,1,0,0:0:0:0:
64,192,17879,1,0,0:0:0:0:
192,192,18222,1,2,0:0:0:0:
64,192,18222,1,0,0:0:0:0:
320,192,18394,1,0,0:0:0:0:
64,192,18565,1,0,0:0:0:0:
192,192,18651,1,0,0:0:0:0:
448,192,18908,1,0,0:0:0:0:
192,192,19079,1,0,0:0:0:0:
192,192,19251,1,8,0:0:0:0:
64,192,19251,1,0,0:0:0:0:
448,192,19251,1,0,0:0:0:0:
320,192,19594,1,0,0:0:0:0:
192,192,19765,1,0,0:0:0:0:
448,192,19937,1,2,0:0:0:0:
64,192,19937,1,0,0:0:0:0:
192,192,20279,1,0,0:0:0:0:
320,192,20451,1,0,0:0:0:0:
448,192,20622,1,8,0:0:0:0:
64,192,20622,1,0,0:0:0:0:
192,192,20622,1,0,0:0:0:0:
320,192,20965,1,2,0:0:0:0:
448,192,20965,1,0,0:0:0:0:
64,192,21308,128,0,21651:0:0:0:0:
448,192,21651,128,0,21994:0:0:0:0:
320,192,21822,128,0,21994:0:0:0:0:
192,192,21994,128,0,22165:0:0:0:0:
448,192,22165,1,2,0:0:0:0:
64,192,22165,1,0,0:0:0:0:
192,192,22337,1,0,0:0:0:0:
448,192,22508,1,8,0:0:0:0:
64,192,22508,1,0,0:0:0:0:
192,192,22679,1,2,0:0:0:0:
448,192,22679,128,4,23365:0:0:0:0:
320,192,22679,128,0,23022:0:0:0:0:
64,192,23022,1,0,0:0:0:0:
320,192,23194,1,0,0:0:0:0:
64,192,23365,1,8,0:0:0:0:
192,192,23365,1,0,0:0:0:0:
448,192,23708,128,2,24051:0:0:0:0:
320,192,23708,128,0,24051:0:0:0:0:
64,192,24051,1,0,0:0:0:0:
448,192,24394,128,2,24737:0:0:0:0:
192,192,24394,128,0,24565:0:0:0:0:
320,192,24565,1,0,0:0:0:0:
64,192,24737,1,8,0:0:0:0:
192,192,24737,1,0,0:0:0:0:
448,192,25079,1,0,0:0:0:0:
320,192,25251,1,0,0:0:0:0:
64,192,25422,128,2,26108:0:0:0:0:
192,192,25422,128,0,25765:0:0:0:0:
448,192,25765,1,0,0:0:0:0:
192,192,25937,1,0,0:0:0:0:
448,192,26108,1,8,0:0:0:0:
320,192,26108,1,0,0:0:0:0:
192,192,26451,128,2,26794:0:0:0:0:
64,192,26451,128,0,26794:0:0:0:0:
320,192,26794,1,0,0:0:0:0:
64,192,27137,128,2,27479:0:0:0:0:
448,192,27137,128,0,27479:0:0:0:0:
192,192,27479,1,8,0:0:0:0:
320,192,27479,1,0,0:0:0:0:
64,192,27651,128,2,27994:0:0:0:0:
448,192,27651,128,0,27994:0:0:0:0:
320,192,27994,1,0,0:0:0:0:
192,192,28165,128,2,28508:0:0:0:0:
448,192,28165,128,0,28851:0:0:0:0:
64,192,28508,1,0,0:0:0:0:
192,192,28679,1,0,0:0:0:0:
320,192,28851,1,8,0:0:0:0:
64,192,28851,1,0,0:0:0:0:
192,192,29194,128,2,29537:0:0:0:0:
448,192,29194,128,0,29537:0:0:0:0:
320,192,29537,1,0,0:0:0:0:
64,192,29879,128,2,30222:0:0:0:0:
320,192,29879,128,0,30051:0:0:0:0:
192,192,30051,1,0,0:0:0:0:
448,192,30222,1,8,0:0:0:0:
320,192,30222,1,0,0:0:0:0:
192,192,30565,1,0,0:0:0:0:
320,192,30737,1,0,0:0:0:0:
64,192,30908,128,2,31594:0:0:0:0:
192,192,30908,128,0,31251:0:0:0:0:
448,192,31251,1,0,0:0:0:0:
320,192,31422,1,0,0:0:0:0:
448,192,31594,1,8,0:0:0:0:
192,192,31594,1,0,0:0:0:0:
64,192,31937,128,2,32279:0:0:0:0:
192,192,31937,128,0,32279:0:0:0:0:
320,192,32279,1,0,0:0:0:0:
64,192,32451,1,0,0:0:0:0:
448,192,32622,1,2,0:0:0:0:
320,192,32622,1,0,0:0:0:0:
320,192,32794,1,2,0:0:0:0:
192,192,32794,1,0,0:0:0:0:
448,192,32965,1,8,0:0:0:0:
64,192,32965,1,0,0:0:0:0:
192,192,32965,1,0,0:0:0:0:
320,192,33308,1,0,0:0:0:0:
448,192,33651,1,0,0:0:0:0:
320,192,33994,1,0,0:0:0:0:
64,192,34165,1,0,0:0:0:0:
448,192,34337,1,0,0:0:0:0:
192,192,34508,1,0,0:0:0:0:
320,192,34679,1,0,0:0:0:0:
64,192,34851,1,0,0:0:0:0:
448,192,35022,1,0,0:0:0:0:
320,192,35022,1,0,0:0:0:0:
192,192,35108,1,0,0:0:0:0:
320,192,35194,1,0,0:0:0:0:
448,192,35279,1,0,0:0:0:0:
192,192,35365,1,0,0:0:0:0:
64,192,35365,1,0,0:0:0:0:
320,192,35537,1,0,0:0:0:0:
192,192,35708,1,0,0:0:0:0:
448,192,35708,1,0,0:0:0:0:
64,192,35879,1,0,0:0:0:0:
320,192,36051,1,0,0:0:0:0:
448,192,36051,1,0,0:0:0:0:
192,192,36222,1,0,0:0:0:0:
64,192,36394,1,0,0:0:0:0:
448,192,36394,1,0,0:0:0:0:
320,192,36565,1,0,0:0:0:0:
64,192,36737,1,0,0:0:0:0:
192,192,36737,1,0,0:0:0:0:
448,192,36908,1,0,0:0:0:0:
64,192,37079,1,0,0:0:0:0:
192,192,37079,1,0,0:0:0:0:
320,192,37251,1,0,0:0:0:0:
64,192,37422,1,0,0:0:0:0:
448,192,37422,1,0,0:0:0:0:
192,192,37594,1,0,0:0:0:0:
320,192,37765,1,0,0:0:0:0:
448,192,37765,1,0,0:0:0:0:
192,192,37851,1,0,0:0:0:0:
64,192,37937,1,0,0:0:0:0:
448,192,38022,1,0,0:0:0:0:
192,192,38108,1,0,0:0:0:0:
64,192,38108,1,0,0:0:0:0:
320,192,38279,1,0,0:0:0:0:
192,192,38451,1,0,0:0:0:0:
448,192,38451,1,0,0:0:0:0:
64,192,38622,1,0,0:0:0:0:
192,192,38794,1,0,0:0:0:0:
320,192,38794,1,0,0:0:0:0:
448,192,38965,1,0,0:0:0:0:
320,192,39137,1,0,0:0:0:0:
64,192,39137,1,0,0:0:0:0:
192,192,39308,1,0,0:0:0:0:
192,192,39479,1,0,0:0:0:0:
448,192,39479,1,0,0:0:0:0:
64,192,39651,1,0,0:0:0:0:
192,192,39822,1,0,0:0:0:0:
320,192,39822,1,0,0:0:0:0:
448,192,39994,1,0,0:0:0:0:
320,192,40165,1,0,0:0:0:0:
64,192,40165,1,0,0:0:0:0:
192,192,40337,1,0,0:0:0:0:
64,192,40508,1,0,0:0:0:0:
448,192,40508,1,0,0:0:0:0:
320,192,40594,1,0,0:0:0:0:
64,192,40679,1,0,0:0:0:0:
192,192,40765,1,0,0:0:0:0:
448,192,40851,1,0,0:0:0:0:
320,192,40851,1,0,0:0:0:0:
64,192,41022,1,0,0:0:0:0:
320,192,41194,1,0,0:0:0:0:
448,192,41194,1,0,0:0:0:0:
192,192,41365,1,0,0:0:0:0:
320,192,41537,1,0,0:0:0:0:
64,192,41537,1,0,0:0:0:0:
448,192,41708,1,0,0:0:0:0:
64,192,41879,1,0,0:0:0:0:
192,192,41879,1,0,0:0:0:0:
320,192,42051,1,0,0:0:0:0:
192,192,42222,1,0,0:0:0:0:
448,192,42222,1,0,0:0:0:0:
64,192,42394,1,0,0:0:0:0:
192,192,42565,1,0,0:0:0:0:
448,192,42565,1,0,0:0:0:0:
320,192,42737,1,0,0:0:0:0:
448,192,42908,1,0,0:0:0:0:
64,192,42908,1,0,0:0:0:0:
192,192,43079,1,0,0:0:0:0:
448,192,43251,1,0,0:0:0:0:
320,192,43251,128,0,43422:0:0:0:0:
64,192,43337,1,0,0:0:0:0:
192,192,43422,1,0,0:0:0:0:
448,192,43508,1,0,0:0:0:0:
64,192,43594,1,0,0:0:0:0:
192,192,43594,128,0,43765:0:0:0:0:
320,192,43765,1,0,0:0:0:0:
448,192,43937,128,0,44108:0:0:0:0:
64,192,43937,1,0,0:0:0:0:
192,192,44108,1,0,0:0:0:0:
64,192,44279,128,0,44451:0:0:0:0:
320,192,44279,1,0,0:0:0:0:
448,192,44451,1,2,0:0:0:0:
192,192,44451,1,0,0:0:0:0:
64,192,44622,1,2,0:0:0:0:
320,192,44622,1,0,0:0:0:0:
448,192,44622,128,0,44794:0:0:0:0:
192,192,44794,1,2,0:0:0:0:
320,192,44794,1,0,0:0:0:0:
192,192,44965,1,2,0:0:0:0:
448,192,44965,1,0,0:0:0:0:
64,192,44965,1,0,0:0:0:0:
320,192,45137,1,2,0:0:0:0:
64,192,45137,1,0,0:0:0:0:
192,192,45308,1,2,0:0:0:0:
320,192,45308,1,0,0:0:0:0:
448,192,45308,1,0,0:0:0:0:
448,192,45479,1,2,0:0:0:0:
64,192,45479,1,0,0:0:0:0:
192,192,45651,1,2,0:0:0:0:
320,192,45651,1,0,0:0:0:0:
64,192,45651,128,0,45822:0:0:0:0:
448,192,45822,1,2,0:0:0:0:
192,192,45822,1,0,0:0:0:0:
64,192,45994,1,2,0:0:0:0:
320,192,45994,1,0,0:0:0:0:
448,192,45994,128,0,46165:0:0:0:0:
192,192,46165,1,2,0:0:0:0:
64,192,46165,1,0,0:0:0:0:
448,192,46337,1,2,0:0:0:0:
192,192,46337,1,0,0:0:0:0:
320,192,46337,1,0,0:0:0:0:
448,192,46508,1,2,0:0:0:0:
64,192,46508,1,0,0:0:0:0:
192,192,46679,1,2,0:0:0:0:
320,192,46679,1,0,0:0:0:0:
64,192,46679,1,0,0:0:0:0:
448,192,46851,1,2,0:0:0:0:
192,192,46851,1,0,0:0:0:0:
320,192,47022,1,2,0:0:0:0:
64,192,47022,1,0,0:0:0:0:
448,192,47022,1,0,0:0:0:0:
320,192,47194,1,2,0:0:0:0:
192,192,47194,1,0,0:0:0:0:
64,192,47365,1,2,0:0:0:0:
448,192,47365,1,0,0:0:0:0:
192,192,47365,128,0,47537:0:0:0:0:
320,192,47537,1,2,0:0:0:0:
64,192,47537,1,0,0:0:0:0:
192,192,47708,1,2,0:0:0:0:
320,192,47708,1,0,0:0:0:0:
448,192,47708,1,0,0:0:0:0:
448,192,47879,1,2,0:0:0:0:
64,192,47879,1,0,0:0:0:0:
320,192,48051,1,2,0:0:0:0:
192,192,48051,1,0,0:0:0:0:
64,192,48051,1,0,0:0:0:0:
448,192,48222,1,2,0:0:0:0:
192,192,48222,1,0,0:0:0:0:
448,192,48394,1,2,0:0:0:0:
64,192,48394,1,0,0:0:0:0:
320,192,48394,128,0,48565:0:0:0:0:
64,192,48565,1,2,0:0:0:0:
192,192,48565,1,0,0:0:0:0:
320,192,48737,1,2,0:0:0:0:
448,192,48737,1,0,0:0:0:0:
192,192,48737,128,0,48908:0:0:0:0:
448,192,48908,1,2,0:0:0:0:
64,192,48908,1,0,0:0:0:0:
192,192,49079,1,2,0:0:0:0:
320,192,49079,1,0,0:0:0:0:
64,192,49079,1,0,0:0:0:0:
448,192,49251,1,2,0:0:0:0:
192,192,49251,1,0,0:0:0:0:
320,192,49422,1,2,0:0:0:0:
64,192,49422,1,0,0:0:0:0:
448,192,49422,1,0,0:0:0:0:
320,192,49594,1,2,0:0:0:0:
192,192,49594,1,0,0:0:0:0:
192,192,49765,1,2,0:0:0:0:
64,192,49765,128,4,49937:0:0:0:0:
448,192,49765,128,0,49937:0:0:0:0:
320,192,49937,1,2,0:0:0:0:
192,192,50022,1,2,0:0:0:0:
64,192,50108,1,2,0:0:0:0:
448,192,50108,1,0,0:0:0:0:
320,192,50194,1,2,0:0:0:0:
64,192,50279,1,2,0:0:0:0:
192,192,50279,1,0,0:0:0:0:
320,192,50365,1,2,0:0:0:0:
448,192,50451,1,2,0:0:0:0:
64,192,50451,1,0,0:0:0:0:
192,192,50537,1,2,0:0:0:0:
448,192,50622,1,2,0:0:0:0:
320,192,50622,1,0,0:0:0:0:
192,192,50708,1,2,0:0:0:0:
320,192,50794,1,2,0:0:0:0:
64,192,50794,1,0,0:0:0:0:
448,192,50879,1,2,0:0:0:0:
64,192,50965,1,2,0:0:0:0:
192,192,50965,1,0,0:0:0:0:
320,192,51051,1,2,0:0:0:0:
192,192,51137,1,2,0:0:0:0:
448,192,51137,1,0,0:0:0:0:
64,192,51222,1,2,0:0:0:0:
448,192,51308,1,2,0:0:0:0:
320,192,51308,1,0,0:0:0:0:
192,192,51394,1,2,0:0:0:0:
64,192,51479,1,2,0:0:0:0:
448,192,51479,1,0,0:0:0:0:
320,192,51565,1,2,0:0:0:0:
192,192,51651,1,2,0:0:0:0:
64,192,51651,1,0,0:0:0:0:
320,192,51737,1,2,0:0:0:0:
448,192,51822,1,2,0:0:0:0:
64,192,51822,1,0,0:0:0:0:
192,192,51908,1,2,0:0:0:0:
320,192,51994,1,2,0:0:0:0:
448,192,51994,1,0,0:0:0:0:
64,192,52079,1,2,0:0:0:0:
192,192,52165,1,2,0:0:0:0:
448,192,52165,1,0,0:0:0:0:
320,192,52251,1,2,0:0:0:0:
192,192,52337,1,2,0:0:0:0:
64,192,52337,1,0,0:0:0:0:
448,192,52422,1,2,0:0:0:0:
320,192,52508,1,2,0:0:0:0:
64,192,52508,1,0,0:0:0:0:
192,192,52594,1,2,0:0:0:0:
448,192,52679,1,2,0:0:0:0:
320,192,52679,1,0,0:0:0:0:
64,192,52765,1,2,0:0:0:0:
192,192,52851,1,2,0:0:0:0:
448,192,52851,1,4,0:0:0:0:
64,192,52937,1,2,0:0:0:0:
320,192,52937,1,0,0:0:0:0:
448,192,53022,1,2,0:0:0:0:
192,192,53108,1,2,0:0:0:0:
64,192,53108,1,4,0:0:0:0:
320,192,53194,1,2,0:0:0:0:
448,192,53194,1,0,0:0:0:0:
192,192,53279,1,2,0:0:0:0:
320,192,53365,1,2,0:0:0:0:
64,192,53365,1,4,0:0:0:0:
448,192,53451,1,2,0:0:0:0:
192,192,53451,1,0,0:0:0:0:
64,192,53537,1,2,0:0:0:0:
448,192,53622,1,2,0:0:0:0:
320,192,53622,1,4,0:0:0:0:
192,192,53708,1,2,0:0:0:0:
64,192,53708,1,0,0:0:0:0:
320,192,53794,1,2,0:0:0:0:
448,192,53879,1,2,0:0:0:0:
64,192,53879,1,4,0:0:0:0:
192,192,53965,1,2,0:0:0:0:
320,192,53965,1,0,0:0:0:0:
64,192,54051,1,2,0:0:0:0:
448,192,54051,1,4,0:0:0:0:
192,192,54137,1,2,0:0:0:0:
320,192,54137,1,0,0:0:0:0:
448,192,54222,128,2,54651:0:0:0:0:
64,192,54222,128,4,54822:0:0:0:0:
320,192,54565,128,0,54651:0:0:0:70:LR_Snare Normal.wav
320,192,54737,128,0,54822:0:0:0:70:LR_Snare Normal.wav
448,192,54737,128,0,54822:0:0:0:0:
192,192,54908,1,0,0:0:0:70:LR_Drum EDge.wav
64,192,54908,1,0,0:0:0:0:
448,192,54994,1,0,0:0:0:70:LR_Drum EDge.wav
320,192,54994,1,0,0:0:0:0:
192,192,55079,1,0,0:0:0:70:LR_Drum EDge.wav
64,192,55165,1,0,0:0:0:70:LR_Drum EDge.wav
448,192,55251,1,0,0:0:0:70:LR_Drum EDge.wav
320,192,55251,1,0,0:0:0:0:
192,192,55337,1,0,0:0:0:70:LR_Drum EDge.wav
64,192,55337,1,0,0:0:0:0:
320,192,55422,1,0,0:0:0:70:LR_Drum EDge.wav
448,192,55508,1,0,0:0:0:70:LR_Drum EDge.wav
64,192,55594,1,0,0:0:0:70:LR4_KickTBCD.wav
320,192,55594,1,0,0:0:0:0:
192,192,55594,1,0,0:0:0:0:
192,192,55765,128,0,55937:0:0:0:70:LR_Hat Synth.wav
64,192,55937,1,0,0:0:0:70:LR4_KickTBCD.wav
448,192,55937,128,0,56108:0:0:0:0:
192,192,56108,1,0,0:0:0:70:LR_Hat Synth.wav
448,192,56279,1,0,0:0:0:70:LR4_KickTBCD.wav
64,192,56279,1,0,0:0:0:0:
320,192,56279,128,0,56451:0:0:0:0:
448,192,56451,1,0,0:0:0:70:LR_Hat Synth.wav
192,192,56451,128,0,56622:0:0:0:0:
320,192,56622,1,0,0:0:0:70:LR4_KickTBCD.wav
64,192,56622,128,0,56794:0:0:0:0:
192,192,56794,1,0,0:0:0:70:LR_Hat Synth.wav
448,192,56965,1,0,0:0:0:70:LR4_KickTBCD.wav
320,192,56965,1,0,0:0:0:0:
64,192,56965,1,0,0:0:0:0:
192,192,57051,1,0,0:0:0:0:
448,192,57137,1,0,0:0:0:70:LR_Hat Synth.wav
64,192,57137,1,0,0:0:0:0:
320,192,57222,1,0,0:0:0:0:
64,192,57308,1,0,0:0:0:70:LR4_KickTBCD.wav
192,192,57308,128,0,57479:0:0:0:0:
448,192,57479,1,0,0:0:0:70:LR_Hat Synth.wav
64,192,57651,1,0,0:0:0:70:LR4_KickTBCD.wav
192,192,57651,1,0,0:0:0:0:
320,192,57651,128,0,57822:0:0:0:0:
448,192,57822,1,0,0:0:0:70:LR_Hat Synth.wav
320,192,57994,1,0,0:0:0:70:LR4_KickTBCD.wav
64,192,57994,128,0,58337:0:0:0:0:
448,192,58165,1,0,0:0:0:70:LR_Hat Synth.wav
320,192,58337,1,0,0:0:0:70:LR4_KickTBCD.wav
448,192,58337,1,0,0:0:0:0:
192,192,58337,128,0,58508:0:0:0:0:
64,192,58508,1,0,0:0:0:70:LR_Hat Synth.wav
192,192,58679,1,0,0:0:0:70:LR4_KickTBCD.wav
448,192,58679,128,0,58851:0:0:0:0:
320,192,58851,1,0,0:0:0:70:LR_Hat Synth.wav
192,192,59022,1,0,0:0:0:70:LR4_KickTBCD.wav
64,192,59022,1,0,0:0:0:0:
448,192,59022,128,0,59194:0:0:0:0:
320,192,59194,128,0,59365:0:0:0:70:LR_Hat Synth.wav
448,192,59365,1,0,0:0:0:70:LR4_KickTBCD.wav
192,192,59365,128,0,59537:0:0:0:0:
64,192,59537,1,0,0:0:0:70:LR_Hat Synth.wav
448,192,59708,1,0,0:0:0:70:LR4_KickTBCD.wav
320,192,59708,1,0,0:0:0:0:
192,192,59708,1,0,0:0:0:0:
64,192,59794,1,0,0:0:0:0:
320,192,59879,1,0,0:0:0:0:
448,192,59879,1,0,0:0:0:0:
192,192,59965,1,0,0:0:0:0:
64,192,60051,1,0,0:0:0:70:LR4_KickTBCD.wav
320,192,60051,128,0,60222:0:0:0:0:
448,192,60222,1,0,0:0:0:0:
320,192,60394,1,0,0:0:0:70:LR4_KickTBCD.wav
192,192,60394,1,0,0:0:0:0:
64,192,60394,128,0,60565:0:0:0:0:
448,192,60565,1,0,0:0:0:0:
64,192,60737,1,0,0:0:0:70:LR4_KickTBCD.wav
320,192,60737,128,0,61079:0:0:0:0:
192,192,60908,1,0,0:0:0:0:
64,192,61079,1,0,0:0:0:70:LR4_KickTBCD.wav
192,192,61079,1,0,0:0:0:70:LR_Hat Synth.wav
448,192,61079,1,0,0:0:0:0:
320,192,61251,128,0,61422:0:0:0:0:
64,192,61422,1,0,0:0:0:70:LR4_KickTBCD.wav
448,192,61422,128,0,61594:0:0:0:70:LR_Hat Synth.wav
192,192,61594,1,0,0:0:0:0:
448,192,61765,1,0,0:0:0:70:LR4_KickTBCD.wav
320,192,61765,1,0,0:0:0:70:LR_Hat Synth.wav
64,192,61765,128,0,61937:0:0:0:0:
192,192,61937,128,0,62108:0:0:0:0:
64,192,62108,1,0,0:0:0:70:LR4_KickTBCD.wav
320,192,62108,128,0,62279:0:0:0:70:LR_Hat Synth.wav
448,192,62279,1,0,0:0:0:0:
64,192,62451,1,0,0:0:0:70:LR4_KickTBCD.wav
320,192,62451,1,0,0:0:0:70:LR_Hat Synth.wav
192,192,62451,1,0,0:0:0:0:
448,192,62537,1,0,0:0:0:0:
192,192,62622,1,0,0:0:0:0:
64,192,62622,1,0,0:0:0:0:
320,192,62708,1,0,0:0:0:0:
448,192,62794,1,0,0:0:0:70:LR4_KickTBCD.wav
192,192,62794,128,0,62965:0:0:0:70:LR_Hat Synth.wav
320,192,62965,1,0,0:0:0:0:
448,192,63137,1,0,0:0:0:70:LR4_KickTBCD.wav
192,192,63137,1,0,0:0:0:70:LR_Hat Synth.wav
64,192,63137,128,0,63308:0:0:0:0:
320,192,63308,1,0,0:0:0:0:
192,192,63479,1,0,0:0:0:70:LR4_KickTBCD.wav
448,192,63479,128,0,63822:0:0:0:70:LR_Hat Synth.wav
320,192,63651,1,0,0:0:0:0:
320,192,63822,1,0,0:0:0:70:LR4_KickTBCD.wav
64,192,63822,1,0,0:0:0:70:LR_Hat Synth.wav
192,192,63822,128,0,63994:0:0:0:0:
448,192,63994,1,0,0:0:0:0:
64,192,64165,1,0,0:0:0:70:LR4_KickTBCD.wav
320,192,64165,128,0,64337:0:0:0:70:LR_Hat Synth.wav
192,192,64337,1,0,0:0:0:0:
448,192,64508,1,0,0:0:0:70:LR4_KickTBCD.wav
64,192,64508,1,0,0:0:0:70:LR_Hat Synth.wav
320,192,64508,128,0,64679:0:0:0:0:
192,192,64679,128,0,64851:0:0:0:0:
64,192,64851,1,0,0:0:0:70:LR4_KickTBCD.wav
448,192,64851,128,0,65022:0:0:0:70:LR_Hat Synth.wav
320,192,65022,1,0,0:0:0:0:
64,192,65194,128,0,65365:0:0:0:0:
192,192,65194,128,0,65365:0:0:0:0:
320,192,65279,1,0,0:0:0:0:
448,192,65365,128,0,65537:0:0:0:0:
64,192,65451,1,0,0:0:0:0:
320,192,65537,128,0,65708:0:0:0:0:
192,192,65537,128,0,65879:0:0:0:0:
64,192,65708,128,0,65879:0:0:0:0:
320,192,65879,128,0,66222:0:0:0:0:
448,192,65879,128,0,66051:0:0:0:0:
192,192,66051,128,0,66222:0:0:0:0:
448,192,66222,128,0,66394:0:0:0:0:
64,192,66222,128,0,66394:0:0:0:0:
192,192,66394,1,0,0:0:0:70:LR4_KickTBCD.wav
320,192,66394,1,0,0:0:0:0:
192,192,66565,1,0,0:0:0:70:LR4_KickTBCD.wav
320,192,66565,1,0,0:0:0:0:
448,192,66565,1,0,0:0:0:0:
64,192,66737,128,0,67079:0:0:0:70:LR_Hat Normal.wav
448,192,66908,128,0,67079:0:0:0:70:LR4_KickTBCD.wav
320,192,66908,1,0,0:0:0:0:
192,192,67079,1,0,0:0:0:70:LR_Hat Normal.wav
448,192,67251,1,0,0:0:0:70:LR4_KickTBCD.wav
64,192,67251,1,0,0:0:0:0:
320,192,67251,128,0,67508:0:0:0:0:
192,192,67422,128,0,67508:0:0:0:70:LR_Hat Normal.wav
448,192,67594,1,0,0:0:0:70:LR4_KickTBCD.wav
64,192,67594,128,0,67765:0:0:0:0:
320,192,67765,1,0,0:0:0:70:LR_Hat Normal.wav
448,192,67937,1,0,0:0:0:70:LR4_KickTBCD.wav
64,192,67937,1,0,0:0:0:0:
192,192,67937,128,0,68022:0:0:0:0:
320,192,68022,128,0,68108:0:0:0:0:
64,192,68108,128,0,68194:0:0:0:70:LR_Hat Normal.wav
192,192,68194,128,0,68279:0:0:0:0:
320,192,68279,1,0,0:0:0:70:LR4_KickTBCD.wav
448,192,68279,128,0,68537:0:0:0:0:
64,192,68451,128,0,68537:0:0:0:70:LR_Hat Normal.wav
64,192,68622,1,0,0:0:0:70:LR4_KickTBCD.wav
448,192,68622,1,0,0:0:0:0:
192,192,68622,128,0,68879:0:0:0:0:
320,192,68794,128,0,68879:0:0:0:70:LR_Hat Normal.wav
448,192,68965,1,0,0:0:0:70:LR4_KickTBCD.wav
64,192,68965,128,0,69308:0:0:0:0:
320,192,69137,1,0,0:0:0:70:LR_Hat Normal.wav
320,192,69308,1,0,0:0:0:70:LR4_KickTBCD.wav
192,192,69308,1,0,0:0:0:0:
448,192,69308,128,0,69479:0:0:0:0:
64,192,69479,1,0,0:0:0:70:LR_Hat Normal.wav
64,192,69651,1,0,0:0:0:70:LR4_KickTBCD.wav
320,192,69651,128,0,69822:0:0:0:0:
192,192,69822,1,0,0:0:0:70:LR_Hat Normal.wav
64,192,69994,1,0,0:0:0:70:LR4_KickTBCD.wav
448,192,69994,1,0,0:0:0:0:
320,192,69994,128,0,70251:0:0:0:0:
192,192,70165,128,0,70251:0:0:0:70:LR_Hat Normal.wav
448,192,70337,1,0,0:0:0:70:LR4_KickTBCD.wav
64,192,70337,128,0,70508:0:0:0:0:
320,192,70508,1,0,0:0:0:70:LR_Hat Normal.wav
192,192,70679,1,0,0:0:0:70:LR4_KickTBCD.wav
64,192,70679,1,0,0:0:0:0:
320,192,70679,128,0,70765:0:0:0:0:
448,192,70765,128,0,70851:0:0:0:0:
64,192,70851,128,0,70937:0:0:0:70:LR_Hat Normal.wav
192,192,70937,128,0,71022:0:0:0:0:
320,192,71022,1,0,0:0:0:70:LR4_KickTBCD.wav
448,192,71022,128,0,71279:0:0:0:0:
64,192,71194,128,0,71279:0:0:0:70:LR_Hat Normal.wav
192,192,71365,1,0,0:0:0:70:LR4_KickTBCD.wav
320,192,71365,1,0,0:0:0:0:
64,192,71365,128,0,71622:0:0:0:0:
448,192,71537,128,0,71622:0:0:0:70:LR_Hat Normal.wav
192,192,71708,1,0,0:0:0:70:LR4_KickTBCD.wav
320,192,71708,128,0,72051:0:0:0:0:
448,192,71879,1,0,0:0:0:70:LR_Hat Normal.wav
192,192,72051,1,0,0:0:0:70:LR4_KickTBCD.wav
448,192,72051,1,8,0:0:0:70:LR_Hat Synth.wav
64,192,72051,128,0,72137:0:0:0:0:
64,192,72222,128,0,72565:0:0:0:70:LR_Hat Normal.wav
192,192,72394,128,0,72565:0:0:0:70:LR4_KickTBCD.wav
320,192,72394,1,0,0:0:0:0:
448,192,72565,1,0,0:0:0:70:LR_Hat Normal.wav
320,192,72565,1,0,0:0:0:0:
192,192,72737,1,0,0:0:0:70:LR4_KickTBCD.wav
64,192,72737,1,0,0:0:0:0:
448,192,72737,128,0,72994:0:0:0:0:
320,192,72908,128,0,72994:0:0:0:70:LR_Hat Normal.wav
64,192,73079,1,0,0:0:0:70:LR4_KickTBCD.wav
192,192,73079,128,0,73251:0:0:0:0:
320,192,73251,1,0,0:0:0:70:LR_Hat Normal.wav
64,192,73422,1,0,0:0:0:70:LR4_KickTBCD.wav
192,192,73422,1,0,0:0:0:0:
448,192,73422,128,0,73508:0:0:0:0:
320,192,73508,128,0,73594:0:0:0:0:
192,192,73594,128,0,73679:0:0:0:70:LR_Hat Normal.wav
64,192,73679,128,0,73765:0:0:0:0:
320,192,73765,1,0,0:0:0:70:LR4_KickTBCD.wav
448,192,73765,128,0,74022:0:0:0:0:
192,192,73937,128,0,74022:0:0:0:70:LR_Hat Normal.wav
448,192,74108,1,0,0:0:0:70:LR4_KickTBCD.wav
192,192,74108,1,0,0:0:0:0:
64,192,74108,128,0,74365:0:0:0:0:
320,192,74279,128,0,74365:0:0:0:70:LR_Hat Normal.wav
448,192,74451,1,0,0:0:0:70:LR4_KickTBCD.wav
320,192,74451,128,0,74794:0:0:0:0:
192,192,74622,1,0,0:0:0:70:LR_Hat Normal.wav
192,192,74794,1,0,0:0:0:70:LR4_KickTBCD.wav
64,192,74794,1,8,0:0:0:70:LR_Hat Synth.wav
448,192,74794,128,0,74965:0:0:0:0:
320,192,74965,1,0,0:0:0:70:LR_Hat Normal.wav
192,192,75137,5,0,0:0:0:70:LR4_KickTBCD.wav
320,192,75137,128,0,75308:0:0:0:0:
64,192,75308,1,0,0:0:0:70:LR_Hat Normal.wav
192,192,75479,1,0,0:0:0:70:LR4_KickTBCD.wav
448,192,75479,1,0,0:0:0:0:
320,192,75479,128,0,75737:0:0:0:0:
64,192,75651,128,0,75737:0:0:0:70:LR_Hat Normal.wav
320,192,75822,1,0,0:0:0:70:LR4_KickTBCD.wav
192,192,75822,128,0,75994:0:0:0:0:
448,192,75994,1,0,0:0:0:70:LR_Hat Normal.wav
64,192,76165,5,0,0:0:0:0:
192,192,76251,1,0,0:0:0:0:
320,192,76337,1,0,0:0:0:0:
448,192,76422,1,0,0:0:0:0:
192,192,76508,128,0,76679:0:0:0:0:
320,192,76679,1,0,0:0:0:0:
64,192,76851,128,0,77022:0:0:0:0:
448,192,77022,1,0,0:0:0:0:
320,192,77194,128,0,77537:0:0:0:0:
64,192,77537,1,0,0:0:0:40:LR4_KickGBDV.wav
192,192,77537,1,0,0:0:0:70:LR_Hat Synth.wav
448,192,77537,1,0,0:0:0:0:
320,192,77708,1,0,0:0:0:0:
64,192,77879,1,0,0:0:0:40:LR4_KickGBDV.wav
448,192,77879,1,0,0:0:0:70:LR_Hat Synth.wav
192,192,78051,1,0,0:0:0:0:
64,192,78222,1,0,0:0:0:40:LR4_KickGBDV.wav
320,192,78222,1,0,0:0:0:70:LR_Hat Synth.wav
448,192,78394,1,0,0:0:0:0:
192,192,78565,1,0,0:0:0:40:LR4_KickGBDV.wav
320,192,78565,1,0,0:0:0:70:LR_Hat Synth.wav
64,192,78737,1,0,0:0:0:0:
192,192,78908,1,0,0:0:0:40:LR4_KickGBDV.wav
448,192,78908,1,0,0:0:0:70:LR_Hat Synth.wav
320,192,78908,1,0,0:0:0:0:
64,192,79079,1,0,0:0:0:0:
192,192,79251,1,0,0:0:0:40:LR4_KickGBDV.wav
448,192,79251,1,0,0:0:0:70:LR_Hat Synth.wav
320,192,79422,1,0,0:0:0:0:
64,192,79594,1,0,0:0:0:40:LR4_KickGBDV.wav
448,192,79594,1,0,0:0:0:70:LR_Hat Synth.wav
192,192,79765,1,0,0:0:0:0:
448,192,79937,1,0,0:0:0:40:LR4_KickGBDV.wav
64,192,79937,1,0,0:0:0:70:LR_Hat Synth.wav
320,192,80108,1,0,0:0:0:0:
64,192,80279,1,0,0:0:0:40:LR4_KickGBDV.wav
192,192,80279,1,0,0:0:0:70:LR_Hat Synth.wav
448,192,80279,1,0,0:0:0:0:
320,192,80451,1,0,0:0:0:0:
192,192,80622,1,0,0:0:0:40:LR4_KickGBDV.wav
448,192,80622,1,0,0:0:0:70:LR_Hat Synth.wav
64,192,80794,1,0,0:0:0:0:
192,192,80965,1,0,0:0:0:40:LR4_KickGBDV.wav
320,192,80965,1,0,0:0:0:70:LR_Hat Synth.wav
448,192,81137,1,0,0:0:0:0:
64,192,81308,1,0,0:0:0:40:LR4_KickGBDV.wav
320,192,81308,1,0,0:0:0:70:LR_Hat Synth.wav
192,192,81479,1,0,0:0:0:0:
64,192,81651,1,0,0:0:0:40:LR4_KickGBDV.wav
448,192,81651,1,0,0:0:0:70:LR_Hat Synth.wav
320,192,81651,1,0,0:0:0:0:
192,192,81822,1,0,0:0:0:0:
448,192,81994,1,0,0:0:0:40:LR4_KickGBDV.wav
64,192,81994,1,0,0:0:0:70:LR_Hat Synth.wav
320,192,82165,1,0,0:0:0:0:
448,192,82337,1,0,0:0:0:40:LR4_KickGBDV.wav
192,192,82337,1,0,0:0:0:70:LR_Hat Synth.wav
64,192,82508,1,0,0:0:0:0:
448,192,82679,1,0,0:0:0:40:LR4_KickGBDV.wav
320,192,82679,1,0,0:0:0:70:LR_Hat Synth.wav
192,192,82851,1,2,0:0:0:0:
320,192,82937,1,2,0:0:0:0:
448,192,83022,1,2,0:0:0:0:
64,192,83022,1,0,0:0:0:70:LR_Hat Synth.wav
192,192,83108,1,2,0:0:0:0:
320,192,83194,1,2,0:0:0:0:
64,192,83251,1,0,0:0:0:0:
192,192,83308,1,0,0:0:0:0:
448,192,83365,1,2,0:0:0:0:
320,192,83408,1,0,0:0:0:0:
64,192,83451,1,0,0:0:0:0:
192,192,83494,1,0,0:0:0:0:
448,192,83537,1,0,0:0:0:0:
320,192,83579,1,0,0:0:0:0:
64,192,83622,1,0,0:0:0:0:
192,192,83665,1,0,0:0:0:0:
448,192,83708,1,0,0:0:0:70:LR_Hat Synth.wav
320,192,83751,1,0,0:0:0:0:
64,192,83794,1,0,0:0:0:0:
192,192,83837,1,0,0:0:0:0:
320,192,83879,1,0,0:0:0:0:
448,192,83922,1,0,0:0:0:0:
192,192,83965,1,0,0:0:0:0:
64,192,84008,1,0,0:0:0:0:
320,192,84051,1,0,0:0:0:70:LR_Hat Synth.wav
448,192,84094,1,0,0:0:0:0:
192,192,84137,1,0,0:0:0:0:
64,192,84179,1,0,0:0:0:0:
320,192,84222,1,0,0:0:0:0:
448,192,84265,1,0,0:0:0:0:
192,192,84308,1,0,0:0:0:0:
64,192,84351,1,0,0:0:0:0:
320,192,84394,128,0,87137:0:0:0:70:LR_Hat Synth.wav
448,192,84565,1,0,0:0:0:0:
64,192,84737,1,0,0:0:0:70:LR_Hat Synth.wav
192,192,84908,1,0,0:0:0:0:
448,192,85079,1,0,0:0:0:70:LR_Hat Synth.wav
64,192,85251,1,0,0:0:0:0:
448,192,85422,1,0,0:0:0:70:LR_Hat Synth.wav
192,192,85594,1,0,0:0:0:0:
64,192,85765,1,0,0:0:0:70:LR_Hat Synth.wav
448,192,85937,1,0,0:0:0:0:
64,192,86108,1,0,0:0:0:70:LR_Hat Synth.wav
192,192,86279,1,0,0:0:0:0:
448,192,86451,1,0,0:0:0:70:LR_Hat Synth.wav
64,192,86622,1,0,0:0:0:0:
192,192,86794,1,0,0:0:0:70:LR_Hat Synth.wav
448,192,86965,1,0,0:0:0:0:
64,192,87137,1,0,0:0:0:0:
448,192,87822,5,0,0:0:0:70:LR_Drum EDge.wav
320,192,87822,1,0,0:0:0:0:
192,192,87908,1,0,0:0:0:70:LR_Drum EDge.wav
64,192,87908,1,0,0:0:0:0:
448,192,87994,1,0,0:0:0:70:LR_Drum EDge.wav
320,192,88079,1,0,0:0:0:70:LR_Drum EDge.wav
64,192,88165,1,0,0:0:0:70:LR_Drum EDge.wav
192,192,88165,1,0,0:0:0:0:
448,192,88251,1,0,0:0:0:70:LR_Drum EDge.wav
320,192,88251,1,0,0:0:0:0:
64,192,88337,1,0,0:0:0:70:LR_Drum EDge.wav
192,192,88422,1,0,0:0:0:70:LR_Drum EDge.wav
320,192,88508,1,0,0:0:0:70:LR4_KickTBCD.wav
64,192,88508,1,0,0:0:0:0:
448,192,88508,128,0,88851:0:0:0:0:
192,192,88679,128,0,88851:0:0:0:70:LR_Hat Normal.wav
64,192,88851,1,0,0:0:0:70:LR4_KickTBCD.wav
320,192,88851,128,0,89022:0:0:0:0:
64,192,89022,128,0,89194:0:0:0:70:LR_Hat Normal.wav
320,192,89194,1,0,0:0:0:70:LR4_KickTBCD.wav
448,192,89194,128,0,89537:0:0:0:0:
64,192,89365,1,0,0:0:0:70:LR_Hat Normal.wav
192,192,89537,1,0,0:0:0:70:LR4_KickTBCD.wav
320,192,89537,128,0,89879:0:0:0:0:
448,192,89708,1,0,0:0:0:70:LR_Hat Normal.wav
192,192,89879,1,0,0:0:0:70:LR4_KickTBCD.wav
64,192,89879,128,0,90222:0:0:0:0:
448,192,90051,128,0,90222:0:0:0:70:LR_Hat Normal.wav
192,192,90222,1,0,0:0:0:70:LR4_KickTBCD.wav
320,192,90222,128,0,90394:0:0:0:0:
64,192,90394,128,0,90565:0:0:0:70:LR_Hat Normal.wav
320,192,90565,1,0,0:0:0:70:LR4_KickTBCD.wav
192,192,90565,128,0,90908:0:0:0:0:
448,192,90737,128,0,90822:0:0:0:70:LR_Hat Normal.wav
64,192,90908,1,0,0:0:0:70:LR4_KickTBCD.wav
448,192,90908,128,0,91251:0:0:0:0:
320,192,91079,128,0,91251:0:0:0:70:LR_Hat Normal.wav
192,192,91251,1,0,0:0:0:70:LR4_KickTBCD.wav
64,192,91251,128,0,91422:0:0:0:0:
448,192,91422,1,0,0:0:0:70:LR_Hat Normal.wav
192,192,91594,1,0,0:0:0:70:LR4_KickTBCD.wav
320,192,91594,128,0,91765:0:0:0:0:
448,192,91765,128,0,91937:0:0:0:70:LR_Hat Normal.wav
320,192,91937,1,0,0:0:0:70:LR4_KickTBCD.wav
64,192,91937,128,0,92108:0:0:0:0:
192,192,92108,1,0,0:0:0:70:LR_Hat Normal.wav
448,192,92279,1,0,0:0:0:70:LR4_KickTBCD.wav
320,192,92279,128,0,92451:0:0:0:0:
192,192,92451,1,0,0:0:0:70:LR_Hat Normal.wav
320,192,92622,1,0,0:0:0:70:LR4_KickTBCD.wav
64,192,92622,128,0,92965:0:0:0:0:
448,192,92794,128,0,92965:0:0:0:70:LR_Hat Normal.wav
192,192,92965,1,0,0:0:0:70:LR4_KickTBCD.wav
320,192,92965,128,0,93137:0:0:0:0:
64,192,93137,128,0,93308:0:0:0:70:LR_Hat Normal.wav
320,192,93308,1,0,0:0:0:70:LR4_KickTBCD.wav
448,192,93308,128,0,93651:0:0:0:0:
192,192,93479,128,0,93565:0:0:0:70:LR_Hat Normal.wav
64,192,93651,1,0,0:0:0:70:LR4_KickTBCD.wav
192,192,93651,128,0,93994:0:0:0:0:
320,192,93822,128,0,93994:0:0:0:70:LR_Hat Normal.wav
64,192,93994,128,0,94165:0:0:0:70:LR4_KickTBCD.wav
448,192,93994,1,0,0:0:0:0:
192,192,94165,1,0,0:0:0:70:LR_Hat Normal.wav
320,192,94337,1,0,0:0:0:70:LR4_KickTBCD.wav
64,192,94337,128,0,94508:0:0:0:0:
192,192,94508,128,0,94679:0:0:0:70:LR_Hat Normal.wav
320,192,94679,1,0,0:0:0:70:LR4_KickTBCD.wav
448,192,94679,128,0,95022:0:0:0:0:
64,192,94851,128,0,95022:0:0:0:70:LR_Hat Normal.wav
320,192,95022,1,0,0:0:0:70:LR4_KickTBCD.wav
192,192,95022,128,0,95194:0:0:0:0:
448,192,95194,128,0,95365:0:0:0:70:LR_Hat Normal.wav
192,192,95365,1,0,0:0:0:70:LR4_KickTBCD.wav
64,192,95365,128,0,95708:0:0:0:0:
320,192,95537,128,0,95708:0:0:0:70:LR_Hat Normal.wav
192,192,95708,1,0,0:0:0:70:LR4_KickTBCD.wav
448,192,95708,128,0,95879:0:0:0:0:
64,192,95879,128,0,96051:0:0:0:70:LR_Hat Normal.wav
320,192,96051,1,0,0:0:0:70:LR4_KickTBCD.wav
192,192,96051,128,0,96394:0:0:0:0:
448,192,96222,128,0,96308:0:0:0:70:LR_Hat Normal.wav
64,192,96394,1,0,0:0:0:70:LR4_KickTBCD.wav
448,192,96394,128,0,96737:0:0:0:0:
320,192,96565,128,0,96737:0:0:0:70:LR_Hat Normal.wav
192,192,96737,1,0,0:0:0:70:LR4_KickTBCD.wav
64,192,96737,128,0,97079:0:0:0:0:
448,192,96908,128,0,97079:0:0:0:70:LR_Hat Normal.wav
192,192,97079,1,0,0:0:0:70:LR4_KickTBCD.wav
320,192,97079,128,0,97251:0:0:0:0:
64,192,97251,128,0,97422:0:0:0:70:LR_Hat Normal.wav
448,192,97422,1,0,0:0:0:70:LR4_KickTBCD.wav
192,192,97422,128,0,97594:0:0:0:0:
320,192,97594,1,0,0:0:0:70:LR_Hat Normal.wav
448,192,97765,1,0,0:0:0:70:LR4_KickTBCD.wav
192,192,97765,128,0,98108:0:0:0:0:
320,192,97937,128,0,98108:0:0:0:70:LR_Hat Normal.wav
64,192,98108,1,0,0:0:0:70:LR4_KickTBCD.wav
448,192,98108,128,0,98279:0:0:0:0:
192,192,98279,1,0,0:0:0:70:LR_Hat Normal.wav
64,192,98451,5,0,0:0:0:70:LR4_KickTBCD.wav
320,192,98451,128,0,98622:0:0:0:0:
192,192,98622,128,0,98794:0:0:0:70:LR_Hat Normal.wav
448,192,98794,1,0,0:0:0:70:LR4_KickTBCD.wav
64,192,98794,128,0,99137:0:0:0:0:
320,192,98965,128,0,99051:0:0:0:70:LR_Hat Normal.wav
448,192,99137,1,0,0:0:0:70:LR4_KickTBCD.wav
320,192,99137,128,0,99479:0:0:0:0:
192,192,99308,128,0,99479:0:0:0:70:LR_Hat Normal.wav
448,192,99479,128,0,99994:0:0:0:0:
64,192,99479,128,0,99994:0:0:0:0:
192,192,99994,1,0,0:0:0:70:LR4_KickTBCD.wav
320,192,99994,1,0,0:0:0:0:
320,192,100165,1,0,0:0:0:70:LR4_KickTBCD.wav
192,192,100165,1,0,0:0:0:70:LR_Drum Finish.wav
64,192,100165,1,0,0:0:0:0:
448,192,100165,128,0,100337:0:0:0:0:
64,192,100337,1,0,0:0:0:70:LR_Hat Normal.wav
192,192,100508,1,0,0:0:0:70:LR4_KickTBCD.wav
320,192,100508,128,0,100851:0:0:0:0:
448,192,100679,1,0,0:0:0:70:LR_Hat Normal.wav
192,192,100851,1,0,0:0:0:70:LR4_KickTBCD.wav
64,192,100851,128,0,101194:0:0:0:0:
448,192,101022,128,0,101194:0:0:0:70:LR_Hat Normal.wav
320,192,101194,1,0,0:0:0:70:LR4_KickTBCD.wav
192,192,101194,128,0,101365:0:0:0:0:
320,192,101365,128,0,101537:0:0:0:70:LR_Hat Normal.wav
64,192,101537,1,0,0:0:0:70:LR4_KickTBCD.wav
192,192,101537,128,0,101879:0:0:0:0:
448,192,101708,128,0,101794:0:0:0:70:LR_Hat Normal.wav
64,192,101879,1,0,0:0:0:70:LR4_KickTBCD.wav
448,192,101879,128,0,102222:0:0:0:0:
320,192,102051,128,0,102222:0:0:0:70:LR_Hat Normal.wav
192,192,102222,1,0,0:0:0:70:LR4_KickTBCD.wav
64,192,102222,128,0,102565:0:0:0:0:
448,192,102394,128,0,102565:0:0:0:70:LR_Hat Normal.wav
320,192,102565,1,0,0:0:0:70:LR4_KickTBCD.wav
192,192,102565,128,0,102737:0:0:0:0:
448,192,102737,128,0,102908:0:0:0:70:LR_Hat Normal.wav
64,192,102908,1,0,0:0:0:70:LR4_KickTBCD.wav
320,192,102908,128,0,103079:0:0:0:0:
192,192,103079,1,0,0:0:0:70:LR_Hat Normal.wav
64,192,103251,1,0,0:0:0:70:LR4_KickTBCD.wav
320,192,103251,128,0,103594:0:0:0:0:
192,192,103422,1,0,0:0:0:70:LR_Hat Normal.wav
448,192,103594,1,0,0:0:0:70:LR4_KickTBCD.wav
64,192,103594,128,0,103937:0:0:0:0:
192,192,103765,128,0,103937:0:0:0:70:LR_Hat Normal.wav
320,192,103937,1,0,0:0:0:70:LR4_KickTBCD.wav
448,192,103937,128,0,104108:0:0:0:0:
64,192,104108,128,0,104279:0:0:0:70:LR_Hat Normal.wav
192,192,104279,1,0,0:0:0:70:LR4_KickTBCD.wav
320,192,104279,128,0,104622:0:0:0:0:
64,192,104451,128,0,104537:0:0:0:70:LR_Hat Normal.wav
448,192,104622,1,0,0:0:0:70:LR4_KickTBCD.wav
64,192,104622,128,0,104965:0:0:0:0:
192,192,104794,128,0,104965:0:0:0:70:LR_Hat Normal.wav
320,192,104965,1,0,0:0:0:70:LR4_KickTBCD.wav
448,192,104965,128,0,105137:0:0:0:0:
64,192,105137,1,0,0:0:0:70:LR_Hat Normal.wav
192,192,105308,1,0,0:0:0:70:LR4_KickTBCD.wav
448,192,105308,128,0,105479:0:0:0:0:
320,192,105479,128,0,105651:0:0:0:70:LR_Hat Normal.wav
192,192,105651,1,0,0:0:0:70:LR4_KickTBCD.wav
64,192,105651,128,0,105822:0:0:0:0:
448,192,105822,1,0,0:0:0:70:LR_Hat Normal.wav
192,192,105994,1,0,0:0:0:70:LR4_KickTBCD.wav
320,192,105994,128,0,106165:0:0:0:0:
64,192,106165,128,0,106337:0:0:0:70:LR_Hat Normal.wav
192,192,106337,1,0,0:0:0:70:LR4_KickTBCD.wav
448,192,106337,128,0,106679:0:0:0:0:
320,192,106508,128,0,106679:0:0:0:70:LR_Hat Normal.wav
64,192,106679,1,0,0:0:0:70:LR4_KickTBCD.wav
192,192,106679,128,0,106851:0:0:0:0:
448,192,106851,128,0,107022:0:0:0:70:LR_Hat Normal.wav
192,192,107022,1,0,0:0:0:70:LR4_KickTBCD.wav
64,192,107022,128,0,107365:0:0:0:0:
320,192,107194,128,0,107279:0:0:0:70:LR_Hat Normal.wav
448,192,107365,1,0,0:0:0:70:LR4_KickTBCD.wav
320,192,107365,128,0,107708:0:0:0:0:
192,192,107537,128,0,107708:0:0:0:70:LR_Hat Normal.wav
64,192,107708,128,0,108737:0:0:0:0:
448,192,108051,128,0,108222:0:0:0:0:
320,192,108222,128,0,108394:0:0:0:0:
192,192,108394,128,0,108737:0:0:0:0:
448,192,108737,128,0,109079:0:0:0:0:
64,192,109079,128,0,109765:0:0:0:0:
192,192,109422,128,0,109765:0:0:0:0:
320,192,109594,128,0,109765:0:0:0:0:
448,192,109765,128,0,110108:0:0:0:0:
