osu file format v14

[General]
AudioFilename: audio.mp3
AudioLeadIn: 0
PreviewTime: 188482
Countdown: 0
SampleSet: Soft
StackLeniency: 0.7
Mode: 0
LetterboxInBreaks: 0
WidescreenStoryboard: 0

[Editor]
Bookmarks: 11653,22624,25367,28110,30853,55539,66510,77482,88453,99424,115882,121367,124110,126853,129596,133710,135082,137824,140567,144682,155653,166624,177596,188567,199539
DistanceSpacing: 0.9
BeatDivisor: 4
GridSize: 16
TimelineZoom: 2.4

[Metadata]
Title:Candy (feat. Sara)
TitleUnicode:Candy (feat. Sara)
Artist:S3RL
ArtistUnicode:S3RL
Creator:Sakurauchi Riko
Version:Switch me!
Source:
Tags:phyloukz akitoshi icekalt happy hardcore emfa music serl corinn
BeatmapID:1363458
BeatmapSetID:643185

[Difficulty]
HPDrainRate:7
CircleSize:4.2
OverallDifficulty:9
ApproachRate:9.3
SliderMultiplier:1.5
SliderTickRate:1

[Events]
//Background and Video events
0,0,"richtiges bild.jpg",0,0
//Break Periods
2,110595,115328
//Storyboard Layer 0 (Background)
//Storyboard Layer 1 (Fail)
//Storyboard Layer 2 (Pass)
//Storyboard Layer 3 (Foreground)
//Storyboard Sound Samples

[TimingPoints]
682,342.857142857143,4,2,1,50,1,0
21167,-100,4,2,1,5,0,0
21253,-100,4,2,1,50,0,0
22624,-500,4,2,1,80,0,0
23310,-100,4,2,1,60,0,0
23653,-250,4,2,1,60,0,0
23910,-250,4,2,1,5,0,0
23996,-100,4,2,1,60,0,0
24339,-250,4,2,1,60,0,0
24596,-250,4,2,1,5,0,0
24682,-250,4,2,1,60,0,0
25367,-500,4,2,1,80,0,0
26053,-100,4,2,1,60,0,0
26396,-250,4,2,1,60,0,0
26653,-250,4,2,1,5,0,0
26739,-100,4,2,1,60,0,0
27082,-250,4,2,1,60,0,0
27339,-250,4,2,1,5,0,0
27424,-250,4,2,1,60,0,0
28110,-500,4,2,1,80,0,0
28796,-100,4,2,1,60,0,0
29139,-250,4,2,1,60,0,0
29396,-250,4,2,1,5,0,0
29482,-100,4,2,1,60,0,0
29824,-250,4,2,1,60,0,0
30082,-250,4,2,1,5,0,0
30167,-250,4,2,1,60,0,0
30853,-500,4,2,1,80,0,0
31539,-100,4,2,1,60,0,0
31882,-250,4,2,1,60,0,0
32139,-250,4,2,1,5,0,0
32224,-100,4,2,1,60,0,0
33596,-100,4,2,1,5,0,0
34967,-100,4,2,1,30,0,0
35653,-100,4,2,1,35,0,0
36339,-100,4,2,1,40,0,0
37024,-100,4,2,1,45,0,0
37710,-100,4,2,1,50,0,0
39082,-100,4,2,1,55,0,0
40453,-100,4,2,1,60,0,0
41824,-100,4,2,1,65,0,0
43196,-100,4,2,1,70,0,0
49710,-100,4,2,1,40,0,0
50053,-100,4,2,1,50,0,0
50739,-100,4,2,1,55,0,0
51424,-100,4,2,1,60,0,0
52110,-100,4,2,1,65,0,0
52796,-100,4,2,1,70,0,0
54853,-100,4,2,1,50,0,0
55539,-100,4,2,1,80,0,0
65139,-100,4,2,1,50,0,0
66510,-100,4,2,1,80,0,0
76110,-100,4,2,1,50,0,0
77482,-100,4,2,1,80,0,0
87767,-100,4,2,1,50,0,0
88453,-83.3333333333333,4,2,1,80,0,1
93853,-83.3333333333333,4,2,1,5,0,1
93939,-83.3333333333333,4,2,1,80,0,1
98053,-100,4,2,1,50,0,0
98653,-100,4,2,1,5,0,0
98739,-100,4,2,1,50,0,0
98996,-100,4,2,1,5,0,0
99082,-100,4,2,1,50,0,0
99424,-83.3333333333333,4,2,1,80,0,1
104824,-83.3333333333333,4,2,1,5,0,1
104910,-83.3333333333333,4,2,1,80,0,1
109024,-100,4,2,1,50,0,0
116482,-100,4,2,1,5,0,0
116567,-100,4,2,1,50,0,0
116824,-100,4,2,1,5,0,0
116910,-100,4,2,1,50,0,0
117339,-100,4,2,1,5,0,0
117424,-100,4,2,1,50,0,0
118882,-100,4,2,1,5,0,0
118967,-100,4,2,1,50,0,0
119224,-100,4,2,1,5,0,0
119310,-100,4,2,1,50,0,0
119567,-100,4,2,1,5,0,0
119653,-100,4,2,1,50,0,0
121282,-100,4,2,1,5,0,0
121367,-500,4,2,1,80,0,0
122053,-100,4,2,1,50,0,0
122396,-250,4,2,1,50,0,0
122653,-250,4,2,1,5,0,0
122739,-100,4,2,1,50,0,0
123082,-250,4,2,1,50,0,0
123339,-250,4,2,1,5,0,0
123424,-100,4,2,1,50,0,0
124110,-500,4,2,1,80,0,0
124796,-100,4,2,1,50,0,0
125139,-250,4,2,1,50,0,0
125396,-250,4,2,1,5,0,0
125482,-100,4,2,1,50,0,0
125824,-250,4,2,1,50,0,0
126082,-250,4,2,1,5,0,0
126167,-250,4,2,1,50,0,0
126853,-500,4,2,1,80,0,0
127539,-100,4,2,1,50,0,0
127882,-250,4,2,1,50,0,0
128139,-250,4,2,1,5,0,0
128224,-100,4,2,1,50,0,0
128567,-250,4,2,1,50,0,0
128824,-250,4,2,1,5,0,0
128910,-100,4,2,1,50,0,0
129596,-500,4,2,1,80,0,0
130282,-100,4,2,1,50,0,0
130624,-250,4,2,1,50,0,0
130882,-250,4,2,1,5,0,0
130967,-100,4,2,1,50,0,0
131310,-250,4,2,1,50,0,0
131567,-250,4,2,1,5,0,0
131653,-250,4,2,1,50,0,0
132339,-133.333333333333,4,2,1,50,0,0
133024,-100,4,2,1,60,0,0
133710,-500,4,2,1,80,0,0
134396,-100,4,2,1,60,0,0
135082,-500,4,2,1,80,0,0
135767,-100,4,2,1,60,0,0
136110,-250,4,2,1,60,0,0
136367,-250,4,2,1,5,0,0
136453,-100,4,2,1,60,0,0
136796,-250,4,2,1,60,0,0
137053,-250,4,2,1,5,0,0
137139,-250,4,2,1,60,0,0
137824,-500,4,2,1,80,0,0
138510,-100,4,2,1,60,0,0
138853,-250,4,2,1,60,0,0
139110,-250,4,2,1,5,0,0
139196,-100,4,2,1,60,0,0
139539,-250,4,2,1,60,0,0
139796,-250,4,2,1,5,0,0
139882,-100,4,2,1,60,0,0
140567,-500,4,2,1,80,0,0
141253,-100,4,2,1,60,0,0
141596,-250,4,2,1,60,0,0
141853,-250,4,2,1,5,0,0
141939,-100,4,2,1,60,0,0
142282,-250,4,2,1,60,0,0
142539,-250,4,2,1,5,0,0
142624,-250,4,2,1,60,0,0
143310,-100,4,2,1,5,0,0
144682,-133.333333333333,4,2,1,25,0,0
146053,-100,4,2,1,30,0,0
146739,-100,4,2,1,35,0,0
147424,-100,4,2,1,40,0,0
148110,-100,4,2,1,45,0,0
148796,-100,4,2,1,50,0,0
150167,-100,4,2,1,55,0,0
151539,-100,4,2,1,60,0,0
152910,-100,4,2,1,65,0,0
154282,-100,4,2,1,70,0,0
160796,-100,4,2,1,40,0,0
161139,-100,4,2,1,50,0,0
161824,-100,4,2,1,55,0,0
162510,-100,4,2,1,60,0,0
163196,-100,4,2,1,65,0,0
163882,-100,4,2,1,70,0,0
165939,-100,4,2,1,50,0,0
166624,-83.3333333333333,4,2,1,80,0,1
167739,-83.3333333333333,4,2,1,5,0,1
167824,-83.3333333333333,4,2,1,80,0,1
169110,-83.3333333333333,4,2,1,5,0,1
169196,-83.3333333333333,4,2,1,80,0,1
170482,-83.3333333333333,4,2,1,5,0,1
170567,-83.3333333333333,4,2,1,80,0,1
173224,-83.3333333333333,4,2,1,5,0,1
173310,-83.3333333333333,4,2,1,80,0,1
174596,-83.3333333333333,4,2,1,5,0,1
174682,-83.3333333333333,4,2,1,80,0,1
174853,-83.3333333333333,4,2,1,80,0,0
176224,-100,4,2,1,50,0,0
177596,-83.3333333333333,4,2,1,80,0,1
178710,-83.3333333333333,4,2,1,5,0,1
178796,-83.3333333333333,4,2,1,80,0,1
180082,-83.3333333333333,4,2,1,5,0,1
180167,-83.3333333333333,4,2,1,80,0,1
181453,-83.3333333333333,4,2,1,5,0,1
181539,-83.3333333333333,4,2,1,80,0,1
184196,-83.3333333333333,4,2,1,5,0,1
184282,-83.3333333333333,4,2,1,80,0,1
185567,-83.3333333333333,4,2,1,5,0,1
185653,-83.3333333333333,4,2,1,80,0,1
185824,-100,4,2,1,50,0,0
186082,-100,4,2,1,5,0,0
186167,-100,4,2,1,50,0,0
186424,-100,4,2,1,5,0,0
186510,-100,4,2,1,50,0,0
186767,-100,4,2,1,5,0,0
186853,-100,4,2,1,50,0,0
187110,-100,4,2,1,5,0,0
187196,-100,4,2,1,50,0,0
187453,-100,4,2,1,5,0,0
187539,-100,4,2,1,50,0,0
187796,-100,4,2,1,5,0,0
187882,-100,4,2,1,50,0,0
188224,-100,4,2,1,5,0,0
188567,-83.3333333333333,4,2,1,100,0,1
199539,-500,4,2,1,50,0,0
199882,-500,4,2,1,5,0,0
200053,-500,4,2,1,75,0,0
200224,-83.3333333333333,4,2,1,100,0,1
207767,-100,4,2,1,50,0,0
208796,-100,4,2,1,40,0,0
209053,-100,4,2,1,5,0,0
209139,-100,4,2,1,40,0,0
210167,-100,4,2,1,5,0,0

[Colours]
Combo1 : 236,219,13
Combo2 : 194,162,131
Combo3 : 173,86,160
Combo4 : 151,131,231
Combo5 : 237,197,245

[HitObjects]
256,192,10453,12,0,11310,0:0:0:0:
177,36,11653,6,0,L|159:122,1,75,6|0,0:0|0:0,0:0:0:0:
65,178,11996,1,2,0:0:0:0:
45,104,12167,1,2,0:0:0:0:
187,133,12339,2,0,B|169:226|169:226|200:284,1,150,10|2,0:0|0:0,0:0:0:0:
195,274,13024,6,0,P|232:256|289:264,1,75,2|0,0:0|0:0,0:0:0:0:
323,370,13367,1,2,0:0:0:0:
249,336,13539,1,2,0:0:0:0:
284,219,13710,2,0,P|340:263|426:264,1,150,10|2,0:0|0:0,0:0:0:0:
416,266,14396,6,0,B|437:169|437:169|421:108,1,150,2|2,0:0|0:0,0:0:0:0:
325,89,14910,1,2,0:0:0:0:
459,132,15082,2,0,L|438:57,1,75,10|0,0:0|0:0,0:0:0:0:
325,89,15424,2,0,L|305:188,1,75,2|0,0:0|0:0,0:0:0:0:
181,192,15767,6,0,P|156:244|210:222,1,150,2|2,0:0|0:0,0:0:0:0:
237,134,16282,1,2,0:0:0:0:
97,126,16453,1,10,0:0:0:0:
181,192,16624,1,2,0:0:0:0:
349,27,17139,54,0,L|422:41,1,75,2|0,0:0|0:0,0:0:0:0:
471,141,17482,1,2,0:0:0:0:
454,49,17653,1,2,0:0:0:0:
313,19,17824,2,0,L|220:3,1,75,10|0,0:0|0:0,0:0:0:0:
176,104,18167,1,2,0:0:0:0:
254,88,18339,1,2,0:0:0:0:
140,110,18510,2,0,B|119:204|119:204|142:267,1,150,2|2,0:0|0:0,0:0:0:0:
101,331,19024,1,2,0:0:0:0:
158,207,19196,2,0,L|217:351,1,150,10|2,0:0|0:0,0:0:0:0:
214,345,19882,6,0,P|245:327|299:328,1,75,2|0,0:0|0:0,0:0:0:0:
395,382,20224,1,2,0:0:0:0:
363,305,20396,1,2,0:0:0:0:
221,244,20567,2,0,P|206:279|203:325,1,75,10|0,0:0|0:0,0:0:0:0:
324,228,20910,2,0,P|277:217|220:247,1,112.5,2|0,0:0|0:0,0:0:0:0:
189,236,21253,22,0,P|254:203|323:227,1,150,2|2,0:0|0:0,0:0:0:0:
277,367,21767,2,2,P|260:321|265:277,1,75
323,227,22110,1,0,1:0:0:0:
41,57,22453,1,0,1:0:0:0:
280,82,22624,54,0,L|323:62,1,45,4|0,1:0|0:0,0:0:0:0:
461,64,23310,6,0,P|480:95|482:144,1,75,8|0,0:0|0:0,0:0:0:0:
373,251,23653,2,0,P|394:243|419:244,1,45,0|0,1:0|0:0,0:0:0:0:
316,309,23996,2,0,P|275:310|228:284,1,75,2|0,0:0|0:0,0:0:0:0:
95,274,24339,2,0,L|103:327,1,45,0|0,1:0|0:0,0:0:0:0:
77,189,24682,1,8,0:0:0:0:
77,189,25024,1,2,0:0:0:0:
430,113,25367,54,0,L|438:66,1,45,4|0,1:0|0:0,0:0:0:0:
359,163,26053,22,0,L|370:241,1,75,8|0,0:0|0:0,0:0:0:0:
483,325,26396,2,0,P|462:317|436:317,1,45,0|0,1:0|0:0,0:0:0:0:
317,368,26739,2,0,P|279:382|233:376,1,75,2|0,0:0|0:0,0:0:0:0:
278,246,27082,2,0,L|267:294,1,45,0|0,1:0|0:0,0:0:0:0:
206,188,27424,1,8,0:0:0:0:
426,145,27596,2,0,L|494:131,1,60,0|0,1:0|0:0,0:0:0:0:
261,58,28110,38,0,P|234:62|214:73,1,45,4|0,1:0|0:0,0:0:0:0:
358,119,28796,38,0,P|396:124|436:157,1,75,8|0,0:0|0:0,0:0:0:0:
371,258,29139,2,0,L|361:210,1,45,0|0,1:0|0:0,0:0:0:0:
281,169,29482,2,0,P|245:191|188:187,1,75,2|0,0:0|0:0,0:0:0:0:
94,189,29824,2,0,P|118:177|142:176,1,45,0|0,1:0|0:0,0:0:0:0:
281,263,30167,1,8,0:0:0:0:
281,263,30510,1,2,0:0:0:0:
19,81,30853,22,0,L|27:34,1,45,4|0,1:0|0:0,0:0:0:0:
156,12,31539,54,0,P|191:26|249:17,1,75,8|0,0:0|0:0,0:0:0:0:
387,58,31882,2,0,P|377:77|374:107,1,45,0|0,1:0|0:0,0:0:0:0:
465,178,32224,2,0,L|455:98,1,75,2|0,0:0|0:0,0:0:0:0:
412,264,32567,1,0,1:0:0:0:
256,192,32739,1,0,1:0:0:0:
256,192,32910,22,0,B|215:165|166:196|181:259|224:270|256:245|256:245|258:268|249:294|249:294|260:314|260:314|246:344|252:372,1,300,8|0,0:0|0:0,0:0:0:0:
67,155,34967,6,0,L|55:108,2,37.5,2|2|2,0:0|0:0|0:0,0:0:0:0:
84,228,35310,1,0,0:0:0:0:
141,174,35482,1,0,0:0:0:0:
194,118,35653,2,0,L|258:46,1,75,2|0,0:0|0:0,0:0:0:0:
231,216,35996,2,0,L|165:289,1,75,2|0,0:0|0:0,0:0:0:0:
84,228,36339,5,2,0:0:0:0:
308,212,36682,1,2,0:0:0:0:
158,303,37024,2,0,P|194:284|251:286,1,75,2|0,0:0|0:0,0:0:0:0:
333,318,37367,2,0,P|365:330|412:327,1,75,2|0,0:0|0:0,0:0:0:0:
380,232,37710,2,0,L|362:188,3,37.5,2|2|2|2,0:0|0:0|0:0|0:0,0:0:0:0:
350,160,38053,5,2,0:0:0:0:
436,168,38224,1,0,0:0:0:0:
296,224,38396,2,0,L|219:196,1,75,2|0,0:0|0:0,0:0:0:0:
214,72,38739,2,0,L|144:98,1,75,2|0,0:0|0:0,0:0:0:0:
143,98,39082,1,0,0:0:0:0:
225,198,39253,21,2,0:0:0:0:
350,160,39424,2,0,P|371:189|377:243,1,75,2|0,0:0|0:0,0:0:0:0:
274,319,39767,2,0,L|189:345,1,75,2|0,0:0|0:0,0:0:0:0:
33,229,40110,2,0,L|117:255,1,75,2|0,0:0|0:0,0:0:0:0:
225,198,40453,6,0,L|233:151,3,37.5,2|2|2|2,0:0|0:0|0:0|0:0,0:0:0:0:
238,123,40796,1,2,0:0:0:0:
298,235,40967,1,0,0:0:0:0:
412,223,41139,2,0,P|451:212|493:218,1,75,2|0,0:0|0:0,0:0:0:0:
343,118,41482,2,0,P|306:106|257:114,1,75,2|0,0:0|0:0,0:0:0:0:
74,93,41824,6,0,L|54:5,1,75
16,227,42167,2,0,L|-4:139,1,75
167,207,42510,2,0,L|147:301,1,75,2|0,0:0|0:0,0:0:0:0:
208,366,42853,2,0,P|245:368|278:384,1,75,2|0,0:0|0:0,0:0:0:0:
347,291,43196,5,2,0:0:0:0:
358,290,43282,1,2,0:0:0:0:
368,287,43367,1,2,0:0:0:0:
378,283,43453,1,2,0:0:0:0:
386,276,43539,21,2,0:0:0:0:
276,233,43710,1,0,0:0:0:0:
437,202,43882,2,0,P|474:188|535:198,1,75,2|0,0:0|0:0,0:0:0:0:
493,303,44224,1,2,0:0:0:0:
347,205,44396,1,0,1:0:0:0:
347,205,44567,6,0,L|361:120,1,75,0|2,1:0|0:0,0:0:0:0:
450,0,44910,2,0,L|436:81,1,75,0|2,1:0|0:0,0:0:0:0:
285,121,45253,2,0,L|372:133,1,75,0|2,1:0|0:0,0:0:0:0:
511,85,45596,2,0,L|436:73,1,75,0|2,1:0|0:0,0:0:0:0:
350,36,45939,5,0,1:0:0:0:
384,207,46110,1,2,0:0:0:0:
308,21,46282,1,0,1:0:0:0:
264,251,46453,1,2,0:0:0:0:
371,106,46624,1,0,1:0:0:0:
441,324,46796,1,2,0:0:0:0:
436,73,46967,1,0,1:0:0:0:
371,246,47138,1,2,0:0:0:0:
189,78,47310,5,0,1:0:0:0:
371,106,47481,1,2,0:0:0:0:
121,171,47653,1,0,1:0:0:0:
332,100,47824,1,2,0:0:0:0:
66,75,47996,1,0,1:0:0:0:
293,168,48167,1,2,0:0:0:0:
6,175,48339,1,0,1:0:0:0:
256,102,48510,1,2,0:0:0:0:
255,377,48682,21,0,1:0:0:0:
160,159,48853,1,2,0:0:0:0:
349,246,49025,1,0,1:0:0:0:
157,364,49196,1,2,0:0:0:0:
338,283,49367,1,0,1:0:0:0:
142,124,49539,1,2,0:0:0:0:
73,285,49710,54,0,L|70:308,6,18.75,4|0|0|0|0|0|0,3:0|0:0|0:0|0:0|0:0|0:0|0:0,0:0:0:0:
157,364,50053,5,2,3:0:0:0:
177,373,50139,1,0,3:0:0:0:
198,378,50224,1,0,3:0:0:0:
220,374,50310,1,0,3:0:0:0:
241,366,50396,1,2,3:0:0:0:
260,355,50481,1,0,3:0:0:0:
282,351,50567,1,0,3:0:0:0:
304,354,50653,1,0,3:0:0:0:
324,363,50738,5,2,3:0:0:0:
329,333,50824,1,0,3:0:0:0:
334,303,50910,1,0,3:0:0:0:
338,273,50995,1,0,3:0:0:0:
364,258,51082,1,2,3:0:0:0:
368,228,51168,1,0,3:0:0:0:
373,198,51254,1,0,3:0:0:0:
376,168,51339,1,0,3:0:0:0:
398,146,51425,21,2,3:0:0:0:
364,162,51510,1,0,3:0:0:0:
326,166,51596,1,2,3:0:0:0:
289,157,51682,1,0,3:0:0:0:
259,134,51767,1,2,3:0:0:0:
243,99,51853,1,0,3:0:0:0:
239,61,51939,1,2,3:0:0:0:
251,25,52024,1,0,3:0:0:0:
282,4,52110,21,2,3:0:0:0:
254,39,52196,1,0,3:0:0:0:
210,51,52282,1,2,3:0:0:0:
165,46,52367,1,0,3:0:0:0:
127,20,52453,1,2,3:0:0:0:
82,26,52539,1,0,3:0:0:0:
54,61,52624,1,2,3:0:0:0:
57,105,52710,1,0,3:0:0:0:
88,137,52796,6,0,L|129:127,2,37.5,8|0|0,3:0|3:0|3:0,3:0:0:0:
36,220,53053,2,0,L|-30:234,2,37.5,8|0|0,3:0|3:0|3:0,3:0:0:0:
118,279,53310,2,0,L|165:269,2,37.5,8|0|0,3:0|3:0|3:0,3:0:0:0:
71,367,53567,2,0,L|18:380,2,37.5,8|0|0,3:0|3:0|3:0,3:0:0:0:
182,366,53824,53,8,3:0:0:0:
203,362,53910,1,0,3:0:0:0:
239,377,53996,1,8,3:0:0:0:
258,383,54082,1,0,3:0:0:0:
305,367,54167,1,4,3:0:0:0:
148,71,54853,5,2,3:0:0:0:
144,81,54939,1,0,3:0:0:0:
143,92,55024,1,0,3:0:0:0:
144,103,55110,1,0,3:0:0:0:
164,126,55196,5,2,3:0:0:0:
168,136,55282,1,0,3:0:0:0:
169,147,55367,1,0,3:0:0:0:
168,158,55453,1,0,3:0:0:0:
102,206,55539,5,0,1:0:0:0:
269,230,55710,1,2,0:0:0:0:
174,277,55882,2,0,L|257:267,1,75,2|0,1:2|0:0,0:0:0:0:
315,148,56224,1,2,1:2:0:0:
84,116,56396,1,2,0:0:0:0:
174,277,56567,2,0,P|190:312|187:366,1,75,2|0,1:2|0:0,0:0:0:0:
269,230,56910,21,2,1:2:0:0:
306,235,56996,1,2,0:2:0:0:
343,240,57082,1,2,0:2:0:0:
379,246,57167,1,2,0:2:0:0:
416,252,57253,1,2,1:2:0:0:
495,316,57424,1,0,0:0:0:0:
313,331,57596,1,2,1:2:0:0:
392,155,57767,1,2,0:0:0:0:
465,347,57939,2,0,L|387:357,1,75,2|0,1:2|0:0,0:0:0:0:
174,277,58282,6,0,P|209:294|260:292,1,75,2|0,1:2|0:0,0:0:0:0:
103,204,58624,2,0,P|79:239|74:280,1,75,2|0,1:2|0:0,0:0:0:0:
113,361,58967,1,2,1:2:0:0:
233,198,59139,1,2,0:0:0:0:
307,384,59310,2,0,L|392:374,1,75,2|0,1:2|0:0,0:0:0:0:
394,172,59653,5,2,1:2:0:0:
357,180,59739,1,2,0:2:0:0:
330,206,59824,1,2,0:2:0:0:
314,240,59910,1,2,0:2:0:0:
314,277,59996,1,2,1:2:0:0:
454,287,60167,1,0,0:0:0:0:
340,151,60339,1,2,1:2:0:0:
436,253,60510,1,2,0:0:0:0:
222,235,60682,2,0,P|187:255|164:290,1,75,2|0,1:2|0:0,0:0:0:0:
167,282,61024,5,0,1:0:0:0:
359,335,61196,1,2,0:0:0:0:
251,324,61367,2,0,L|339:309,1,75,2|0,1:2|0:0,0:0:0:0:
403,241,61710,1,2,1:2:0:0:
202,213,61882,1,2,0:0:0:0:
359,335,62053,2,0,P|395:343|447:335,1,75,2|0,1:2|0:0,0:0:0:0:
480,138,62396,21,2,1:2:0:0:
441,143,62482,1,2,0:2:0:0:
412,169,62567,1,2,0:2:0:0:
399,204,62653,1,2,0:2:0:0:
403,241,62739,1,2,1:2:0:0:
501,261,62910,1,0,0:0:0:0:
304,280,63082,1,2,1:2:0:0:
432,339,63253,1,2,0:0:0:0:
480,138,63424,2,0,P|454:110|413:94,1,75,2|0,1:2|0:0,0:0:0:0:
211,104,63767,6,0,B|189:120|189:120|121:120,1,75,2|0,1:2|0:0,0:0:0:0:
0,31,64110,2,0,B|22:15|22:15|90:15,1,75,2|0,1:2|0:0,0:0:0:0:
213,16,64453,1,2,1:2:0:0:
71,89,64624,1,2,0:0:0:0:
256,171,64796,2,0,P|283:144|291:92,1,75,2|0,1:2|0:0,0:0:0:0:
137,196,65139,5,2,0:2:0:0:
142,217,65224,1,2,0:2:0:0:
147,239,65310,1,2,0:2:0:0:
152,260,65396,1,2,0:2:0:0:
156,282,65482,1,2,0:2:0:0:
261,381,65653,1,0,0:0:0:0:
276,259,65824,1,2,0:0:0:0:
159,301,65996,1,0,0:0:0:0:
278,371,66167,1,2,0:0:0:0:
257,139,66339,5,0,1:0:0:0:
257,139,66510,1,0,1:0:0:0:
386,180,66682,1,2,0:0:0:0:
448,46,66853,2,0,L|441:125,1,75,2|0,1:2|0:0,0:0:0:0:
429,265,67196,1,2,1:2:0:0:
357,97,67367,1,2,0:0:0:0:
258,248,67539,2,0,L|332:255,1,75,2|0,1:2|0:0,0:0:0:0:
177,154,67882,21,2,1:2:0:0:
151,190,67967,1,2,0:2:0:0:
138,233,68053,1,2,0:2:0:0:
142,277,68139,1,2,0:2:0:0:
159,317,68224,1,2,1:2:0:0:
275,369,68396,1,0,0:0:0:0:
39,340,68567,1,2,1:2:0:0:
177,154,68739,1,2,0:2:0:0:
201,383,68910,2,0,L|300:364,1,75,2|0,1:2|0:0,0:0:0:0:
464,278,69253,6,0,P|485:285|455:301,1,75,2|0,1:2|0:0,0:0:0:0:
292,168,69596,2,0,P|269:188|299:193,1,75,2|0,1:2|0:0,0:0:0:0:
309,67,69939,1,2,1:2:0:0:
171,221,70110,1,2,0:0:0:0:
364,257,70282,2,0,L|442:272,1,75,2|0,1:2|0:0,0:0:0:0:
271,338,70624,5,2,1:2:0:0:
225,333,70710,1,2,0:2:0:0:
188,307,70796,1,2,0:2:0:0:
165,267,70882,1,2,0:2:0:0:
171,221,70967,1,2,1:2:0:0:
364,257,71139,1,0,0:0:0:0:
243,375,71310,1,2,1:2:0:0:
227,172,71482,1,2,0:0:0:0:
411,329,71653,2,0,P|438:302|451:265,1,75,2|0,1:2|0:0,0:0:0:0:
450,267,71996,5,0,1:0:0:0:
374,94,72167,1,2,0:0:0:0:
337,337,72339,2,0,P|374:339|410:328,1,75,2|0,1:2|0:0,0:0:0:0:
448,195,72682,1,2,1:2:0:0:
510,380,72853,1,2,0:0:0:0:
280,273,73024,2,0,P|258:302|251:338,1,75,2|0,1:2|0:0,0:0:0:0:
490,211,73367,21,2,1:2:0:0:
448,195,73453,1,2,0:2:0:0:
405,180,73539,1,2,0:2:0:0:
363,164,73624,1,2,0:2:0:0:
320,148,73710,1,2,1:2:0:0:
228,176,73882,1,0,0:0:0:0:
435,116,74053,1,2,1:2:0:0:
386,325,74224,1,2,0:0:0:0:
299,113,74396,2,0,L|322:33,1,75,2|0,1:2|0:0,0:0:0:0:
448,195,74739,6,0,P|453:213|417:203,1,75,2|0,1:2|0:0,0:0:0:0:
228,176,75082,2,0,P|203:156|196:187,1,75,2|0,1:2|0:0,0:0:0:0:
342,248,75424,1,2,1:2:0:0:
319,40,75596,1,2,0:0:0:0:
249,267,75767,2,0,L|222:357,1,75,2|0,1:2|0:0,0:0:0:0:
80,317,76110,6,0,L|67:265,4,37.5,2|2|2|2|2,0:0|0:0|0:0|0:0|0:0,0:0:0:0:
146,373,76624,1,0,0:0:0:0:
249,267,76796,1,2,0:0:0:0:
163,291,76967,1,0,0:0:0:0:
309,334,77139,1,2,0:0:0:0:
77,59,77482,6,0,L|162:46,1,75,2|0,1:2|0:0,0:0:0:0:
212,117,77824,1,2,1:2:0:0:
40,66,77996,1,2,0:0:0:0:
247,31,78167,2,0,P|288:62|291:165,1,150,2|0,1:2|1:0,0:0:0:0:
296,154,78682,1,0,0:0:0:0:
131,212,78853,22,0,P|169:217|199:240,1,75,2|0,1:2|0:0,0:0:0:0:
217,325,79196,1,2,1:2:0:0:
202,151,79367,1,2,0:0:0:0:
130,297,79539,2,0,P|86:286|47:189,1,150,2|0,1:2|1:0,0:0:0:0:
44,197,80053,1,0,0:0:0:0:
251,141,80224,6,0,P|277:122|220:128,1,150,2|2,1:2|1:2,0:0:0:0:
241,222,80739,1,2,0:0:0:0:
356,121,80910,2,0,P|353:76|332:39,1,75,2|0,1:2|0:0,0:0:0:0:
320,192,81253,2,0,P|353:200|403:186,1,75,2|0,1:2|0:0,0:0:0:0:
505,155,81596,6,0,P|463:174|425:268,1,150,2|2,1:2|1:2,0:0:0:0:
469,345,82110,1,2,0:0:0:0:
286,371,82282,2,0,P|247:373|204:356,1,75,2|0,1:2|0:0,0:0:0:0:
140,260,82624,1,0,1:0:0:0:
334,291,82796,1,0,0:0:0:0:
195,169,82967,6,0,P|247:145|314:151,1,112.5,2|0,1:2|0:0,0:0:0:0:
369,183,83310,2,0,L|378:237,1,37.5,2|0,0:0|0:0,0:0:0:0:
374,107,83482,2,0,L|379:144,1,37.5,2|0,0:0|0:0,0:0:0:0:
495,160,83653,2,0,L|475:40,1,112.5,2|0,0:0|0:0,0:0:0:0:
383,24,83996,2,0,L|330:32,1,37.5,2|0,0:0|0:0,0:0:0:0:
245,0,84167,2,0,L|207:5,1,37.5,2|0,0:0|0:0,0:0:0:0:
107,91,84339,22,0,P|162:86|211:112,1,112.5,2|0,0:0|0:0,0:0:0:0:
179,195,84682,2,0,L|119:186,1,37.5,2|0,0:0|0:0,0:0:0:0:
262,189,84853,2,0,L|213:180,1,37.5,2|0,0:0|0:0,0:0:0:0:
313,260,85024,2,0,B|473:240,1,150,2|2,0:0|0:0,0:0:0:0:
335,6,85710,6,0,P|303:52|305:120,1,112.5,2|0,0:0|0:0,0:0:0:0:
217,147,86053,2,0,P|196:146|165:131,1,37.5,2|0,0:0|0:0,0:0:0:0:
97,91,86224,2,0,P|78:93|61:100,1,37.5,2|0,0:0|0:0,0:0:0:0:
26,194,86396,2,0,L|43:315,1,112.5,2|0,0:0|0:0,0:0:0:0:
218,345,86739,2,0,P|167:321|112:328,1,112.5,2|0,0:0|0:0,0:0:0:0:
53,377,87082,1,0,0:0:0:0:
430,313,87767,5,2,3:0:0:0:
432,301,87853,1,0,3:0:0:0:
433,290,87939,1,0,3:0:0:0:
434,280,88024,1,0,3:0:0:0:
415,256,88110,5,2,3:0:0:0:
411,244,88196,1,0,3:0:0:0:
410,233,88282,1,0,3:0:0:0:
409,223,88367,1,0,3:0:0:0:
492,176,88453,21,4,1:0:0:0:
326,146,88624,1,2,0:0:0:0:
439,109,88796,2,0,P|397:102|346:119,1,89.9999972534181,2|0,1:2|0:0,0:0:0:0:
306,231,89139,1,2,1:2:0:0:
265,51,89310,1,2,0:0:0:0:
119,168,89482,2,0,P|69:173|19:147,1,89.9999972534181,2|0,1:2|0:0,0:0:0:0:
232,144,89824,5,2,1:2:0:0:
246,186,89910,1,2,0:2:0:0:
233,229,89996,1,2,0:2:0:0:
217,271,90082,1,2,0:2:0:0:
232,312,90167,1,2,1:2:0:0:
365,368,90339,1,0,0:0:0:0:
347,227,90510,1,2,1:2:0:0:
248,352,90682,1,2,0:0:0:0:
465,308,90853,2,0,L|477:215,1,89.9999972534181,2|0,1:2|0:0,0:0:0:0:
405,69,91196,6,0,P|359:68|309:102,1,89.9999972534181,2|0,1:2|0:0,0:0:0:0:
147,119,91539,2,0,P|186:139|230:138,1,89.9999972534181,2|0,1:2|0:0,0:0:0:0:
103,11,91882,1,2,1:2:0:0:
58,186,92053,1,2,0:0:0:0:
229,137,92224,2,0,P|254:175|259:219,1,89.9999972534181,2|0,1:2|0:0,0:0:0:0:
102,304,92567,5,2,1:2:0:0:
145,291,92653,1,2,0:2:0:0:
189,299,92739,1,2,0:2:0:0:
226,323,92824,1,2,0:2:0:0:
249,361,92910,1,2,1:2:0:0:
73,338,93082,1,0,0:0:0:0:
166,204,93253,1,2,1:2:0:0:
154,384,93424,1,2,0:0:0:0:
24,191,93596,2,0,P|66:155|61:212,1,134.999995880127,2|0,1:2|0:0,0:0:0:0:
23,112,93939,21,0,1:0:0:0:
199,83,94110,1,2,0:0:0:0:
84,66,94282,2,0,P|126:50|185:61,1,89.9999972534181,2|0,1:2|0:0,0:0:0:0:
241,169,94624,1,2,1:2:0:0:
306,0,94796,1,2,0:0:0:0:
432,134,94967,2,0,L|338:152,1,89.9999972534181,2|0,1:2|0:0,0:0:0:0:
176,249,95310,5,2,1:2:0:0:
221,247,95396,1,2,0:2:0:0:
263,262,95482,1,2,0:2:0:0:
294,293,95567,1,2,0:2:0:0:
309,335,95653,1,2,1:2:0:0:
190,369,95824,1,0,0:0:0:0:
407,377,95996,1,2,1:2:0:0:
211,337,96167,1,2,0:0:0:0:
295,99,96339,2,0,P|268:81|274:122,1,89.9999972534181,2|0,1:2|0:0,0:0:0:0:
406,199,96682,6,0,P|446:189|508:206,1,89.9999972534181,2|0,1:2|0:0,0:0:0:0:
494,375,97024,2,0,P|454:385|392:368,1,89.9999972534181,2|0,1:2|0:0,0:0:0:0:
336,282,97367,1,2,1:2:0:0:
512,283,97539,1,2,0:0:0:0:
240,237,97710,2,0,P|230:285|242:330,1,89.9999972534181,2|0,1:2|0:0,0:0:0:0:
316,133,98053,6,0,L|192:148,1,112.5,8|0,3:0|3:0,3:0:0:0:
147,90,98396,2,0,B|167:123|167:123|153:216,1,112.5,8|0,3:0|3:0,3:0:0:0:
97,248,98739,2,0,B|77:215|77:215|91:122,1,112.5,8|0,3:0|3:0,3:0:0:0:
71,66,99082,1,8,3:0:0:0:
155,196,99253,21,0,1:0:0:0:
155,196,99424,1,0,1:0:0:0:
196,15,99596,1,2,0:0:0:0:
304,148,99767,2,0,P|306:103|282:55,1,89.9999972534181,2|0,1:2|0:0,0:0:0:0:
88,141,100110,1,2,1:2:0:0:
280,196,100282,1,2,0:0:0:0:
22,270,100453,2,0,B|7:244|7:244|7:178,1,89.9999972534181,2|0,1:2|0:0,0:0:0:0:
280,196,100796,5,2,1:2:0:0:
240,233,100882,1,2,0:2:0:0:
188,247,100967,1,2,0:2:0:0:
135,233,101053,1,2,0:2:0:0:
97,194,101139,1,2,1:2:0:0:
304,148,101310,1,0,0:0:0:0:
232,335,101482,1,2,1:2:0:0:
186,135,101653,1,2,0:0:0:0:
22,270,101824,2,0,B|7:296|7:296|7:362,1,89.9999972534181,2|0,1:2|0:0,0:0:0:0:
232,335,102167,6,0,P|189:330|128:360,1,89.9999972534181,2|0,1:2|0:0,0:0:0:0:
367,372,102510,2,0,P|387:334|386:277,1,89.9999972534181,2|0,1:2|0:0,0:0:0:0:
266,165,102853,1,2,1:2:0:0:
232,335,103024,1,2,0:0:0:0:
400,144,103196,2,0,L|500:132,1,89.9999972534181,2|0,1:2|0:0,0:0:0:0:
301,69,103539,5,2,1:2:0:0:
270,113,103624,1,2,0:2:0:0:
266,165,103710,1,2,0:2:0:0:
282,216,103796,1,2,0:2:0:0:
324,250,103882,1,2,1:2:0:0:
383,57,104053,1,0,0:0:0:0:
418,287,104224,1,2,1:2:0:0:
211,214,104396,1,2,0:0:0:0:
498,194,104567,2,0,L|513:59,1,134.999995880127,2|0,1:2|0:0,0:0:0:0:
446,0,104910,21,0,1:0:0:0:
341,137,105082,2,0,L|386:130,1,44.999998626709,2|0,0:0|0:0,0:0:0:0:
498,194,105253,2,0,L|409:205,1,89.9999972534181,2|0,1:2|0:0,0:0:0:0:
165,111,105596,2,0,P|205:127|239:172,1,89.9999972534181,2|0,1:2|0:0,0:0:0:0:
36,132,105939,2,0,P|33:89|55:39,1,89.9999972534181,2|0,1:2|0:0,0:0:0:0:
270,93,106281,5,2,1:2:0:0:
215,90,106367,1,2,0:2:0:0:
165,111,106453,1,2,0:2:0:0:
137,157,106539,1,2,0:2:0:0:
133,210,106624,1,2,1:2:0:0:
331,181,106796,1,0,0:0:0:0:
200,2,106967,1,2,1:2:0:0:
213,251,107139,1,2,0:0:0:0:
356,29,107310,2,0,L|454:49,1,89.9999972534181,2|0,1:2|0:0,0:0:0:0:
502,207,107653,6,0,P|460:210|411:254,1,89.9999972534181,2|0,1:2|0:0,0:0:0:0:
224,337,107996,2,0,P|180:332|143:303,1,89.9999972534181,2|0,1:2|0:0,0:0:0:0:
310,256,108339,1,2,1:2:0:0:
93,384,108510,1,2,0:0:0:0:
86,132,108682,2,0,P|124:104|178:101,1,89.9999972534181,2|0,1:2|0:0,0:0:0:0:
224,215,109024,6,0,L|208:266,4,37.5,2|2|2|2|2,0:0|0:0|0:0|0:0|0:0,0:0:0:0:
291,155,109539,1,0,0:0:0:0:
380,260,109710,1,2,0:0:0:0:
303,238,109882,1,0,0:0:0:0:
417,128,110053,22,0,P|469:124|420:158,1,150,2|0,0:0|1:0,0:0:0:0:
39,194,115882,5,0,1:0:0:0:
26,331,116224,2,0,P|5:283|25:208,1,112.5,2|0,0:0|0:0,0:0:0:0:
39,194,116567,2,0,P|93:203|152:184,1,112.5,2|0,0:0|0:0,0:0:0:0:
183,122,116910,1,2,1:2:0:0:
329,16,117082,6,0,L|346:131,1,112.5,2|0,0:0|0:0,0:0:0:0:
368,160,117424,2,0,P|330:142|277:146,1,75,2|0,0:0|1:0,0:0:0:0:
309,236,117767,1,2,0:0:0:0:
476,145,117939,2,0,P|497:149|468:167,1,75,2|2,0:0|0:0,0:0:0:0:
412,251,118282,2,0,L|419:290,3,37.5,2|2|2|2,0:0|0:0|0:0|0:0,0:0:0:0:
458,318,118624,6,0,P|405:311|345:345,1,112.5,2|0,1:2|0:0,0:0:0:0:
318,358,118967,2,0,P|251:359|201:328,1,112.5,2|0,0:0|0:0,0:0:0:0:
204,298,119310,2,0,P|237:294|208:336,1,112.5,2|0,0:0|0:0,0:0:0:0:
132,330,119653,1,2,1:2:0:0:
86,159,119824,2,0,P|122:147|159:149,1,75,2|2,0:0|0:0,0:0:0:0:
201,167,120082,1,0,0:0:0:0:
230,205,120167,21,2,0:0:0:0:
284,0,120510,1,2,0:0:0:0:
439,149,120853,1,2,0:0:0:0:
54,94,121367,54,0,P|63:111|65:139,1,45,4|0,1:0|0:0,0:0:0:0:
74,240,122053,22,0,P|60:201|68:152,1,75,8|0,0:0|0:0,0:0:0:0:
197,184,122396,2,0,L|139:192,1,45,0|0,1:0|0:0,0:0:0:0:
221,215,122739,2,0,P|254:214|304:241,1,75,2|0,0:0|0:0,0:0:0:0:
395,197,123082,2,0,L|402:141,1,45,0|0,1:0|0:0,0:0:0:0:
477,92,123424,2,0,L|487:179,1,75,8|0,0:0|0:0,0:0:0:0:
501,284,123767,1,2,0:0:0:0:
241,111,124110,38,0,P|221:102|193:99,1,45,4|0,1:0|0:0,0:0:0:0:
124,194,124796,38,0,P|165:196|217:166,1,75,8|0,0:0|0:0,0:0:0:0:
324,80,125139,2,0,L|333:133,1,45,0|0,1:0|0:0,0:0:0:0:
350,222,125482,2,0,P|386:226|430:205,1,75,2|0,0:0|0:0,0:0:0:0:
261,189,125824,2,0,L|250:240,1,45,0|0,1:0|0:0,0:0:0:0:
229,323,126167,1,8,0:0:0:0:
111,276,126339,2,0,P|145:263|179:265,1,60,0|0,1:0|0:0,0:0:0:0:
276,111,126853,22,0,L|228:99,1,45,4|0,1:0|0:0,0:0:0:0:
284,182,127539,54,0,P|289:145|268:102,1,75,8|0,0:0|0:0,0:0:0:0:
177,13,127882,2,0,L|224:23,1,45,0|0,1:0|0:0,0:0:0:0:
132,104,128224,2,0,L|38:119,1,75,2|0,0:0|0:0,0:0:0:0:
13,203,128567,2,0,P|37:204|58:215,1,45,0|0,1:0|0:0,0:0:0:0:
139,266,128910,2,0,P|102:278|68:312,1,75,8|0,0:0|0:0,0:0:0:0:
160,369,129253,1,2,0:0:0:0:
330,201,129596,6,0,L|322:250,1,45,4|0,1:0|0:0,0:0:0:0:
278,336,130282,6,0,L|291:252,1,75,8|0,0:0|0:0,0:0:0:0:
437,239,130624,2,0,L|448:294,1,45,0|0,1:0|0:0,0:0:0:0:
464,382,130967,2,0,P|422:383|378:360,1,75,2|0,0:0|0:0,0:0:0:0:
235,348,131310,2,0,P|258:337|279:335,1,45,0|0,1:0|0:0,0:0:0:0:
328,258,131653,1,8,0:0:0:0:
162,278,131824,2,0,P|139:267|101:265,1,60,0|0,1:0|0:0,0:0:0:0:
188,124,132339,22,0,B|240:103|239:142|300:119,1,112.500004291535,2|0,0:0|0:0,0:0:0:0:
264,45,132853,1,8,0:0:0:0:
213,197,133024,2,0,L|232:290,1,75,8|0,0:0|0:0,0:0:0:0:
250,367,133367,1,0,1:0:0:0:
250,367,133539,1,8,0:0:0:0:
437,67,133710,22,0,P|447:56|445:76,1,45,4|0,1:0|0:0,0:0:0:0:
333,121,134396,54,0,P|293:129|238:107,1,75,8|0,0:0|0:0,0:0:0:0:
346,27,134739,1,2,0:0:0:0:
62,68,135082,6,0,P|57:86|74:77,1,45,4|0,1:0|0:0,0:0:0:0:
0,161,135767,6,0,L|11:253,1,75,8|0,0:0|0:0,0:0:0:0:
158,293,136110,2,0,P|136:284|102:286,1,45,0|0,1:0|0:0,0:0:0:0:
189,367,136453,2,0,P|225:369|272:352,1,75,2|0,0:0|0:0,0:0:0:0:
386,263,136796,2,0,P|388:286|401:313,1,45,0|0,1:0|0:0,0:0:0:0:
463,362,137139,1,8,0:0:0:0:
508,155,137310,2,0,P|506:178|488:212,1,60,0|0,1:0|0:0,0:0:0:0:
200,76,137824,54,0,L|247:68,1,45,4|0,1:0|0:0,0:0:0:0:
136,130,138510,22,0,P|118:92|121:48,1,75,8|0,0:0|0:0,0:0:0:0:
309,129,138853,2,0,L|300:180,1,45,0|0,1:0|0:0,0:0:0:0:
373,254,139196,2,0,P|406:238|458:240,1,75,2|0,0:0|0:0,0:0:0:0:
316,347,139539,2,0,L|263:338,1,45,0|0,1:0|0:0,0:0:0:0:
172,328,139882,2,0,L|262:296,1,75,8|0,0:0|0:0,0:0:0:0:
373,254,140224,1,2,0:0:0:0:
15,49,140567,38,0,L|25:96,1,45,4|0,1:0|0:0,0:0:0:0:
180,66,141253,38,0,P|149:51|88:56,1,75,8|0,0:0|0:0,0:0:0:0:
118,182,141596,2,0,L|126:128,1,45,0|0,1:0|0:0,0:0:0:0:
219,75,141939,2,0,P|254:74|306:42,1,75,2|0,0:0|0:0,0:0:0:0:
452,42,142282,2,0,L|458:86,1,45,0|0,1:0|0:0,0:0:0:0:
512,150,142624,1,8,0:0:0:0:
306,181,142796,2,0,P|346:197|374:239,1,90,0|0,1:0|0:0,0:0:0:0:
158,199,144682,6,0,B|169:226|161:245|161:245|170:260|170:260|162:285|171:311,1,112.500004291535,2|0,0:0|0:0,0:0:0:0:
200,116,145367,2,0,P|144:107|82:148,1,112.500004291535,2|0,0:0|0:0,0:0:0:0:
312,329,146053,2,0,L|364:317,2,37.5,2|2|2,0:0|0:0|0:0,0:0:0:0:
236,349,146396,1,0,0:0:0:0:
255,276,146567,1,0,0:0:0:0:
276,202,146739,2,0,L|300:114,1,75,2|0,0:0|0:0,0:0:0:0:
366,247,147082,2,0,L|344:337,1,75,2|0,0:0|0:0,0:0:0:0:
443,231,147424,21,2,0:0:0:0:
255,276,147767,1,2,0:0:0:0:
396,175,148110,2,0,P|425:197|442:230,1,75,2|0,0:0|0:0,0:0:0:0:
434,114,148453,2,0,P|421:151|388:178,1,75,2|0,0:0|0:0,0:0:0:0:
349,101,148796,2,0,L|297:97,3,37.5,2|2|2|2,0:0|0:0|0:0|0:0,0:0:0:0:
273,93,149139,5,2,0:0:0:0:
321,23,149310,1,0,0:0:0:0:
196,88,149482,2,0,L|119:82,1,75,2|0,0:0|0:0,0:0:0:0:
0,192,149824,2,0,L|85:199,1,75,2|0,0:0|0:0,0:0:0:0:
74,198,150167,1,0,0:0:0:0:
121,82,150339,5,2,0:0:0:0:
205,184,150510,2,0,P|203:219|188:257,1,75,2|0,0:0|0:0,0:0:0:0:
271,328,150853,2,0,P|245:353|180:367,1,75,2|0,0:0|0:0,0:0:0:0:
361,301,151196,2,0,P|398:309|433:341,1,75,2|0,0:0|0:0,0:0:0:0:
512,263,151539,2,0,L|465:275,3,37.5,2|2|2|2,0:0|0:0|0:0|0:0,0:0:0:0:
450,305,151882,5,2,0:0:0:0:
473,195,152053,1,0,0:0:0:0:
362,229,152224,2,0,L|279:197,1,75,2|0,0:0|0:0,0:0:0:0:
184,284,152567,2,0,L|177:329,3,37.5
152,346,152910,22,0,P|112:351|78:378,1,75,2|0,0:0|0:0,0:0:0:0:
0,239,153253,2,0,P|35:249|65:276,1,75,2|0,0:0|0:0,0:0:0:0:
218,209,153596,2,0,P|225:161|220:130,1,75,2|0,0:0|0:0,0:0:0:0:
79,131,153939,1,2,0:0:0:0:
150,92,154110,1,0,0:0:0:0:
229,216,154282,5,2,0:0:0:0:
239,219,154367,1,2,0:0:0:0:
250,220,154453,1,2,0:0:0:0:
261,219,154539,1,2,0:0:0:0:
271,216,154624,1,2,0:0:0:0:
335,87,154796,1,0,0:0:0:0:
372,233,154967,2,0,L|388:318,1,75,2|0,0:0|0:0,0:0:0:0:
469,324,155310,1,2,0:0:0:0:
300,311,155482,1,0,1:0:0:0:
300,311,155653,6,0,P|259:316|217:350,1,75,0|2,1:0|0:0,0:0:0:0:
58,336,155996,2,0,P|90:354|127:358,1,75,0|2,1:0|0:0,0:0:0:0:
282,238,156339,2,0,L|304:330,1,75,0|2,1:0|0:0,0:0:0:0:
118,256,156682,2,0,L|135:183,1,75,0|2,1:0|0:0,0:0:0:0:
249,119,157024,5,0,1:0:0:0:
56,157,157196,1,2,0:0:0:0:
282,238,157367,1,0,1:0:0:0:
39,191,157539,1,2,0:0:0:0:
273,146,157710,1,0,1:0:0:0:
96,78,157882,1,2,0:0:0:0:
334,80,158053,1,0,1:0:0:0:
39,191,158224,1,2,0:0:0:0:
244,312,158396,21,0,1:0:0:0:
248,63,158567,1,2,0:0:0:0:
298,239,158739,1,0,1:0:0:0:
176,103,158910,1,2,0:0:0:0:
153,309,159082,1,0,1:0:0:0:
261,106,159253,1,2,0:0:0:0:
326,327,159424,1,0,1:0:0:0:
163,201,159596,1,2,0:0:0:0:
420,228,159767,5,0,1:0:0:0:
188,302,159939,1,2,0:0:0:0:
343,164,160110,1,0,1:0:0:0:
454,379,160281,1,2,0:0:0:0:
512,194,160453,1,0,1:0:0:0:
263,232,160624,1,2,0:0:0:0:
420,100,160796,38,0,L|427:79,6,18.75,4|0|0|0|0|0|0,3:0|0:0|0:0|0:0|0:0|0:0|0:0,0:0:0:0:
343,164,161139,37,2,3:0:0:0:
321,168,161224,1,0,3:0:0:0:
298,165,161310,1,0,3:0:0:0:
276,158,161396,1,0,3:0:0:0:
257,144,161482,1,2,3:0:0:0:
251,122,161567,1,0,3:0:0:0:
235,105,161653,1,0,3:0:0:0:
214,95,161739,1,0,3:0:0:0:
192,98,161824,5,2,3:0:0:0:
187,128,161910,1,0,3:0:0:0:
182,157,161996,1,0,3:0:0:0:
177,186,162082,1,0,3:0:0:0:
155,206,162167,1,2,3:0:0:0:
149,235,162252,1,0,3:0:0:0:
144,264,162338,1,0,3:0:0:0:
139,293,162424,1,0,3:0:0:0:
117,315,162510,21,2,3:0:0:0:
128,279,162596,1,0,3:0:0:0:
157,255,162682,1,2,3:0:0:0:
193,249,162768,1,0,3:0:0:0:
228,260,162853,1,2,3:0:0:0:
249,290,162939,1,0,3:0:0:0:
255,326,163025,1,2,3:0:0:0:
240,361,163111,1,0,3:0:0:0:
209,382,163195,5,2,3:0:0:0:
172,354,163282,1,0,3:0:0:0:
162,308,163368,1,2,3:0:0:0:
174,264,163454,1,0,3:0:0:0:
204,230,163540,1,2,3:0:0:0:
233,197,163624,1,0,3:0:0:0:
243,152,163710,1,2,3:0:0:0:
230,108,163796,1,0,3:0:0:0:
201,72,163882,6,0,L|134:89,2,37.5,8|0|0,3:0|3:0|3:0,3:0:0:0:
308,106,164139,2,0,L|357:94,2,37.5,8|0|0,3:0|3:0|3:0,3:0:0:0:
207,37,164396,2,0,L|213:-12,2,37.5,8|0|0,3:0|3:0|3:0,3:0:0:0:
315,142,164653,2,0,L|324:183,2,37.5,8|0|0,3:0|3:0|3:0,3:0:0:0:
294,24,164910,37,8,3:0:0:0:
317,19,164996,1,0,3:0:0:0:
354,0,165082,1,8,3:0:0:0:
378,7,165167,1,0,3:0:0:0:
423,25,165253,1,4,3:0:0:0:
58,261,165939,5,2,3:0:0:0:
68,265,166025,1,0,3:0:0:0:
79,266,166110,1,0,3:0:0:0:
90,265,166196,1,0,3:0:0:0:
113,245,166282,5,2,3:0:0:0:
123,241,166368,1,0,3:0:0:0:
134,240,166453,1,0,3:0:0:0:
145,241,166539,1,0,3:0:0:0:
197,320,166624,6,0,P|229:286|239:229,1,89.9999972534181,4|0,1:0|0:0,0:0:0:0:
148,81,166967,2,0,P|160:123|190:155,1,89.9999972534181,0|0,1:0|0:0,0:0:0:0:
452,188,167310,2,0,L|347:176,1,89.9999972534181,0|0,1:0|0:0,0:0:0:0:
286,165,167567,2,0,L|391:152,1,89.9999972534181,2|0,0:0|0:0,0:0:0:0:
442,107,167824,21,2,1:2:0:0:
374,287,167996,1,2,1:2:0:0:
261,133,168167,1,2,0:0:0:0:
469,281,168339,2,0,P|459:326|423:369,1,89.9999972534181,2|0,1:2|0:0,0:0:0:0:
205,323,168682,2,0,P|167:302|99:308,1,89.9999972534181,0|0,1:0|0:0,0:0:0:0:
63,351,168939,2,0,P|85:309|82:255,1,89.9999972534181,2|0,0:0|0:0,0:0:0:0:
45,199,169196,1,0,1:0:0:0:
203,63,169367,6,0,B|266:54|266:54|303:69,1,89.9999972534181,0|0,1:0|0:0,0:0:0:0:
483,113,169710,2,0,B|420:122|420:122|383:107,1,89.9999972534181,0|0,1:0|0:0,0:0:0:0:
512,239,170053,2,0,P|513:277|484:336,1,89.9999972534181,0|0,1:0|0:0,0:0:0:0:
423,358,170310,2,0,P|386:336|322:337,1,89.9999972534181,2|0,0:0|0:0,0:0:0:0:
269,367,170567,1,0,1:0:0:0:
125,286,170739,2,0,P|105:258|142:264,1,89.9999972534181,0|0,1:0|0:0,0:0:0:0:
11,314,171082,2,0,P|1:253|18:204,1,89.9999972534181,0|0,1:0|0:0,0:0:0:0:
91,131,171424,5,2,3:0:0:0:
104,132,171510,1,0,3:0:0:0:
116,136,171596,1,0,3:0:0:0:
127,143,171682,1,0,3:0:0:0:
158,127,171767,5,2,3:0:0:0:
165,115,171853,1,0,3:0:0:0:
168,101,171939,1,0,3:0:0:0:
168,87,172024,1,0,3:0:0:0:
232,17,172110,22,0,P|278:13|329:36,1,89.9999972534181,4|0,1:0|0:0,0:0:0:0:
512,110,172453,2,0,P|470:126|417:119,1,89.9999972534181,0|0,1:0|0:0,0:0:0:0:
264,111,172796,2,0,L|287:216,1,89.9999972534181,0|0,1:0|0:0,0:0:0:0:
348,240,173053,2,0,L|248:220,1,89.9999972534181,2|0,0:0|0:0,0:0:0:0:
185,203,173310,5,2,1:2:0:0:
236,374,173482,1,2,1:2:0:0:
348,240,173653,1,2,0:0:0:0:
92,227,173824,2,0,P|92:181|119:134,1,89.9999972534181,2|0,1:2|0:0,0:0:0:0:
300,58,174167,2,0,P|343:75|409:67,1,89.9999972534181,0|0,1:0|0:0,0:0:0:0:
454,40,174424,2,0,P|433:80|437:144,1,89.9999972534181,2|0,0:0|0:0,0:0:0:0:
463,192,174682,1,0,1:0:0:0:
233,138,174853,5,0,1:0:0:0:
233,138,175024,1,0,0:0:0:0:
348,240,175196,2,0,P|365:287|362:338,1,89.9999972534181,2|0,1:2|0:0,0:0:0:0:
165,328,175539,2,0,P|207:306|267:306,1,89.9999972534181,2|0,1:2|0:0,0:0:0:0:
468,370,175882,1,0,1:0:0:0:
468,370,176053,1,0,0:0:0:0:
348,240,176224,6,0,P|348:195|361:161,1,75,2|0,1:2|0:0,0:0:0:0:
512,54,176567,1,0,1:0:0:0:
512,54,176739,1,0,0:0:0:0:
399,15,176910,2,0,B|319:-9|327:38|249:13,1,150,2|0,1:2|1:0,0:0:0:0:
104,349,177596,22,0,L|85:243,1,89.9999972534181,4|2,1:0|0:0,0:0:0:0:
260,137,177939,2,0,L|241:243,1,89.9999972534181,0|2,1:0|0:0,0:0:0:0:
211,43,178282,2,0,P|254:33|299:41,1,89.9999972534181,0|2,1:0|0:0,0:0:0:0:
333,112,178539,2,0,P|342:64|378:31,1,89.9999972534181,2|0,0:0|0:0,0:0:0:0:
446,24,178796,5,2,1:2:0:0:
474,238,178967,1,2,1:2:0:0:
512,64,179139,1,2,0:0:0:0:
326,188,179310,2,0,P|285:173|260:137,1,89.9999972534181,2|2,1:2|0:0,0:0:0:0:
494,150,179653,2,0,L|472:245,1,89.9999972534181,0|2,1:0|0:0,0:0:0:0:
512,298,179910,2,0,P|466:293|415:338,1,89.9999972534181,2|0,0:0|0:0,0:0:0:0:
396,383,180167,1,2,1:2:0:0:
179,342,180339,6,0,L|159:239,1,89.9999972534181,0|2,1:0|0:0,0:0:0:0:
0,56,180682,2,0,L|20:159,1,89.9999972534181,0|2,1:0|0:0,0:0:0:0:
213,180,181024,2,0,P|252:162|280:115,1,89.9999972534181,0|2,1:0|0:0,0:0:0:0:
277,49,181282,2,0,P|291:100|326:129,1,89.9999972534181,2|0,0:0|0:0,0:0:0:0:
396,134,181539,1,2,1:2:0:0:
213,180,181710,2,0,P|189:189|227:194,1,89.9999972534181,0|2,1:0|0:0,0:0:0:0:
121,121,182053,2,0,P|98:155|89:217,1,89.9999972534181,0|2,1:0|0:0,0:0:0:0:
151,309,182396,5,2,3:0:0:0:
164,308,182482,1,0,3:0:0:0:
176,304,182568,1,0,3:0:0:0:
187,297,182654,1,0,3:0:0:0:
218,313,182739,21,2,3:0:0:0:
225,325,182825,1,0,3:0:0:0:
228,339,182911,1,0,3:0:0:0:
228,353,182996,1,0,3:0:0:0:
311,384,183082,6,0,B|343:366|343:366|416:366,1,89.9999972534181,4|2,1:0|0:0,0:0:0:0:
512,162,183424,2,0,B|480:180|480:180|407:180,1,89.9999972534181,0|2,1:0|0:0,0:0:0:0:
269,57,183767,2,0,P|303:85|320:144,1,89.9999972534181,0|2,1:0|0:0,0:0:0:0:
284,193,184024,2,0,P|311:159|375:144,1,89.9999972534181,2|0,0:0|0:0,0:0:0:0:
426,180,184282,5,2,1:2:0:0:
266,271,184453,1,2,1:2:0:0:
349,67,184624,1,2,0:0:0:0:
416,319,184796,2,0,P|454:344|517:338,1,89.9999972534181,2|2,1:2|0:0,0:0:0:0:
353,143,185139,2,0,L|259:157,1,89.9999972534181,0|2,1:0|0:0,0:0:0:0:
192,122,185396,2,0,L|292:131,1,89.9999972534181,2|0,0:0|0:0,0:0:0:0:
325,61,185653,1,2,1:2:0:0:
100,107,185824,6,0,P|107:163|154:211,1,112.5,8|0,3:0|3:0,3:0:0:0:
212,231,186167,2,0,P|160:240|107:308,1,112.5,8|0,3:0|3:0,3:0:0:0:
132,358,186510,2,0,P|175:379|249:371,1,112.5,8|0,3:0|3:0,3:0:0:0:
289,320,186853,2,0,P|339:297|395:302,1,112.5,8|0,3:0|3:0,3:0:0:0:
460,341,187196,22,0,P|431:296|432:224,1,112.5,8|0,3:0|3:0,3:0:0:0:
473,175,187539,2,0,P|502:130|501:58,1,112.5,8|0,3:0|3:0,3:0:0:0:
441,28,187882,2,0,B|371:55|367:7|291:33,1,150,8|0,3:0|3:0,3:0:0:0:
82,350,188567,6,0,P|67:310|69:256,1,89.9999972534181,6|0,1:2|0:0,0:0:0:0:
183,181,188910,1,0,1:0:0:0:
0,209,189082,1,0,0:0:0:0:
265,287,189253,2,0,B|350:320|356:256|446:292,1,179.999994506836,2|0,1:2|1:0,0:0:0:0:
440,289,189767,1,0,0:0:0:0:
373,46,189939,2,0,P|395:26|395:66,1,89.9999972534181,2|0,1:2|0:0,0:0:0:0:
157,29,190282,2,0,P|112:29|71:49,1,89.9999972534181,0|0,1:0|0:0,0:0:0:0:
133,302,190624,2,0,B|168:210|106:216|136:126,1,179.999994506836,2|0,1:2|1:0,0:0:0:0:
135,126,191139,1,0,0:0:0:0:
374,274,191310,6,0,P|418:306|402:231,1,179.999994506836,2|0,1:2|1:0,0:0:0:0:
356,376,191824,1,0,0:0:0:0:
488,168,191996,2,0,P|488:126|466:73,1,89.9999972534181,2|0,1:2|0:0,0:0:0:0:
232,0,192339,2,0,P|216:41|215:86,1,89.9999972534181,0|0,1:0|0:0,0:0:0:0:
374,274,192682,2,0,B|285:301|283:245|194:273,1,179.999994506836,2|0,1:2|1:0,0:0:0:0:
160,361,193196,1,0,0:0:0:0:
328,183,193367,2,0,P|329:138|309:98,1,89.9999972534181,2|0,1:2|0:0,0:0:0:0:
80,174,193710,2,0,P|121:191|180:183,1,89.9999972534181,0|0,1:0|0:0,0:0:0:0:
397,95,194053,6,0,P|349:87|291:112,1,89.9999972534181,2|0,1:2|0:0,0:0:0:0:
448,202,194396,1,0,1:0:0:0:
471,0,194567,1,0,0:0:0:0:
217,60,194739,2,0,B|192:158|251:135|218:236,1,179.999994506836,2|0,1:2|1:0,0:0:0:0:
280,359,195253,1,0,0:0:0:0:
448,202,195424,2,0,L|401:105,1,89.9999972534181,2|0,1:2|0:0,0:0:0:0:
471,0,195767,1,0,1:0:0:0:
343,238,195939,1,0,0:0:0:0:
154,11,196110,2,0,P|111:12|169:59,1,179.999994506836,2|0,1:2|1:0,0:0:0:0:
165,67,196624,1,0,0:0:0:0:
12,226,196796,22,0,P|2:274|21:330,1,89.9999972534181,2|0,1:2|0:0,0:0:0:0:
158,365,197139,1,0,1:0:0:0:
66,143,197310,1,0,0:0:0:0:
330,163,197482,2,0,P|399:152|342:111,1,179.999994506836,2|0,1:2|1:0,0:0:0:0:
340,111,197996,1,0,0:0:0:0:
503,251,198167,2,0,L|490:155,1,89.9999972534181,2|0,1:2|0:0,0:0:0:0:
436,46,198510,1,0,1:0:0:0:
366,265,198682,1,0,0:0:0:0:
176,90,198853,2,0,B|90:58|78:118|0:86,1,179.999994506836,2|0,1:2|1:0,0:0:0:0:
0,86,199367,1,0,0:0:0:0:
127,177,199539,54,0,L|123:211,1,30
77,282,200053,37,0,1:0:0:0:
316,247,200224,2,0,P|365:247|411:278,1,89.9999972534181,6|0,1:2|0:0,0:0:0:0:
161,301,200567,2,0,P|112:301|66:270,1,89.9999972534181,0|0,1:0|0:0,0:0:0:0:
307,179,200910,2,0,P|376:204|316:247,1,179.999994506836,2|0,1:2|1:0,0:0:0:0:
230,91,201424,1,0,0:0:0:0:
477,161,201596,2,0,L|453:348,1,179.999994506836,2|0,1:2|1:0,0:0:0:0:
454,339,202110,1,0,0:0:0:0:
249,222,202282,6,0,P|203:217|151:241,1,89.9999972534181,2|0,1:2|0:0,0:0:0:0:
220,324,202624,1,0,1:0:0:0:
319,112,202796,1,0,0:0:0:0:
67,147,202967,2,0,P|52:105|63:54,1,89.9999972534181,2|0,1:2|0:0,0:0:0:0:
295,28,203310,2,0,P|317:66|315:124,1,89.9999972534181,0|0,1:0|0:0,0:0:0:0:
163,283,203653,2,0,P|202:243|211:326,1,179.999994506836,2|0,1:2|1:0,0:0:0:0:
80,244,204167,1,0,0:0:0:0:
334,190,204339,2,0,B|433:153|423:218|510:187,1,179.999994506836,2|0,1:2|1:0,0:0:0:0:
508,187,204853,1,0,0:0:0:0:
240,145,205024,38,0,P|227:187|242:240,1,89.9999972534181,2|0,1:2|0:0,0:0:0:0:
394,292,205367,1,0,1:0:0:0:
466,101,205539,1,0,0:0:0:0:
240,145,205710,2,0,P|193:154|138:138,1,89.9999972534181,2|0,1:2|0:0,0:0:0:0:
73,2,206053,1,0,1:0:0:0:
28,222,206224,1,0,0:0:0:0:
240,145,206396,2,0,B|337:107|332:173|417:140,1,179.999994506836,2|0,1:2|1:0,0:0:0:0:
292,231,206910,1,0,0:0:0:0:
308,34,207082,2,0,P|392:21|358:74,1,179.999994506836,2|0,1:2|1:0,0:0:0:0:
372,68,207596,1,0,0:0:0:0:
196,49,207767,6,0,P|157:34|117:37,1,75,2|0,0:0|0:0,0:0:0:0:
141,133,208110,1,0,0:0:0:0:
222,23,208282,1,0,0:0:0:0:
50,96,208453,2,0,P|31:65|28:19,1,75,2|0,0:0|0:0,0:0:0:0:
141,133,208796,6,0,L|119:259,1,112.5,2|0,0:0|0:0,0:0:0:0:
63,290,209139,2,0,P|45:256|124:255,1,150,2|2,0:0|0:0,0:0:0:0:
136,322,209653,1,2,0:0:0:0:
243,261,209824,2,0,P|317:250|396:288,1,150,2|0,0:0|0:0,0:0:0:0:
