osu file format v14

[General]
AudioFilename: audio.mp3
AudioLeadIn: 0
PreviewTime: 188482
Countdown: 0
SampleSet: Soft
StackLeniency: 0.7
Mode: 0
LetterboxInBreaks: 0
WidescreenStoryboard: 1

[Editor]
Bookmarks: 11653,22624,25367,28110,30853,55539,66510,77482,88453,99424,115882,121367,124110,126853,129596,133710,135082,137824,140567,144682,155653,166624,177596,188567,199539
DistanceSpacing: 1
BeatDivisor: 4
GridSize: 16
TimelineZoom: 2.4

[Metadata]
Title:Candy (feat. Sara)
TitleUnicode:Candy (feat. Sara)
Artist:S3RL
ArtistUnicode:S3RL
Creator:Sakurauchi Riko
Version:Normal
Source:
Tags:phyloukz akitoshi icekalt happy hardcore emfa music serl corinn
BeatmapID:1364375
BeatmapSetID:643185

[Difficulty]
HPDrainRate:4
CircleSize:3.5
OverallDifficulty:4
ApproachRate:5
SliderMultiplier:1
SliderTickRate:1

[Events]
//Background and Video events
0,0,"richtiges bild.jpg",0,0
//Break Periods
2,34967,43367
2,77682,81596
2,110596,120167
2,144682,154453
//Storyboard Layer 0 (Background)
//Storyboard Layer 1 (Fail)
//Storyboard Layer 2 (Pass)
//Storyboard Layer 3 (Foreground)
//Storyboard Sound Samples

[TimingPoints]
682,342.857142857143,4,2,1,50,1,0
88453,-100,4,2,1,80,0,1
98053,-100,4,2,1,50,0,0
99424,-100,4,2,1,80,0,1
109024,-100,4,2,1,50,0,0
166624,-100,4,2,1,80,0,1
176224,-100,4,2,1,50,0,0
177596,-100,4,2,1,80,0,1
185824,-100,4,2,1,80,0,0
188567,-100,4,2,1,100,0,1
199539,-100,4,2,1,50,0,0
200224,-100,4,2,1,100,0,1
207767,-100,4,2,1,50,0,0

[Colours]
Combo1 : 237,197,245
Combo2 : 194,162,131
Combo3 : 173,86,160
Combo4 : 151,131,231

[HitObjects]
60,70,11653,6,0,P|116:70|165:99,1,100,6|0,0:0|0:0,0:0:0:0:
185,128,12167,1,0,0:0:0:0:
199,176,12339,2,0,P|254:179|312:151,1,100,8|2,0:0|0:0,0:0:0:0:
364,91,13024,1,2,0:0:0:0:
400,184,13367,2,0,L|389:246,1,50,0|0,0:0|0:0,0:0:0:0:
411,279,13710,2,0,L|425:380,1,100,8|2,0:0|0:0,0:0:0:0:
325,361,14396,6,0,B|294:377|294:377|216:370,2,100,2|0|8,0:0|0:0|0:0,0:0:0:0:
274,274,15424,1,2,0:0:0:0:
233,182,15767,1,2,0:0:0:0:
312,120,16110,2,0,L|378:142,1,50,0|0,0:0|0:0,0:0:0:0:
397,169,16453,2,0,P|442:136|461:75,1,100,8|0,0:0|0:0,0:0:0:0:
408,10,17139,6,0,P|457:-5|511:7,2,100,2|0|8,0:0|0:0|0:0,0:0:0:0:
335,79,18167,1,2,0:0:0:0:
291,169,18510,2,0,L|391:193,1,100,2|0,0:0|0:0,0:0:0:0:
434,173,19024,1,0,0:0:0:0:
480,153,19196,2,0,B|496:253,1,100,8|2,0:0|0:0,0:0:0:0:
448,340,19882,5,2,0:0:0:0:
349,319,20224,2,0,L|289:307,1,50,0|0,0:0|0:0,0:0:0:0:
260,278,20567,2,0,P|213:277|155:315,1,100,8|2,0:0|0:0,0:0:0:0:
109,383,21253,2,0,P|76:346|68:289,1,100,2|2,0:0|0:0,0:0:0:0:
86,251,21767,1,0,0:0:0:0:
75,202,21939,2,0,L|9:181,1,50,0|0,0:0|1:0,0:0:0:0:
114,64,22624,6,0,B|170:51|208:86|208:86|264:87|302:26,1,200,4|8,1:0|0:0,0:0:0:0:
391,54,23653,2,0,L|418:164,1,100,0|2,1:0|0:0,0:0:0:0:
327,200,24339,2,0,P|281:194|238:159,1,100,0|8,1:0|0:0,0:0:0:0:
44,119,25367,6,0,B|11:228|75:192|42:318,1,200,4|8,1:0|0:0,0:0:0:0:
119,379,26396,2,0,L|229:363,1,100,0|2,1:0|0:0,0:0:0:0:
262,274,27082,2,0,L|370:296,1,100,0|8,1:0|0:0,0:0:0:0:
404,270,27596,2,0,P|427:221|424:169,1,100,0|0,1:0|0:0,0:0:0:0:
405,130,28110,6,0,B|345:126|325:81|325:81|287:117|226:104,1,200,4|8,1:0|0:0,0:0:0:0:
134,79,29139,2,0,L|94:191,1,100,0|2,1:0|0:0,0:0:0:0:
71,268,29824,2,0,L|181:250,1,100,0|8,1:0|0:0,0:0:0:0:
345,347,30853,6,0,P|369:268|338:156,1,200,4|8,1:0|0:0,0:0:0:0:
262,92,31882,2,0,P|213:95|163:76,1,100,0|2,1:0|0:0,0:0:0:0:
76,122,32567,2,0,P|68:171|29:224,1,100,0|8,1:0|0:0,0:0:0:0:
10,252,33082,2,0,B|50:269|50:269|114:255|114:255|163:275,1,150,0|0,0:0|0:0,0:0:0:0:
50,20,44567,6,0,B|-36:52|11:172|114:138|117:70|117:70|149:84|189:65,1,300,0|0,1:0|1:0,0:0:0:0:
265,114,45939,2,0,B|209:164|232:254|232:254|319:264|365:201,1,300,0|0,1:0|1:0,0:0:0:0:
369,103,47310,2,0,P|454:71|459:226,1,300,0|0,1:0|1:0,0:0:0:0:
365,206,48682,2,0,B|352:267|405:311|405:311|405:345|374:375|374:375|370:308|319:273,1,300,0|4,1:0|3:0,0:0:0:0:
256,192,50053,12,2,54167,3:0:0:0:
100,159,55539,5,0,1:0:0:0:
96,210,55710,2,0,L|91:267,1,50,2|2,0:0|1:2,0:0:0:0:
37,344,56224,2,0,P|85:361|140:347,1,100,2|2,1:2|1:2,0:0:0:0:
194,269,56910,2,0,B|243:256|243:256|299:272,1,100,2|2,1:2|1:2,0:0:0:0:
338,284,57424,1,0,0:0:0:0:
387,278,57596,2,0,P|411:262|437:187,1,100,2|2,1:2|1:2,0:0:0:0:
362,131,58282,6,0,L|256:162,2,100,2|2|2,1:2|1:2|1:2,0:0:0:0:
457,99,59310,2,0,L|465:50,1,50,2|0,1:2|0:0,0:0:0:0:
429,13,59653,2,0,B|379:-1|379:-1|323:15,1,100,2|2,1:2|1:2,0:0:0:0:
287,32,60167,1,0,0:0:0:0:
243,57,60339,2,0,B|195:68|195:43|139:61,1,100,2|2,1:2|1:2,0:0:0:0:
56,106,61024,5,0,1:0:0:0:
72,153,61195,2,0,L|60:208,1,50,2|2,0:0|1:2,0:0:0:0:
102,293,61710,2,0,L|199:310,1,100,2|2,1:2|1:2,0:0:0:0:
293,272,62396,2,0,P|338:243|394:241,1,100,2|2,1:2|1:2,0:0:0:0:
431,251,62909,1,0,0:0:0:0:
479,238,63081,2,0,L|498:128,1,100,2|2,1:2|1:2,0:0:0:0:
447,51,63767,6,0,B|412:38|412:38|342:54,2,100,2|2|2,1:2|1:2|1:2,0:0:0:0:
400,139,64796,1,2,1:2:0:0:
301,139,65139,2,0,P|283:182|319:288,1,150,2|0,0:2|0:0,0:0:0:0:
358,286,65824,2,0,P|404:264|465:266,1,100,2|2,0:0|0:0,0:0:0:0:
357,384,66682,2,0,L|299:357,1,50,2|2,0:0|1:2,0:0:0:0:
231,331,67196,2,0,P|181:332|137:355,1,100,2|2,1:2|1:2,0:0:0:0:
44,318,67882,2,0,L|20:208,1,100,2|2,1:2|1:2,0:0:0:0:
39,173,68396,1,0,0:0:0:0:
63,129,68568,2,0,B|99:118|99:118|165:135,1,100,2|2,1:2|1:2,0:0:0:0:
256,158,69254,6,0,P|257:109|231:63,2,100,2|2|2,1:2|1:2|1:2,0:0:0:0:
183,226,70282,1,2,1:2:0:0:
203,324,70625,2,0,B|249:337|249:337|299:323,1,100,2|2,1:2|1:2,0:0:0:0:
346,306,71139,1,0,0:0:0:0:
393,290,71311,2,0,B|408:179,1,100,2|2,1:2|1:2,0:0:0:0:
449,100,71996,5,0,1:0:0:0:
414,63,72167,2,0,P|382:63|352:75,1,50,2|2,0:0|1:2,0:0:0:0:
288,132,72681,2,0,P|237:133|190:114,1,100,2|2,1:2|1:2,0:0:0:0:
102,69,73367,2,0,L|85:176,1,100,2|2,1:2|1:2,0:0:0:0:
93,217,73881,1,0,0:0:0:0:
105,265,74053,2,0,P|151:271|209:252,1,100,2|2,1:2|1:2,0:0:0:0:
300,276,74739,6,0,L|322:377,2,100,2|2|2,1:2|1:2|1:2,0:0:0:0:
276,178,75767,1,2,1:2:0:0:
325,93,76110,2,0,P|375:81|428:94,1,100,2|2,0:0|0:0,0:0:0:0:
455,127,76624,1,0,0:0:0:0:
467,175,76796,2,0,P|455:220|468:284,1,100,2|2,0:0|0:0,0:0:0:0:
512,357,77482,1,2,1:2:0:0:
256,192,82796,12,0,87082,0:0:0:0:
56,20,88453,5,4,1:0:0:0:
93,52,88624,2,0,L|162:43,1,50,2|2,0:0|1:2,0:0:0:0:
236,78,89139,2,0,L|221:186,1,100,2|2,1:2|1:2,0:0:0:0:
161,256,89824,2,0,P|202:275|267:265,1,100,2|2,1:2|1:2,0:0:0:0:
296,242,90338,1,0,0:0:0:0:
319,197,90510,2,0,P|368:191|413:211,1,100,2|2,1:2|1:2,0:0:0:0:
497,156,91196,6,0,L|514:44,2,100,2|2|2,1:2|1:2|1:2,0:0:0:0:
407,111,92224,1,2,1:2:0:0:
355,35,92567,2,0,B|321:22|321:22|249:37,1,100,2|2,1:2|1:2,0:0:0:0:
212,53,93081,1,0,0:0:0:0:
164,70,93253,2,0,B|155:173,1,100,2|2,1:2|1:2,0:0:0:0:
108,257,93938,5,0,1:0:0:0:
145,290,94110,2,0,P|175:292|207:281,1,50,2|2,0:0|1:2,0:0:0:0:
272,224,94624,2,0,P|328:225|368:247,1,100,2|2,1:2|1:2,0:0:0:0:
456,202,95310,2,0,L|469:100,1,100,2|2,1:2|1:2,0:0:0:0:
443,59,95823,1,0,0:0:0:0:
413,18,95996,2,0,L|301:29,1,100,2|2,1:2|1:2,0:0:0:0:
228,80,96681,6,0,P|177:77|134:45,2,100,2|2|2,1:2|1:2|1:2,0:0:0:0:
320,118,97710,1,2,1:2:0:0:
355,210,98053,2,0,P|405:214|462:187,1,100,8|8,3:0|3:0,0:0:0:0:
484,159,98566,1,0,0:0:0:0:
497,110,98739,2,0,B|494:33|494:33|402:17,1,150,8|0,3:0|1:0,0:0:0:0:
376,33,99424,5,0,1:0:0:0:
330,48,99596,2,0,L|263:38,1,50,2|2,0:0|1:2,0:0:0:0:
187,68,100110,2,0,L|91:111,1,100,2|2,1:2|1:2,0:0:0:0:
0,102,100796,2,0,P|9:151|45:191,1,100,2|2,1:2|1:2,0:0:0:0:
87,198,101310,1,0,0:0:0:0:
136,193,101482,2,0,P|180:175|241:182,1,100,2|2,1:2|1:2,0:0:0:0:
293,257,102168,6,0,L|252:354,2,100,2|2|2,1:2|1:2|1:2,0:0:0:0:
335,166,103196,1,2,1:2:0:0:
421,131,103539,2,0,B|384:21,1,100,2|2,1:2|1:2,0:0:0:0:
341,21,104053,1,0,0:0:0:0:
290,19,104225,2,0,B|255:19|255:19|192:45,1,100,2|2,1:2|1:2,0:0:0:0:
106,90,104910,5,0,1:0:0:0:
116,138,105081,2,0,L|128:194,1,50,2|2,0:0|1:2,0:0:0:0:
213,235,105596,2,0,L|188:338,1,100,2|2,1:2|1:2,0:0:0:0:
280,373,106281,2,0,P|333:370|385:336,1,100,2|2,1:2|1:2,0:0:0:0:
401,306,106795,1,0,0:0:0:0:
404,255,106967,2,0,P|387:212|395:149,1,100,2|2,1:2|1:2,0:0:0:0:
415,61,107653,6,0,L|532:71,2,100,2|2|2,1:2|1:2|1:2,0:0:0:0:
315,50,108682,1,2,1:2:0:0:
221,83,109024,2,0,P|210:138|176:176,1,100,2|2,0:0|0:0,0:0:0:0:
136,190,109538,1,0,0:0:0:0:
86,199,109710,2,0,B|74:235|74:235|102:309,1,100,2|2,0:0|0:0,0:0:0:0:
135,384,110396,1,0,1:0:0:0:
470,351,121367,6,0,B|521:256|434:256|475:158,1,200,4|8,1:0|0:0,0:0:0:0:
423,72,122396,2,0,L|315:85,1,100,0|2,1:0|0:0,0:0:0:0:
231,44,123082,2,0,L|215:154,1,100,0|8,1:0|0:0,0:0:0:0:
155,333,124110,6,0,B|207:350|207:350|290:318|290:318|346:333,1,200,4|8,1:0|0:0,0:0:0:0:
425,273,125139,2,0,L|323:242,1,100,0|2,1:0|0:0,0:0:0:0:
270,162,125824,2,0,P|220:159|163:192,1,100,0|8,1:0|0:0,0:0:0:0:
134,209,126339,2,0,L|116:104,1,100,0|0,1:0|0:0,0:0:0:0:
130,62,126853,6,0,B|179:62|214:14|214:14|259:48|324:23,1,200,4|8,1:0|0:0,0:0:0:0:
395,77,127882,2,0,L|382:186,1,100,0|2,1:0|0:0,0:0:0:0:
293,220,128567,2,0,P|243:218|198:239,1,100,0|8,1:0|0:0,0:0:0:0:
31,349,129596,6,0,B|-13:249|66:249|30:153,1,200,4|8,1:0|0:0,0:0:0:0:
72,64,130625,2,0,L|191:85,1,100,0|2,1:0|0:0,0:0:0:0:
234,158,131310,2,0,L|353:141,1,100,0|8,1:0|0:0,0:0:0:0:
376,118,131824,2,0,P|419:136|453:194,1,100,0|0,1:0|0:0,0:0:0:0:
442,228,132338,6,0,B|428:331|428:331|383:368,1,150,2|8,0:0|0:0,0:0:0:0:
342,360,133024,1,8,0:0:0:0:
256,307,133367,2,0,P|226:306|185:316,1,50,0|8,1:0|0:0,0:0:0:0:
169,342,133710,2,0,P|76:351|42:253,1,200,4|8,1:0|0:0,0:0:0:0:
42,78,135081,6,0,B|89:60|89:60|176:94|176:94|230:68,1,200,4|8,1:0|0:0,0:0:0:0:
311,15,136110,2,0,P|363:17|412:52,1,100,0|2,1:0|0:0,0:0:0:0:
416,140,136796,2,0,P|402:177|408:241,1,100,0|8,1:0|0:0,0:0:0:0:
384,281,137310,2,0,L|279:300,1,100,0|0,1:0|0:0,0:0:0:0:
236,309,137824,6,0,B|186:276|186:276|159:137,1,200,4|8,1:0|0:0,0:0:0:0:
143,39,138853,2,0,L|255:57,1,100,0|2,1:0|0:0,0:0:0:0:
338,28,139539,2,0,L|384:125,1,100,0|8,1:0|0:0,0:0:0:0:
319,300,140567,6,0,B|300:330|255:336|255:336|198:290|127:316,1,200,4|8,1:0|0:0,0:0:0:0:
59,250,141596,2,0,P|52:227|69:142,1,100,0|2,1:0|0:0,0:0:0:0:
156,117,142282,2,0,L|278:137,1,100,0|8,1:0|0:0,0:0:0:0:
297,106,142796,2,0,B|394:86|394:86|460:113,1,150,0|0,1:0|0:0,0:0:0:0:
445,119,155653,6,0,P|409:92|414:220,1,300,0|0,1:0|1:0,0:0:0:0:
454,310,157024,2,0,B|351:380|288:238|155:331,1,300,0|0,1:0|1:0,0:0:0:0:
70,298,158396,2,0,B|20:297|-3:211|57:175|112:182|133:230|133:230|114:188|128:148,1,300,0|0,1:0|1:0,0:0:0:0:
214,103,159767,2,0,B|257:158|332:165|374:138|374:138|309:130|271:196,1,300,0|4,1:0|3:0,0:0:0:0:
256,192,161139,12,2,165253,3:0:0:0:
399,287,166624,6,0,L|509:270,1,100,4|0,1:0|1:0,0:0:0:0:
495,171,167310,2,0,P|497:139|517:92,2,75,0|0|2,1:0|1:0|1:2,0:0:0:0:
447,186,167996,2,0,L|393:180,2,50,2|2|2,1:2|0:0|1:2,0:0:0:0:
497,271,168682,2,0,P|510:306|508:348,2,75,0|0|0,1:0|1:0|1:0,0:0:0:0:
447,268,169367,6,0,L|346:283,1,100,0|0,1:0|1:0,0:0:0:0:
263,229,170053,2,0,P|225:215|170:213,2,75,0|0|0,1:0|1:0|1:0,0:0:0:0:
299,194,170739,2,0,L|312:125,2,50,0|0|0,1:0|0:0|1:0,0:0:0:0:
348,282,171424,2,0,B|405:274|405:274|408:218|460:190,1,150,2|0,3:0|3:0,0:0:0:0:
491,169,172110,6,0,P|483:123|452:80,1,100,4|0,1:0|1:0,0:0:0:0:
354,102,172796,2,0,L|272:83,2,75,0|0|2,1:0|1:0|1:2,0:0:0:0:
378,145,173482,2,0,P|372:167|354:194,2,50,2|2|2,1:2|0:0|1:2,0:0:0:0:
452,80,174167,2,0,P|463:117|489:150,2,75,0|0|0,1:0|1:0|1:0,0:0:0:0:
453,29,174853,5,0,1:0:0:0:
355,49,175196,2,0,B|316:55|316:55|243:42,2,100,2|2|0,1:2|1:2|1:0,0:0:0:0:
452,80,176224,1,2,1:2:0:0:
465,179,176567,1,0,1:0:0:0:
478,278,176910,2,0,L|451:378,1,100,2|0,1:2|1:0,0:0:0:0:
358,338,177596,6,0,P|321:355|257:353,1,100,4|0,1:0|1:0,0:0:0:0:
235,258,178282,2,0,L|219:169,2,75,0|0|2,1:0|1:0|1:2,0:0:0:0:
192,284,178967,2,0,L|136:315,2,50,2|2|2,1:2|0:0|1:2,0:0:0:0:
135,201,179653,2,0,L|119:114,2,75,0|0|2,1:0|1:0|1:2,0:0:0:0:
92,228,180339,6,0,B|31:258|31:258|7:306,1,100,0|0,1:0|1:0,0:0:0:0:
103,336,181024,2,0,L|185:343,2,75,0|0|2,1:0|1:0|1:2,0:0:0:0:
65,369,181710,2,0,L|10:378,2,50,0|2|0,1:0|0:0|1:0,0:0:0:0:
16,286,182396,2,0,P|-3:238|20:142,1,150,2|0,3:0|3:0,0:0:0:0:
59,115,183082,6,0,P|112:120|157:99,1,100,4|0,1:0|1:0,0:0:0:0:
254,98,183767,2,0,P|290:106|332:135,2,75,0|0|2,1:0|1:0|1:2,0:0:0:0:
242,49,184453,2,0,P|254:29|262:-1,2,50,2|2|2,1:2|0:0|1:2,0:0:0:0:
154,102,185139,2,0,P|110:119|77:153,2,75,0|0|2,1:0|1:0|1:2,0:0:0:0:
191,134,185824,6,0,B|205:164|205:164|205:252,2,100,8|8|8,3:0|3:0|3:0,0:0:0:0:
242,49,186853,1,8,3:0:0:0:
342,49,187196,2,0,B|379:49|379:49|454:22,2,100,8|8|8,3:0|3:0|3:0,0:0:0:0:
290,134,188224,1,0,3:0:0:0:
247,224,188567,6,0,B|261:257|261:257|261:331,1,100,6|0,1:2|1:0,0:0:0:0:
223,354,189081,1,0,0:0:0:0:
176,372,189253,2,0,P|122:373|74:351,1,100,2|0,1:2|1:0,0:0:0:0:
38,264,189938,1,2,1:2:0:0:
89,178,190281,2,0,L|80:128,1,50,0|0,1:0|0:0,0:0:0:0:
50,88,190624,2,0,P|80:59|148:46,1,100,2|0,1:2|1:0,0:0:0:0:
224,90,191310,6,0,B|267:111|267:111|319:107,1,100,2|0,1:2|1:0,0:0:0:0:
368,115,191824,1,0,0:0:0:0:
408,144,191996,2,0,P|414:193|398:240,1,100,2|0,1:2|1:0,0:0:0:0:
299,256,192681,1,2,1:2:0:0:
208,213,193024,2,0,P|182:204|154:203,1,50,0|0,1:0|0:0,0:0:0:0:
116,229,193367,2,0,P|101:277|111:332,1,100,2|0,1:2|1:0,0:0:0:0:
203,356,194053,6,0,B|307:342,1,100,2|0,1:2|1:0,0:0:0:0:
351,334,194567,1,0,0:0:0:0:
400,327,194739,2,0,P|425:296|433:222,1,100,2|0,1:2|1:0,0:0:0:0:
359,173,195424,2,0,P|329:132|322:83,1,100,2|0,1:2|1:0,0:0:0:0:
304,37,195938,1,0,0:0:0:0:
262,11,196110,2,0,P|212:8|156:39,1,100,2|0,1:2|1:0,0:0:0:0:
136,123,196796,5,2,1:2:0:0:
181,216,197138,2,0,L|169:282,1,50,0|0,1:0|0:0,0:0:0:0:
134,297,197481,2,0,L|48:226,1,100,2|0,1:2|1:0,0:0:0:0:
49,136,198167,2,0,P|95:118|145:124,1,100,2|0,1:2|1:0,0:0:0:0:
169,167,198681,1,0,0:0:0:0:
181,216,198853,2,0,P|227:232|290:218,1,100,2|0,1:2|1:0,0:0:0:0:
344,150,199539,1,0,0:0:0:0:
481,208,200053,5,0,1:0:0:0:
512,169,200224,2,0,L|498:64,1,100,6|0,1:2|1:0,0:0:0:0:
408,26,200910,2,0,P|362:49|312:51,1,100,2|0,1:2|1:0,0:0:0:0:
265,39,201424,1,0,0:0:0:0:
217,22,201596,2,0,P|166:21|119:41,1,100,2|0,1:2|1:0,0:0:0:0:
92,135,202282,5,2,1:2:0:0:
123,229,202624,2,0,L|184:218,1,50,0|0,1:0|0:0,0:0:0:0:
211,189,202967,2,0,L|308:213,1,100,2|0,1:2|1:0,0:0:0:0:
405,189,203653,2,0,P|409:231|374:295,1,100,2|0,1:2|1:0,0:0:0:0:
345,312,204167,1,0,0:0:0:0:
295,318,204339,2,0,P|248:306|190:317,1,100,2|0,1:2|1:0,0:0:0:0:
109,361,205024,5,2,1:2:0:0:
114,261,205367,2,0,L|100:211,1,50,0|0,1:0|0:0,0:0:0:0:
65,176,205710,2,0,L|84:73,1,100,2|0,1:2|1:0,0:0:0:0:
174,36,206396,2,0,P|213:67|277:74,1,100,2|0,1:2|1:0,0:0:0:0:
310,66,206910,1,0,0:0:0:0:
350,36,207082,2,0,B|384:21|384:21|463:39,1,100,2|0,1:2|1:0,0:0:0:0:
256,192,207767,12,2,208796,0:0:0:0:
