osu file format v14

[General]
AudioFilename: audio.mp3
AudioLeadIn: 0
PreviewTime: -1
Countdown: 1
SampleSet: None
StackLeniency: 0.7
Mode: 0
LetterboxInBreaks: 0
WidescreenStoryboard: 0

[Editor]
Bookmarks: 54853,55539
DistanceSpacing: 3
BeatDivisor: 4
GridSize: 4
TimelineZoom: 1

[Metadata]
Title:Candy (feat. Sara)
TitleUnicode:Candy (feat. Sara)
Artist:S3RL
ArtistUnicode:S3RL
Creator:Oxia
Version:Insane
Source:
Tags:
BeatmapID:1178900
BeatmapSetID:557084

[Difficulty]
HPDrainRate:5
CircleSize:4
OverallDifficulty:8
ApproachRate:9
SliderMultiplier:1.4
SliderTickRate:1

[Events]
//Background and Video events
//Break Periods
2,36367,43967
//Storyboard Layer 0 (Background)
//Storyboard Layer 1 (Fail)
//Storyboard Layer 2 (Pass)
//Storyboard Layer 3 (Foreground)
//Storyboard Sound Samples

[TimingPoints]
682,342.857142857143,4,2,0,69,1,0

[HitObjects]
416,60,34967,5,0,0:0:0:0:
430,91,35052,1,0,0:0:0:0:
429,125,35138,1,0,0:0:0:0:
411,155,35224,1,0,0:0:0:0:
381,173,35309,1,0,0:0:0:0:
256,112,35482,1,0,0:0:0:0:
256,252,35653,1,0,0:0:0:0:
132,188,35824,1,0,0:0:0:0:
128,328,35996,2,0,P|164:340|192:328,1,70
416,64,44567,6,0,L|320:176,1,140
96,64,45253,2,0,L|192:176,1,140
160,300,45939,6,0,B|180:264|228:288|228:288|288:232,1,140
352,300,46624,2,0,B|332:264|284:288|284:288|238:245,1,140
56,212,47310,6,0,P|100:144|152:172,1,140
456,212,47996,2,0,P|412:144|360:172,1,140
372,300,48682,6,0,B|336:232|336:232|288:280,1,140
140,300,49367,2,0,B|176:232|176:232|224:280,1,140
312,152,50053,6,0,L|280:192,3,35
264,136,50396,2,0,L|228:172,3,35
208,120,50739,2,0,L|168:144,3,35
164,88,51082,2,0,L|120:100,3,35
160,144,51424,6,0,L|136:172,1,35
176,192,51596,2,0,L|168:228,1,35
212,224,51767,2,0,L|224:260,1,35
260,232,51939,2,0,L|292:260,1,35
312,216,52110,2,0,L|348:232,1,35
344,176,52282,2,0,L|392:184,1,35
372,132,52453,2,0,L|416:124,1,35
384,84,52624,2,0,L|424:60,1,35
348,64,52796,5,0,0:0:0:0:
313,59,52881,1,0,0:0:0:0:
278,60,52967,1,0,0:0:0:0:
243,66,53053,1,0,0:0:0:0:
210,77,53138,1,0,0:0:0:0:
179,93,53224,1,0,0:0:0:0:
151,114,53310,1,0,0:0:0:0:
126,138,53395,1,0,0:0:0:0:
120,172,53482,2,0,L|84:192,4,35
124,212,53910,2,0,L|96:248,3,35
168,304,54853,5,0,0:0:0:0:
200,313,54938,1,0,0:0:0:0:
233,302,55024,1,0,0:0:0:0:
253,274,55110,1,0,0:0:0:0:
253,240,55196,1,0,0:0:0:0:
301,221,55281,1,0,0:0:0:0:
331,179,55367,1,0,0:0:0:0:
334,127,55453,1,0,0:0:0:0:
307,83,55538,1,0,0:0:0:0:
148,152,55710,5,0,0:0:0:0:
328,264,55882,1,0,0:0:0:0:
256,68,56053,1,0,0:0:0:0:
212,272,56224,1,0,0:0:0:0:
156,68,56396,1,0,0:0:0:0:
132,288,56567,2,0,P|176:304|232:304,1,70
388,212,56910,5,0,0:0:0:0:
393,177,56995,1,0,0:0:0:0:
382,144,57081,1,0,0:0:0:0:
357,121,57167,1,0,0:0:0:0:
323,111,57252,1,0,0:0:0:0:
128,188,57424,1,0,0:0:0:0:
312,288,57596,1,0,0:0:0:0:
104,300,57767,1,0,0:0:0:0:
300,220,57939,1,0,0:0:0:0:
