osu file format v14

[General]
AudioFilename: audio.mp3
AudioLeadIn: 0
PreviewTime: 188567
Countdown: 0
SampleSet: Soft
StackLeniency: 0.4
Mode: 0
LetterboxInBreaks: 0
WidescreenStoryboard: 0

[Editor]
Bookmarks: 11653,22624,23310,29482,33596,33939,35996,44567,50053,50396,52796,55539,66510,77482,88453,99424,99596,110396,121367,132339,144682,155653,166624,177596,188567,199539
DistanceSpacing: 1.1
BeatDivisor: 8
GridSize: 16
TimelineZoom: 2.599999

[Metadata]
Title:Candy (feat. Sara)
TitleUnicode:Candy (feat. Sara)
Artist:S3RL
ArtistUnicode:S3RL
Creator:Nuvolina
Version:Hard
Source:osu!
Tags:Anto electronic english techno hands up happy hardcore featured artist fa rave serl dance mappers' guild
BeatmapID:1743595
BeatmapSetID:829956

[Difficulty]
HPDrainRate:4.5
CircleSize:4
OverallDifficulty:6
ApproachRate:7.5
SliderMultiplier:1.4
SliderTickRate:1

[Events]
//Background and Video events
0,0,"candybg.jpg",0,0
//Break Periods
2,110400,120546
//Storyboard Layer 0 (Background)
//Storyboard Layer 1 (Fail)
//Storyboard Layer 2 (Pass)
//Storyboard Layer 3 (Foreground)
//Storyboard Sound Samples

[TimingPoints]
686,342.857142857143,4,2,1,100,1,0
11657,-100,4,2,1,50,0,0
13028,-100,4,2,2,50,0,0
13114,-100,4,2,1,50,0,0
15771,-100,4,2,2,50,0,0
15857,-100,4,2,1,50,0,0
18514,-100,4,2,2,50,0,0
18600,-100,4,2,1,50,0,0
21257,-100,4,2,2,50,0,0
21343,-100,4,2,1,50,0,0
22628,-100,4,2,1,65,0,0
24000,-100,4,2,2,65,0,0
24086,-100,4,2,1,65,0,0
26743,-100,4,2,2,65,0,0
26828,-100,4,2,1,65,0,0
29486,-100,4,2,2,65,0,0
29571,-100,4,2,1,65,0,0
32228,-100,4,2,2,65,0,0
32314,-100,4,2,1,65,0,0
33943,-100,4,2,1,15,0,0
34971,-100,4,2,1,20,0,0
36343,-100,4,2,1,30,0,0
37714,-100,4,2,1,40,0,0
39086,-100,4,2,1,45,0,0
39257,-100,4,2,2,45,0,0
39343,-100,4,2,1,45,0,0
40457,-100,4,2,1,50,0,0
41828,-100,4,2,1,65,0,0
43200,-100,4,2,2,65,0,0
44400,-83.3333333333333,4,2,1,65,0,0
55543,-76.9230769230769,4,2,1,85,0,1
65143,-76.9230769230769,4,2,2,85,0,1
66514,-76.9230769230769,4,2,1,85,0,1
76115,-76.9230769230769,4,2,2,85,0,1
77486,-100,4,2,3,50,0,0
87086,-100,4,2,3,50,0,0
87771,-100,4,2,2,50,0,0
88457,-76.9230769230769,4,2,1,85,0,1
98057,-76.9230769230769,4,2,2,85,0,1
99257,-76.9230769230769,4,2,1,85,0,1
109028,-76.9230769230769,4,2,2,85,0,1
110400,-76.9230769230769,4,2,1,85,0,0
121371,-100,4,2,1,50,0,0
122743,-100,4,2,2,50,0,0
122828,-100,4,2,1,50,0,0
125486,-100,4,2,2,50,0,0
125571,-100,4,2,1,50,0,0
128228,-100,4,2,2,50,0,0
128314,-100,4,2,1,50,0,0
130971,-100,4,2,2,50,0,0
131057,-100,4,2,1,50,0,0
136457,-100,4,2,2,50,0,0
136543,-100,4,2,1,50,0,0
139200,-100,4,2,2,50,0,0
139286,-100,4,2,1,50,0,0
141943,-100,4,2,2,50,0,0
142028,-100,4,2,1,50,0,0
143143,-100,4,2,1,35,0,0
144686,-100,4,2,1,15,0,0
146057,-100,4,2,1,20,0,0
147429,-100,4,2,1,30,0,0
148800,-100,4,2,1,40,0,0
150172,-100,4,2,1,45,0,0
150343,-100,4,2,2,45,0,0
150428,-100,4,2,1,45,0,0
151543,-100,4,2,1,50,0,0
152914,-100,4,2,1,65,0,0
154286,-100,4,2,2,65,0,0
155486,-83.3333333333333,4,2,1,65,0,0
166628,-83.3333333333333,4,2,1,85,0,0
167571,-83.3333333333333,4,2,2,85,0,0
167657,-83.3333333333333,4,2,1,85,0,0
168943,-83.3333333333333,4,2,2,85,0,0
169028,-83.3333333333333,4,2,1,85,0,0
170314,-83.3333333333333,4,2,2,85,0,0
170400,-83.3333333333333,4,2,1,85,0,0
173057,-83.3333333333333,4,2,2,85,0,0
173143,-83.3333333333333,4,2,1,85,0,0
174428,-83.3333333333333,4,2,2,85,0,0
174514,-83.3333333333333,4,2,1,85,0,0
176228,-83.3333333333333,4,2,1,65,0,0
177600,-83.3333333333333,4,2,1,85,0,0
178543,-83.3333333333333,4,2,2,85,0,0
178628,-83.3333333333333,4,2,1,85,0,0
179914,-83.3333333333333,4,2,2,85,0,0
180000,-83.3333333333333,4,2,1,85,0,0
181286,-83.3333333333333,4,2,2,85,0,0
181371,-83.3333333333333,4,2,1,85,0,0
185828,-83.3333333333333,4,2,2,85,0,0
188571,-76.9230769230769,4,2,1,90,0,1
207771,-100,4,2,2,50,0,0

[Colours]
Combo1 : 154,53,255
Combo2 : 255,128,255

[HitObjects]
236,146,11657,6,0,P|294:148|321:62,1,140,8|0,0:0|0:0,0:0:0:0:
256,37,12171,1,0,0:0:0:0:
176,64,12343,2,0,P|124:100|139:185,1,140,8|8,1:0|0:0,0:0:0:0:
249,286,13028,6,0,P|313:262|395:295,1,140,2|0,0:0|0:0,0:0:0:0:
455,319,13543,1,0,0:0:0:0:
498,247,13714,2,0,P|507:176|456:117,1,140,8|0,1:0|0:0,0:0:0:0:
308,70,14400,6,0,P|269:85|175:39,1,140,8|0,0:0|0:0,0:0:0:0:
98,48,14914,1,0,0:0:0:0:
46,114,15086,2,0,L|36:197,1,70,8|0,1:0|0:0,0:0:0:0:
108,227,15428,2,0,L|113:301,1,70,8|0,0:0|0:0,0:0:0:0:
185,339,15771,6,0,P|251:321|335:346,1,140,2|8,0:0|0:0,0:0:0:0:
402,352,16286,1,0,0:0:0:0:
463,295,16457,2,0,P|488:228|450:170,1,140,8|0,1:0|0:0,0:0:0:0:
380,22,17143,6,0,P|308:15|249:68,1,140,8|0,0:0|0:0,0:0:0:0:
189,104,17657,1,0,0:0:0:0:
262,143,17828,2,0,P|294:209|265:289,1,140,8|8,1:0|0:0,0:0:0:0:
236,344,18343,1,0,0:0:0:0:
189,274,18514,6,0,P|113:255|50:288,1,140,2|0,0:0|0:0,0:0:0:0:
8,211,19028,1,0,0:0:0:0:
60,144,19200,2,0,P|107:90|67:18,1,140,8|0,1:0|0:0,0:0:0:0:
252,63,19886,6,0,P|285:55|336:70,1,70,8|0,0:0|0:0,0:0:0:0:
400,39,20228,2,0,P|434:45|468:37,1,70
458,121,20571,2,0,P|420:141|416:230,1,140,8|8,1:0|0:0,0:0:0:0:
452,305,21086,1,0,0:0:0:0:
376,341,21257,6,0,P|302:329|229:357,1,140,2|0,0:0|0:0,0:0:0:0:
158,364,21771,1,0,0:0:0:0:
192,287,21943,2,0,P|207:220|189:147,1,140
321,45,22628,6,0,P|387:15|457:44,1,140,8|0,0:0|0:0,0:0:0:0:
420,116,23143,1,0,0:0:0:0:
344,153,23314,2,0,P|315:167|260:157,1,70,8|0,1:0|0:0,0:0:0:0:
208,117,23657,2,0,P|168:110|133:117,1,70,8|0,0:0|0:0,0:0:0:0:
55,122,24000,6,0,P|48:161|56:200,1,70,2|0,0:0|0:0,0:0:0:0:
134,212,24343,2,0,P|137:261|114:300,1,70,8|0,0:0|0:0,0:0:0:0:
169,354,24686,2,0,P|237:327|303:368,1,140,8|0,1:0|0:0,0:0:0:0:
445,283,25371,6,0,P|462:202|410:147,1,140,8|0,0:0|0:0,0:0:0:0:
438,74,25886,1,0,0:0:0:0:
354,80,26057,2,0,P|283:67|228:120,1,140,8|8,1:0|0:0,0:0:0:0:
149,101,26571,1,0,0:0:0:0:
105,173,26743,6,0,P|117:206|102:247,1,70,2|0,0:0|0:0,0:0:0:0:
31,273,27086,2,0,P|16:306|27:341,1,70,8|0,0:0|0:0,0:0:0:0:
104,314,27428,1,8,1:0:0:0:
169,366,27600,2,0,P|243:329|303:347,1,140,8|0,0:0|0:0,0:0:0:0:
334,267,28114,6,0,P|407:274|463:219,1,140,8|0,0:0|0:0,0:0:0:0:
494,158,28628,1,0,0:0:0:0:
446,89,28800,2,0,P|391:65|314:88,1,140,8|8,1:0|0:0,0:0:0:0:
282,162,29314,1,0,0:0:0:0:
211,117,29486,6,0,P|156:141|79:118,1,140,2|8,0:0|0:0,0:0:0:0:
3,152,30000,1,0,0:0:0:0:
47,222,30171,2,0,P|70:290|38:364,1,140,8|0,1:0|0:0,0:0:0:0:
214,322,30857,6,0,L|292:322,1,70,8|0,0:0|0:0,0:0:0:0:
305,240,31200,2,0,L|380:240,1,70
453,210,31543,2,0,P|460:178|446:132,1,70,8|0,1:0|0:0,0:0:0:0:
368,132,31886,2,0,P|361:98|376:59,1,70,8|0,0:0|0:0,0:0:0:0:
301,19,32228,6,0,P|266:24|232:16,1,70,2|0,0:0|0:0,0:0:0:0:
149,19,32570,1,8,0:0:0:0:
133,101,32742,1,0,0:0:0:0:
59,142,32914,2,0,P|82:219|148:242,1,140,8|0,1:0|0:0,0:0:0:0:
131,242,33943,6,0,L|207:242,1,70,8|0,0:0|0:0,0:0:0:0:
283,257,34286,2,0,L|283:175,1,70,8|0,0:0|0:0,0:0:0:0:
366,182,34628,2,0,L|436:182,1,70,8|0,0:0|0:0,0:0:0:0:
477,108,34971,5,8,0:0:0:0:
477,88,35057,1,0,0:0:0:0:
476,63,35143,2,0,L|474:21,2,35,0|0|8,0:0|0:0|0:0,0:0:0:0:
395,87,35486,1,0,0:0:0:0:
351,15,35657,2,0,P|312:7|280:15,1,70,8|0,0:0|0:0,0:0:0:0:
327,88,36000,2,0,P|361:95|394:87,1,70,8|0,0:0|0:0,0:0:0:0:
443,155,36343,5,8,0:0:0:0:
497,219,36514,1,0,0:0:0:0:
443,282,36686,2,0,B|411:282|411:282|372:247,1,70,8|0,0:0|0:0,0:0:0:0:
328,192,37028,2,0,B|309:171|309:171|308:129,1,70,8|0,0:0|0:0,0:0:0:0:
306,45,37371,2,0,P|271:39|237:47,1,70,8|0,0:0|0:0,0:0:0:0:
172,99,37714,5,8,0:0:0:0:
172,117,37800,1,0,0:0:0:0:
173,141,37886,2,0,L|174:182,2,35,0|0|8,0:0|0:0|0:0,0:0:0:0:
254,121,38228,1,0,0:0:0:0:
333,149,38400,2,0,L|418:134,1,70,8|0,0:0|0:0,0:0:0:0:
435,57,38743,2,0,L|505:63,1,70,8|0,0:0|0:0,0:0:0:0:
486,145,39086,6,0,P|493:183|486:217,1,70,8|2,0:0|0:0,0:0:0:0:
403,217,39428,2,0,P|393:252|407:289,1,70,8|0,0:0|0:0,0:0:0:0:
347,346,39771,2,0,L|276:338,1,70,8|0,0:0|0:0,0:0:0:0:
243,261,40114,2,0,L|163:272,1,70,8|0,0:0|0:0,0:0:0:0:
99,310,40457,5,8,0:0:0:0:
81,321,40543,1,0,0:0:0:0:
63,330,40628,2,0,L|22:355,2,35,0|0|8,0:0|0:0|0:0,0:0:0:0:
56,245,40971,1,0,0:0:0:0:
113,183,41143,2,0,L|192:189,1,70,8|0,0:0|0:0,0:0:0:0:
266,199,41486,2,0,P|274:158|263:117,1,70,8|0,0:0|0:0,0:0:0:0:
199,83,41828,6,0,P|191:42|202:1,1,70,8|0,0:0|0:0,0:0:0:0:
116,41,42171,2,0,P|73:33|37:47,1,70,8|0,0:0|0:0,0:0:0:0:
34,123,42514,2,0,P|41:156|27:203,1,70,8|0,0:0|0:0,0:0:0:0:
12,272,42857,1,8,0:0:0:0:
89,304,43028,1,0,0:0:0:0:
141,237,43200,5,2,0:0:0:0:
163,232,43286,1,0,0:0:0:0:
185,227,43371,2,0,L|229:214,2,35,0|0|2,0:0|0:0|0:0,0:0:0:0:
143,153,43714,1,0,0:0:0:0:
156,69,43886,2,0,L|237:71,1,70,2|0,0:0|0:0,0:0:0:0:
260,152,44228,2,0,L|327:133,1,70,2|8,0:0|0:0,0:0:0:0:
336,32,44571,5,8,0:0:0:0:
336,32,44743,1,0,0:0:0:0:
433,54,44914,1,8,0:0:0:0:
433,54,45086,1,0,0:0:0:0:
440,148,45257,2,0,P|454:193|441:243,1,83.9999974365235,8|0,0:0|0:0,0:0:0:0:
381,292,45600,2,0,P|367:247|380:197,1,83.9999974365235,8|0,0:0|0:0,0:0:0:0:
444,152,45943,5,8,0:0:0:0:
444,152,46114,1,0,0:0:0:0:
351,142,46286,2,0,P|307:133|262:143,1,83.9999974365235,8|0,0:0|0:0,0:0:0:0:
194,154,46628,1,8,0:0:0:0:
194,154,46800,1,0,0:0:0:0:
114,126,46971,2,0,P|105:170|115:215,1,83.9999974365235,8|0,0:0|0:0,0:0:0:0:
116,292,47314,5,8,0:0:0:0:
116,292,47486,1,0,0:0:0:0:
196,314,47657,2,0,L|290:318,1,83.9999974365235,8|0,0:0|0:0,0:0:0:0:
364,311,48000,2,0,L|378:223,1,83.9999974365235,8|0,0:0|0:0,0:0:0:0:
431,163,48343,1,8,0:0:0:0:
431,163,48514,1,0,0:0:0:0:
395,86,48686,6,0,P|358:117|313:120,1,83.9999974365235,8|0,0:0|0:0,0:0:0:0:
270,57,49028,2,0,P|229:64|198:92,1,83.9999974365235,8|0,0:0|0:0,0:0:0:0:
237,166,49371,2,0,P|246:206|235:259,1,83.9999974365235,8|0,0:0|0:0,0:0:0:0:
171,297,49714,1,8,0:0:0:0:
171,297,50057,6,0,L|88:297,1,83.9999974365235,8|8,0:0|0:0,0:0:0:0:
24,228,50400,1,8,0:0:0:0:
24,228,50571,1,8,0:0:0:0:
55,140,50743,2,0,L|139:140,1,83.9999974365235,8|8,0:0|0:0,0:0:0:0:
231,147,51086,1,8,0:0:0:0:
231,147,51257,1,8,0:0:0:0:
289,75,51428,6,0,L|374:75,1,83.9999974365235,8|8,0:0|0:0,0:0:0:0:
458,111,51771,1,8,0:0:0:0:
458,111,51943,1,8,0:0:0:0:
434,200,52114,2,0,L|433:305,1,83.9999974365235,8|8,0:0|0:0,0:0:0:0:
371,353,52457,1,8,0:0:0:0:
371,353,52628,1,8,0:0:0:0:
256,192,52800,12,8,54171,1:0:0:0:
162,197,55543,6,0,P|116:207|70:196,1,90.9999958343508,8|0,0:0|0:0,0:0:0:0:
38,103,55886,2,0,P|84:93|130:104,1,90.9999958343508,8|0,0:0|0:0,0:0:0:0:
225,116,56228,1,8,0:0:0:0:
221,15,56400,1,0,0:0:0:0:
309,63,56571,2,0,P|322:115|311:160,1,90.9999958343508,8|0,0:0|0:0,0:0:0:0:
254,226,56914,5,8,0:0:0:0:
254,226,57000,1,0,0:0:0:0:
254,226,57086,1,0,0:0:0:0:
316,303,57257,1,8,0:0:0:0:
378,226,57428,1,0,0:0:0:0:
383,125,57600,2,0,P|392:72|376:28,1,90.9999958343508,8|0,0:0|0:0,0:0:0:0:
281,43,57943,2,0,P|272:96|288:140,1,90.9999958343508,8|0,0:0|0:0,0:0:0:0:
254,226,58286,6,0,P|206:240|153:222,1,90.9999958343508,8|0,0:0|0:0,0:0:0:0:
75,271,58628,1,8,0:0:0:0:
1,203,58800,1,0,0:0:0:0:
25,106,58971,2,0,P|73:92|126:110,1,90.9999958343508,8|0,0:0|0:0,0:0:0:0:
205,64,59314,2,0,P|218:106|204:156,1,90.9999958343508,8|0,0:0|0:0,0:0:0:0:
141,226,59657,5,8,0:0:0:0:
141,226,59743,1,0,0:0:0:0:
141,226,59828,1,0,0:0:0:0:
184,316,60000,1,8,0:0:0:0:
283,319,60171,1,0,0:0:0:0:
288,218,60343,2,0,P|331:207|377:229,1,90.9999958343508,8|0,0:0|0:0,0:0:0:0:
415,315,60686,2,0,P|464:325|514:307,1,90.9999958343508,8|0,0:0|0:0,0:0:0:0:
458,224,61028,5,8,0:0:0:0:
386,153,61200,1,0,0:0:0:0:
431,63,61371,2,0,P|382:53|332:71,1,90.9999958343508,8|0,0:0|0:0,0:0:0:0:
259,119,61714,1,8,0:0:0:0:
179,58,61886,1,0,0:0:0:0:
88,16,62057,2,0,P|78:65|96:115,1,90.9999958343508,8|0,0:0|0:0,0:0:0:0:
128,195,62400,5,8,0:0:0:0:
128,195,62486,1,0,0:0:0:0:
128,195,62571,1,0,0:0:0:0:
37,239,62743,2,0,P|31:292|53:336,1,90.9999958343508,8|0,0:0|0:0,0:0:0:0:
142,351,63086,2,0,P|185:322|227:318,1,90.9999958343508,8|0,0:0|0:0,0:0:0:0:
322,326,63428,2,0,P|358:354|407:354,1,90.9999958343508,8|0,0:0|0:0,0:0:0:0:
393,255,63771,5,8,0:0:0:0:
458,179,63943,1,0,0:0:0:0:
427,84,64114,2,0,B|379:68|379:68|317:72,1,90.9999958343508,8|0,0:0|0:0,0:0:0:0:
238,64,64457,2,0,P|236:107|262:154,1,90.9999958343508,8|0,0:0|0:0,0:0:0:0:
294,238,64800,2,0,B|342:254|342:254|404:250,1,90.9999958343508,8|0,0:0|0:0,0:0:0:0:
489,252,65143,5,2,0:0:0:0:
489,252,65228,1,0,0:0:0:0:
489,252,65314,1,0,0:0:0:0:
437,337,65486,1,2,0:0:0:0:
382,251,65657,1,0,0:0:0:0:
319,329,65828,2,0,P|273:332|232:350,1,90.9999958343508,2|0,0:0|0:0,0:0:0:0:
135,323,66171,2,0,P|82:317|43:292,1,90.9999958343508,2|0,0:0|0:0,0:0:0:0:
18,202,66514,5,8,0:0:0:0:
24,101,66686,1,2,0:0:0:0:
115,61,66857,2,0,L|206:61,1,90.9999958343508,8|2,0:0|0:0,0:0:0:0:
295,16,67200,2,0,P|306:69|296:113,1,90.9999958343508,8|2,0:0|0:0,0:0:0:0:
228,176,67543,2,0,P|217:229|226:271,1,90.9999958343508,8|2,0:0|0:0,0:0:0:0:
303,343,67886,5,8,0:0:0:0:
303,343,67971,1,0,0:0:0:0:
303,343,68057,1,0,0:0:0:0:
402,337,68228,2,0,P|400:286|372:240,1,90.9999958343508,8|2,0:0|0:0,0:0:0:0:
398,152,68571,2,0,P|354:158|319:188,1,90.9999958343508,8|2,0:0|0:0,0:0:0:0:
236,248,68914,2,0,P|198:273|153:274,1,90.9999958343508,8|2,0:0|0:0,0:0:0:0:
68,205,69257,6,0,L|37:97,1,90.9999958343508,8|2,0:0|0:0,0:0:0:0:
107,27,69600,2,0,L|132:114,1,90.9999958343508,8|2,0:0|0:0,0:0:0:0:
204,38,69943,2,0,L|304:38,1,90.9999958343508,8|2,0:0|0:0,0:0:0:0:
373,114,70286,2,0,L|282:114,1,90.9999958343508,8|2,0:0|0:0,0:0:0:0:
190,120,70628,5,8,0:0:0:0:
190,120,70714,1,0,0:0:0:0:
190,120,70800,1,0,0:0:0:0:
241,209,70971,1,8,0:0:0:0:
142,228,71143,1,2,0:0:0:0:
49,265,71314,2,0,P|36:319|49:364,1,90.9999958343508,8|2,0:0|0:0,0:0:0:0:
144,353,71657,2,0,P|191:362|252:344,1,90.9999958343508,8|2,0:0|0:0,0:0:0:0:
320,304,72000,5,8,0:0:0:0:
408,350,72171,1,2,0:0:0:0:
470,271,72343,2,0,P|479:226|452:167,1,90.9999958343508,8|2,0:0|0:0,0:0:0:0:
377,135,72686,2,0,P|368:180|395:239,1,90.9999958343508,8|2,0:0|0:0,0:0:0:0:
320,304,73028,2,0,L|228:303,1,90.9999958343508,8|2,0:0|0:0,0:0:0:0:
136,318,73371,5,8,0:0:0:0:
136,318,73457,1,0,0:0:0:0:
136,318,73543,1,2,0:0:0:0:
36,310,73714,2,0,P|30:261|46:205,1,90.9999958343508,8|2,0:0|0:0,0:0:0:0:
127,173,74057,2,0,P|176:181|218:220,1,90.9999958343508,8|2,0:0|0:0,0:0:0:0:
229,303,74400,2,0,P|274:282|317:240,1,90.9999958343508,8|2,0:0|0:0,0:0:0:0:
287,156,74743,5,8,0:0:0:0:
211,90,74915,1,2,0:0:0:0:
281,19,75086,2,0,B|321:16|321:16|369:32,1,90.9999958343508,8|2,0:0|0:0,0:0:0:0:
469,20,75429,2,0,P|471:63|445:110,1,90.9999958343508,8|2,0:0|0:0,0:0:0:0:
376,172,75771,2,0,P|411:199|459:204,1,90.9999958343508,8|2,0:0|0:0,0:0:0:0:
497,295,76114,5,2,0:0:0:0:
497,295,76200,1,0,0:0:0:0:
497,295,76286,1,0,0:0:0:0:
456,204,76458,1,2,0:0:0:0:
396,284,76629,1,0,0:0:0:0:
296,284,76800,2,0,P|250:287|209:305,1,90.9999958343508,2|0,0:0|0:0,0:0:0:0:
112,333,77143,1,2,0:0:0:0:
112,333,77486,5,8,0:0:0:0:
43,274,77657,1,0,0:0:0:0:
83,193,77829,2,0,L|153:193,1,70,8|0,0:0|0:0,0:0:0:0:
216,247,78172,2,0,P|234:180|188:118,1,140,8|8,0:0|0:0,0:0:0:0:
351,54,78857,6,0,P|387:45|431:57,1,70,8|0,0:0|0:0,0:0:0:0:
477,111,79200,1,8,0:0:0:0:
426,178,79372,1,0,0:0:0:0:
470,249,79544,2,0,P|398:257|344:199,1,140,8|8,0:0|0:0,0:0:0:0:
247,82,80229,6,0,P|211:74|178:82,1,70,8|0,0:0|0:0,0:0:0:0:
147,159,80572,2,0,P|114:168|78:160,1,70,8|0,0:0|0:0,0:0:0:0:
8,205,80914,2,0,P|-1:238|6:274,1,70,8|0,0:0|0:0,0:0:0:0:
61,335,81257,1,8,0:0:0:0:
205,249,81600,5,8,0:0:0:0:
256,313,81772,1,0,0:0:0:0:
296,239,81943,2,0,P|332:246|370:238,1,70,8|0,0:0|0:0,0:0:0:0:
438,199,82286,2,0,P|455:133|421:74,1,140,8|8,0:0|0:0,0:0:0:0:
254,44,82972,6,0,L|184:44,1,70,8|0,0:0|0:0,0:0:0:0:
150,121,83315,2,0,L|220:121,1,70,8|0,0:0|0:0,0:0:0:0:
294,158,83657,2,0,P|303:193|294:235,1,70,8|0,0:0|0:0,0:0:0:0:
215,244,84000,2,0,P|206:279|215:321,1,70,8|0,0:0|0:0,0:0:0:0:
289,343,84343,5,8,0:0:0:0:
360,297,84515,1,0,0:0:0:0:
429,343,84686,2,0,P|460:325|481:282,1,70,8|0,0:0|0:0,0:0:0:0:
489,213,85029,2,0,P|431:187|355:217,1,140,8|8,0:0|0:0,0:0:0:0:
204,270,85715,6,0,P|169:276|125:268,1,70,8|0,0:0|0:0,0:0:0:0:
52,257,86057,2,0,P|47:218|54:168,1,70,8|0,0:0|0:0,0:0:0:0:
45,103,86400,2,0,P|80:97|124:105,1,70,8|0,0:0|0:0,0:0:0:0:
190,136,86743,2,0,P|225:143|269:135,1,70,8|0,0:0|0:0,0:0:0:0:
304,67,87086,6,0,P|374:51|451:70,1,140
420,146,87600,1,0,0:0:0:0:
472,211,87772,2,0,P|485:278|452:338,1,140,0|0,3:2|3:2,0:0:0:0:
251,339,88457,5,8,0:0:0:0:
166,286,88628,1,0,0:0:0:0:
79,337,88800,2,0,P|69:292|81:249,1,90.9999958343508,8|0,0:0|0:0,0:0:0:0:
89,149,89143,2,0,P|97:105|76:49,1,90.9999958343508,8|0,0:0|0:0,0:0:0:0:
184,48,89485,2,0,P|231:58|279:46,1,90.9999958343508,8|0,0:0|0:0,0:0:0:0:
380,36,89828,5,8,0:0:0:0:
380,36,89914,1,0,0:0:0:0:
380,36,90000,1,0,0:0:0:0:
455,101,90171,1,8,0:0:0:0:
358,125,90342,1,0,0:0:0:0:
435,189,90514,2,0,P|425:236|442:286,1,90.9999958343508,8|0,0:0|0:0,0:0:0:0:
334,270,90857,2,0,P|351:323|334:369,1,90.9999958343508,8|0,0:0|0:0,0:0:0:0:
242,351,91200,6,0,P|195:339|153:354,1,90.9999958343508,8|0,0:0|0:0,0:0:0:0:
57,335,91542,1,8,0:0:0:0:
100,244,91714,1,0,0:0:0:0:
37,165,91885,2,0,P|34:113|51:70,1,90.9999958343508,8|0,0:0|0:0,0:0:0:0:
141,42,92228,2,0,P|188:31|235:42,1,90.9999958343508,8|0,0:0|0:0,0:0:0:0:
319,82,92571,5,8,0:0:0:0:
319,82,92657,1,0,0:0:0:0:
319,82,92743,1,0,0:0:0:0:
229,39,92914,1,8,0:0:0:0:
239,138,93085,1,0,0:0:0:0:
139,149,93257,2,0,P|128:192|141:238,1,90.9999958343508,8|0,0:0|0:0,0:0:0:0:
208,309,93600,2,0,P|254:306|301:334,1,90.9999958343508,8|0,0:0|0:0,0:0:0:0:
390,345,93942,5,8,0:0:0:0:
465,278,94114,1,0,0:0:0:0:
424,186,94285,2,0,P|430:141|412:78,1,90.9999958343508,8|0,0:0|0:0,0:0:0:0:
325,126,94628,2,0,P|276:136|226:118,1,90.9999958343508,8|0,0:0|0:0,0:0:0:0:
261,26,94971,2,0,P|305:14|349:25,1,90.9999958343508,8|0,0:0|0:0,0:0:0:0:
427,104,95314,5,8,0:0:0:0:
427,104,95400,1,0,0:0:0:0:
427,104,95485,1,0,0:0:0:0:
468,199,95657,2,0,P|481:244|468:306,1,90.9999958343508,8|0,0:0|0:0,0:0:0:0:
396,348,96000,2,0,P|349:338|304:348,1,90.9999958343508,8|0,0:0|0:0,0:0:0:0:
216,306,96342,2,0,P|166:318|112:295,1,90.9999958343508,8|0,0:0|0:0,0:0:0:0:
49,246,96685,5,8,0:0:0:0:
0,154,96857,1,0,0:0:0:0:
48,66,97028,2,0,B|149:65,1,90.9999958343508,8|0,0:0|0:0,0:0:0:0:
184,154,97371,2,0,L|92:154,1,90.9999958343508,8|0,0:0|0:0,0:0:0:0:
49,246,97714,2,0,P|41:294|49:343,1,90.9999958343508,8|0,0:0|0:0,0:0:0:0:
155,351,98057,5,2,0:0:0:0:
155,351,98143,1,0,0:0:0:0:
155,351,98229,1,0,0:0:0:0:
219,274,98400,2,0,P|267:262|308:275,1,90.9999958343508,2|0,0:0|0:0,0:0:0:0:
373,346,98742,2,0,P|418:348|463:322,1,90.9999958343508,2|0,0:0|0:0,0:0:0:0:
467,227,99085,2,0,L|467:133,1,90.9999958343508,2|8,0:0|0:0,0:0:0:0:
466,35,99428,5,8,0:0:0:0:
374,75,99600,1,2,0:0:0:0:
278,45,99772,2,0,P|233:54|190:43,1,90.9999958343508,8|2,0:0|0:0,0:0:0:0:
148,135,100114,2,0,P|140:186|155:230,1,90.9999958343508,8|2,0:0|0:0,0:0:0:0:
242,263,100457,2,0,P|286:276|342:252,1,90.9999958343508,8|2,0:0|0:0,0:0:0:0:
351,172,100800,5,8,0:0:0:0:
351,172,100886,1,0,0:0:0:0:
351,172,100972,1,0,0:0:0:0:
401,86,101142,2,0,P|447:76|495:94,1,90.9999958343508,8|2,0:0|0:0,0:0:0:0:
464,187,101486,2,0,P|481:233|461:284,1,90.9999958343508,8|2,0:0|0:0,0:0:0:0:
393,336,101828,2,0,L|296:335,1,90.9999958343508,8|2,0:0|0:0,0:0:0:0:
283,236,102171,6,0,L|387:236,1,90.9999958343508,8|2,0:0|0:0,0:0:0:0:
470,271,102514,1,8,0:0:0:0:
504,176,102686,1,2,0:0:0:0:
421,119,102857,2,0,P|429:74|413:24,1,90.9999958343508,8|2,0:0|0:0,0:0:0:0:
326,66,103200,2,0,P|281:73|237:63,1,90.9999958343508,8|2,0:0|0:0,0:0:0:0:
148,33,103543,5,8,0:0:0:0:
148,33,103629,1,0,0:0:0:0:
148,33,103715,1,0,0:0:0:0:
237,63,103885,1,8,0:0:0:0:
164,132,104057,1,2,0:0:0:0:
73,174,104228,2,0,P|65:222|84:269,1,90.9999958343508,8|2,0:0|0:0,0:0:0:0:
175,236,104571,2,0,P|195:274|187:331,1,90.9999958343508,8|2,0:0|0:0,0:0:0:0:
100,363,104914,5,8,0:0:0:0:
78,261,105086,1,2,0:0:0:0:
175,236,105257,2,0,L|279:236,1,90.9999958343508,8|2,0:0|0:0,0:0:0:0:
366,239,105600,1,8,0:0:0:0:
430,315,105771,1,2,0:0:0:0:
495,239,105942,2,0,P|506:190|488:146,1,90.9999958343508,8|2,0:0|0:0,0:0:0:0:
440,67,106285,5,8,0:0:0:0:
440,67,106371,1,0,0:0:0:0:
440,67,106457,1,2,0:0:0:0:
357,123,106628,2,0,P|311:132|249:114,1,90.9999958343508,8|2,0:0|0:0,0:0:0:0:
213,39,106971,2,0,P|164:31|116:50,1,90.9999958343508,8|2,0:0|0:0,0:0:0:0:
53,113,107314,2,0,P|66:157|53:206,1,90.9999958343508,8|2,0:0|0:0,0:0:0:0:
0,289,107657,5,8,0:0:0:0:
81,348,107829,1,2,0:0:0:0:
170,303,108000,2,0,B|216:303|216:303|265:330,1,90.9999958343508,8|2,0:0|0:0,0:0:0:0:
355,337,108343,2,0,B|393:337|393:337|446:306,1,90.9999958343508,8|2,0:0|0:0,0:0:0:0:
407,214,108686,2,0,B|396:174|396:174|410:113,1,90.9999958343508,8|2,0:0|0:0,0:0:0:0:
473,51,109028,5,2,0:0:0:0:
473,51,109114,1,0,0:0:0:0:
473,51,109200,1,0,0:0:0:0:
407,125,109372,1,2,0:0:0:0:
333,57,109543,1,0,0:0:0:0:
310,154,109714,2,0,P|323:205|311:255,1,90.9999958343508,2|0,0:0|0:0,0:0:0:0:
225,285,110057,1,2,0:0:0:0:
26,295,121371,6,0,P|90:272|175:316,1,140,8|0,0:0|0:0,0:0:0:0:
200,366,121886,1,0,0:0:0:0:
277,333,122057,2,0,P|287:274|231:215,1,140,8|8,1:0|0:0,0:0:0:0:
72,183,122743,6,0,P|62:119|103:51,1,140,2|8,0:0|0:0,0:0:0:0:
177,26,123258,1,0,0:0:0:0:
227,91,123428,2,0,P|294:110|378:81,1,140,8|0,1:0|0:0,0:0:0:0:
489,200,124114,6,0,P|463:261|490:348,1,140,8|0,0:0|0:0,0:0:0:0:
396,353,124628,1,0,0:0:0:0:
317,321,124800,2,0,L|236:321,1,70,8|0,1:0|0:0,0:0:0:0:
208,245,125143,2,0,L|279:245,1,70,8|0,0:0|0:0,0:0:0:0:
350,201,125486,6,0,P|375:134|337:76,1,140,2|8,0:0|0:0,0:0:0:0:
276,26,126000,1,0,0:0:0:0:
198,58,126171,2,0,P|139:91|66:73,1,140,8|0,1:0|0:0,0:0:0:0:
18,236,126857,6,0,P|66:282|149:304,1,140,8|0,0:0|0:0,0:0:0:0:
215,277,127371,1,0,0:0:0:0:
291,312,127543,2,0,P|358:300|446:328,1,140,8|8,1:0|0:0,0:0:0:0:
495,267,128057,1,0,0:0:0:0:
459,191,128228,6,0,P|440:118|467:45,1,140,2|8,0:0|0:0,0:0:0:0:
384,16,128743,1,0,0:0:0:0:
310,55,128914,2,0,P|247:66|191:17,1,140,8|0,1:0|0:0,0:0:0:0:
59,124,129600,6,0,P|52:165|63:207,1,70,8|0,0:0|0:0,0:0:0:0:
104,262,129943,2,0,P|111:303|100:345,1,70
185,357,130285,2,0,P|245:376|325:349,1,140,8|8,1:0|0:0,0:0:0:0:
372,288,130800,1,0,0:0:0:0:
298,248,130971,6,0,P|284:185|335:106,1,140,2|8,0:0|0:0,0:0:0:0:
385,71,131486,1,0,0:0:0:0:
317,21,131657,1,8,1:0:0:0:
248,69,131828,2,8,P|176:96|110:51,1,140,8|0,0:0|0:0,0:0:0:0:
44,101,132343,5,2,0:0:0:0:
44,101,132857,1,8,0:0:0:0:
114,132,133028,2,0,P|105:210|55:274,1,140,8|8,0:0|0:0,0:0:0:0:
63,337,133543,1,0,0:0:0:0:
135,310,133714,6,0,P|202:283|263:303,1,140,8|0,0:0|0:0,0:0:0:0:
337,280,134228,1,0,0:0:0:0:
331,202,134400,2,0,B|343:130|343:130|302:73,1,140,8|0,1:0|0:0,0:0:0:0:
152,44,135086,6,0,L|61:59,1,70,8|0,0:0|0:0,0:0:0:0:
49,124,135428,2,0,L|59:202,1,70
136,205,135771,2,0,L|127:282,1,70,8|0,1:0|0:0,0:0:0:0:
175,344,136114,2,0,L|254:334,1,70,8|0,0:0|0:0,0:0:0:0:
328,325,136457,5,2,0:0:0:0:
298,246,136628,1,0,0:0:0:0:
380,261,136800,2,0,L|460:268,1,70,8|0,0:0|0:0,0:0:0:0:
477,187,137143,1,8,1:0:0:0:
477,187,137314,2,0,P|483:107|451:40,1,140,8|0,0:0|0:0,0:0:0:0:
377,39,137828,6,8,L|306:39,1,70,8|0,0:0|0:0,0:0:0:0:
223,53,138172,2,0,P|228:91|217:129,1,70
142,151,138514,2,0,P|137:189|148:227,1,70,8|0,1:0|0:0,0:0:0:0:
201,280,138856,1,8,0:0:0:0:
144,342,139028,1,0,0:0:0:0:
226,361,139200,6,0,L|301:375,1,70,2|0,0:0|0:0,0:0:0:0:
369,334,139543,2,0,P|374:298|355:256,1,70,8|0,0:0|0:0,0:0:0:0:
306,204,139886,2,0,P|359:180|437:226,1,140,8|0,1:0|0:0,0:0:0:0:
349,63,140572,6,0,P|313:65|280:61,1,70,8|0,0:0|0:0,0:0:0:0:
203,26,140914,1,0,0:0:0:0:
143,85,141086,1,0,0:0:0:0:
203,143,141257,2,0,P|209:178|201:222,1,70,8|0,1:0|0:0,0:0:0:0:
150,276,141600,2,0,P|144:311|152:355,1,70,8|0,0:0|0:0,0:0:0:0:
232,359,141943,5,2,0:0:0:0:
315,367,142114,1,0,0:0:0:0:
382,316,142286,2,0,P|391:280|380:238,1,70,8|0,0:0|0:0,0:0:0:0:
446,190,142628,1,8,1:0:0:0:
446,190,142800,2,0,P|374:163|308:208,1,140,8|0,0:0|0:0,0:0:0:0:
321,189,144686,6,0,L|251:189,1,70,8|0,0:0|0:0,0:0:0:0:
174,224,145029,2,0,P|167:189|176:154,1,70,8|0,0:0|0:0,0:0:0:0:
220,85,145371,2,0,P|183:76|148:80,1,70,8|0,0:0|0:0,0:0:0:0:
71,51,145714,2,0,L|55:142,1,70,8|0,0:0|0:0,0:0:0:0:
47,203,146057,5,8,0:0:0:0:
43,223,146143,1,0,0:0:0:0:
39,243,146228,2,0,L|30:289,2,35,0|0|8,0:0|0:0|0:0,0:0:0:0:
123,243,146572,1,0,0:0:0:0:
205,225,146743,2,0,P|211:259|203:292,1,70,8|0,0:0|0:0,0:0:0:0:
147,356,147086,2,0,P|178:374|226:367,1,70,8|0,0:0|0:0,0:0:0:0:
278,322,147429,5,8,0:0:0:0:
344,373,147600,1,0,0:0:0:0:
413,324,147772,2,0,P|450:331|492:325,1,70,8|0,0:0|0:0,0:0:0:0:
492,244,148114,2,0,P|486:196|458:163,1,70,8|0,0:0|0:0,0:0:0:0:
407,228,148457,2,0,P|391:197|389:162,1,70,8|0,0:0|0:0,0:0:0:0:
442,97,148800,5,8,0:0:0:0:
458,83,148886,1,0,0:0:0:0:
473,69,148971,2,0,L|507:39,2,35,0|0|8,0:0|0:0|0:0,0:0:0:0:
400,26,149314,1,0,0:0:0:0:
323,64,149486,2,0,L|253:71,1,70,8|0,0:0|0:0,0:0:0:0:
205,140,149829,2,0,L|275:147,1,70,8|0,0:0|0:0,0:0:0:0:
353,176,150172,6,0,P|361:221|353:254,1,70,8|2,0:0|0:0,0:0:0:0:
358,328,150514,2,0,P|317:329|275:306,1,70,8|0,0:0|0:0,0:0:0:0:
237,252,150857,2,0,L|163:274,1,70,8|0,0:0|0:0,0:0:0:0:
106,327,151200,2,0,L|59:254,1,70,8|0,0:0|0:0,0:0:0:0:
20,198,151543,5,8,0:0:0:0:
18,177,151628,1,0,0:0:0:0:
17,153,151714,2,0,L|18:113,2,35,0|0|8,0:0|0:0|0:0,0:0:0:0:
101,155,152057,1,0,0:0:0:0:
162,212,152229,2,0,P|194:219|240:214,1,70,8|0,0:0|0:0,0:0:0:0:
314,222,152572,2,0,P|322:181|308:138,1,70,8|0,0:0|0:0,0:0:0:0:
269,83,152914,6,0,P|303:73|352:83,1,70,8|0,0:0|0:0,0:0:0:0:
409,34,153257,2,0,P|420:74|409:116,1,70,8|0,0:0|0:0,0:0:0:0:
457,174,153600,2,0,P|446:214|457:256,1,70,8|0,0:0|0:0,0:0:0:0:
495,310,153943,1,8,0:0:0:0:
426,357,154114,1,0,0:0:0:0:
354,312,154286,5,2,0:0:0:0:
332,310,154371,1,0,0:0:0:0:
312,310,154457,2,0,L|268:302,2,35,0|0|2,0:0|0:0|0:0,0:0:0:0:
333,228,154800,1,0,0:0:0:0:
367,149,154972,2,0,L|323:94,1,70,2|0,0:0|0:0,0:0:0:0:
257,146,155314,2,0,L|213:91,1,70,2|8,0:0|0:0,0:0:0:0:
138,36,155657,6,0,P|91:28|46:42,1,83.9999974365235,8|0,0:0|0:0,0:0:0:0:
40,127,156000,2,0,L|52:218,1,83.9999974365235,8|0,0:0|0:0,0:0:0:0:
141,189,156343,2,0,L|129:280,1,83.9999974365235,8|0,0:0|0:0,0:0:0:0:
70,343,156686,2,0,P|111:363|166:357,1,83.9999974365235,8|0,0:0|0:0,0:0:0:0:
234,329,157028,5,8,0:0:0:0:
234,329,157199,1,0,0:0:0:0:
326,320,157371,2,0,P|366:309|405:320,1,83.9999974365235,8|0,0:0|0:0,0:0:0:0:
479,264,157714,2,0,P|499:226|501:185,1,83.9999974365235,8|0,0:0|0:0,0:0:0:0:
477,96,158057,1,8,0:0:0:0:
477,96,158228,1,0,0:0:0:0:
394,55,158399,6,0,L|310:51,1,83.9999974365235,8|0,0:0|0:0,0:0:0:0:
224,87,158742,1,8,0:0:0:0:
224,87,158914,1,0,0:0:0:0:
140,127,159086,2,0,L|126:209,1,83.9999974365235,8|0,0:0|0:0,0:0:0:0:
189,276,159428,2,0,L|202:193,1,83.9999974365235,8|0,0:0|0:0,0:0:0:0:
280,143,159771,6,0,P|327:140|378:153,1,83.9999974365235,8|0,0:0|0:0,0:0:0:0:
345,238,160114,2,0,P|392:241|443:228,1,83.9999974365235,8|0,0:0|0:0,0:0:0:0:
495,170,160457,1,8,0:0:0:0:
495,170,160628,1,0,0:0:0:0:
505,262,160800,1,8,0:0:0:0:
505,262,161143,6,0,P|490:307|503:357,1,83.9999974365235,8|8,0:0|0:0,0:0:0:0:
403,350,161486,1,8,0:0:0:0:
403,350,161657,1,8,0:0:0:0:
318,313,161828,2,0,P|274:302|231:312,1,83.9999974365235,8|8,0:0|0:0,0:0:0:0:
153,349,162171,1,8,0:0:0:0:
153,349,162343,1,8,0:0:0:0:
89,281,162514,6,0,L|93:183,1,83.9999974365235,8|8,0:0|0:0,0:0:0:0:
68,107,162857,1,8,0:0:0:0:
68,107,163028,1,8,0:0:0:0:
143,53,163200,2,0,L|233:52,1,83.9999974365235,8|8,0:0|0:0,0:0:0:0:
299,110,163543,1,8,0:0:0:0:
299,110,163714,1,8,0:0:0:0:
256,192,163886,12,8,165257,1:0:0:0:
9,283,166628,5,8,0:0:0:0:
9,283,166971,2,0,L|105:260,1,83.9999974365235,8|0,0:0|0:0,0:0:0:0:
181,280,167314,2,0,P|166:213|114:181,2,125.999996154785,8|2|0,0:0|0:0|0:0,0:0:0:0:
217,365,168000,5,8,0:0:0:0:
306,343,168171,1,0,0:0:0:0:
338,256,168343,2,0,P|345:208|332:171,1,83.9999974365235,8|0,0:0|0:0,0:0:0:0:
392,102,168686,2,0,L|487:15,2,125.999996154785,8|2|0,0:0|0:0|0:0,0:0:0:0:
334,175,169371,5,8,0:0:0:0:
261,117,169543,1,0,0:0:0:0:
174,149,169714,2,0,P|133:140|91:149,1,83.9999974365235,8|0,0:0|0:0,0:0:0:0:
21,207,170057,2,0,P|34:258|18:329,2,125.999996154785,8|2|0,0:0|0:0|0:0,0:0:0:0:
92,148,170743,5,8,0:0:0:0:
81,56,170914,1,0,0:0:0:0:
171,35,171086,2,0,P|228:82|325:59,1,167.999994873047,8|0,0:0|3:2,0:0:0:0:
315,66,172114,5,8,0:0:0:0:
380,131,172286,1,0,0:0:0:0:
309,190,172457,2,0,P|317:231|300:279,1,83.9999974365235,8|0,0:0|0:0,0:0:0:0:
218,302,172800,2,0,L|85:302,2,125.999996154785,8|2|0,0:0|0:0|0:0,0:0:0:0:
305,270,173486,5,8,0:0:0:0:
375,329,173657,1,0,0:0:0:0:
438,261,173828,2,0,L|438:176,1,83.9999974365235,8|0,0:0|0:0,0:0:0:0:
399,92,174171,2,0,P|341:71|302:12,2,125.999996154785,8|2|0,0:0|0:0|0:0,0:0:0:0:
438,177,174857,6,0,L|348:176,1,83.9999974365235,8|0,0:0|0:0,0:0:0:0:
269,138,175200,1,8,0:0:0:0:
269,138,175371,1,0,0:0:0:0:
185,179,175543,2,0,L|99:179,1,83.9999974365235,8|0,0:0|0:0,0:0:0:0:
27,234,175886,2,0,P|32:284|9:328,1,83.9999974365235,8|0,0:0|0:0,0:0:0:0:
108,340,176228,6,0,P|149:361|212:357,1,83.9999974365235,8|0,0:0|0:0,0:0:0:0:
263,312,176571,2,0,P|270:271|255:223,1,83.9999974365235,8|0,0:0|0:0,0:0:0:0:
185,179,176914,2,0,P|157:95|207:20,1,167.999994873047,8|8,0:0|0:0,0:0:0:0:
378,36,177600,5,8,0:0:0:0:
378,36,177943,2,0,P|417:24|462:37,1,83.9999974365235,8|2,0:0|0:0,0:0:0:0:
503,115,178286,2,0,P|488:172|517:247,2,125.999996154785,8|2|2,0:0|0:0|0:0,0:0:0:0:
457,34,178972,5,8,0:0:0:0:
406,111,179143,1,2,0:0:0:0:
313,115,179315,2,0,P|263:124|211:115,1,83.9999974365235,8|2,0:0|0:0,0:0:0:0:
138,130,179658,2,0,P|129:58|165:-1,2,125.999996154785,8|2|2,0:0|0:0|0:0,0:0:0:0:
192,203,180343,5,8,0:0:0:0:
230,120,180514,1,2,0:0:0:0:
138,130,180686,2,0,P|95:117|46:134,1,83.9999974365235,8|2,0:0|0:0,0:0:0:0:
1,199,181029,2,0,P|-16:255|11:329,2,125.999996154785,8|2|2,0:0|0:0|0:0,0:0:0:0:
58,126,181715,5,8,0:0:0:0:
110,201,181886,1,2,0:0:0:0:
177,264,182058,2,0,P|242:296|334:259,1,167.999994873047,8|0,0:0|3:2,0:0:0:0:
327,265,183086,6,0,P|372:254|424:274,1,83.9999974365235,8|2,0:0|0:0,0:0:0:0:
485,314,183429,1,8,0:0:0:0:
500,223,183600,1,2,0:0:0:0:
434,157,183772,2,0,P|443:113|426:62,1,83.9999974365235,8|2,0:0|0:0,0:0:0:0:
343,58,184114,2,0,L|256:69,1,83.9999974365235,8|2,0:0|0:0,0:0:0:0:
173,102,184457,5,8,0:0:0:0:
82,84,184628,1,2,0:0:0:0:
21,155,184800,2,0,P|19:203|45:256,1,83.9999974365235,8|2,0:0|0:0,0:0:0:0:
87,310,185143,2,0,P|134:302|184:314,1,83.9999974365235,8|2,0:0|0:0,0:0:0:0:
254,345,185486,1,8,0:0:0:0:
307,269,185657,1,2,0:0:0:0:
359,193,185828,6,0,P|400:263|363:347,1,167.999994873047,2|2,0:0|0:0,0:0:0:0:
307,269,186343,1,0,0:0:0:0:
237,208,186514,2,0,P|229:162|242:121,1,83.9999974365235,2|0,0:0|0:0,0:0:0:0:
301,57,186857,2,0,P|346:67|396:51,1,83.9999974365235,2|0,0:0|0:0,0:0:0:0:
467,23,187200,1,2,0:0:0:0:
467,23,188571,5,8,0:0:0:0:
504,115,188742,1,0,0:0:0:0:
403,122,188914,2,0,P|390:168|403:212,1,90.9999958343508,8|0,0:0|0:0,0:0:0:0:
402,309,189257,2,0,P|311:340|237:284,1,181.999991668702,8|8,0:0|0:0,0:0:0:0:
268,199,189771,1,0,0:0:0:0:
240,103,189942,6,0,P|195:92|141:107,1,90.9999958343508,8|0,0:0|0:0,0:0:0:0:
59,139,190285,1,8,0:0:0:0:
56,239,190457,1,0,0:0:0:0:
156,235,190629,2,0,P|130:310|34:336,1,181.999991668702,8|8,0:0|0:0,0:0:0:0:
56,239,191142,1,0,0:0:0:0:
59,139,191314,6,0,P|108:127|158:139,1,90.9999958343508,8|0,0:0|0:0,0:0:0:0:
223,199,191657,2,0,P|265:213|316:196,1,90.9999958343508,8|0,0:0|0:0,0:0:0:0:
409,206,192000,2,0,P|420:163|406:105,1,90.9999958343508,8|0,0:0|0:0,0:0:0:0:
368,27,192343,1,8,0:0:0:0:
294,95,192514,1,0,0:0:0:0:
206,45,192686,6,0,P|159:38|108:56,1,90.9999958343508,8|0,0:0|0:0,0:0:0:0:
51,124,193028,2,0,P|63:163|51:218,1,90.9999958343508,8|0,0:0|0:0,0:0:0:0:
31,309,193371,2,0,P|91:356|194:329,1,181.999991668702,8|8,0:0|0:0,0:0:0:0:
121,259,193885,1,0,0:0:0:0:
179,177,194057,6,0,P|229:167|273:181,1,90.9999958343508,8|0,0:0|0:0,0:0:0:0:
293,269,194400,2,0,P|337:284|398:273,1,90.9999958343508,8|0,0:0|0:0,0:0:0:0:
434,196,194742,2,0,P|424:138|434:91,1,90.9999958343508,8|0,0:0|0:0,0:0:0:0:
362,30,195086,2,0,P|320:19|261:39,1,90.9999958343508,8|0,0:0|0:0,0:0:0:0:
180,62,195428,5,8,0:0:0:0:
154,159,195600,1,0,0:0:0:0:
247,124,195771,2,0,P|259:166|238:223,1,90.9999958343508,8|0,0:0|0:0,0:0:0:0:
339,248,196114,2,0,P|421:214|501:268,1,181.999991668702,8|8,0:0|0:0,0:0:0:0:
413,316,196628,1,0,0:0:0:0:
314,334,196800,6,0,P|272:323|218:337,1,90.9999958343508,8|0,0:0|0:0,0:0:0:0:
129,303,197143,2,0,P|87:314|33:300,1,90.9999958343508,8|0,0:0|0:0,0:0:0:0:
2,212,197485,2,0,L|2:95,1,90.9999958343508,8|0,0:0|0:0,0:0:0:0:
68,45,197828,2,0,P|114:34|163:49,1,90.9999958343508,8|0,0:0|0:0,0:0:0:0:
178,142,198171,6,0,P|221:152|278:133,1,90.9999958343508,8|0,0:0|0:0,0:0:0:0:
354,94,198514,1,8,0:0:0:0:
454,79,198686,1,0,0:0:0:0:
510,161,198857,2,0,P|434:211|343:193,1,181.999991668702,8|8,0:0|0:0,0:0:0:0:
265,140,199371,1,0,0:0:0:0:
186,77,199543,6,0,P|139:26|105:106,1,181.999991668702,2|0,0:0|0:0,0:0:0:0:
155,185,200057,1,8,0:0:0:0:
246,224,200228,2,0,P|259:262|244:326,1,90.9999958343508,8|2,0:0|0:0,0:0:0:0:
161,354,200571,2,0,L|48:348,1,90.9999958343508,8|2,0:0|0:0,0:0:0:0:
7,270,200914,5,8,0:0:0:0:
67,189,201086,1,2,0:0:0:0:
35,94,201257,2,0,P|82:79|130:93,1,90.9999958343508,8|2,0:0|0:0,0:0:0:0:
211,43,201600,2,0,P|290:74|390:23,1,181.999991668702,8|8,0:0|0:0,0:0:0:0:
475,23,202114,1,2,0:0:0:0:
430,114,202286,6,0,P|421:163|435:213,1,90.9999958343508,8|2,0:0|0:0,0:0:0:0:
495,278,202628,1,8,0:0:0:0:
398,304,202800,1,2,0:0:0:0:
328,232,202971,2,0,P|284:221|234:240,1,90.9999958343508,8|2,0:0|0:0,0:0:0:0:
141,221,203314,2,0,P|92:234|39:213,1,90.9999958343508,8|2,0:0|0:0,0:0:0:0:
27,126,203657,6,0,P|16:81|45:23,1,90.9999958343508,8|2,0:0|0:0,0:0:0:0:
128,23,204000,1,8,0:0:0:0:
188,102,204171,1,2,0:0:0:0:
266,39,204343,2,0,P|322:24|330:121,1,181.999991668702,8|8,0:0|0:0,0:0:0:0:
254,183,204857,1,2,0:0:0:0:
342,229,205029,6,0,P|388:216|443:234,1,90.9999958343508,8|2,0:0|0:0,0:0:0:0:
497,299,205372,2,0,P|457:309|403:298,1,90.9999958343508,8|2,0:0|0:0,0:0:0:0:
342,229,205714,2,0,P|354:179|335:132,1,90.9999958343508,8|2,0:0|0:0,0:0:0:0:
272,71,206056,1,8,0:0:0:0:
185,122,206228,1,2,0:0:0:0:
98,71,206400,6,0,P|84:117|96:166,1,90.9999958343508,8|2,0:0|0:0,0:0:0:0:
182,201,206743,2,0,P|191:254|174:295,1,90.9999958343508,8|2,0:0|0:0,0:0:0:0:
278,301,207086,2,0,P|358:340|455:281,1,181.999991668702,8|8,0:0|0:0,0:0:0:0:
360,239,207600,1,2,0:0:0:0:
397,171,207772,6,0,P|399:135|395:102,1,70,2|0,0:0|0:0,0:0:0:0:
330,59,208114,1,2,0:0:0:0:
260,92,208286,1,0,0:0:0:0:
184,80,208457,2,0,P|178:115|186:159,1,70,2|0,0:0|0:0,0:0:0:0:
229,210,208800,2,0,P|235:245|227:289,1,70,2|0,0:0|0:0,0:0:0:0:
172,329,209143,6,0,P|97:357|30:329,1,140,2|2,0:0|0:0,0:0:0:0:
75,269,209657,1,0,0:0:0:0:
44,198,209828,1,2,0:0:0:0:
