osu file format v14

[General]
AudioFilename: Yurino - Be My Game Boy (feat. S3rl) (Cut. Version).mp3
AudioLeadIn: 0
PreviewTime: 55331
Countdown: 1
SampleSet: Soft
StackLeniency: 0.7
Mode: 0
LetterboxInBreaks: 0
EpilepsyWarning: 1
WidescreenStoryboard: 1

[Editor]
Bookmarks: 26887,27332,27776,41554,54221,83775,84220,84664
DistanceSpacing: 1.1
BeatDivisor: 8
GridSize: 4
TimelineZoom: 2.699999

[Metadata]
Title:Be My Game Boy (feat. Yurino)
TitleUnicode:Be My Game Boy (feat. Yurino)
Artist:S3RL
ArtistUnicode:S3RL
Creator:AxelBrown
Version:Insane
Source:
Tags:UK Hardcore, Hardcore [EDM], Hard Trance, Hardstyle
BeatmapID:853666
BeatmapSetID:386754

[Difficulty]
HPDrainRate:7.5
CircleSize:4.1
OverallDifficulty:7.5
ApproachRate:8.5
SliderMultiplier:2
SliderTickRate:2

[Events]
//Background and Video events
0,0,"yurino.jpg",0,0
//Break Periods
//Storyboard Layer 0 (Background)
//Storyboard Layer 1 (Fail)
//Storyboard Layer 2 (Pass)
//Storyboard Layer 3 (Foreground)
Sprite,Foreground,Centre,"circlerosaSB.png",320,240 S,0,41553,,0.7805715 F,0,41553,41608,1 M,0,41553,41664,312.6857,128.0914,351.4514,125.8971 R,0,41553,41664,-1.141029,-1.038629 F,0,41608,41664,1 F,0,41664,41720,1 M,0,41664,41775,351.4514,125.8971,382.9029,146.3771 R,0,41664,41775,-1.038629,-0.8192 F,0,41720,41775,1 M,0,41775,41886,382.9029,146.3771,401.1885,189.5314 R,0,41775,41886,-0.8192,-0.5412572 F,0,41775,41997,1,0.8829713 M,0,41886,41997,401.1885,189.5314,409.9657,229.76 R,0,41886,41997,-0.5412572,-0.5558855 F,0,41997,42053,0.8829713,0.6928 M,0,41997,42108,409.9657,229.76,435.5657,260.48 R,0,41997,42108,-0.5558855,-0.7606853 F,0,42053,42442,0.6928,1 M,0,42108,42220,435.5657,260.48,472.1371,278.0343 R,0,42108,42220,-0.7606853,-1.067885 F,0,42442,42497,1,0.872 F,0,42497,42553,0.872,0.7769141 F,0,42553,42608,0.7769141,0.6854855 F,0,42608,42664,0.6854855,0.5757713
//Storyboard Sound Samples

[TimingPoints]
7109,444.444444444444,4,2,0,70,1,0
7110,-100,4,2,0,70,0,0
12220,-100,4,1,0,70,0,0
12664,-100,4,2,0,70,0,0
14220,-66.6666666666667,4,2,0,70,0,0
20664,-66.6666666666667,4,1,0,70,0,0
20886,-66.6666666666667,4,1,0,70,0,0
21108,-100,4,1,0,70,0,0
21553,-66.6666666666667,4,2,0,70,0,0
26442,-66.6666666666667,4,1,0,70,0,0
26886,-100,4,1,0,70,0,0
28665,-100,4,2,0,70,0,0
35108,-100,4,1,0,70,0,0
35775,-100,4,2,0,70,0,0
41665,-133.333333333333,4,1,0,70,0,0
42665,-100,4,2,0,70,0,0
54221,-66.6666666666667,4,2,0,70,0,0
55332,-100,4,2,0,70,0,0
56331,-133.333333333333,4,2,0,70,0,0
56886,-100,4,2,0,70,0,1
71108,-66.6666666666667,4,2,0,70,0,0
77553,-66.6666666666667,4,1,0,70,0,0
77998,-66.6666666666667,4,2,0,70,0,0
83776,-66.6666666666667,4,1,0,70,0,0

[Colours]
Combo1 : 252,190,3
Combo2 : 255,128,128
Combo3 : 255,128,64

[HitObjects]
72,128,7109,6,0,P|120:88|176:88,1,100
128,264,7553,1,8,0:0:0:0:
232,240,7775,1,0,0:0:0:0:
144,168,7997,1,2,0:0:0:0:
240,128,8220,1,0,0:0:0:0:
280,96,8331,1,0,0:0:0:0:
320,64,8442,1,8,0:0:0:0:
408,128,8664,2,0,P|408:176|440:216,1,100,0|2,0:0|0:0,0:0:0:0:
384,312,9109,5,0,0:0:0:0:
488,152,9332,1,8,0:0:0:0:
384,116,9554,1,0,0:0:0:0:
336,24,9776,1,8,0:0:0:0:
256,104,9997,1,0,0:0:0:0:
256,104,10108,1,0,0:0:0:0:
256,104,10220,1,8,0:0:0:0:
240,216,10442,2,0,P|192:200|160:152,2,100,0|4|0,0:0|0:0|0:0,0:0:0:0:
72,160,11108,5,8,0:0:0:0:
144,80,11331,1,0,0:0:0:0:
240,136,11553,1,0,0:0:0:0:
320,208,11775,1,0,0:0:0:0:
320,208,11886,1,0,0:0:0:0:
320,208,11997,1,8,0:0:0:0:
240,136,12220,2,0,B|264:96|264:96|320:72,1,100,0|8,0:0|0:0,0:0:0:0:
408,216,12665,5,6,0:0:0:0:
104,80,13109,1,6,0:0:0:0:
352,328,13553,2,0,L|304:224,1,100,10|8,0:0|0:0,0:0:0:0:
310,237,13997,1,6,0:0:0:0:
412,108,14220,6,0,P|340:116|272:60,1,150.000005722046,8|0,0:0|0:0,0:0:0:0:
384,200,14664,1,8,0:0:0:0:
224,236,14886,2,0,P|296:236|356:300,1,150.000005722046,0|8,0:0|0:0,0:0:0:0:
252,152,15332,1,0,0:0:0:0:
252,152,15443,1,0,0:0:0:0:
252,152,15554,1,8,0:0:0:0:
88,148,15776,2,0,P|120:56|184:32,1,150.000005722046,0|14,0:0|0:0,0:0:0:0:
316,100,16221,5,0,0:0:0:0:
232,240,16442,1,8,0:0:0:0:
396,244,16664,2,0,B|368:192|328:192|296:196|264:164,1,150.000005722046,0|8,0:0|0:0,0:0:0:0:
112,216,17109,1,0,0:0:0:0:
96,172,17221,1,0,0:0:0:0:
112,132,17332,1,8,0:0:0:0:
270,170,17553,2,0,B|295:144|327:148|367:148|395:96,1,150.000005722046,0|8,0:0|0:0,0:0:0:0:
232,100,17997,5,0,0:0:0:0:
312,244,18220,1,8,0:0:0:0:
232,100,18442,2,0,P|174:55|132:112,1,150.000005722046,0|8,0:0|0:0,0:0:0:0:
60,248,18886,2,0,P|72:308|152:328,1,150.000005722046,0|8,0:0|0:0,0:0:0:0:
208,268,19220,2,0,L|232:332,4,37.5000014305115,0|0|2|0|2,0:0|0:0|0:0|0:0|0:0,0:0:0:0:
224,256,19553,6,0,P|288:256|328:336,1,150.000005722046,10|0,0:0|0:0,0:0:0:0:
268,168,19998,1,8,0:0:0:0:
256,324,20221,1,0,0:0:0:0:
408,284,20443,1,10,0:0:0:0:
248,332,20664,2,0,L|168:372,1,75.0000028610231,2|0,0:0|0:0,0:0:0:0:
248,332,20886,1,2,0:0:0:0:
140,304,21108,1,2,0:0:0:0:
220,228,21331,1,12,0:0:0:0:
134,231,21554,6,0,P|131:159|68:128,1,150.000005722046,0|8,0:0|0:0,0:0:0:0:
204,36,21997,1,0,0:0:0:0:
68,128,22219,1,8,0:0:0:0:
276,148,22442,1,0,0:0:0:0:
276,148,22554,1,0,0:0:0:0:
276,148,22664,1,8,0:0:0:0:
382,265,22886,1,0,0:0:0:0:
416,232,22997,1,0,0:0:0:0:
448,200,23108,1,8,0:0:0:0:
328,84,23332,6,0,L|176:24,1,150.000005722046,0|8,0:0|0:0,0:0:0:0:
32,84,23776,2,0,L|184:148,1,150.000005722046,0|10,0:0|0:0,0:0:0:0:
320,208,24221,1,0,0:0:0:0:
296,244,24332,1,0,0:0:0:0:
268,280,24443,1,8,0:0:0:0:
415,191,24665,2,0,P|376:130|304:120,1,150.000005722046,0|10,0:0|0:0,0:0:0:0:
140,104,25108,6,0,P|179:165|251:177,1,150.000005722046,0|10,0:0|0:0,0:0:0:0:
84,176,25554,1,0,0:0:0:0:
228,96,25776,1,10,0:0:0:0:
232,260,25998,1,0,0:0:0:0:
232,260,26109,1,0,0:0:0:0:
232,260,26220,1,8,0:0:0:0:
84,188,26442,2,0,L|24:188,4,37.5000014305115,2|0|0|0|0,0:0|0:0|0:0|0:0|0:0,0:0:0:0:
64,304,26887,5,6,0:0:0:0:
240,40,27332,1,6,0:0:0:0:
408,312,27776,1,6,0:0:0:0:
408,312,27887,1,0,0:0:0:0:
408,312,27998,1,8,0:0:0:0:
180,160,28221,1,4,0:0:0:0:
436,68,28443,5,8,0:0:0:0:
408,312,28665,2,0,P|352:328|304:296,1,100,0|8,0:0|0:0,0:0:0:0:
208,336,29109,1,0,0:0:0:0:
200,224,29332,2,0,B|144:160|78:210|31:126,1,200,0|8,0:0|0:0,0:0:0:0:
48,24,29997,1,0,0:0:0:0:
152,64,30220,2,0,B|212:34|212:34|268:64|268:64|338:30,1,200,0|8,0:0|0:0,0:0:0:0:
291,152,30887,6,0,L|384:101,1,100
471,44,31332,1,0,0:0:0:0:
378,103,31554,1,8,0:0:0:0:
476,152,31776,1,0,0:0:0:0:
480,248,31998,2,0,P|400:204|380:100,1,200,0|8,0:0|0:0,0:0:0:0:
286,78,32665,5,0,0:0:0:0:
192,20,32887,1,0,0:0:0:0:
109,92,33109,1,0,0:0:0:0:
158,190,33332,1,8,0:0:0:0:
268,184,33554,1,0,0:0:0:0:
233,287,33775,2,0,P|331:274|378:192,1,200,0|8,0:0|0:0,0:0:0:0:
268,184,34443,5,0,0:0:0:0:
58,193,34665,2,2,L|158:193,1,100
252,136,35108,1,0,0:0:0:0:
274,28,35331,2,2,P|224:30|180:52,1,100,2|6,0:0|0:0,0:0:0:0:
416,40,35776,6,0,P|440:88|416:136,2,100,0|8|0,0:0|0:0|0:0,0:0:0:0:
323,103,36443,2,0,P|336:200|427:231,1,200,0|8,0:0|0:0,0:0:0:0:
504,160,37109,1,0,0:0:0:0:
392,144,37332,2,0,B|315:200|315:200|208:200,1,200,0|10,0:0|0:0,0:0:0:0:
216,312,37998,5,0,0:0:0:0:
120,368,38221,1,8,0:0:0:0:
24,312,38443,1,0,0:0:0:0:
24,200,38665,1,8,0:0:0:0:
72,168,38775,1,0,0:0:0:0:
120,136,38887,1,0,0:0:0:0:
208,200,39108,2,0,B|304:200|304:200|400:256,1,200,8|10,0:0|0:0,0:0:0:0:
416,360,39776,5,0,0:0:0:0:
312,328,39998,1,0,0:0:0:0:
208,352,40220,2,0,P|152:368|112:344,2,100,0|8|0,0:0|0:0|0:0,0:0:0:0:
160,256,40887,2,0,B|128:224|72:208|72:208|112:168|112:104,1,200,0|8,0:0|0:0,0:0:0:0:
176,40,41554,5,4,0:0:0:0:
212,60,41664,1,0,0:0:0:0:
248,64,41776,1,8,0:0:0:0:
288,64,41887,1,0,0:0:0:0:
320,88,41998,5,0,0:0:0:0:
336,128,42109,1,0,0:0:0:0:
344,168,42221,1,8,0:0:0:0:
368,200,42332,1,0,0:0:0:0:
408,216,42443,5,0,0:0:0:0:
248,64,42665,1,4,0:0:0:0:
408,216,42887,2,0,L|392:320,1,100,0|8,0:0|0:0,0:0:0:0:
280,328,43332,5,0,0:0:0:0:
224,240,43554,2,0,P|184:272|176:320,1,100
64,336,43998,1,8,0:0:0:0:
32,232,44221,1,0,0:0:0:0:
128,168,44443,2,0,B|136:120|88:80|88:80|32:80|-8:128,1,200,0|8,0:0|0:0,0:0:0:0:
32,232,45109,6,0,P|56:272|104:296,1,100
192,352,45554,1,0,0:0:0:0:
208,248,45776,1,8,0:0:0:0:
408,296,45998,2,0,L|308:296,2,100
108,248,46665,2,0,L|208:248,1,100,8|0,0:0|0:0,0:0:0:0:
288,176,47109,2,0,P|384:160|448:232,1,200,0|8,0:0|0:0,0:0:0:0:
344,264,47776,5,0,0:0:0:0:
169,343,47998,2,2,L|260:300,2,100,10|2|10,0:0|0:0|0:0,0:0:0:0:
60,340,48665,1,2,0:0:0:0:
60,340,48776,1,0,0:0:0:0:
60,340,48887,1,8,0:0:0:0:
256,48,49109,1,2,0:0:0:0:
256,48,49221,1,0,0:0:0:0:
256,48,49331,1,0,0:0:0:0:
364,48,49553,1,0,0:0:0:0:
156,48,49775,2,2,L|256:48,1,100,2|6,0:0|0:0,0:0:0:0:
360,256,50221,6,0,P|392:224|396:160,1,100,8|0,0:0|0:0,0:0:0:0:
336,80,50665,1,0,0:0:0:0:
240,136,50887,2,0,P|272:176|320:184,1,100,0|8,0:0|0:0,0:0:0:0:
376,280,51332,2,0,L|480:312,2,100
292,352,51998,5,8,0:0:0:0:
192,308,52221,1,0,0:0:0:0:
204,200,52443,1,0,0:0:0:0:
312,180,52665,1,0,0:0:0:0:
435,87,52887,2,0,L|336:80,1,100,8|0,0:0|0:0,0:0:0:0:
448,192,53332,2,2,B|380:228|416:320|416:320|324:288|280:356,1,300
216,80,54221,5,8,0:0:0:0:
144,336,54443,1,8,0:0:0:0:
356,176,54665,1,8,0:0:0:0:
80,180,54887,1,8,0:0:0:0:
312,336,55109,1,12,0:0:0:0:
392,264,55332,6,2,L|500:264,2,100,2|10|2,0:0|0:0|0:0,0:0:0:0:
336,176,55997,2,2,L|356:144,4,25
88,304,56442,1,2,0:0:0:0:
312,336,56664,1,0,0:0:0:0:
120,136,56887,6,0,P|80:168|12:164,1,100,8|0,0:0|0:0,0:0:0:0:
48,64,57332,2,0,P|88:32|144:36,1,100,8|0,0:0|0:0,0:0:0:0:
320,80,57776,1,10,0:0:0:0:
320,80,57998,1,2,0:0:0:0:
124,132,58221,1,10,0:0:0:0:
124,132,58443,1,10,0:0:0:0:
144,240,58665,6,0,P|192:216|216:168,1,100,8|0,0:0|0:0,0:0:0:0:
396,240,59109,2,0,P|352:220|328:172,1,100,8|0,0:0|0:0,0:0:0:0:
512,236,59554,1,10,0:0:0:0:
512,236,59776,1,2,0:0:0:0:
328,175,59998,1,10,0:0:0:0:
328,175,60108,1,0,0:0:0:0:
328,175,60221,1,2,0:0:0:0:
388,84,60443,6,0,P|296:64|228:136,1,200,8|8,0:0|0:0,0:0:0:0:
328,175,61109,1,0,0:0:0:0:
384,268,61332,1,8,0:0:0:0:
272,276,61554,2,0,L|208:360,2,100,0|8|0,0:0|0:0|0:0,0:0:0:0:
168,232,62221,2,8,B|104:176|208:96|120:48,1,200
20,32,62886,1,0,0:0:0:0:
52,132,63108,2,2,B|112:184|196:104|256:160,1,200,10|2,0:0|0:0,0:0:0:0:
412,84,63776,1,0,0:0:0:0:
424,192,63998,1,8,0:0:0:0:
320,232,64221,1,0,0:0:0:0:
424,192,64443,2,0,P|468:216|492:268,1,100,8|0,0:0|0:0,0:0:0:0:
384,292,64887,5,10,0:0:0:0:
384,292,65109,1,2,0:0:0:0:
272,304,65332,2,0,L|172:304,1,100,8|0,0:0|0:0,0:0:0:0:
42,149,65776,2,0,L|84:240,1,100,8|0,0:0|0:0,0:0:0:0:
208,192,66221,2,0,P|232:144|220:96,1,100,8|0,0:0|0:0,0:0:0:0:
112,132,66665,5,10,0:0:0:0:
112,132,66886,1,2,0:0:0:0:
116,20,67109,2,0,L|224:20,1,100,8|0,0:0|0:0,0:0:0:0:
320,24,67554,2,8,P|384:84|320:152,1,200
244,223,68220,1,0,0:0:0:0:
435,269,68442,6,0,P|399:235|352:220,1,100,8|8,0:0|0:0,0:0:0:0:
344,332,68887,1,8,0:0:0:0:
236,316,69109,1,0,0:0:0:0:
124,320,69332,6,0,L|48:244,1,100,8|0,0:0|0:0,0:0:0:0:
40,40,69776,2,0,L|120:112,1,100,8|0,0:0|0:0,0:0:0:0:
160,116,70108,1,0,0:0:0:0:
208,120,70221,1,8,0:0:0:0:
304,64,70443,2,0,P|272:32|216:16,2,100,0|8|0,0:0|0:0|0:0,0:0:0:0:
420,180,71108,6,0,P|376:232|384:312,1,150.000005722046,8|0,0:0|0:0,0:0:0:0:
332,152,71553,1,8,0:0:0:0:
452,264,71775,1,0,0:0:0:0:
300,328,71997,2,0,P|256:272|176:260,1,150.000005722046,8|0,0:0|0:0,0:0:0:0:
181,258,72332,1,0,0:0:0:0:
181,258,72443,1,8,0:0:0:0:
334,73,72665,2,0,P|397:110|420:180,1,150.000005722046,0|10,0:0|0:0,0:0:0:0:
280,280,73108,6,0,P|219:238|200:168,1,150.000005722046,0|8,0:0|0:0,0:0:0:0:
212,332,73554,1,0,0:0:0:0:
288,188,73776,1,10,0:0:0:0:
124,188,73998,1,0,0:0:0:0:
124,188,74109,1,0,0:0:0:0:
124,188,74220,1,0,0:0:0:0:
415,224,74442,2,0,P|353:266|280:272,1,150.000005722046,0|8,0:0|0:0,0:0:0:0:
388,144,74887,6,0,P|332:188|240:184,1,150.000005722046,0|8,0:0|0:0,0:0:0:0:
416,224,75332,1,0,0:0:0:0:
296,112,75554,1,10,0:0:0:0:
264,272,75776,2,0,L|228:340,2,75.0000028610231,0|0|8,0:0|0:0|0:0,0:0:0:0:
100,296,76220,6,0,P|56:224|80:216,1,150.000005722046,0|8,0:0|0:0,0:0:0:0:
240,176,76664,2,0,P|212:236|164:184,1,150.000005722046,0|8,0:0|0:0,0:0:0:0:
120,36,77108,2,0,P|112:120|156:108,1,150.000005722046,0|8,0:0|0:0,0:0:0:0:
388,68,77554,1,6,0:0:0:0:
388,68,77664,1,2,0:0:0:0:
388,68,77775,1,8,0:0:0:0:
136,340,77998,1,6,0:0:0:0:
368,328,78220,6,0,P|424:288|480:348,1,150.000005722046,8|8,0:0|0:0,0:0:0:0:
344,236,78664,1,10,0:0:0:0:
480,144,78887,2,0,P|424:184|356:136,1,150.000005722046,0|10,0:0|0:0,0:0:0:0:
196,144,79331,1,0,0:0:0:0:
232,112,79443,1,0,0:0:0:0:
268,76,79553,1,8,0:0:0:0:
128,40,79775,2,0,B|64:80|64:80|72:160,1,150.000005722046,0|12,0:0|0:0,0:0:0:0:
152,300,80220,6,0,B|216:252|216:252|209:182,1,150.000005722046,0|8,0:0|0:0,0:0:0:0:
228,348,80665,1,0,0:0:0:0:
76,288,80887,1,10,0:0:0:0:
209,182,81109,1,0,0:0:0:0:
188,128,81221,1,0,0:0:0:0:
164,76,81332,1,8,0:0:0:0:
396,124,81554,2,0,P|408:192|360:260,1,150.000005722046,0|14,0:0|0:0,0:0:0:0:
488,148,81997,5,0,0:0:0:0:
324,180,82220,1,8,0:0:0:0:
444,292,82442,1,0,0:0:0:0:
284,332,82664,1,8,0:0:0:0:
324,180,82887,1,0,0:0:0:0:
324,180,82998,1,0,0:0:0:0:
324,180,83108,1,8,0:0:0:0:
160,160,83331,6,0,P|184:80|240:48,1,150.000005722046,0|8,0:0|0:0,0:0:0:0:
456,44,83775,5,2,0:0:0:0:
44,192,84221,1,2,0:0:0:0:
392,340,84664,2,0,L|488:340,1,75.0000028610231,2|4,0:0|0:0,0:0:0:0:
