osu file format v14

[General]
AudioFilename: Yurino - Be My Game Boy (feat. S3rl) (Cut. Version).mp3
AudioLeadIn: 0
PreviewTime: 55331
Countdown: 1
SampleSet: Normal
StackLeniency: 0.7
Mode: 0
LetterboxInBreaks: 0
EpilepsyWarning: 1
WidescreenStoryboard: 1

[Editor]
Bookmarks: 26887,27332,27776,41554,54221
DistanceSpacing: 1.1
BeatDivisor: 4
GridSize: 8
TimelineZoom: 1

[Metadata]
Title:Be My Game Boy (feat. Yurino)
TitleUnicode:Be My Game Boy (feat. Yurino)
Artist:S3RL
ArtistUnicode:S3RL
Creator:AxelBrown
Version:Hard
Source:
Tags:UK Hardcore, Hardcore [EDM], Hard Trance, Hardstyle
BeatmapID:844355
BeatmapSetID:386754

[Difficulty]
HPDrainRate:7
CircleSize:4
OverallDifficulty:6
ApproachRate:7.5
SliderMultiplier:1.6
SliderTickRate:2

[Events]
//Background and Video events
0,0,"yurino.jpg",0,0
//Break Periods
//Storyboard Layer 0 (Background)
//Storyboard Layer 1 (Fail)
//Storyboard Layer 2 (Pass)
//Storyboard Layer 3 (Foreground)
//Storyboard Sound Samples

[TimingPoints]
7109,444.444444444444,4,2,0,70,1,0
7110,-100,4,2,0,70,0,0
12665,-66.6666666666667,4,2,0,70,0,0
14221,-100,4,2,0,70,0,0
26887,-66.6666666666667,4,2,0,70,0,0
28665,-100,4,2,0,70,0,0
41665,-133.333333333333,4,1,0,70,0,0
42665,-100,4,2,0,70,0,0
54221,-66.6666666666667,4,2,0,70,0,0
55332,-100,4,2,0,70,0,0
56886,-100,4,2,0,70,0,1
71108,-66.6666666666667,4,2,0,70,0,0
71332,-100,4,2,0,70,0,0
77998,-66.6666666666667,4,2,0,70,0,0
78443,-100,4,2,0,70,0,0
83776,-66.6666666666667,4,1,0,70,0,0

[Colours]
Combo1 : 252,190,3
Combo2 : 255,128,128
Combo3 : 255,128,64

[HitObjects]
64,136,7109,6,0,P|88:104|136:96,1,80
144,184,7554,1,8,0:0:0:0:
216,128,7776,1,0,0:0:0:0:
192,40,7998,1,0,0:0:0:0:
280,64,8220,1,0,0:0:0:0:
280,64,8331,1,0,0:0:0:0:
280,64,8443,2,0,P|360:56|416:112,1,160,8|0,0:0|0:0,0:0:0:0:
328,136,9109,5,0,0:0:0:0:
400,192,9332,1,8,0:0:0:0:
320,224,9554,1,0,0:0:0:0:
320,224,9776,1,0,0:0:0:0:
264,296,9998,1,0,0:0:0:0:
264,296,10109,1,0,0:0:0:0:
264,296,10221,2,0,P|192:320|128:272,1,160,8|0,0:0|0:0,0:0:0:0:
208,232,10887,6,0,P|184:200|128:192,1,80,0|8,0:0|0:0,0:0:0:0:
56,200,11332,1,0,0:0:0:0:
8,128,11554,1,0,0:0:0:0:
72,64,11776,2,0,L|40:16,2,40,0|0|8,0:0|0:0|0:0,0:0:0:0:
152,96,12221,2,0,P|208:64|232:64,1,80
344,104,12665,5,4,0:0:0:0:
80,144,13109,1,4,0:0:0:0:
344,104,13554,1,4,0:0:0:0:
344,104,13665,1,0,0:0:0:0:
344,104,13776,1,8,0:0:0:0:
464,232,14221,6,0,L|496:312,1,80,10|0,0:0|0:0,0:0:0:0:
416,352,14665,1,8,0:0:0:0:
392,264,14887,2,0,P|352:288|336:320,1,80,0|10,0:0|0:0,0:0:0:0:
256,272,15332,1,0,0:0:0:0:
256,272,15443,1,0,0:0:0:0:
256,272,15554,1,8,0:0:0:0:
176,312,15776,2,0,P|155:278|120:259,1,80,0|14,0:0|0:0,0:0:0:0:
72,184,16221,5,0,0:0:0:0:
32,264,16443,1,8,0:0:0:0:
120,259,16665,2,0,P|160:243|176:203,1,80,0|10,0:0|0:0,0:0:0:0:
136,136,17109,1,0,0:0:0:0:
168,120,17221,1,0,0:0:0:0:
200,104,17332,1,8,0:0:0:0:
192,16,17554,2,0,P|232:16|272:48,1,80,0|10,0:0|0:0,0:0:0:0:
288,120,17998,6,0,L|392:120,1,80,0|8,0:0|0:0,0:0:0:0:
440,64,18443,1,0,0:0:0:0:
440,64,18664,1,10,0:0:0:0:
448,152,18887,2,0,P|472:192|480:232,1,80,0|8,0:0|0:0,0:0:0:0:
479,224,19221,1,0,0:0:0:0:
479,224,19332,1,0,0:0:0:0:
392,240,19554,6,0,P|368:272|376:320,1,80,10|0,0:0|0:0,0:0:0:0:
296,352,19998,1,8,0:0:0:0:
240,280,20221,1,0,0:0:0:0:
312,224,20443,1,10,0:0:0:0:
288,192,20554,1,0,0:0:0:0:
248,176,20665,1,0,0:0:0:0:
208,192,20776,1,0,0:0:0:0:
176,224,20887,2,0,L|96:224,2,80,8|0|14,0:0|0:0|0:0,0:0:0:0:
136,304,21554,5,0,0:0:0:0:
96,224,21776,1,8,0:0:0:0:
136,304,21998,2,0,L|224:328,1,80,0|10,0:0|0:0,0:0:0:0:
232,240,22443,1,0,0:0:0:0:
232,240,22554,1,0,0:0:0:0:
232,240,22665,2,8,P|288:216|336:120,1,160,8|10,0:0|0:0,0:0:0:0:
256,96,23332,6,0,L|168:112,1,80,0|8,0:0|0:0,0:0:0:0:
9,97,23776,2,0,L|88:112,1,80,0|10,0:0|0:0,0:0:0:0:
72,200,24221,1,0,0:0:0:0:
88,232,24332,1,0,0:0:0:0:
104,264,24443,1,8,0:0:0:0:
184,232,24665,2,0,P|224:224|280:248,1,80,0|10,0:0|0:0,0:0:0:0:
224,312,25109,6,0,P|262:322|301:314,1,80,0|8,0:0|0:0,0:0:0:0:
352,240,25554,1,0,0:0:0:0:
301,314,25776,1,10,0:0:0:0:
384,352,25998,1,0,0:0:0:0:
384,352,26109,1,0,0:0:0:0:
384,352,26221,2,8,P|456:320|488:248,1,160,8|10,0:0|0:0,0:0:0:0:
416,136,26887,5,4,0:0:0:0:
176,32,27332,1,4,0:0:0:0:
152,296,27776,1,4,0:0:0:0:
152,296,27998,1,8,0:0:0:0:
72,168,28221,1,4,0:0:0:0:
104,80,28443,5,0,0:0:0:0:
192,56,28665,2,0,P|232:72|280:64,1,80,0|8,0:0|0:0,0:0:0:0:
248,152,29109,1,0,0:0:0:0:
336,128,29332,2,0,B|408:144|424:80|504:112,1,160,0|8,0:0|0:0,0:0:0:0:
464,192,29998,2,0,L|496:280,2,80
400,256,30665,1,8,0:0:0:0:
384,344,30887,6,0,L|288:320,1,80
224,352,31332,1,0,0:0:0:0:
168,288,31554,1,8,0:0:0:0:
216,216,31776,1,0,0:0:0:0:
304,240,31998,2,0,P|288:160|208:128,1,160,0|8,0:0|0:0,0:0:0:0:
168,56,32665,5,0,0:0:0:0:
80,56,32887,1,0,0:0:0:0:
24,128,33109,1,0,0:0:0:0:
80,192,33332,1,8,0:0:0:0:
32,264,33554,1,0,0:0:0:0:
96,328,33776,2,0,P|168:352|232:304,1,160,0|8,0:0|0:0,0:0:0:0:
152,264,34443,5,0,0:0:0:0:
200,192,34665,2,0,L|288:192,1,80
424,128,35109,2,0,L|344:128,2,80,8|0|0,0:0|0:0|0:0,0:0:0:0:
448,216,35776,6,0,P|472:248|472:296,2,80,0|8|0,0:0|0:0|0:0,0:0:0:0:
384,280,36443,2,0,P|312:312|232:272,1,160,0|8,0:0|0:0,0:0:0:0:
304,216,37109,1,0,0:0:0:0:
216,200,37332,2,0,B|136:192|136:192|80:264,1,160,0|8,0:0|0:0,0:0:0:0:
48,176,37998,5,0,0:0:0:0:
112,112,38221,1,8,0:0:0:0:
136,24,38443,1,0,0:0:0:0:
216,64,38665,1,8,0:0:0:0:
304,48,38887,1,0,0:0:0:0:
272,128,39109,2,0,P|288:208|336:288,1,160,8|8,0:0|0:0,0:0:0:0:
256,328,39776,5,0,0:0:0:0:
224,248,39998,1,0,0:0:0:0:
168,312,40221,2,0,P|128:320|88:304,2,80,0|8|0,0:0|0:0|0:0,0:0:0:0:
128,232,40887,2,0,B|104:200|64:192|64:192|96:160|88:104,1,160,0|8,0:0|0:0,0:0:0:0:
128,40,41554,5,0,0:0:0:0:
216,56,41776,1,0,0:0:0:0:
240,80,41887,1,0,0:0:0:0:
264,104,41998,1,0,0:0:0:0:
296,120,42109,1,0,0:0:0:0:
328,128,42221,5,8,0:0:0:0:
360,128,42332,1,0,0:0:0:0:
392,112,42443,1,0,0:0:0:0:
464,168,42665,1,4,0:0:0:0:
384,208,42887,2,0,L|384:288,1,80,0|8,0:0|0:0,0:0:0:0:
456,344,43332,5,0,0:0:0:0:
384,288,43554,2,0,P|352:312|304:320,1,80
312,232,43998,1,8,0:0:0:0:
232,280,44221,1,0,0:0:0:0:
160,336,44443,2,0,B|112:328|120:280|120:280|72:272|80:216,1,160,0|8,0:0|0:0,0:0:0:0:
168,200,45109,6,0,P|152:160|112:136,1,80
40,160,45554,1,0,0:0:0:0:
24,72,45776,1,8,0:0:0:0:
112,56,45998,2,0,L|200:32,2,80
128,144,46665,2,0,L|216:168,1,80,8|0,0:0|0:0,0:0:0:0:
264,96,47109,2,0,P|328:64|352:136,1,160,0|8,0:0|0:0,0:0:0:0:
288,184,47776,5,0,0:0:0:0:
200,192,47998,2,2,L|96:216,2,80,10|2|10,0:0|0:0|0:0,0:0:0:0:
248,264,48664,5,2,0:0:0:0:
248,264,48776,1,0,0:0:0:0:
248,264,48887,1,8,0:0:0:0:
328,224,49109,1,2,0:0:0:0:
328,224,49220,1,0,0:0:0:0:
328,224,49331,1,0,0:0:0:0:
400,280,49553,1,0,0:0:0:0:
328,328,49775,2,2,L|240:336,1,80,10|2,0:0|0:0,0:0:0:0:
168,296,50221,6,0,P|128:296|88:320,1,80,8|0,0:0|0:0,0:0:0:0:
32,256,50665,1,0,0:0:0:0:
56,168,50887,2,0,P|96:176|136:160,1,80,0|8,0:0|0:0,0:0:0:0:
88,88,51332,2,0,L|24:24,2,80
160,40,51998,5,8,0:0:0:0:
208,112,52221,1,0,0:0:0:0:
296,112,52443,1,0,0:0:0:0:
344,40,52665,1,0,0:0:0:0:
432,40,52887,2,0,L|480:120,1,80,8|0,0:0|0:0,0:0:0:0:
440,184,53332,2,2,B|384:224|424:288|424:288|344:264|312:336,1,240
240,176,54221,5,8,0:0:0:0:
224,344,54443,1,8,0:0:0:0:
336,224,54665,1,8,0:0:0:0:
176,256,54887,1,8,0:0:0:0:
320,320,55109,1,12,0:0:0:0:
400,288,55332,6,2,L|480:256,2,80,2|10|2,0:0|0:0|0:0,0:0:0:0:
400,200,55998,2,2,L|408:160,4,40,2|2|2|2|6,0:0|0:0|0:0|0:0|0:0,0:0:0:0:
256,304,56887,6,0,P|224:328|176:336,1,80,8|0,0:0|0:0,0:0:0:0:
73,288,57332,2,0,P|105:264|144:256,1,80,8|0,0:0|0:0,0:0:0:0:
272,224,57776,1,8,0:0:0:0:
272,224,57998,1,0,0:0:0:0:
144,184,58221,1,8,0:0:0:0:
144,184,58443,1,0,0:0:0:0:
104,104,58665,6,0,P|135:80|157:46,1,80,8|0,0:0|0:0,0:0:0:0:
248,48,59109,2,0,P|269:81|301:105,1,80,8|0,0:0|0:0,0:0:0:0:
432,72,59554,1,8,0:0:0:0:
432,72,59776,1,0,0:0:0:0:
336,168,59998,1,8,0:0:0:0:
336,168,60221,1,0,0:0:0:0:
424,176,60443,6,0,P|472:240|408:288,1,160,8|0,0:0|0:0,0:0:0:0:
344,256,61109,1,0,0:0:0:0:
256,232,61332,1,8,0:0:0:0:
200,296,61554,2,0,L|256:352,2,80,0|8|0,0:0|0:0|0:0,0:0:0:0:
120,256,62221,2,8,B|96:208|120:144|80:80,1,160,8|12,0:0|0:0,0:0:0:0:
32,160,62887,2,2,B|80:192|152:160|192:192,1,160
240,120,63554,5,8,0:0:0:0:
216,32,63776,1,0,0:0:0:0:
304,16,63998,1,8,0:0:0:0:
328,104,64221,1,0,0:0:0:0:
400,48,64443,2,0,P|432:64|464:96,1,80,8|0,0:0|0:0,0:0:0:0:
408,160,64887,5,8,0:0:0:0:
408,160,65109,1,0,0:0:0:0:
320,184,65332,2,0,L|360:272,1,80,8|0,0:0|0:0,0:0:0:0:
272,288,65776,2,0,L|232:200,1,80,8|0,0:0|0:0,0:0:0:0:
160,248,66221,2,0,P|120:256|72:240,1,80,8|0,0:0|0:0,0:0:0:0:
120,168,66665,5,8,0:0:0:0:
120,168,66887,1,0,0:0:0:0:
48,112,67109,2,0,L|104:40,1,80,8|0,0:0|0:0,0:0:0:0:
176,88,67554,2,8,P|224:152|192:232,1,160
128,264,68221,6,0,P|128:304|152:344,1,80,0|8,0:0|0:0,0:0:0:0:
232,304,68665,1,0,0:0:0:0:
312,336,68887,1,8,0:0:0:0:
352,256,69109,1,0,0:0:0:0:
424,200,69332,6,0,L|480:136,1,80,8|0,0:0|0:0,0:0:0:0:
424,200,69776,2,0,L|360:144,1,80,8|0,0:0|0:0,0:0:0:0:
416,72,70221,1,8,0:0:0:0:
328,72,70443,2,0,P|296:48|248:40,2,80,0|8|0,0:0|0:0|0:0,0:0:0:0:
200,88,71109,5,14,0:0:0:0:
112,80,71332,2,0,L|40:120,1,80,0|8,0:0|0:0,0:0:0:0:
80,200,71776,2,0,L|160:160,1,80,0|10,0:0|0:0,0:0:0:0:
240,144,72221,1,0,0:0:0:0:
272,136,72332,1,0,0:0:0:0:
304,136,72443,1,8,0:0:0:0:
288,224,72665,2,0,P|328:240|368:240,1,80,0|10,0:0|0:0,0:0:0:0:
432,184,73109,6,0,P|456:216|456:264,1,80,0|8,0:0|0:0,0:0:0:0:
400,320,73554,1,0,0:0:0:0:
368,240,73776,1,10,0:0:0:0:
312,312,73998,1,0,0:0:0:0:
312,312,74109,1,0,0:0:0:0:
312,312,74221,2,8,B|256:336|208:280|144:312,1,160,8|10,0:0|0:0,0:0:0:0:
88,248,74887,6,0,P|120:224|176:224,1,80,0|8,0:0|0:0,0:0:0:0:
128,136,75332,1,0,0:0:0:0:
48,168,75554,1,10,0:0:0:0:
56,80,75776,2,0,L|24:40,2,40,0|0|8,0:0|0:0|0:0,0:0:0:0:
136,48,76221,2,0,L|232:48,1,80,0|10,0:0|0:0,0:0:0:0:
280,112,76665,6,0,L|368:136,1,80,0|8,0:0|0:0,0:0:0:0:
503,140,77109,2,0,L|432:176,1,80,0|10,0:0|0:0,0:0:0:0:
352,224,77554,1,4,0:0:0:0:
352,224,77665,1,0,0:0:0:0:
352,224,77776,1,8,0:0:0:0:
256,320,77998,1,4,0:0:0:0:
208,200,78221,5,10,0:0:0:0:
136,248,78443,2,0,P|96:248|48:216,1,80,0|8,0:0|0:0,0:0:0:0:
120,160,78887,2,0,P|96:128|48:120,1,80,0|10,0:0|0:0,0:0:0:0:
104,40,79332,1,0,0:0:0:0:
104,40,79443,1,0,0:0:0:0:
104,40,79554,2,8,B|176:72|176:72|256:32,1,160,8|10,0:0|0:0,0:0:0:0:
312,96,80221,6,0,L|376:152,1,80,0|8,0:0|0:0,0:0:0:0:
440,96,80665,1,0,0:0:0:0:
372,148,80887,1,10,0:0:0:0:
288,176,81109,1,0,0:0:0:0:
264,200,81221,1,0,0:0:0:0:
240,224,81332,1,0,0:0:0:0:
296,296,81554,2,0,P|264:320|216:312,1,80,0|2,0:0|0:0,0:0:0:0:
136,296,81998,6,0,P|96:288|56:256,1,80,0|8,0:0|0:0,0:0:0:0:
128,200,82443,2,0,P|95:177|56:169,1,80,0|10,0:0|0:0,0:0:0:0:
80,88,82887,1,0,0:0:0:0:
80,88,82998,1,0,0:0:0:0:
80,88,83109,2,8,P|160:80|216:24,1,160,8|10,0:0|0:0,0:0:0:0:
344,56,83776,5,2,0:0:0:0:
80,88,84221,1,2,0:0:0:0:
248,280,84665,1,2,0:0:0:0:
