osu file format v14

[General]
AudioFilename: Yurino - Be My Game Boy (feat. S3rl) (Cut. Version).mp3
AudioLeadIn: 0
PreviewTime: 55331
Countdown: 1
SampleSet: Soft
StackLeniency: 0.7
Mode: 0
LetterboxInBreaks: 0
EpilepsyWarning: 1
WidescreenStoryboard: 1

[Editor]
Bookmarks: 26887,27332,27776,41554,54221
DistanceSpacing: 1.1
BeatDivisor: 4
GridSize: 8
TimelineZoom: 1

[Metadata]
Title:Be My Game Boy (feat. Yurino)
TitleUnicode:Be My Game Boy (feat. Yurino)
Artist:S3RL
ArtistUnicode:S3RL
Creator:AxelBrown
Version:Advanced
Source:
Tags:UK Hardcore, Hardcore [EDM], Hard Trance, Hardstyle
BeatmapID:853664
BeatmapSetID:386754

[Difficulty]
HPDrainRate:4
CircleSize:4
OverallDifficulty:4
ApproachRate:6.5
SliderMultiplier:1.4
SliderTickRate:2

[Events]
//Background and Video events
0,0,"yurino.jpg",0,0
//Break Periods
//Storyboard Layer 0 (Background)
//Storyboard Layer 1 (Fail)
//Storyboard Layer 2 (Pass)
//Storyboard Layer 3 (Foreground)
//Storyboard Sound Samples

[TimingPoints]
7109,444.444444444444,4,2,0,70,1,0
7110,-100,4,2,0,70,0,0
12664,-100,4,1,0,70,0,0
14221,-100,4,2,0,70,0,0
20443,-100,4,1,0,70,0,0
21554,-100,4,2,0,70,0,0
24665,-100,4,2,0,70,0,0
28665,-100,4,2,0,70,0,0
35108,-100,4,1,0,70,0,0
35775,-100,4,2,0,70,0,0
42665,-100,4,2,0,70,0,0
55997,-66.6666666666667,4,1,0,70,0,0
56442,-100,4,2,0,70,0,0
56886,-100,4,2,0,70,0,1
70221,-66.6666666666667,4,2,0,70,0,1
70443,-100,4,2,0,70,0,1
71108,-66.6666666666667,4,2,0,70,0,0
71332,-100,4,2,0,70,0,0
72665,-100,4,2,0,70,0,0
78443,-100,4,2,0,70,0,0
81554,-100,4,2,0,70,0,0
83776,-66.6666666666667,4,1,0,70,0,0

[Colours]
Combo1 : 252,190,3
Combo2 : 255,128,128
Combo3 : 255,128,64

[HitObjects]
48,128,7109,6,0,P|72:104|120:88,1,70
120,168,7554,1,8,0:0:0:0:
88,240,7776,1,0,0:0:0:0:
128,304,7998,1,0,0:0:0:0:
208,312,8221,1,0,0:0:0:0:
176,240,8443,2,0,P|224:192|296:208,1,140,8|0,0:0|0:0,0:0:0:0:
344,144,9109,5,0,0:0:0:0:
416,184,9332,1,8,0:0:0:0:
408,264,9554,1,0,0:0:0:0:
328,272,9776,1,0,0:0:0:0:
290,203,9998,1,0,0:0:0:0:
344,144,10221,2,0,P|280:120|216:160,1,140,8|0,0:0|0:0,0:0:0:0:
208,232,10887,6,0,P|176:224|152:192,1,70,0|8,0:0|0:0,0:0:0:0:
80,216,11332,1,0,0:0:0:0:
32,160,11554,1,0,0:0:0:0:
72,96,11776,2,0,L|40:40,2,35,0|0|8,0:0|0:0|0:0,0:0:0:0:
144,120,12221,2,0,P|168:96|208:88,1,70
208,168,12665,5,6,0:0:0:0:
352,224,13109,1,6,0:0:0:0:
328,72,13554,1,6,0:0:0:0:
328,72,13776,1,8,0:0:0:0:
448,168,14221,6,0,L|416:240,1,70,10|0,0:0|0:0,0:0:0:0:
352,272,14665,1,8,0:0:0:0:
320,200,14887,2,0,P|288:216|272:248,1,70,0|10,0:0|0:0,0:0:0:0:
232,312,15332,1,0,0:0:0:0:
232,312,15554,1,8,0:0:0:0:
192,248,15776,2,0,P|171:214|144:200,1,70,0|14,0:0|0:0,0:0:0:0:
120,272,16221,5,0,0:0:0:0:
48,248,16443,1,8,0:0:0:0:
40,176,16665,2,0,P|56:144|96:128,1,70,0|10,0:0|0:0,0:0:0:0:
160,128,17109,1,0,0:0:0:0:
224,80,17332,1,8,0:0:0:0:
248,152,17554,2,0,P|280:136|304:104,1,70,0|10,0:0|0:0,0:0:0:0:
304,32,17998,6,0,L|384:32,1,70,0|8,0:0|0:0,0:0:0:0:
384,112,18443,1,0,0:0:0:0:
456,80,18665,1,10,0:0:0:0:
448,160,18887,2,0,P|472:184|480:232,1,70,0|8,0:0|0:0,0:0:0:0:
448,288,19332,1,0,0:0:0:0:
368,288,19553,5,8,0:0:0:0:
352,360,19775,1,0,0:0:0:0:
272,360,19998,1,8,0:0:0:0:
256,288,20221,1,0,0:0:0:0:
192,240,20443,2,0,P|256:208|320:240,2,140,10|10|14,0:0|0:0|0:0,0:0:0:0:
149,304,21554,5,0,0:0:0:0:
73,290,21776,1,8,0:0:0:0:
35,222,21998,2,0,L|94:172,1,70,0|10,0:0|0:0,0:0:0:0:
86,99,22443,1,0,0:0:0:0:
86,99,22665,2,8,P|144:66|212:83,1,140,8|10,0:0|0:0,0:0:0:0:
278,122,23332,6,0,L|360:121,1,70,0|8,0:0|0:0,0:0:0:0:
352,197,23776,2,0,L|282:197,1,70,0|10,0:0|0:0,0:0:0:0:
205,207,24221,1,0,0:0:0:0:
155,148,24443,1,8,0:0:0:0:
78,143,24665,2,0,P|81:178|106:207,1,70,0|10,0:0|0:0,0:0:0:0:
68,273,25109,6,0,P|101:285|138:270,1,70,0|8,0:0|0:0,0:0:0:0:
163,345,25554,1,0,0:0:0:0:
230,307,25776,1,10,0:0:0:0:
298,341,25998,1,0,0:0:0:0:
352,285,26221,2,8,P|419:270|455:202,1,140,8|10,0:0|0:0,0:0:0:0:
377,206,26887,5,4,0:0:0:0:
256,109,27332,1,4,0:0:0:0:
207,255,27776,2,2,L|151:304,2,70,2|10|6,0:0|0:0|0:0,0:0:0:0:
161,192,28443,5,8,0:0:0:0:
90,160,28665,2,0,P|110:132|149:117,1,70,0|8,0:0|0:0,0:0:0:0:
184,53,29109,1,0,0:0:0:0:
222,119,29332,2,0,B|277:137|305:85|380:121,1,140,0|8,0:0|0:0,0:0:0:0:
434,95,29998,2,0,L|471:35,2,70
446,171,30665,1,8,0:0:0:0:
466,245,30887,6,0,L|428:312,1,70
362,341,31332,1,0,0:0:0:0:
296,300,31554,1,8,0:0:0:0:
315,225,31776,1,0,0:0:0:0:
315,225,31998,2,0,P|265:180|191:194,1,140,0|8,0:0|0:0,0:0:0:0:
242,252,32665,5,0,0:0:0:0:
176,288,32887,1,0,0:0:0:0:
104,256,33109,1,0,0:0:0:0:
96,176,33332,1,8,0:0:0:0:
153,125,33554,1,0,0:0:0:0:
96,73,33776,2,0,P|161:47|224:91,1,140,0|8,0:0|0:0,0:0:0:0:
272,133,34443,5,0,0:0:0:0:
326,186,34665,2,0,L|404:186,1,70
395,262,35109,2,0,L|319:262,2,70,8|2|2,0:0|0:0|0:0,0:0:0:0:
463,226,35776,6,0,P|474:262|466:295,2,70,0|8|0,0:0|0:0|0:0,0:0:0:0:
395,262,36443,2,0,P|337:296|268:286,1,140,0|8,0:0|0:0,0:0:0:0:
203,328,37109,1,0,0:0:0:0:
193,251,37332,2,0,B|124:247|124:247|56:288,1,140,0|8,0:0|0:0,0:0:0:0:
33,212,37998,5,0,0:0:0:0:
87,156,38221,1,8,0:0:0:0:
98,79,38443,1,0,0:0:0:0:
174,89,38665,1,8,0:0:0:0:
244,57,38887,1,0,0:0:0:0:
312,92,39109,2,0,P|321:160|361:234,1,140,8|8,0:0|0:0,0:0:0:0:
320,293,39776,5,0,0:0:0:0:
252,329,39998,1,0,0:0:0:0:
177,319,40221,2,0,P|142:326|106:315,2,70,0|8|0,0:0|0:0|0:0,0:0:0:0:
147,247,40887,2,0,B|133:229|89:215|89:215|112:178|103:140,1,140,0|8,0:0|0:0,0:0:0:0:
158,90,41554,6,2,B|231:116|285:59|285:59|300:134|383:145,1,280
382,144,42665,1,8,0:0:0:0:
387,67,42887,6,0,L|468:96,1,70,0|8,0:0|0:0,0:0:0:0:
460,167,43332,1,0,0:0:0:0:
464,243,43554,2,0,P|443:272|411:286,1,70
392,211,43998,1,8,0:0:0:0:
314,210,44221,1,0,0:0:0:0:
270,273,44443,2,0,B|230:266|224:228|224:228|202:198|147:208,1,140,0|8,0:0|0:0,0:0:0:0:
83,213,45109,6,0,P|92:248|118:270,1,70
160,206,45554,1,0,0:0:0:0:
116,142,45776,1,8,0:0:0:0:
80,73,45998,2,0,L|152:54,2,70
116,142,46665,2,0,L|190:122,1,70,8|0,0:0|0:0,0:0:0:0:
247,81,47109,2,0,P|302:49|341:100,1,140,0|8,0:0|0:0,0:0:0:0:
399,151,47776,5,0,0:0:0:0:
327,178,47998,2,2,L|255:179,2,70,10|2|10,0:0|0:0|0:0,0:0:0:0:
383,230,48665,1,2,0:0:0:0:
383,230,48887,1,8,0:0:0:0:
433,288,49109,1,2,0:0:0:0:
433,288,49332,2,2,L|506:287,2,70,10|2|10,0:0|0:0|0:0,0:0:0:0:
279,300,50221,6,0,P|245:296|210:311,1,70,8|0,0:0|0:0,0:0:0:0:
149,264,50665,1,0,0:0:0:0:
184,195,50887,2,0,P|148:186|106:199,1,70,0|8,0:0|0:0,0:0:0:0:
83,123,51332,2,0,L|13:153,2,70
141,73,51998,5,8,0:0:0:0:
203,27,52221,1,0,0:0:0:0:
259,79,52443,1,0,0:0:0:0:
317,29,52665,1,0,0:0:0:0:
370,84,52887,2,0,L|448:82,1,70,8|0,0:0|0:0,0:0:0:0:
448,158,53332,2,2,B|388:182|429:241|429:241|352:223|350:291,1,210
302,344,54221,5,8,0:0:0:0:
225,345,54443,1,8,0:0:0:0:
181,281,54665,1,8,0:0:0:0:
141,215,54887,1,8,0:0:0:0:
64,215,55109,1,12,0:0:0:0:
176,112,55553,5,0,0:0:0:0:
256,112,55775,1,0,0:0:0:0:
224,224,55997,2,0,P|280:288|192:312,1,210.000008010865,8|4,0:0|0:0,0:0:0:0:
423,297,56887,6,0,P|397:319|352:329,1,70,8|0,0:0|0:0,0:0:0:0:
360,251,57332,2,0,P|386:229|423:220,1,70,8|0,0:0|0:0,0:0:0:0:
475,166,57776,1,8,0:0:0:0:
475,166,57998,1,0,0:0:0:0:
398,78,58221,1,8,0:0:0:0:
398,78,58443,1,0,0:0:0:0:
359,144,58665,6,0,P|334:126|321:88,1,70,8|0,0:0|0:0,0:0:0:0:
244,91,59109,2,0,P|232:125|188:150,1,70,8|0,0:0|0:0,0:0:0:0:
169,77,59554,1,8,0:0:0:0:
169,77,59776,1,0,0:0:0:0:
95,165,59998,1,8,0:0:0:0:
95,165,60221,1,0,0:0:0:0:
44,106,60443,6,0,P|17:170|61:233,1,140,8|0,0:0|0:0,0:0:0:0:
84,295,61109,1,0,0:0:0:0:
154,263,61332,1,8,0:0:0:0:
221,226,61554,2,0,L|266:281,2,70,0|8|0,0:0|0:0|0:0,0:0:0:0:
292,197,62221,2,8,B|312:130|312:130|264:53,1,140,8|12,0:0|0:0,0:0:0:0:
274,70,62887,2,2,B|341:98|341:98|413:89,1,140
454,151,63554,5,8,0:0:0:0:
392,192,63776,1,0,0:0:0:0:
408,264,63998,1,8,0:0:0:0:
352,320,64221,1,0,0:0:0:0:
280,344,64443,2,0,P|240:336|216:296,1,70,8|0,0:0|0:0,0:0:0:0:
280,264,64887,5,8,0:0:0:0:
280,264,65109,1,0,0:0:0:0:
216,216,65332,2,0,L|174:148,1,70,8|0,0:0|0:0,0:0:0:0:
248,120,65776,2,0,L|290:190,1,70,8|0,0:0|0:0,0:0:0:0:
344,232,66221,2,0,P|364:202|363:157,1,70,8|0,0:0|0:0,0:0:0:0:
423,119,66665,5,8,0:0:0:0:
423,119,66887,1,0,0:0:0:0:
375,58,67109,2,0,L|299:58,1,70,8|0,0:0|0:0,0:0:0:0:
234,27,67554,2,8,P|234:95|297:132,1,140
273,207,68221,6,0,P|250:234|203:251,1,70
196,175,68665,1,0,0:0:0:0:
120,161,68887,1,8,0:0:0:0:
51,196,69109,1,0,0:0:0:0:
48,272,69332,6,0,L|48:352,1,70,8|0,0:0|0:0,0:0:0:0:
128,344,69776,2,0,L|128:272,1,70,8|0,0:0|0:0,0:0:0:0:
208,192,70221,1,8,0:0:0:0:
432,128,71109,5,14,0:0:0:0:
480,190,71332,2,0,L|416:216,1,70,0|8,0:0|0:0,0:0:0:0:
448,288,71776,2,0,L|512:262,2,70,0|10|0,0:0|0:0|0:0,0:0:0:0:
384,336,72443,1,10,0:0:0:0:
336,272,72665,2,0,P|304:264|248:288,1,70,0|10,0:0|0:0,0:0:0:0:
200,240,73109,6,0,P|176:264|136:272,1,70,0|8,0:0|0:0,0:0:0:0:
136,192,73554,1,0,0:0:0:0:
56,192,73776,1,10,0:0:0:0:
32,120,73998,1,0,0:0:0:0:
32,120,74108,1,0,0:0:0:0:
32,120,74221,2,8,B|64:72|128:112|160:56,1,140,8|10,0:0|0:0,0:0:0:0:
224,104,74887,6,0,P|248:80|304:80,1,70,0|8,0:0|0:0,0:0:0:0:
288,152,75332,1,0,0:0:0:0:
352,112,75554,1,10,0:0:0:0:
424,128,75776,1,0,0:0:0:0:
448,160,75886,1,0,0:0:0:0:
464,192,75998,1,10,0:0:0:0:
416,248,76221,2,0,L|344:248,1,70,0|10,0:0|0:0,0:0:0:0:
272,232,76665,6,0,L|208:184,1,70,0|8,0:0|0:0,0:0:0:0:
168,248,77109,2,0,L|232:296,1,70,0|10,0:0|0:0,0:0:0:0:
296,312,77554,2,2,P|328:312|368:328,2,70,2|10|2,0:0|0:0|0:0,0:0:0:0:
224,290,78221,5,10,0:0:0:0:
168,344,78443,2,0,P|136:344|96:328,1,70,0|8,0:0|0:0,0:0:0:0:
72,256,78887,2,0,P|112:256|144:272,1,70,0|10,0:0|0:0,0:0:0:0:
192,216,79332,1,0,0:0:0:0:
192,216,79442,1,0,0:0:0:0:
192,216,79554,2,8,B|256:192|256:192|288:128,1,140,8|10,0:0|0:0,0:0:0:0:
328,56,80221,6,0,L|392:88,1,70,0|8,0:0|0:0,0:0:0:0:
464,96,80665,1,0,0:0:0:0:
488,168,80887,1,10,0:0:0:0:
424,208,81109,1,0,0:0:0:0:
392,184,81220,1,0,0:0:0:0:
360,160,81332,1,0,0:0:0:0:
320,224,81554,2,0,P|296:248|256:256,1,70,0|2,0:0|0:0,0:0:0:0:
184,256,81998,6,0,P|152:248|120:216,1,70,0|8,0:0|0:0,0:0:0:0:
184,176,82443,2,0,P|152:152|120:144,1,70,0|10,0:0|0:0,0:0:0:0:
56,184,82887,1,0,0:0:0:0:
56,184,82997,1,0,0:0:0:0:
56,184,83109,2,8,P|40:248|96:304,1,140,8|10,0:0|0:0,0:0:0:0:
84,300,83776,5,2,0:0:0:0:
312,296,84221,1,2,0:0:0:0:
184,120,84665,1,2,0:0:0:0:
