osu file format v14

[General]
AudioFilename: song.mp3
AudioLeadIn: 0
PreviewTime: 146597
Countdown: 0
SampleSet: Normal
StackLeniency: 0.7
Mode: 1
LetterboxInBreaks: 0
WidescreenStoryboard: 1

[Editor]
Bookmarks: 32940,43911,54882,62768,71340,82311,93282,104254,115225,126197,137168,148140,159111,170082,181054,192025,202997
DistanceSpacing: 0.8
BeatDivisor: 4
GridSize: 32
TimelineZoom: 2.3

[Metadata]
Title:Bass Slut (feat. Tamika)
TitleUnicode:Bass Slut (feat. Tamika)
Artist:S3RL
ArtistUnicode:S3RL
Creator:gaston_2199
Version:Muzukashii
Source:
Tags:
BeatmapID:1777685
BeatmapSetID:850245

[Difficulty]
HPDrainRate:5
CircleSize:2
OverallDifficulty:5
ApproachRate:10
SliderMultiplier:1.40000000596046
SliderTickRate:1

[Events]
//Background and Video events
0,0,"BG.jpg",0,80
//Break Periods
2,93482,98318
2,98968,103804
//Storyboard Layer 0 (Background)
//Storyboard Layer 1 (Fail)
//Storyboard Layer 2 (Pass)
//Storyboard Layer 3 (Foreground)
//Storyboard Sound Samples

[TimingPoints]
32940,342.857142857143,4,1,0,80,1,0
71340,-100,4,1,0,80,0,1
80940,-100,4,1,0,80,0,0
82311,-100,4,1,0,80,0,1
91911,-100,4,1,0,80,0,0
148140,-100,4,1,0,80,0,1
157740,-100,4,1,0,80,0,0
159111,-100,4,1,0,80,0,1
170082,-100,4,1,0,80,0,0
192025,-100,4,1,0,80,0,1
201625,-100,4,1,0,80,0,0
202997,-100,4,1,0,80,0,1
209854,-100,4,1,0,80,0,0

[HitObjects]
256,192,32940,5,12,0:0:0:0:
256,192,33282,1,0,0:0:0:0:
256,192,33625,1,8,0:0:0:0:
256,192,33968,1,0,0:0:0:0:
256,192,34140,1,8,0:0:0:0:
256,192,34311,1,8,0:0:0:0:
256,192,34482,1,0,0:0:0:0:
256,192,34654,1,8,0:0:0:0:
256,192,34997,1,0,0:0:0:0:
256,192,35168,1,8,0:0:0:0:
256,192,35340,1,0,0:0:0:0:
256,192,35682,1,8,0:0:0:0:
256,192,36025,1,0,0:0:0:0:
256,192,36368,1,8,0:0:0:0:
256,192,36540,1,0,0:0:0:0:
256,192,36711,1,8,0:0:0:0:
256,192,37054,1,0,0:0:0:0:
256,192,37225,1,0,0:0:0:0:
256,192,37397,1,8,0:0:0:0:
256,192,37740,1,0,0:0:0:0:
256,192,38082,1,8,0:0:0:0:
256,192,38425,1,8,0:0:0:0:
256,192,38597,1,0,0:0:0:0:
256,192,38768,1,8,0:0:0:0:
256,192,39111,1,0,0:0:0:0:
256,192,39454,1,8,0:0:0:0:
256,192,39797,1,8,0:0:0:0:
256,192,39968,1,0,0:0:0:0:
256,192,40140,1,8,0:0:0:0:
256,192,40311,1,0,0:0:0:0:
256,192,40482,1,8,0:0:0:0:
256,192,40825,1,0,0:0:0:0:
256,192,41168,1,8,0:0:0:0:
256,192,41511,1,8,0:0:0:0:
256,192,41854,1,0,0:0:0:0:
256,192,42197,5,8,0:0:0:0:
256,192,42540,5,0,0:0:0:0:
256,192,43225,1,8,0:0:0:0:
256,192,43911,5,12,0:0:0:0:
256,192,44254,1,0,0:0:0:0:
256,192,44597,1,8,0:0:0:0:
256,192,44940,1,0,0:0:0:0:
256,192,45111,1,8,0:0:0:0:
256,192,45282,1,8,0:0:0:0:
256,192,45454,1,0,0:0:0:0:
256,192,45625,1,8,0:0:0:0:
256,192,45968,1,0,0:0:0:0:
256,192,46140,1,8,0:0:0:0:
256,192,46311,1,0,0:0:0:0:
256,192,46654,1,8,0:0:0:0:
256,192,46997,1,0,0:0:0:0:
256,192,47340,1,8,0:0:0:0:
256,192,47511,1,0,0:0:0:0:
256,192,47682,1,8,0:0:0:0:
256,192,47854,1,8,0:0:0:0:
256,192,48025,1,0,0:0:0:0:
256,192,48197,1,0,0:0:0:0:
256,192,48368,1,8,0:0:0:0:
256,192,48711,1,0,0:0:0:0:
256,192,49054,1,8,0:0:0:0:
256,192,49397,1,8,0:0:0:0:
256,192,49568,1,0,0:0:0:0:
256,192,49740,1,8,0:0:0:0:
256,192,50082,1,0,0:0:0:0:
256,192,50254,1,8,0:0:0:0:
256,192,50425,1,0,0:0:0:0:
256,192,50768,1,8,0:0:0:0:
256,192,50940,1,0,0:0:0:0:
256,192,51111,1,8,0:0:0:0:
256,192,51282,1,0,0:0:0:0:
256,192,51454,1,8,0:0:0:0:
256,192,51797,1,0,0:0:0:0:
256,192,52140,1,8,0:0:0:0:
256,192,52482,1,8,0:0:0:0:
256,192,52825,1,0,0:0:0:0:
256,192,53168,5,8,0:0:0:0:
256,192,53511,5,0,0:0:0:0:
256,192,54197,1,8,0:0:0:0:
256,192,54368,1,0,0:0:0:0:
256,192,54540,1,8,0:0:0:0:
256,192,54882,5,12,0:0:0:0:
256,192,55054,1,8,0:0:0:0:
256,192,55225,1,0,0:0:0:0:
256,192,55568,1,8,0:0:0:0:
256,192,55911,1,0,0:0:0:0:
256,192,56082,1,8,0:0:0:0:
256,192,56254,1,8,0:0:0:0:
256,192,56425,1,0,0:0:0:0:
256,192,56597,1,8,0:0:0:0:
256,192,56940,1,0,0:0:0:0:
256,192,57111,1,8,0:0:0:0:
256,192,57282,1,0,0:0:0:0:
256,192,57454,1,0,0:0:0:0:
256,192,57625,1,8,0:0:0:0:
256,192,57968,1,0,0:0:0:0:
256,192,58311,1,8,0:0:0:0:
256,192,58482,1,0,0:0:0:0:
256,192,58654,1,8,0:0:0:0:
256,192,58825,1,8,0:0:0:0:
256,192,58997,1,0,0:0:0:0:
256,192,59168,1,0,0:0:0:0:
256,192,59340,1,8,0:0:0:0:
256,192,59682,1,0,0:0:0:0:
256,192,59854,1,0,0:0:0:0:
256,192,60025,1,8,0:0:0:0:
256,192,60368,1,8,0:0:0:0:
256,192,60540,1,0,0:0:0:0:
256,192,60711,1,8,0:0:0:0:
256,192,61054,1,0,0:0:0:0:
256,192,61225,1,8,0:0:0:0:
256,192,61397,1,0,0:0:0:0:
256,192,61568,1,0,0:0:0:0:
256,192,61740,1,8,0:0:0:0:
256,192,61911,1,0,0:0:0:0:
256,192,62082,1,8,0:0:0:0:
256,192,62254,1,0,0:0:0:0:
256,192,62425,1,8,0:0:0:0:
256,192,62768,5,0,0:0:0:0:
256,192,63111,1,8,0:0:0:0:
256,192,63454,1,8,0:0:0:0:
256,192,63797,1,0,0:0:0:0:
256,192,64140,5,8,0:0:0:0:
256,192,64482,1,8,0:0:0:0:
256,192,64825,1,8,0:0:0:0:
256,192,65168,1,0,0:0:0:0:
256,192,65511,1,8,0:0:0:0:
256,192,65854,1,8,0:0:0:0:
256,192,66197,1,8,0:0:0:0:
256,192,66540,1,0,0:0:0:0:
256,192,66882,1,8,0:0:0:0:
256,192,67225,1,8,0:0:0:0:
256,192,67568,1,8,0:0:0:0:
256,192,67911,1,0,0:0:0:0:
256,192,68254,1,8,0:0:0:0:
256,192,68597,1,8,0:0:0:0:
256,192,68940,1,8,0:0:0:0:
256,192,69282,1,0,0:0:0:0:
256,192,69454,1,0,0:0:0:0:
256,192,69625,1,8,0:0:0:0:
256,192,69968,12,0,71168,0:0:0:0:
256,160,71340,5,0,0:0:0:0:
256,160,71682,1,8,0:0:0:0:
256,160,71854,1,0,0:0:0:0:
256,160,72197,1,0,0:0:0:0:
256,160,72368,5,8,0:0:0:0:
256,160,72540,1,0,0:0:0:0:
256,160,72882,1,8,0:0:0:0:
256,160,73054,1,0,0:0:0:0:
256,160,73225,1,8,0:0:0:0:
256,160,73311,1,8,0:0:0:0:
256,160,73397,1,8,0:0:0:0:
256,160,73568,1,0,0:0:0:0:
256,160,73740,1,8,0:0:0:0:
256,160,73911,1,0,0:0:0:0:
256,160,74254,1,0,0:0:0:0:
256,160,74425,1,8,0:0:0:0:
256,160,74597,1,0,0:0:0:0:
256,160,74940,1,0,0:0:0:0:
256,160,75111,1,8,0:0:0:0:
256,160,75282,1,0,0:0:0:0:
256,160,75625,1,0,0:0:0:0:
256,160,75797,1,8,0:0:0:0:
256,160,75968,1,0,0:0:0:0:
256,160,76054,1,0,0:0:0:0:
256,160,76140,1,0,0:0:0:0:
256,160,76311,1,0,0:0:0:0:
256,160,76482,1,8,0:0:0:0:
256,160,76825,1,0,0:0:0:0:
256,160,77168,1,8,0:0:0:0:
256,160,77340,1,0,0:0:0:0:
256,160,77682,1,0,0:0:0:0:
256,160,77854,1,8,0:0:0:0:
256,160,78025,1,0,0:0:0:0:
256,160,78368,1,8,0:0:0:0:
256,160,78540,1,0,0:0:0:0:
256,160,78711,1,8,0:0:0:0:
256,160,78797,1,8,0:0:0:0:
256,160,78882,1,8,0:0:0:0:
256,160,79054,1,0,0:0:0:0:
256,160,79225,1,8,0:0:0:0:
256,160,79397,1,0,0:0:0:0:
256,160,79568,1,0,0:0:0:0:
256,160,79740,1,0,0:0:0:0:
256,160,79911,1,8,0:0:0:0:
256,160,80254,1,0,0:0:0:0:
256,160,80425,1,0,0:0:0:0:
256,160,80597,1,8,0:0:0:0:
256,160,80940,1,8,0:0:0:0:
256,160,81282,5,8,0:0:0:0:
256,160,81625,1,0,0:0:0:0:
256,160,81968,1,8,0:0:0:0:
256,160,82140,1,8,0:0:0:0:
256,160,82311,5,0,0:0:0:0:
256,160,82654,1,8,0:0:0:0:
256,160,82825,1,0,0:0:0:0:
256,160,83168,1,0,0:0:0:0:
256,160,83340,5,8,0:0:0:0:
256,160,83511,1,0,0:0:0:0:
256,160,83854,1,8,0:0:0:0:
256,160,84025,1,0,0:0:0:0:
256,160,84197,1,8,0:0:0:0:
256,160,84282,1,8,0:0:0:0:
256,160,84368,1,8,0:0:0:0:
256,160,84540,1,0,0:0:0:0:
256,160,84711,1,8,0:0:0:0:
256,160,84882,1,0,0:0:0:0:
256,160,85225,1,0,0:0:0:0:
256,160,85397,1,8,0:0:0:0:
256,160,85568,1,0,0:0:0:0:
256,160,85911,1,0,0:0:0:0:
256,160,86082,1,8,0:0:0:0:
256,160,86254,1,0,0:0:0:0:
256,160,86597,1,0,0:0:0:0:
256,160,86768,1,8,0:0:0:0:
256,160,86940,1,0,0:0:0:0:
256,160,87025,1,0,0:0:0:0:
256,160,87111,1,0,0:0:0:0:
256,160,87282,1,0,0:0:0:0:
256,160,87454,1,8,0:0:0:0:
256,160,87625,1,8,0:0:0:0:
256,160,87797,1,0,0:0:0:0:
256,160,88140,1,8,0:0:0:0:
256,160,88311,1,0,0:0:0:0:
256,160,88654,1,0,0:0:0:0:
256,160,88825,1,8,0:0:0:0:
256,160,88997,1,0,0:0:0:0:
256,160,89340,1,8,0:0:0:0:
256,160,89511,1,0,0:0:0:0:
256,160,89682,1,8,0:0:0:0:
256,160,89768,1,8,0:0:0:0:
256,160,89854,1,8,0:0:0:0:
256,160,90025,1,0,0:0:0:0:
256,160,90197,1,8,0:0:0:0:
256,160,90368,1,0,0:0:0:0:
256,160,90540,1,0,0:0:0:0:
256,160,90711,1,0,0:0:0:0:
256,160,90882,1,8,0:0:0:0:
256,160,91225,1,0,0:0:0:0:
256,160,91397,1,0,0:0:0:0:
256,160,91568,1,8,0:0:0:0:
256,160,91911,1,8,0:0:0:0:
256,160,92254,5,8,0:0:0:0:
256,160,92597,5,0,0:0:0:0:
256,160,92940,1,0,0:0:0:0:
256,160,93111,1,8,0:0:0:0:
256,160,93282,1,4,0:0:0:0:
256,192,98768,5,12,0:0:0:0:
224,192,104254,5,0,0:0:0:0:
224,192,105282,1,8,0:0:0:0:
224,192,105625,1,0,0:0:0:0:
224,192,106997,1,8,0:0:0:0:
224,192,108025,1,0,0:0:0:0:
224,192,108368,1,0,0:0:0:0:
224,192,109740,1,8,0:0:0:0:
224,192,110768,1,8,0:0:0:0:
224,192,111111,1,0,0:0:0:0:
224,192,112482,1,0,0:0:0:0:
224,192,113511,1,0,0:0:0:0:
224,192,113854,1,0,0:0:0:0:
224,192,115225,1,12,0:0:0:0:
224,192,115568,1,8,0:0:0:0:
224,192,115740,1,0,0:0:0:0:
224,192,116082,1,0,0:0:0:0:
224,192,116254,1,8,0:0:0:0:
224,192,116597,1,8,0:0:0:0:
224,192,117625,1,8,0:0:0:0:
224,192,117797,1,8,0:0:0:0:
224,192,117968,1,0,0:0:0:0:
224,192,118311,1,8,0:0:0:0:
224,192,118482,1,0,0:0:0:0:
224,192,118825,1,0,0:0:0:0:
224,192,118997,1,8,0:0:0:0:
224,192,119340,1,8,0:0:0:0:
224,192,120025,1,8,0:0:0:0:
224,192,120368,1,8,0:0:0:0:
224,192,120711,1,0,0:0:0:0:
224,192,121054,1,8,0:0:0:0:
224,192,121225,1,0,0:0:0:0:
224,192,121568,1,0,0:0:0:0:
224,192,121740,1,8,0:0:0:0:
224,192,122082,1,8,0:0:0:0:
224,192,123111,1,0,0:0:0:0:
224,192,123282,1,0,0:0:0:0:
224,192,123454,1,8,0:0:0:0:
224,192,123797,1,8,0:0:0:0:
224,192,123968,1,0,0:0:0:0:
224,192,124311,1,0,0:0:0:0:
224,192,124482,1,8,0:0:0:0:
224,192,124825,1,8,0:0:0:0:
224,192,125168,1,0,0:0:0:0:
224,192,125511,1,0,0:0:0:0:
224,192,126197,1,0,0:0:0:0:
224,192,126540,1,8,0:0:0:0:
224,192,126882,1,0,0:0:0:0:
224,192,127397,1,0,0:0:0:0:
224,192,127568,1,8,0:0:0:0:
224,192,127911,1,8,0:0:0:0:
224,192,128254,1,0,0:0:0:0:
224,192,128597,1,8,0:0:0:0:
224,192,128768,1,8,0:0:0:0:
224,192,128940,1,0,0:0:0:0:
224,192,129282,1,8,0:0:0:0:
224,192,129625,1,0,0:0:0:0:
224,192,130140,1,8,0:0:0:0:
224,192,130311,1,0,0:0:0:0:
224,192,130654,1,8,0:0:0:0:
224,192,130997,1,8,0:0:0:0:
224,192,131340,1,8,0:0:0:0:
224,192,131511,1,8,0:0:0:0:
224,192,131682,1,0,0:0:0:0:
224,192,132025,1,8,0:0:0:0:
224,192,132368,1,0,0:0:0:0:
224,192,132882,1,0,0:0:0:0:
224,192,133054,1,8,0:0:0:0:
224,192,133397,1,8,0:0:0:0:
224,192,133740,1,0,0:0:0:0:
224,192,134082,1,8,0:0:0:0:
224,192,134254,1,8,0:0:0:0:
224,192,134425,1,0,0:0:0:0:
224,192,134768,1,8,0:0:0:0:
224,192,135111,1,0,0:0:0:0:
224,192,135625,1,8,0:0:0:0:
224,192,135797,1,0,0:0:0:0:
224,192,136140,1,8,0:0:0:0:
224,192,136482,1,8,0:0:0:0:
224,192,136825,1,8,0:0:0:0:
224,192,136997,1,0,0:0:0:0:
224,192,137168,1,8,0:0:0:0:
224,192,137511,1,8,0:0:0:0:
224,192,137854,1,8,0:0:0:0:
224,192,138197,1,8,0:0:0:0:
224,192,138540,1,8,0:0:0:0:
224,192,138882,1,8,0:0:0:0:
224,192,139225,1,8,0:0:0:0:
224,192,139568,1,8,0:0:0:0:
224,192,139740,1,0,0:0:0:0:
224,192,139911,1,8,0:0:0:0:
224,192,140254,1,8,0:0:0:0:
224,192,140597,1,8,0:0:0:0:
224,192,140940,1,8,0:0:0:0:
224,192,141282,1,8,0:0:0:0:
224,192,141625,1,8,0:0:0:0:
224,192,141968,1,8,0:0:0:0:
224,192,142311,1,8,0:0:0:0:
224,192,142482,1,0,0:0:0:0:
224,192,142654,1,8,0:0:0:0:
224,192,142997,1,8,0:0:0:0:
224,192,143340,1,8,0:0:0:0:
224,192,143682,1,8,0:0:0:0:
224,192,144025,1,8,0:0:0:0:
224,192,144368,1,8,0:0:0:0:
224,192,144711,1,8,0:0:0:0:
224,192,145054,1,8,0:0:0:0:
224,192,145225,1,0,0:0:0:0:
224,192,145397,1,8,0:0:0:0:
224,192,145740,1,8,0:0:0:0:
224,192,146082,1,8,0:0:0:0:
256,192,146768,12,0,147968,0:0:0:0:
224,192,148140,5,4,0:0:0:0:
224,192,148482,1,8,0:0:0:0:
224,192,148825,1,8,0:0:0:0:
224,192,148997,1,0,0:0:0:0:
224,192,149340,1,0,0:0:0:0:
224,192,149511,1,8,0:0:0:0:
224,192,149682,1,0,0:0:0:0:
224,192,149854,1,8,0:0:0:0:
224,192,150197,1,8,0:0:0:0:
224,192,150540,1,8,0:0:0:0:
224,192,150711,1,8,0:0:0:0:
224,192,150882,1,0,0:0:0:0:
224,192,151225,1,8,0:0:0:0:
224,192,151568,1,8,0:0:0:0:
224,192,151740,1,0,0:0:0:0:
224,192,152082,1,0,0:0:0:0:
224,160,152254,1,8,0:0:0:0:
224,192,152597,1,8,0:0:0:0:
224,192,152768,1,0,0:0:0:0:
224,192,152940,1,0,0:0:0:0:
224,192,153282,1,8,0:0:0:0:
224,192,153454,1,8,0:0:0:0:
224,192,153625,5,0,0:0:0:0:
224,192,153968,1,8,0:0:0:0:
224,192,154311,1,8,0:0:0:0:
224,192,154482,1,0,0:0:0:0:
224,192,154825,1,0,0:0:0:0:
224,192,154997,1,8,0:0:0:0:
224,192,155168,1,0,0:0:0:0:
224,192,155340,1,8,0:0:0:0:
224,192,155682,1,8,0:0:0:0:
224,192,156025,1,8,0:0:0:0:
224,192,156197,1,8,0:0:0:0:
224,192,156368,1,0,0:0:0:0:
224,192,156711,1,8,0:0:0:0:
224,192,157054,1,8,0:0:0:0:
224,192,157225,1,0,0:0:0:0:
224,192,157568,1,0,0:0:0:0:
224,160,157740,1,8,0:0:0:0:
224,192,158082,1,8,0:0:0:0:
224,192,158254,1,8,0:0:0:0:
224,192,158425,1,0,0:0:0:0:
224,192,158597,1,0,0:0:0:0:
224,192,158768,1,8,0:0:0:0:
224,192,158940,1,8,0:0:0:0:
224,192,159111,5,4,0:0:0:0:
224,192,159454,1,8,0:0:0:0:
224,192,159625,1,0,0:0:0:0:
224,192,159797,1,8,0:0:0:0:
224,192,159968,1,0,0:0:0:0:
224,192,160311,1,0,0:0:0:0:
224,192,160482,1,8,0:0:0:0:
224,192,160654,1,0,0:0:0:0:
224,192,160825,1,8,0:0:0:0:
224,192,161168,1,8,0:0:0:0:
224,192,161511,1,8,0:0:0:0:
224,192,161682,1,8,0:0:0:0:
224,192,161854,1,0,0:0:0:0:
224,192,162197,1,8,0:0:0:0:
224,192,162368,1,0,0:0:0:0:
224,192,162540,1,8,0:0:0:0:
224,192,162711,1,0,0:0:0:0:
224,192,163054,1,0,0:0:0:0:
224,160,163225,1,8,0:0:0:0:
224,192,163568,1,8,0:0:0:0:
224,192,163740,1,0,0:0:0:0:
224,192,163911,1,0,0:0:0:0:
224,192,164254,1,8,0:0:0:0:
224,192,164425,1,8,0:0:0:0:
224,192,164597,5,0,0:0:0:0:
224,192,164940,1,8,0:0:0:0:
224,192,165111,1,0,0:0:0:0:
224,192,165282,1,8,0:0:0:0:
224,192,165454,1,0,0:0:0:0:
224,192,165797,1,0,0:0:0:0:
224,192,165968,1,8,0:0:0:0:
224,192,166140,1,0,0:0:0:0:
224,192,166311,1,8,0:0:0:0:
224,192,166654,1,8,0:0:0:0:
224,192,166997,1,8,0:0:0:0:
224,192,167168,1,8,0:0:0:0:
224,192,167340,1,0,0:0:0:0:
224,192,167682,1,8,0:0:0:0:
224,192,167854,1,0,0:0:0:0:
224,192,168025,1,8,0:0:0:0:
224,192,168197,1,0,0:0:0:0:
224,192,168540,1,0,0:0:0:0:
224,160,168711,1,8,0:0:0:0:
224,192,169054,1,8,0:0:0:0:
224,192,169140,1,8,0:0:0:0:
224,192,169225,1,8,0:0:0:0:
224,192,169397,1,0,0:0:0:0:
224,192,169568,1,0,0:0:0:0:
224,192,169740,1,8,0:0:0:0:
224,192,169911,1,8,0:0:0:0:
224,192,170082,1,0,0:0:0:0:
224,192,170425,1,8,0:0:0:0:
224,192,170597,1,8,0:0:0:0:
224,192,170768,1,0,0:0:0:0:
224,192,171111,1,8,0:0:0:0:
224,192,171454,1,0,0:0:0:0:
224,192,171625,1,0,0:0:0:0:
224,192,171797,1,8,0:0:0:0:
224,192,171968,1,8,0:0:0:0:
224,192,172140,1,0,0:0:0:0:
224,192,172311,1,0,0:0:0:0:
224,192,172482,1,8,0:0:0:0:
256,192,172825,1,8,0:0:0:0:
256,192,172997,1,0,0:0:0:0:
256,192,173168,1,8,0:0:0:0:
256,192,173511,1,0,0:0:0:0:
256,192,173854,1,8,0:0:0:0:
256,192,174025,1,0,0:0:0:0:
256,192,174197,1,8,0:0:0:0:
256,192,174540,1,0,0:0:0:0:
256,192,174882,1,8,0:0:0:0:
256,192,175054,1,8,0:0:0:0:
256,192,175225,1,0,0:0:0:0:
256,192,175568,1,8,0:0:0:0:
256,192,175740,1,0,0:0:0:0:
256,192,175911,1,8,0:0:0:0:
256,192,176254,1,0,0:0:0:0:
256,192,176425,1,8,0:0:0:0:
256,192,176597,1,0,0:0:0:0:
256,192,176768,1,8,0:0:0:0:
224,192,176854,1,8,0:0:0:0:
256,192,176940,1,8,0:0:0:0:
256,192,177111,1,0,0:0:0:0:
256,192,177282,1,8,0:0:0:0:
256,192,177625,1,8,0:0:0:0:
256,192,177797,1,8,0:0:0:0:
256,192,177968,1,0,0:0:0:0:
256,192,178311,1,8,0:0:0:0:
256,192,178482,1,0,0:0:0:0:
256,192,178654,1,8,0:0:0:0:
256,192,178825,1,8,0:0:0:0:
256,192,178997,1,0,0:0:0:0:
256,192,179340,1,8,0:0:0:0:
256,192,179682,1,8,0:0:0:0:
256,192,179854,1,0,0:0:0:0:
256,192,180025,1,8,0:0:0:0:
256,192,180368,1,8,0:0:0:0:
256,192,180540,1,8,0:0:0:0:
256,192,180711,1,0,0:0:0:0:
256,192,181054,5,8,0:0:0:0:
256,192,181397,1,0,0:0:0:0:
256,192,181740,1,8,0:0:0:0:
256,192,182082,1,0,0:0:0:0:
256,192,182254,1,8,0:0:0:0:
256,192,182425,1,8,0:0:0:0:
256,192,182597,1,0,0:0:0:0:
256,192,182768,1,8,0:0:0:0:
256,192,183111,1,0,0:0:0:0:
256,192,183282,1,8,0:0:0:0:
256,192,183454,1,0,0:0:0:0:
256,192,183797,1,8,0:0:0:0:
256,192,184140,1,0,0:0:0:0:
256,192,184482,1,8,0:0:0:0:
256,192,184654,1,0,0:0:0:0:
256,192,184825,1,8,0:0:0:0:
256,192,185168,1,0,0:0:0:0:
256,192,185340,1,0,0:0:0:0:
256,192,185511,1,8,0:0:0:0:
256,192,185854,1,0,0:0:0:0:
256,192,186197,1,8,0:0:0:0:
256,192,186540,1,8,0:0:0:0:
256,192,186711,1,0,0:0:0:0:
256,192,186882,1,8,0:0:0:0:
256,192,187225,1,0,0:0:0:0:
256,192,187568,1,8,0:0:0:0:
256,192,187911,1,8,0:0:0:0:
256,192,188082,1,0,0:0:0:0:
256,192,188254,1,8,0:0:0:0:
256,192,188425,1,0,0:0:0:0:
256,192,188597,1,8,0:0:0:0:
256,192,188940,1,0,0:0:0:0:
256,192,189282,1,8,0:0:0:0:
256,192,189625,1,8,0:0:0:0:
256,192,189968,1,0,0:0:0:0:
256,192,190311,5,8,0:0:0:0:
256,192,190654,5,0,0:0:0:0:
256,192,191511,1,0,0:0:0:0:
256,192,191682,1,8,0:0:0:0:
256,192,191854,1,8,0:0:0:0:
224,192,192025,5,4,0:0:0:0:
224,192,192368,1,8,0:0:0:0:
224,192,192540,1,0,0:0:0:0:
224,192,192711,1,8,0:0:0:0:
224,192,192882,1,0,0:0:0:0:
224,192,193225,1,0,0:0:0:0:
224,192,193397,1,8,0:0:0:0:
224,192,193568,1,0,0:0:0:0:
224,192,193740,1,8,0:0:0:0:
224,192,194082,1,8,0:0:0:0:
224,192,194425,1,8,0:0:0:0:
224,192,194597,1,8,0:0:0:0:
224,192,194768,1,0,0:0:0:0:
224,192,195111,1,8,0:0:0:0:
224,192,195282,1,0,0:0:0:0:
224,192,195454,1,8,0:0:0:0:
224,192,195625,1,0,0:0:0:0:
224,192,195968,1,0,0:0:0:0:
224,160,196140,1,8,0:0:0:0:
224,192,196482,1,8,0:0:0:0:
224,192,196654,1,0,0:0:0:0:
224,192,196825,1,0,0:0:0:0:
224,192,197168,1,8,0:0:0:0:
224,192,197340,1,8,0:0:0:0:
224,192,197511,5,0,0:0:0:0:
224,192,197854,1,8,0:0:0:0:
224,192,198025,1,0,0:0:0:0:
224,192,198197,1,8,0:0:0:0:
224,192,198368,1,0,0:0:0:0:
224,192,198711,1,0,0:0:0:0:
224,192,198882,1,8,0:0:0:0:
224,192,199054,1,0,0:0:0:0:
224,192,199225,1,8,0:0:0:0:
224,192,199568,1,8,0:0:0:0:
224,192,199911,1,8,0:0:0:0:
224,192,200082,1,8,0:0:0:0:
224,192,200254,1,0,0:0:0:0:
224,192,200597,1,8,0:0:0:0:
224,192,200768,1,0,0:0:0:0:
224,192,200940,1,8,0:0:0:0:
224,192,201111,1,0,0:0:0:0:
224,192,201454,1,0,0:0:0:0:
224,160,201625,1,8,0:0:0:0:
224,192,201968,1,8,0:0:0:0:
224,192,202054,1,8,0:0:0:0:
224,192,202140,1,8,0:0:0:0:
224,192,202311,1,0,0:0:0:0:
224,192,202482,1,0,0:0:0:0:
224,192,202654,1,8,0:0:0:0:
224,192,202825,5,8,0:0:0:0:
224,192,202997,5,4,0:0:0:0:
224,192,203340,1,8,0:0:0:0:
224,192,203511,1,0,0:0:0:0:
224,192,203682,1,8,0:0:0:0:
224,192,203854,1,0,0:0:0:0:
224,192,204197,1,0,0:0:0:0:
224,192,204368,1,8,0:0:0:0:
224,192,204540,1,0,0:0:0:0:
224,192,204711,1,8,0:0:0:0:
224,192,205054,1,8,0:0:0:0:
224,192,205225,1,0,0:0:0:0:
224,192,205397,1,8,0:0:0:0:
224,192,205568,1,8,0:0:0:0:
224,192,205740,1,0,0:0:0:0:
224,192,206082,1,8,0:0:0:0:
224,192,206254,1,0,0:0:0:0:
224,192,206425,1,8,0:0:0:0:
224,192,206597,1,0,0:0:0:0:
224,192,206940,1,0,0:0:0:0:
224,160,207111,1,8,0:0:0:0:
224,192,207454,1,8,0:0:0:0:
224,192,207625,1,0,0:0:0:0:
224,192,207797,1,0,0:0:0:0:
224,192,207882,1,0,0:0:0:0:
224,192,207968,1,0,0:0:0:0:
224,192,208140,1,8,0:0:0:0:
224,192,208311,1,8,0:0:0:0:
224,192,208482,5,0,0:0:0:0:
224,192,208825,1,8,0:0:0:0:
224,192,208997,1,0,0:0:0:0:
224,192,209168,1,8,0:0:0:0:
224,192,209340,1,0,0:0:0:0:
224,192,209682,1,0,0:0:0:0:
224,192,209854,1,8,0:0:0:0:
224,192,210025,1,0,0:0:0:0:
224,192,210197,1,8,0:0:0:0:
224,192,210540,1,8,0:0:0:0:
224,192,210882,1,8,0:0:0:0:
224,192,211054,1,8,0:0:0:0:
224,192,211225,1,0,0:0:0:0:
224,192,211568,1,8,0:0:0:0:
224,192,211911,1,8,0:0:0:0:
224,192,212082,1,0,0:0:0:0:
224,192,212425,1,0,0:0:0:0:
224,160,212597,1,8,0:0:0:0:
224,192,212940,1,8,0:0:0:0:
224,192,213282,1,8,0:0:0:0:
224,192,213625,1,8,0:0:0:0:
224,192,213797,5,8,0:0:0:0:
224,192,213968,1,0,0:0:0:0:
