osu file format v14

[General]
AudioFilename: song.mp3
AudioLeadIn: 0
PreviewTime: 146597
Countdown: 0
SampleSet: Normal
StackLeniency: 0.7
Mode: 1
LetterboxInBreaks: 0
WidescreenStoryboard: 1

[Editor]
Bookmarks: 32940,43911,54882,62768,71340,82311,93282,104254,115225,126197,137168,148140,159111,170082,181054,192025,202997
DistanceSpacing: 0.8
BeatDivisor: 4
GridSize: 32
TimelineZoom: 1.3

[Metadata]
Title:Bass Slut (feat. Tamika)
TitleUnicode:Bass Slut (feat. Tamika)
Artist:S3RL
ArtistUnicode:S3RL
Creator:gaston_2199
Version:Kantan
Source:
Tags:
BeatmapID:1777684
BeatmapSetID:850245

[Difficulty]
HPDrainRate:8
CircleSize:2
OverallDifficulty:3
ApproachRate:10
SliderMultiplier:1.40000000596046
SliderTickRate:1

[Events]
//Background and Video events
0,0,"BG.jpg",0,80
//Break Periods
2,93482,98318
2,98968,103804
//Storyboard Layer 0 (Background)
//Storyboard Layer 1 (Fail)
//Storyboard Layer 2 (Pass)
//Storyboard Layer 3 (Foreground)
//Storyboard Sound Samples

[TimingPoints]
32940,342.857142857143,4,1,0,80,1,0
71340,-100,4,1,0,80,0,1
80940,-100,4,1,0,80,0,0
82311,-100,4,1,0,80,0,1
91911,-100,4,1,0,80,0,0
148140,-100,4,1,0,80,0,1
157740,-100,4,1,0,80,0,0
159111,-100,4,1,0,80,0,1
170082,-100,4,1,0,80,0,0
192025,-100,4,1,0,80,0,1
201625,-100,4,1,0,80,0,0
202997,-100,4,1,0,80,0,1
209854,-100,4,1,0,80,0,0

[HitObjects]
256,192,32940,5,12,0:0:0:0:
256,192,33625,1,0,0:0:0:0:
256,192,34311,1,8,0:0:0:0:
256,192,35682,1,8,0:0:0:0:
256,192,37054,1,8,0:0:0:0:
256,192,37740,1,8,0:0:0:0:
256,192,38425,1,0,0:0:0:0:
256,192,39797,1,8,0:0:0:0:
256,192,41168,1,0,0:0:0:0:
256,192,42540,5,8,0:0:0:0:
256,192,43911,5,12,0:0:0:0:
256,192,44597,1,0,0:0:0:0:
256,192,45282,1,8,0:0:0:0:
256,192,46654,1,8,0:0:0:0:
256,192,47340,1,0,0:0:0:0:
256,192,48025,1,8,0:0:0:0:
256,192,48368,1,0,0:0:0:0:
256,192,48711,1,8,0:0:0:0:
256,192,49397,1,0,0:0:0:0:
256,192,50768,1,8,0:0:0:0:
256,192,52140,1,0,0:0:0:0:
256,192,53511,5,0,0:0:0:0:
256,192,54882,5,12,0:0:0:0:
256,192,55568,1,0,0:0:0:0:
256,192,56254,1,8,0:0:0:0:
256,192,57625,1,8,0:0:0:0:
256,192,58311,1,0,0:0:0:0:
256,192,58997,1,8,0:0:0:0:
256,192,59340,1,0,0:0:0:0:
256,192,59682,1,8,0:0:0:0:
256,192,60368,1,0,0:0:0:0:
256,192,61740,1,8,0:0:0:0:
256,192,62425,1,0,0:0:0:0:
256,192,63111,5,8,0:0:0:0:
256,192,64482,1,0,0:0:0:0:
256,192,65854,1,8,0:0:0:0:
256,192,67225,1,0,0:0:0:0:
256,192,68597,1,0,0:0:0:0:
256,192,68940,1,8,0:0:0:0:
256,192,69625,1,8,0:0:0:0:
256,192,69968,12,0,71168,0:0:0:0:
256,160,71340,5,0,0:0:0:0:
256,160,71682,1,8,0:0:0:0:
256,160,72368,5,8,0:0:0:0:
256,160,73397,1,8,0:0:0:0:
256,160,74082,1,0,0:0:0:0:
256,160,74425,1,8,0:0:0:0:
256,160,75111,1,8,0:0:0:0:
256,160,75797,1,8,0:0:0:0:
256,160,76140,1,0,0:0:0:0:
256,160,76482,1,8,0:0:0:0:
256,160,76825,1,0,0:0:0:0:
256,160,77168,1,8,0:0:0:0:
256,160,77854,1,8,0:0:0:0:
256,160,78540,1,0,0:0:0:0:
256,160,78882,1,8,0:0:0:0:
256,160,79568,1,0,0:0:0:0:
256,160,79911,1,8,0:0:0:0:
256,160,80597,1,8,0:0:0:0:
256,160,80940,1,0,0:0:0:0:
256,160,82311,5,0,0:0:0:0:
256,160,82654,1,8,0:0:0:0:
256,160,83340,5,8,0:0:0:0:
256,160,84368,1,8,0:0:0:0:
256,160,85054,1,0,0:0:0:0:
256,160,85397,1,8,0:0:0:0:
256,160,86082,1,8,0:0:0:0:
256,160,86768,1,8,0:0:0:0:
256,160,87111,1,0,0:0:0:0:
256,160,87454,1,8,0:0:0:0:
256,160,87797,1,0,0:0:0:0:
256,160,88140,1,8,0:0:0:0:
256,160,88825,1,8,0:0:0:0:
256,160,89511,1,0,0:0:0:0:
256,160,89854,1,8,0:0:0:0:
256,160,90540,1,0,0:0:0:0:
256,160,90882,1,8,0:0:0:0:
256,160,91568,1,8,0:0:0:0:
256,160,91911,1,0,0:0:0:0:
256,160,93282,1,4,0:0:0:0:
256,192,98768,5,12,0:0:0:0:
224,192,104254,5,0,0:0:0:0:
224,192,106997,1,8,0:0:0:0:
224,192,109740,1,0,0:0:0:0:
224,192,112482,1,8,0:0:0:0:
224,192,115225,1,12,0:0:0:0:
224,192,116254,1,8,0:0:0:0:
224,192,116597,1,0,0:0:0:0:
224,192,117968,1,0,0:0:0:0:
224,192,118997,1,0,0:0:0:0:
224,192,119340,1,8,0:0:0:0:
224,192,120711,1,8,0:0:0:0:
224,192,121740,1,8,0:0:0:0:
224,192,122082,1,0,0:0:0:0:
224,192,123111,1,0,0:0:0:0:
224,192,123454,1,0,0:0:0:0:
224,192,124825,1,8,0:0:0:0:
224,192,126197,1,0,0:0:0:0:
224,192,127568,1,8,0:0:0:0:
224,192,128254,1,0,0:0:0:0:
224,192,128940,1,8,0:0:0:0:
224,192,130311,1,0,0:0:0:0:
224,192,130997,1,8,0:0:0:0:
224,192,131682,1,0,0:0:0:0:
224,192,133054,1,8,0:0:0:0:
224,192,133740,1,0,0:0:0:0:
224,192,134425,1,8,0:0:0:0:
224,192,135797,1,0,0:0:0:0:
224,192,136482,1,8,0:0:0:0:
224,192,137168,1,8,0:0:0:0:
224,192,138540,1,8,0:0:0:0:
224,192,139225,1,8,0:0:0:0:
224,192,139911,1,8,0:0:0:0:
224,192,141282,1,8,0:0:0:0:
224,192,141968,1,8,0:0:0:0:
224,192,142654,1,8,0:0:0:0:
224,192,144025,1,8,0:0:0:0:
224,192,144711,1,8,0:0:0:0:
224,192,145397,1,8,0:0:0:0:
256,192,146768,12,0,147968,0:0:0:0:
224,192,148140,5,4,0:0:0:0:
224,192,149511,1,0,0:0:0:0:
224,192,150197,1,0,0:0:0:0:
224,192,150882,1,8,0:0:0:0:
224,160,152254,1,8,0:0:0:0:
224,192,152940,1,0,0:0:0:0:
224,192,153282,1,8,0:0:0:0:
224,192,153625,5,0,0:0:0:0:
224,192,154997,1,0,0:0:0:0:
224,192,155682,1,0,0:0:0:0:
224,192,156368,1,8,0:0:0:0:
224,160,157740,1,8,0:0:0:0:
224,192,158425,1,0,0:0:0:0:
224,192,158768,1,8,0:0:0:0:
224,192,159111,5,4,0:0:0:0:
224,192,159797,1,8,0:0:0:0:
224,192,160482,1,0,0:0:0:0:
224,192,161168,1,0,0:0:0:0:
224,192,161854,1,8,0:0:0:0:
224,160,163225,1,8,0:0:0:0:
224,192,163911,1,0,0:0:0:0:
224,192,164254,1,8,0:0:0:0:
224,192,164597,5,0,0:0:0:0:
224,192,165282,1,8,0:0:0:0:
224,192,165968,1,0,0:0:0:0:
224,192,166654,1,0,0:0:0:0:
224,192,167340,1,8,0:0:0:0:
224,160,168711,1,8,0:0:0:0:
224,192,169397,1,0,0:0:0:0:
224,192,169740,1,8,0:0:0:0:
224,192,170082,1,0,0:0:0:0:
224,192,170768,1,8,0:0:0:0:
224,192,171454,1,0,0:0:0:0:
224,192,172140,1,0,0:0:0:0:
224,192,172482,1,8,0:0:0:0:
256,192,172825,1,0,0:0:0:0:
256,192,174197,1,8,0:0:0:0:
256,192,174882,1,0,0:0:0:0:
256,192,175568,1,8,0:0:0:0:
256,192,176940,1,8,0:0:0:0:
256,192,177625,1,0,0:0:0:0:
256,192,178311,1,8,0:0:0:0:
256,192,178997,1,8,0:0:0:0:
256,192,179682,1,0,0:0:0:0:
256,192,180025,1,8,0:0:0:0:
256,192,180368,1,0,0:0:0:0:
256,192,181054,5,12,0:0:0:0:
256,192,181740,1,0,0:0:0:0:
256,192,182425,1,8,0:0:0:0:
256,192,183797,1,8,0:0:0:0:
256,192,185168,1,8,0:0:0:0:
256,192,185854,1,8,0:0:0:0:
256,192,186540,1,0,0:0:0:0:
256,192,187911,1,8,0:0:0:0:
256,192,189282,1,0,0:0:0:0:
256,192,190654,5,8,0:0:0:0:
224,192,192025,5,4,0:0:0:0:
224,192,192711,1,8,0:0:0:0:
224,192,193397,1,0,0:0:0:0:
224,192,194082,1,0,0:0:0:0:
224,192,194768,1,8,0:0:0:0:
224,160,196140,1,8,0:0:0:0:
224,192,196825,1,0,0:0:0:0:
224,192,197168,1,8,0:0:0:0:
224,192,197511,5,0,0:0:0:0:
224,192,198197,1,8,0:0:0:0:
224,192,198882,1,0,0:0:0:0:
224,192,199568,1,0,0:0:0:0:
224,192,200254,1,8,0:0:0:0:
224,160,201625,1,8,0:0:0:0:
224,192,202311,1,0,0:0:0:0:
224,192,202654,5,8,0:0:0:0:
224,192,202997,5,4,0:0:0:0:
224,192,203682,1,8,0:0:0:0:
224,192,204368,1,0,0:0:0:0:
224,192,204711,1,8,0:0:0:0:
224,192,205054,1,0,0:0:0:0:
224,192,205740,1,8,0:0:0:0:
224,160,207111,1,8,0:0:0:0:
224,192,207797,1,0,0:0:0:0:
224,192,208140,1,8,0:0:0:0:
224,192,208482,5,0,0:0:0:0:
224,192,209168,1,8,0:0:0:0:
224,192,209854,1,0,0:0:0:0:
224,192,211225,1,8,0:0:0:0:
224,160,212597,1,8,0:0:0:0:
224,192,213282,1,8,0:0:0:0:
224,192,213968,1,0,0:0:0:0:
