osu file format v14

[General]
AudioFilename: audio.mp3
AudioLeadIn: 0
PreviewTime: 71397
Countdown: 0
SampleSet: Soft
StackLeniency: 0.9
Mode: 0
LetterboxInBreaks: 0
WidescreenStoryboard: 1

[Editor]
DistanceSpacing: 1.1
BeatDivisor: 4
GridSize: 32
TimelineZoom: 2

[Metadata]
Title:Bass Slut (Original Mix)
TitleUnicode:Bass Slut (Original Mix)
Artist:S3RL
ArtistUnicode:S3RL
Creator:Fatfan Kolek
Version:Nasty Normal
Source:
Tags:featured artist fa english cut version dj techno hardstyle electronic instrumental taeyang dereban reform kujinn theshadowofdark
BeatmapID:2118441
BeatmapSetID:983911

[Difficulty]
HPDrainRate:4
CircleSize:3.5
OverallDifficulty:4
ApproachRate:5
SliderMultiplier:0.999999999999999
SliderTickRate:1

[Events]
//Background and Video events
0,0,"bg glitch.jpg",0,0
//Break Periods
2,93539,102940
//Storyboard Layer 0 (Background)
//Storyboard Layer 1 (Fail)
//Storyboard Layer 2 (Pass)
//Storyboard Layer 3 (Foreground)
//Storyboard Layer 4 (Overlay)
//Storyboard Sound Samples

[TimingPoints]
83,342.857142857143,4,2,2,60,1,0
32997,-100,4,2,2,60,0,0
41226,-100,4,2,2,60,0,0
43969,-100,4,2,2,70,0,0
54940,-100,4,2,3,75,0,0
63168,-100,4,2,5,75,0,0
65912,-100,4,2,4,75,0,0
70047,-100,4,2,4,5,0,0
71055,-100,4,2,4,75,0,0
71397,-100,4,2,2,90,0,1
72254,-100,4,2,2,90,0,1
72768,-100,4,2,2,90,0,1
74997,-100,4,2,2,90,0,1
75511,-100,4,2,2,90,0,1
77739,-100,4,2,2,90,0,1
78254,-100,4,2,2,90,0,1
80482,-100,4,2,2,90,0,1
80997,-100,4,2,40,90,0,0
82025,-100,4,2,3,90,0,0
82368,-100,4,2,6,90,0,1
93340,-100,4,2,5,75,0,0
104312,-100,4,2,2,75,0,0
113911,-100,4,2,2,80,0,0
113932,-100,4,2,2,80,0,0
114597,-100,4,2,2,80,0,0
114769,-100,4,2,2,90,0,0
115283,-100,4,2,2,90,0,1
115625,-100,4,2,20,90,0,1
115968,-100,4,2,2,90,0,1
116139,-100,4,2,20,90,0,1
116654,-100,4,2,2,90,0,1
116997,-100,4,2,20,90,0,1
117340,-100,4,2,2,90,0,1
117683,-100,4,2,20,90,0,1
118025,-100,4,2,2,90,0,1
118368,-100,4,2,20,90,0,1
118711,-100,4,2,2,90,0,1
118882,-100,4,2,20,90,0,1
119397,-100,4,2,2,90,0,1
119740,-100,4,2,20,90,0,1
120083,-100,4,2,2,90,0,1
120425,-100,4,2,20,90,0,1
120768,-100,4,2,2,90,0,1
121111,-100,4,2,20,90,0,1
121454,-100,4,2,2,90,0,1
121625,-100,4,2,20,90,0,1
122139,-100,4,2,2,90,0,1
122483,-100,4,2,20,90,0,1
122825,-100,4,2,2,90,0,1
123168,-100,4,2,20,90,0,1
123511,-100,4,2,2,90,0,1
123854,-100,4,2,20,90,0,1
124197,-100,4,2,2,90,0,1
124368,-100,4,2,20,90,0,1
124883,-100,4,2,40,90,0,0
125911,-100,4,2,3,90,0,0
126254,-100,4,2,6,90,0,1
126597,-100,4,2,60,90,0,1
126940,-100,4,2,6,90,0,1
127283,-100,4,2,60,90,0,1
127625,-100,4,2,6,90,0,1
127968,-100,4,2,60,90,0,1
128311,-100,4,2,6,90,0,1
128654,-100,4,2,60,90,0,1
128997,-100,4,2,6,90,0,1
129340,-100,4,2,60,90,0,1
129683,-100,4,2,6,90,0,1
130025,-100,4,2,60,90,0,1
130368,-100,4,2,6,90,0,1
130711,-100,4,2,60,90,0,1
131054,-100,4,2,6,90,0,1
131397,-100,4,2,60,90,0,1
131740,-100,4,2,6,80,0,1
132083,-100,4,2,60,80,0,1
132426,-100,4,2,6,70,0,1
132768,-100,4,2,60,70,0,1
133112,-100,4,2,6,60,0,1
133454,-100,4,2,60,60,0,1
133797,-100,4,2,6,50,0,1
134140,-100,4,2,60,50,0,1
134483,-100,4,2,6,50,0,1
134825,-100,4,2,60,50,0,1
135168,-100,4,2,6,50,0,1
135511,-100,4,2,60,50,0,1
135854,-100,4,2,6,50,0,1
136197,-100,4,2,60,50,0,1
136540,-100,4,2,6,50,0,1
136883,-100,4,2,60,50,0,1
137225,-100,4,2,6,40,0,0

[Colours]
Combo1 : 255,72,255
Combo2 : 146,146,201
Combo3 : 139,86,203
Combo4 : 255,128,255

[HitObjects]
32,106,32997,6,0,L|138:120,1,99.9999999999999,0|0,3:0|3:0,0:0:0:0:
212,59,33683,2,0,P|232:105|222:163,1,99.9999999999999,0|0,3:0|3:0,0:0:0:0:
161,230,34369,2,0,P|155:279|175:324,1,99.9999999999999,0|0,3:0|3:0,0:0:0:0:
267,365,35055,2,0,L|366:351,1,99.9999999999999,0|0,3:0|3:0,0:0:0:0:
455,305,35740,5,0,3:0:0:0:
371,250,36083,1,0,3:0:0:0:
441,178,36426,1,0,3:0:0:0:
357,123,36769,1,0,3:0:0:0:
422,47,37112,2,0,P|377:25|316:31,1,99.9999999999999,0|0,3:0|3:0,0:0:0:0:
230,49,37797,2,0,L|235:-5,2,50,0|0|0,3:0|0:0|3:0,0:0:0:0:
224,149,38483,5,0,3:0:0:0:
140,203,38826,2,0,P|159:244|219:275,1,99.9999999999999,0|0,3:0|3:0,0:0:0:0:
304,273,39512,1,0,3:0:0:0:
253,359,39855,2,0,L|153:368,1,99.9999999999999,0|0,3:0|3:0,0:0:0:0:
66,319,40540,2,0,L|56:219,1,99.9999999999999,0|0,3:0|3:0,0:0:0:0:
92,126,41226,5,0,3:0:0:0:
179,174,41569,1,0,3:0:0:0:
209,78,41912,1,0,3:0:0:0:
308,64,42255,1,0,3:0:0:0:
116,317,43969,6,0,L|222:331,1,99.9999999999999,4|0,3:0|3:0,0:0:0:0:
311,303,44655,2,0,P|316:253|296:208,1,99.9999999999999,0|0,3:0|3:0,0:0:0:0:
266,168,45168,1,0,0:0:0:0:
223,140,45340,2,0,L|117:154,1,99.9999999999999,0|0,3:0|3:0,0:0:0:0:
26,129,46026,2,0,P|20:79|40:34,1,99.9999999999999,0|0,3:0|3:0,0:0:0:0:
83,10,46540,1,0,0:0:0:0:
83,10,46712,5,0,3:0:0:0:
167,63,47055,1,0,3:0:0:0:
260,28,47397,1,0,3:0:0:0:
290,123,47740,1,0,3:0:0:0:
387,101,48083,2,0,L|398:209,1,99.9999999999999,0|0,3:0|3:0,0:0:0:0:
443,289,48769,2,0,P|465:280|488:248,2,50,0|0|0,3:0|0:0|3:0,0:0:0:0:
343,294,49454,6,0,P|318:303|294:329,1,50,0|0,3:0|0:0,0:0:0:0:
276,362,49797,2,0,P|233:336|211:292,1,99.9999999999999,0|0,3:0|3:0,0:0:0:0:
236,195,50483,1,0,3:0:0:0:
192,105,50826,2,0,L|92:114,1,99.9999999999999,0|0,3:0|3:0,0:0:0:0:
60,152,51340,1,0,0:0:0:0:
30,192,51512,2,0,L|40:292,1,99.9999999999999,0|0,3:0|3:0,0:0:0:0:
117,355,52197,5,0,3:0:0:0:
190,285,52540,1,0,3:0:0:0:
143,196,52883,1,0,3:0:0:0:
219,131,53226,1,0,3:0:0:0:
303,183,53569,2,0,P|347:174|391:124,1,99.9999999999999,0|0,3:0|3:0,0:0:0:0:
417,97,54083,1,0,0:0:0:0:
463,78,54255,2,0,L|471:182,1,99.9999999999999,0|0,3:0|3:0,0:0:0:0:
500,273,54940,6,0,P|450:267|405:287,1,99.9999999999999,4|0,3:0|3:0,0:0:0:0:
334,356,55626,2,0,L|234:342,1,99.9999999999999,0|0,3:0|3:0,0:0:0:0:
185,334,56140,1,8,0:0:0:0:
136,322,56312,2,0,P|130:272|150:227,1,99.9999999999999,0|0,3:0|3:0,0:0:0:0:
242,191,56997,2,0,L|229:88,1,99.9999999999999,0|0,3:0|3:0,0:0:0:0:
222,41,57512,1,8,0:0:0:0:
222,41,57683,5,0,3:0:0:0:
125,20,58026,1,0,3:0:0:0:
64,99,58369,1,0,3:0:0:0:
118,183,58712,1,0,3:0:0:0:
42,248,59055,2,0,P|64:290|118:316,1,99.9999999999999,0|0,3:0|3:0,0:0:0:0:
208,323,59740,2,0,L|212:377,2,50,0|8|0,3:0|0:0|3:0,0:0:0:0:
256,235,60425,6,0,P|281:236|304:247,1,50,0|8,3:0|0:0,0:0:0:0:
342,279,60769,2,0,P|385:256|407:209,1,99.9999999999999,0|0,3:0|3:0,0:0:0:0:
413,111,61455,1,0,3:0:0:0:
343,39,61797,2,0,L|243:48,1,99.9999999999999,0|0,3:0|3:0,0:0:0:0:
194,60,62311,1,8,0:0:0:0:
154,90,62483,2,0,P|159:138|198:186,1,99.9999999999999,0|0,3:0|3:0,0:0:0:0:
272,234,63169,1,4,3:0:0:0:
440,212,65912,6,0,L|426:100,1,99.9999999999999,2|2,3:0|3:0,0:0:0:0:
346,53,66597,2,0,L|333:152,1,99.9999999999999,2|2,3:0|3:0,0:0:0:0:
255,214,67283,2,0,L|241:102,1,99.9999999999999,2|2,3:0|3:0,0:0:0:0:
161,55,67969,2,0,L|148:154,1,99.9999999999999,2|2,3:0|3:0,0:0:0:0:
85,232,68655,6,0,P|86:258|107:289,1,50,2|8,3:0|0:0,0:0:0:0:
101,328,68997,2,0,P|124:340|161:337,1,50,2|8,3:0|0:0,0:0:0:0:
192,362,69340,2,0,P|214:348|230:314,1,50,2|8,3:0|0:0,0:0:0:0:
266,300,69683,1,2,3:0:0:0:
438,185,71397,6,0,P|458:139|443:78,1,99.9999999999999,6|2,3:0|3:0,0:0:0:0:
369,32,72082,1,2,3:0:0:0:
369,32,72254,2,0,L|255:41,1,99.9999999999999,2|2,0:0|0:0,0:0:0:0:
219,44,72768,1,2,3:0:0:0:
258,135,73111,1,2,3:0:0:0:
165,174,73454,1,2,3:0:0:0:
228,251,73797,2,0,L|221:308,1,50,2|2,3:0|0:0,0:0:0:0:
213,349,74140,6,0,P|171:314|122:303,1,99.9999999999999,2|2,3:0|3:0,0:0:0:0:
28,331,74825,1,2,3:0:0:0:
28,331,74997,2,0,L|43:213,1,99.9999999999999,2|2,0:0|0:0,0:0:0:0:
48,182,75511,1,2,3:0:0:0:
116,109,75854,1,2,3:0:0:0:
200,162,76197,1,2,3:0:0:0:
245,73,76539,2,0,P|263:53|289:43,1,50,2|2,3:0|0:0,0:0:0:0:
333,37,76882,6,0,L|344:139,1,99.9999999999999,2|2,3:0|3:0,0:0:0:0:
425,193,77568,1,2,3:0:0:0:
425,193,77740,2,0,P|389:228|323:239,1,99.9999999999999,2|2,0:0|0:0,0:0:0:0:
293,227,78254,1,2,3:0:0:0:
303,326,78597,1,2,3:0:0:0:
207,295,78939,1,2,3:0:0:0:
119,343,79282,2,0,L|112:285,1,50,2|2,3:0|0:0,0:0:0:0:
81,254,79625,6,0,L|68:151,1,99.9999999999999,2|2,3:0|3:0,0:0:0:0:
68,54,80311,1,2,3:0:0:0:
68,54,80482,2,0,P|108:32|172:35,1,99.9999999999999,2|2,0:0|0:0,0:0:0:0:
201,61,80997,1,2,3:0:0:0:
183,159,81339,1,2,3:0:0:0:
269,208,81682,1,2,3:0:0:0:
209,288,82025,2,0,P|221:311|245:328,1,50,2|2,3:0|3:0,0:0:0:0:
289,334,82368,6,0,L|397:326,1,99.9999999999999,6|2,3:0|3:0,0:0:0:0:
464,260,83054,1,2,3:0:0:0:
464,260,83225,2,0,L|455:146,1,99.9999999999999,10|10,0:0|0:0,0:0:0:0:
451,110,83739,1,2,3:0:0:0:
360,66,84082,1,2,3:0:0:0:
307,151,84425,1,2,3:0:0:0:
218,108,84768,2,0,L|161:115,1,50,2|10,3:0|0:0,0:0:0:0:
120,121,85111,6,0,P|155:163|166:212,1,99.9999999999999,2|2,3:0|3:0,0:0:0:0:
140,302,85797,1,2,3:0:0:0:
140,302,85968,2,0,L|258:287,1,99.9999999999999,10|10,0:0|0:0,0:0:0:0:
290,284,86482,1,2,3:0:0:0:
358,356,86825,1,2,3:0:0:0:
443,302,87168,1,2,3:0:0:0:
412,207,87511,2,0,P|405:179|410:146,1,50,2|10,3:0|0:0,0:0:0:0:
419,109,87854,6,0,L|315:98,1,99.9999999999999,2|2,3:0|3:0,0:0:0:0:
264,15,88539,1,2,3:0:0:0:
264,15,88711,2,0,P|229:51|218:117,1,99.9999999999999,10|10,0:0|0:0,0:0:0:0:
231,146,89225,1,2,3:0:0:0:
167,222,89568,1,2,3:0:0:0:
78,176,89911,1,2,3:0:0:0:
54,272,90254,2,0,L|60:321,1,50,2|10,3:0|0:0,0:0:0:0:
68,371,90597,6,0,P|110:338|166:333,1,99.9999999999999,2|2,3:0|3:0,0:0:0:0:
252,367,91282,1,2,3:0:0:0:
252,367,91454,2,0,P|274:327|271:263,1,99.9999999999999,10|10,0:0|0:0,0:0:0:0:
256,227,91968,1,2,3:0:0:0:
307,140,92311,1,2,3:0:0:0:
395,188,92654,1,2,3:0:0:0:
472,123,92997,2,0,L|476:58,1,50,10|10,3:0|0:0,0:0:0:0:
478,22,93339,1,4,3:0:0:0:
116,317,104311,6,0,L|222:331,1,99.9999999999999,0|0,3:0|3:0,0:0:0:0:
314,344,104997,2,0,P|362:338|398:305,1,99.9999999999999,0|0,3:0|3:0,0:0:0:0:
424,261,105511,1,0,0:0:0:0:
431,211,105682,2,0,L|417:105,1,99.9999999999999,0|0,3:0|3:0,0:0:0:0:
354,33,106368,2,0,P|305:27|260:47,1,99.9999999999999,0|0,3:0|3:0,0:0:0:0:
221,78,106882,1,0,0:0:0:0:
221,78,107054,5,0,3:0:0:0:
130,34,107397,1,0,3:0:0:0:
67,111,107739,1,0,3:0:0:0:
123,193,108082,1,0,3:0:0:0:
87,286,108425,2,0,P|131:310|180:311,1,99.9999999999999,0|0,3:0|3:0,0:0:0:0:
280,309,109111,2,0,L|277:360,2,50,0|0|0,3:0|0:0|3:0,0:0:0:0:
342,230,109797,6,0,P|363:217|390:212,1,50,0|0,3:0|0:0,0:0:0:0:
437,216,110140,2,0,L|445:116,1,99.9999999999999,0|0,3:0|3:0,0:0:0:0:
382,38,110825,1,0,3:0:0:0:
285,64,111168,2,0,P|239:82|189:79,1,99.9999999999999,0|0,3:0|3:0,0:0:0:0:
96,42,111854,2,0,L|87:141,1,99.9999999999999,0|0,3:0|3:0,0:0:0:0:
82,241,112539,5,0,3:0:0:0:
179,215,112883,1,0,3:0:0:0:
230,300,113225,1,0,3:0:0:0:
326,273,113568,1,0,3:0:0:0:
33,81,114768,2,0,P|21:56|19:30,2,50,2|2|2,3:0|3:0|3:0,0:0:0:0:
67,117,115282,6,0,L|174:104,1,99.9999999999999,6|2,3:0|3:0,0:0:0:0:
266,100,115968,1,2,3:0:0:0:
266,100,116140,2,0,L|275:214,1,99.9999999999999,2|2,0:0|0:0,0:0:0:0:
278,249,116654,1,2,3:0:0:0:
232,338,116997,1,2,3:0:0:0:
153,275,117339,1,2,3:0:0:0:
61,314,117682,2,0,L|54:257,1,50,2|2,3:0|0:0,0:0:0:0:
49,214,118025,6,0,P|54:163|87:122,1,99.9999999999999,2|2,3:0|3:0,0:0:0:0:
170,73,118711,1,2,3:0:0:0:
170,73,118882,2,0,L|288:88,1,99.9999999999999,2|2,0:0|0:0,0:0:0:0:
319,88,119397,1,2,3:0:0:0:
407,41,119739,1,2,3:0:0:0:
451,130,120082,1,2,3:0:0:0:
410,221,120425,2,0,P|430:239|440:265,1,50,2|2,3:0|0:0,0:0:0:0:
446,309,120768,6,0,L|344:320,1,99.9999999999999,2|2,3:0|3:0,0:0:0:0:
262,373,121454,1,2,3:0:0:0:
262,373,121625,2,0,P|227:337|216:271,1,99.9999999999999,2|2,0:0|0:0,0:0:0:0:
219,240,122139,1,2,3:0:0:0:
292,172,122482,1,2,3:0:0:0:
217,104,122825,1,2,3:0:0:0:
130,153,123168,2,0,L|123:211,1,50,2|2,3:0|0:0,0:0:0:0:
117,252,123511,6,0,P|76:273|17:257,1,99.9999999999999,2|2,3:0|3:0,0:0:0:0:
8,164,124197,1,2,3:0:0:0:
8,164,124368,2,0,L|27:60,1,99.9999999999999,2|2,0:0|0:0,0:0:0:0:
35,16,124882,1,2,3:0:0:0:
122,65,125225,1,2,3:0:0:0:
213,24,125568,1,2,3:0:0:0:
219,123,125911,2,0,P|231:146|255:163,1,50,2|2,3:0|3:0,0:0:0:0:
295,182,126254,6,0,L|403:174,1,99.9999999999999,6|2,3:0|3:0,0:0:0:0:
488,139,126939,1,2,3:0:0:0:
488,139,127111,2,0,L|479:253,1,99.9999999999999,10|10,0:0|0:0,0:0:0:0:
475,288,127625,1,2,3:0:0:0:
395,348,127968,1,2,3:0:0:0:
327,274,128311,1,2,3:0:0:0:
250,338,128654,2,0,L|193:331,1,50,2|10,3:0|0:0,0:0:0:0:
151,324,128997,6,0,P|157:271|134:225,1,99.9999999999999,2|2,3:0|3:0,0:0:0:0:
43,195,129682,1,2,3:0:0:0:
43,195,129854,2,0,L|58:77,1,99.9999999999999,10|10,0:0|0:0,0:0:0:0:
58,45,130368,1,2,3:0:0:0:
151,81,130711,1,2,3:0:0:0:
231,22,131054,1,2,3:0:0:0:
323,58,131397,2,0,L|310:117,1,50,2|10,3:0|0:0,0:0:0:0:
301,155,131740,6,0,P|308:202|352:241,1,99.9999999999999,2|2,3:0|3:0,0:0:0:0:
443,236,132425,1,2,3:0:0:0:
443,236,132597,2,0,P|436:283|392:322,1,99.9999999999999,10|10,0:0|0:0,0:0:0:0:
351,327,133111,1,2,3:0:0:0:
256,293,133454,1,2,3:0:0:0:
179,357,133797,1,2,3:0:0:0:
107,288,134139,2,0,L|113:239,1,50,2|10,3:0|0:0,0:0:0:0:
121,188,134482,1,2,3:0:0:0:
256,192,134654,12,4,137225,3:0:0:0:
