osu file format v14

[General]
AudioFilename: audio.mp3
AudioLeadIn: 0
PreviewTime: 71397
Countdown: 0
SampleSet: Soft
StackLeniency: 0.4
Mode: 0
LetterboxInBreaks: 0
WidescreenStoryboard: 1

[Editor]
Bookmarks: 132419,135162
DistanceSpacing: 1.7
BeatDivisor: 4
GridSize: 8
TimelineZoom: 2

[Metadata]
Title:Bass Slut (Original Mix)
TitleUnicode:Bass Slut (Original Mix)
Artist:S3RL
ArtistUnicode:S3RL
Creator:Fatfan Kolek
Version:Indecent Insane
Source:
Tags:featured artist fa english cut version dj techno hardstyle electronic instrumental taeyang dereban reform kujinn theshadowofdark
BeatmapID:2170029
BeatmapSetID:983911

[Difficulty]
HPDrainRate:5
CircleSize:4.2
OverallDifficulty:8.5
ApproachRate:9
SliderMultiplier:1.6
SliderTickRate:1

[Events]
//Background and Video events
0,0,"bg glitch.jpg",0,0
//Break Periods
2,93540,103711
//Storyboard Layer 0 (Background)
//Storyboard Layer 1 (Fail)
//Storyboard Layer 2 (Pass)
//Storyboard Layer 3 (Foreground)
//Storyboard Layer 4 (Overlay)
//Storyboard Sound Samples

[TimingPoints]
83,342.857142857143,4,2,2,60,1,0
32997,-133.333333333333,4,2,2,60,0,0
43968,-100,4,2,2,60,0,0
43969,-100,4,2,2,70,0,0
54940,-100,4,2,3,75,0,0
63168,-100,4,2,5,75,0,0
65912,-100,4,2,4,75,0,0
70025,-153.846153846153,4,2,4,75,0,0
70047,-153.846153846153,4,2,4,5,0,0
71055,-100,4,2,4,75,0,0
71397,-83.3333333333333,4,2,2,90,0,1
76625,-83.3333333333333,4,2,2,5,0,1
76711,-83.3333333333333,4,2,2,90,0,1
76797,-83.3333333333333,4,2,2,5,0,1
76883,-83.3333333333333,4,2,2,90,0,1
80997,-74.0740740740741,4,2,40,90,0,0
82025,-100,4,2,3,90,0,0
82368,-83.3333333333333,4,2,6,90,0,1
84854,-83.3333333333333,4,2,6,5,0,1
84940,-83.3333333333333,4,2,6,90,0,1
85025,-83.3333333333333,4,2,6,5,0,1
85111,-83.3333333333333,4,2,6,90,0,1
87597,-83.3333333333333,4,2,6,5,0,1
87683,-83.3333333333333,4,2,6,90,0,1
87768,-83.3333333333333,4,2,6,5,0,1
87854,-83.3333333333333,4,2,6,90,0,1
90340,-83.3333333333333,4,2,6,5,0,1
90425,-83.3333333333333,4,2,6,90,0,1
90511,-83.3333333333333,4,2,6,5,0,1
90597,-83.3333333333333,4,2,6,90,0,1
93083,-83.3333333333333,4,2,6,5,0,1
93168,-83.3333333333333,4,2,6,90,0,1
93254,-83.3333333333333,4,2,6,5,0,1
93340,-133.333333333333,4,2,5,75,0,0
104311,-100,4,2,5,75,0,0
104312,-100,4,2,2,75,0,0
113911,-100,4,2,2,80,0,0
114597,-100,4,2,2,80,0,0
114768,-100,4,2,2,80,0,0
114769,-100,4,2,2,90,0,0
115283,-83.3333333333333,4,2,2,90,0,1
115625,-83.3333333333333,4,2,20,90,0,1
115968,-83.3333333333333,4,2,2,90,0,1
116139,-83.3333333333333,4,2,20,90,0,1
116654,-83.3333333333333,4,2,2,90,0,1
116997,-83.3333333333333,4,2,20,90,0,1
117340,-83.3333333333333,4,2,2,90,0,1
117683,-83.3333333333333,4,2,20,90,0,1
118025,-83.3333333333333,4,2,2,90,0,1
118368,-83.3333333333333,4,2,20,90,0,1
118711,-83.3333333333333,4,2,2,90,0,1
118882,-83.3333333333333,4,2,20,90,0,1
119397,-83.3333333333333,4,2,2,90,0,1
119740,-83.3333333333333,4,2,20,90,0,1
120083,-83.3333333333333,4,2,2,90,0,1
120425,-83.3333333333333,4,2,20,90,0,1
120511,-83.3333333333333,4,2,20,5,0,1
120597,-83.3333333333333,4,2,20,90,0,1
120683,-83.3333333333333,4,2,20,5,0,1
120768,-83.3333333333333,4,2,2,90,0,1
121111,-83.3333333333333,4,2,20,90,0,1
121454,-83.3333333333333,4,2,2,90,0,1
121625,-83.3333333333333,4,2,20,90,0,1
122139,-83.3333333333333,4,2,2,90,0,1
122483,-83.3333333333333,4,2,20,90,0,1
122825,-83.3333333333333,4,2,2,90,0,1
123168,-83.3333333333333,4,2,20,90,0,1
123511,-83.3333333333333,4,2,2,90,0,1
123854,-83.3333333333333,4,2,20,90,0,1
124197,-83.3333333333333,4,2,2,90,0,1
124368,-83.3333333333333,4,2,20,90,0,1
124883,-74.0740740740741,4,2,40,90,0,0
125911,-100,4,2,3,90,0,0
126254,-83.3333333333333,4,2,6,90,0,1
126597,-83.3333333333333,4,2,60,90,0,1
126940,-83.3333333333333,4,2,6,90,0,1
127283,-83.3333333333333,4,2,60,90,0,1
127625,-83.3333333333333,4,2,6,90,0,1
127968,-83.3333333333333,4,2,60,90,0,1
128311,-83.3333333333333,4,2,6,90,0,1
128654,-83.3333333333333,4,2,60,90,0,1
128740,-83.3333333333333,4,2,60,5,0,1
128825,-83.3333333333333,4,2,60,90,0,1
128911,-83.3333333333333,4,2,60,5,0,1
128997,-83.3333333333333,4,2,6,90,0,1
129340,-83.3333333333333,4,2,60,90,0,1
129683,-83.3333333333333,4,2,6,90,0,1
130025,-83.3333333333333,4,2,60,90,0,1
130368,-83.3333333333333,4,2,6,90,0,1
130711,-83.3333333333333,4,2,60,90,0,1
131054,-83.3333333333333,4,2,6,90,0,1
131397,-83.3333333333333,4,2,60,90,0,1
131483,-83.3333333333333,4,2,60,5,0,1
131568,-83.3333333333333,4,2,60,90,0,1
131654,-83.3333333333333,4,2,60,5,0,1
131739,-83.3333333333333,4,2,60,5,0,1
131740,-100,4,2,6,80,0,1
132083,-100,4,2,60,80,0,1
132425,-100,4,2,60,80,0,1
132426,-100,4,2,6,70,0,1
132768,-90.9090909090909,4,2,60,70,0,1
133111,-90.9090909090909,4,2,60,70,0,1
133112,-125,4,2,6,60,0,1
133454,-125,4,2,60,60,0,1
133797,-125,4,2,6,50,0,1
134140,-100,4,2,60,50,0,1
134225,-100,4,2,60,5,0,1
134311,-100,4,2,60,50,0,1
134397,-100,4,2,60,5,0,1
134482,-111.111111111111,4,2,60,5,0,1
134483,-125,4,2,6,50,0,1
134825,-125,4,2,60,50,0,1
135168,-125,4,2,6,50,0,1
135511,-111.111111111111,4,2,60,50,0,1
135854,-166.666666666667,4,2,6,50,0,1
136197,-166.666666666667,4,2,60,50,0,1
136540,-166.666666666667,4,2,6,50,0,1
136883,-166.666666666667,4,2,60,50,0,1
136968,-166.666666666667,4,2,60,5,0,1
137054,-166.666666666667,4,2,60,50,0,1
137140,-166.666666666667,4,2,60,5,0,1
137225,-166.666666666667,4,2,6,40,0,0

[Colours]
Combo1 : 255,72,255
Combo2 : 146,146,201
Combo3 : 139,86,203
Combo4 : 255,128,255

[HitObjects]
90,121,32997,6,0,L|15:131,1,60.0000022888184,0|0,3:0|0:0,0:0:0:0:
158,49,33340,2,0,L|177:186,1,120.000004577637,0|0,3:0|3:0,0:0:0:0:
189,267,33854,1,0,0:0:0:0:
247,328,34026,2,0,P|265:305|271:275,1,60.0000022888184,0|0,3:0|0:0,0:0:0:0:
260,172,34368,5,0,3:0:0:0:
383,162,34539,1,0,0:0:0:0:
260,172,34711,2,0,L|270:97,1,60.0000022888184,0|0,3:0|0:0,0:0:0:0:
356,24,35054,5,0,3:0:0:0:
233,34,35225,1,0,0:0:0:0:
356,24,35397,2,0,L|345:98,1,60.0000022888184,0|0,3:0|0:0,0:0:0:0:
394,200,35740,6,0,L|468:211,1,60.0000022888184,0|0,3:0|0:0,0:0:0:0:
383,275,36083,2,0,L|457:286,1,60.0000022888184,0|0,3:0|0:0,0:0:0:0:
231,259,36425,6,0,L|157:270,1,60.0000022888184,0|0,3:0|0:0,0:0:0:0:
242,334,36768,2,0,L|168:345,1,60.0000022888184,0|0,3:0|0:0,0:0:0:0:
314,218,37111,5,0,3:0:0:0:
328,100,37283,1,0,0:0:0:0:
328,100,37454,2,0,P|296:98|259:118,1,60.0000022888184,0|0,3:0|0:0,0:0:0:0:
188,143,37797,5,0,3:0:0:0:
174,25,37969,1,0,0:0:0:0:
174,25,38140,2,0,P|206:23|243:43,1,60.0000022888184,0|0,3:0|0:0,0:0:0:0:
328,100,38483,6,0,L|317:174,1,60.0000022888184,0|0,3:0|0:0,0:0:0:0:
317,259,38825,2,0,B|355:253|355:253|380:225|380:225|423:219,1,120.000004577637,0|0,3:0|3:0,0:0:0:0:
494,279,39340,1,0,0:0:0:0:
442,353,39511,2,0,P|412:350|387:333,1,60.0000022888184,0|0,3:0|0:0,0:0:0:0:
317,259,39854,5,0,3:0:0:0:
251,327,40026,1,0,0:0:0:0:
221,237,40197,2,0,L|229:176,1,60.0000022888184,0|0,3:0|0:0,0:0:0:0:
242,78,40540,5,0,3:0:0:0:
176,10,40712,1,0,0:0:0:0:
146,100,40883,2,0,L|154:161,1,60.0000022888184,0|0,3:0|0:0,0:0:0:0:
139,281,41225,6,0,P|79:281|38:238,1,120.000004577637,0|0,3:0|3:0,0:0:0:0:
72,155,41740,1,0,0:0:0:0:
200,223,41911,2,0,P|260:223|301:180,1,120.000004577637,0|0,3:0|3:0,0:0:0:0:
149,261,43968,6,0,P|188:259|235:292,1,80,4|0,3:0|0:0,0:0:0:0:
77,344,44311,2,0,P|58:267|97:198,1,160,0|0,3:0|3:0,0:0:0:0:
187,167,44825,1,0,0:0:0:0:
277,211,44997,2,0,P|316:203|346:177,1,80,0|0,3:0|0:0,0:0:0:0:
431,101,45340,5,0,3:0:0:0:
362,23,45511,1,0,0:0:0:0:
431,101,45682,2,0,L|445:198,1,80,0|0,3:0|0:0,0:0:0:0:
471,329,46025,5,0,3:0:0:0:
346,287,46196,1,0,0:0:0:0:
482,249,46368,2,0,L|468:346,1,80,0|0,3:0|0:0,0:0:0:0:
318,365,46711,6,0,P|284:342|265:295,1,80,0|0,3:0|0:0,0:0:0:0:
180,317,47054,2,0,P|183:277|215:237,1,80,0|0,3:0|0:0,0:0:0:0:
323,172,47397,2,0,P|300:138|253:119,1,80,0|0,3:0|0:0,0:0:0:0:
274,34,47740,2,0,P|234:37|194:69,1,80,0|0,3:0|0:0,0:0:0:0:
136,184,48083,5,0,3:0:0:0:
26,157,48254,1,0,0:0:0:0:
26,157,48425,2,0,L|40:60,1,80,0|0,3:0|0:0,0:0:0:0:
136,184,48768,5,0,3:0:0:0:
246,157,48939,1,0,0:0:0:0:
246,157,49111,2,0,L|232:60,1,80,0|0,3:0|0:0,0:0:0:0:
343,26,49454,6,0,P|380:38|406:68,1,80,0|0,3:0|0:0,0:0:0:0:
412,157,49797,2,0,L|390:315,1,160,0|0,3:0|3:0,0:0:0:0:
294,358,50311,1,0,0:0:0:0:
301,262,50482,2,0,P|285:225|254:200,1,80,0|0,3:0|0:0,0:0:0:0:
130,222,50825,5,0,3:0:0:0:
215,279,50997,1,0,0:0:0:0:
119,301,51168,2,0,L|130:221,1,80,0|0,3:0|0:0,0:0:0:0:
184,82,51511,5,0,3:0:0:0:
99,139,51683,1,0,0:0:0:0:
195,161,51854,2,0,L|184:81,1,80,0|0,3:0|0:0,0:0:0:0:
300,25,52197,6,0,P|377:24|432:80,1,160,0|0,3:0|3:0,0:0:0:0:
447,184,52711,1,0,0:0:0:0:
361,246,52882,2,0,P|283:246|229:191,1,160,0|0,3:0|3:0,0:0:0:0:
21,67,53568,5,0,3:0:0:0:
45,212,53740,1,0,0:0:0:0:
45,212,53911,2,0,L|56:292,1,80,0|0,3:0|0:0,0:0:0:0:
176,357,54254,5,0,3:0:0:0:
200,212,54426,1,0,0:0:0:0:
200,212,54597,2,0,L|211:132,1,80,0|0,3:0|0:0,0:0:0:0:
308,45,54940,6,0,P|347:43|394:76,1,80,4|8,3:0|0:0,0:0:0:0:
442,149,55283,2,0,B|392:142|372:172|370:175|368:178|343:207|287:198,1,160,0|0,3:0|3:0,0:0:0:0:
230,122,55797,1,0,0:0:0:0:
126,142,55968,2,0,P|100:172|92:210,1,80,0|8,3:0|0:0,0:0:0:0:
148,330,56312,5,0,3:0:0:0:
26,311,56483,1,8,0:0:0:0:
148,330,56654,2,0,L|227:341,1,80,0|8,3:0|0:0,0:0:0:0:
278,242,56997,5,0,3:0:0:0:
225,162,57168,1,8,0:0:0:0:
198,253,57339,2,0,L|277:241,1,80,0|8,3:0|0:0,0:0:0:0:
398,127,57683,6,0,P|395:87|363:47,1,80,0|8,3:0|0:0,0:0:0:0:
292,83,58025,2,0,P|295:123|327:163,1,80,0|8,3:0|0:0,0:0:0:0:
464,246,58368,6,0,P|461:286|429:326,1,80,0|8,3:0|0:0,0:0:0:0:
358,290,58711,2,0,P|361:250|393:210,1,80,0|8,3:0|0:0,0:0:0:0:
467,134,59055,5,0,3:0:0:0:
433,35,59226,1,8,0:0:0:0:
433,35,59397,2,0,L|336:21,1,80,0|8,3:0|0:0,0:0:0:0:
255,66,59740,5,0,3:0:0:0:
289,165,59911,1,8,0:0:0:0:
289,165,60082,2,0,L|386:179,1,80,0|8,3:0|0:0,0:0:0:0:
446,279,60426,6,0,P|434:316|404:342,1,80,0|8,3:0|0:0,0:0:0:0:
311,366,60768,2,0,B|258:358|258:358|226:322|226:322|169:314,1,160,0|0,3:0|3:0,0:0:0:0:
51,335,61283,1,8,0:0:0:0:
37,217,61454,2,0,P|53:180|84:155,1,80,0|8,3:0|0:0,0:0:0:0:
191,194,61797,5,0,3:0:0:0:
262,243,61969,1,8,0:0:0:0:
294,165,62140,2,0,L|280:68,1,80,0|8,3:0|0:0,0:0:0:0:
399,105,62483,5,0,3:0:0:0:
470,56,62655,1,8,0:0:0:0:
502,134,62826,2,0,L|488:231,1,80,0|8,3:0|0:0,0:0:0:0:
469,347,63168,5,4,3:0:0:0:
386,60,65911,6,0,L|411:232,1,160,2|2,3:0|3:0,0:0:0:0:
126,60,66597,2,0,L|100:232,1,160,2|2,3:0|3:0,0:0:0:0:
450,321,67283,2,0,L|475:148,1,160,2|2,3:0|3:0,0:0:0:0:
62,321,67968,2,0,L|36:148,1,160,2|2,3:0|3:0,0:0:0:0:
327,87,68654,5,2,3:0:0:0:
256,265,68825,1,8,0:0:0:0:
184,87,68997,5,2,3:0:0:0:
256,283,69168,1,8,0:0:0:0:
327,87,69340,5,2,3:0:0:0:
256,301,69511,1,8,0:0:0:0:
184,87,69683,5,2,3:0:0:0:
114,147,71397,6,0,P|66:155|30:196,1,95.9999970703126,6|8,3:0|0:0,0:0:0:0:
212,182,71740,2,0,P|229:137|217:92,1,95.9999970703126,2|8,3:0|0:0,0:0:0:0:
128,57,72083,1,2,3:0:0:0:
134,244,72254,2,0,P|163:280|209:293,1,95.9999970703126,2|8,0:0|3:0,0:0:0:0:
296,238,72597,1,2,0:0:0:0:
403,353,72768,6,0,L|432:160,1,191.999994140625,2|2,3:0|3:0,0:0:0:0:
449,65,73283,1,8,0:0:0:0:
311,22,73454,2,0,L|325:118,1,95.9999970703126,2|8,3:0|0:0,0:0:0:0:
342,259,73797,1,2,3:0:0:0:
223,123,73968,1,2,0:0:0:0:
231,322,74140,6,0,L|245:225,1,95.9999970703126,2|8,3:0|0:0,0:0:0:0:
194,42,74483,2,0,P|154:71|136:124,1,95.9999970703126,2|8,3:0|0:0,0:0:0:0:
148,208,74825,1,2,3:0:0:0:
11,210,74997,2,0,P|16:259|53:301,1,95.9999970703126,2|8,0:0|3:0,0:0:0:0:
137,327,75340,1,2,0:0:0:0:
245,185,75511,6,0,B|305:170|330:211|333:217|335:223|352:261|436:242,1,191.999994140625,2|2,3:0|3:0,0:0:0:0:
491,160,76025,1,8,0:0:0:0:
493,302,76197,2,0,P|456:332|409:340,1,95.9999970703126,2|8,3:0|0:0,0:0:0:0:
216,278,76540,1,2,3:0:0:0:
356,190,76711,1,2,0:0:0:0:
312,367,76883,6,0,L|298:270,1,95.9999970703126,2|8,3:0|0:0,0:0:0:0:
122,228,77225,2,0,L|136:325,1,95.9999970703126,2|8,3:0|0:0,0:0:0:0:
211,195,77568,1,2,3:0:0:0:
324,350,77740,2,0,L|310:253,1,95.9999970703126,2|8,0:0|3:0,0:0:0:0:
204,175,78083,1,2,0:0:0:0:
372,82,78254,6,0,B|363:146|363:146|319:185|319:185|310:254,1,191.999994140625,2|2,3:0|3:0,0:0:0:0:
407,352,78768,1,8,0:0:0:0:
498,209,78940,2,0,L|401:223,1,95.9999970703126,2|8,3:0|0:0,0:0:0:0:
268,91,79283,1,2,3:0:0:0:
446,136,79454,1,2,0:0:0:0:
344,286,79625,6,0,P|319:244|324:183,1,95.9999970703126,2|8,3:0|0:0,0:0:0:0:
327,23,79968,2,0,P|352:65|347:126,1,95.9999970703126,2|8,3:0|0:0,0:0:0:0:
226,212,80311,1,2,3:0:0:0:
157,79,80483,2,0,L|254:93,1,95.9999970703126,2|8,0:0|3:0,0:0:0:0:
352,111,80825,1,2,0:0:0:0:
299,287,80997,6,0,L|75:319,1,216.000000823975,2|2,3:0|3:0,0:0:0:0:
55,157,81511,1,0,0:0:0:0:
266,182,81683,2,0,L|372:197,1,108.000000411987,2|0,3:0|0:0,0:0:0:0:
504,120,82025,1,2,3:0:0:0:
420,288,82197,1,2,3:0:0:0:
387,110,82368,6,0,L|371:3,1,95.9999970703126,6|8,3:0|0:0,0:0:0:0:
266,182,82711,2,0,L|250:288,1,95.9999970703126,2|8,3:0|0:0,0:0:0:0:
236,372,83054,1,2,3:0:0:0:
86,263,83225,2,0,P|104:219|144:194,1,95.9999970703126,10|0,0:0|3:0,0:0:0:0:
266,182,83568,1,10,0:0:0:0:
339,323,83740,5,2,3:0:0:0:
385,114,83912,1,8,0:0:0:0:
337,335,84083,1,2,3:0:0:0:
388,103,84255,1,8,0:0:0:0:
417,289,84425,2,0,L|511:274,1,95.9999970703126,2|8,3:0|0:0,0:0:0:0:
421,184,84768,1,2,3:0:0:0:
337,335,84940,1,10,0:0:0:0:
299,208,85111,6,0,L|205:193,1,95.9999970703126,2|8,3:0|0:0,0:0:0:0:
60,272,85454,2,0,P|68:318|100:353,1,95.9999970703126,2|8,3:0|0:0,0:0:0:0:
202,357,85797,1,2,3:0:0:0:
288,191,85968,2,0,L|194:176,1,95.9999970703126,10|0,0:0|3:0,0:0:0:0:
88,161,86311,1,10,0:0:0:0:
139,42,86483,5,2,3:0:0:0:
189,270,86655,1,8,0:0:0:0:
137,29,86826,1,2,3:0:0:0:
193,282,86998,1,8,0:0:0:0:
239,92,87168,2,0,P|268:55|314:41,1,95.9999970703126,2|8,3:0|0:0,0:0:0:0:
459,109,87511,1,2,3:0:0:0:
332,178,87683,1,10,0:0:0:0:
474,203,87854,6,0,L|459:109,1,95.9999970703126,2|8,3:0|0:0,0:0:0:0:
383,263,88197,2,0,L|398:357,1,95.9999970703126,2|8,3:0|0:0,0:0:0:0:
304,209,88540,1,2,3:0:0:0:
232,333,88711,2,0,P|184:332|143:308,1,95.9999970703126,10|0,0:0|3:0,0:0:0:0:
124,216,89054,1,10,0:0:0:0:
11,140,89225,5,2,3:0:0:0:
193,99,89397,1,8,0:0:0:0:
0,141,89568,1,2,3:0:0:0:
203,97,89740,1,8,0:0:0:0:
97,187,89911,2,0,L|191:202,1,95.9999970703126,2|8,3:0|0:0,0:0:0:0:
365,232,90254,1,2,3:0:0:0:
285,303,90425,1,10,0:0:0:0:
316,154,90597,6,0,P|351:187|364:239,1,95.9999970703126,2|8,3:0|0:0,0:0:0:0:
243,382,90940,2,0,P|208:349|194:304,1,95.9999970703126,2|8,3:0|0:0,0:0:0:0:
213,217,91283,1,2,3:0:0:0:
142,100,91454,2,0,L|48:115,1,95.9999970703126,10|0,0:0|3:0,0:0:0:0:
202,25,91797,1,10,0:0:0:0:
270,166,91968,5,2,3:0:0:0:
47,115,92140,1,8,0:0:0:0:
283,167,92311,1,2,3:0:0:0:
35,113,92483,1,8,0:0:0:0:
165,266,92654,2,0,L|180:172,1,95.9999970703126,2|8,3:0|0:0,0:0:0:0:
202,25,92997,1,2,3:0:0:0:
283,167,93168,1,10,0:0:0:0:
100,205,93340,5,4,3:0:0:0:
446,213,104311,6,0,L|432:116,1,80,0|0,3:0|0:0,0:0:0:0:
360,33,104654,2,0,L|334:212,1,160,0|0,3:0|3:0,0:0:0:0:
322,290,105168,1,0,0:0:0:0:
226,367,105340,2,0,P|187:359|157:333,1,80,0|0,3:0|0:0,0:0:0:0:
163,187,105683,5,0,3:0:0:0:
216,260,105854,1,0,0:0:0:0:
56,258,106025,2,0,L|70:161,1,80,0|0,3:0|0:0,0:0:0:0:
116,70,106368,5,0,3:0:0:0:
224,150,106539,1,0,0:0:0:0:
134,230,106711,2,0,L|148:133,1,80,0|0,3:0|0:0,0:0:0:0:
265,57,107054,6,0,P|299:80|318:127,1,80,0|0,3:0|0:0,0:0:0:0:
409,105,107397,2,0,P|406:145|374:185,1,80,0|0,3:0|0:0,0:0:0:0:
188,301,107740,2,0,P|190:260|222:220,1,80,0|0,3:0|0:0,0:0:0:0:
157,152,108083,2,0,P|193:134|244:141,1,80,0|0,3:0|0:0,0:0:0:0:
310,325,108425,5,0,3:0:0:0:
296,197,108597,1,0,0:0:0:0:
310,325,108768,2,0,L|407:339,1,80,0|0,3:0|0:0,0:0:0:0:
200,258,109111,5,0,3:0:0:0:
218,91,109283,1,0,0:0:0:0:
200,258,109454,2,0,L|103:272,1,80,0|0,3:0|0:0,0:0:0:0:
310,325,109797,6,0,P|347:313|373:283,1,80,0|0,3:0|0:0,0:0:0:0:
413,177,110140,2,0,L|435:335,1,160,0|0,3:0|3:0,0:0:0:0:
512,262,110654,1,0,0:0:0:0:
474,124,110825,2,0,P|441:102|402:99,1,80,0|0,3:0|0:0,0:0:0:0:
309,162,111168,5,0,3:0:0:0:
353,258,111340,1,0,0:0:0:0:
233,309,111511,2,0,L|244:229,1,80,0|0,3:0|0:0,0:0:0:0:
309,162,111854,5,0,3:0:0:0:
265,66,112026,1,0,0:0:0:0:
385,15,112197,2,0,L|373:94,1,80,0|0,3:0|0:0,0:0:0:0:
323,246,112540,6,0,B|267:238|267:238|235:202|235:202|182:194,1,160,0|0,3:0|3:0,0:0:0:0:
71,177,113054,1,0,0:0:0:0:
61,334,113225,2,0,P|139:334|193:279,1,160,0|0,3:0|3:0,0:0:0:0:
112,44,114768,5,2,3:0:0:0:
310,87,114940,1,2,3:0:0:0:
112,44,115111,1,2,3:0:0:0:
224,141,115283,6,0,L|210:236,1,95.9999970703126,6|8,3:0|0:0,0:0:0:0:
413,170,115625,2,0,L|399:75,1,95.9999970703126,2|8,3:0|0:0,0:0:0:0:
311,6,115968,1,2,3:0:0:0:
208,119,116140,2,0,L|194:214,1,95.9999970703126,2|8,0:0|3:0,0:0:0:0:
280,347,116483,1,2,0:0:0:0:
344,233,116654,6,0,B|284:217|259:258|256:264|254:270|234:307|174:294,1,191.999994140625,2|2,3:0|3:0,0:0:0:0:
85,230,117168,1,8,0:0:0:0:
173,86,117340,2,0,P|219:96|253:129,1,95.9999970703126,2|8,3:0|0:0,0:0:0:0:
263,296,117683,1,2,3:0:0:0:
115,226,117854,1,2,0:0:0:0:
300,207,118025,6,0,L|395:193,1,95.9999970703126,2|8,3:0|0:0,0:0:0:0:
485,326,118368,2,0,L|390:312,1,95.9999970703126,2|8,3:0|0:0,0:0:0:0:
263,296,118711,1,2,3:0:0:0:
394,193,118883,2,0,P|388:145|360:107,1,95.9999970703126,2|8,0:0|3:0,0:0:0:0:
205,59,119226,1,2,0:0:0:0:
231,205,119397,6,0,B|240:141|240:141|284:102|284:102|292:34,1,191.999994140625,2|2,3:0|3:0,0:0:0:0:
122,48,119911,1,8,0:0:0:0:
77,159,120083,2,0,P|86:205|115:242,1,95.9999970703126,2|8,3:0|0:0,0:0:0:0:
305,285,120426,1,2,3:0:0:0:
208,355,120597,1,2,0:0:0:0:
253,174,120769,6,0,L|348:187,1,95.9999970703126,2|8,3:0|0:0,0:0:0:0:
154,157,121111,2,0,L|59:144,1,95.9999970703126,2|8,3:0|0:0,0:0:0:0:
300,90,121454,1,2,3:0:0:0:
223,27,121626,2,0,L|128:14,1,95.9999970703126,2|8,0:0|3:0,0:0:0:0:
300,90,121969,1,2,0:0:0:0:
414,35,122140,6,0,P|405:127|326:175,1,191.999994140625,2|2,3:0|3:0,0:0:0:0:
227,124,122654,1,8,0:0:0:0:
147,192,122825,2,0,L|161:287,1,95.9999970703126,2|8,3:0|0:0,0:0:0:0:
26,347,123169,1,2,3:0:0:0:
67,242,123340,1,2,0:0:0:0:
159,370,123511,6,0,P|196:363|237:320,1,95.9999970703126,2|8,3:0|0:0,0:0:0:0:
147,166,123854,2,0,L|52:152,1,95.9999970703126,2|8,3:0|0:0,0:0:0:0:
224,97,124197,1,2,3:0:0:0:
267,232,124368,2,0,L|362:218,1,95.9999970703126,2|8,0:0|3:0,0:0:0:0:
467,204,124711,1,2,0:0:0:0:
381,16,124883,6,0,B|341:69|341:69|363:228,1,216.000000823975,2|2,3:0|3:0,0:0:0:0:
380,337,125397,1,0,0:0:0:0:
229,363,125568,2,0,L|244:256,1,108.000000411987,2|0,3:0|0:0,0:0:0:0:
263,125,125911,1,2,3:0:0:0:
321,283,126083,1,2,3:0:0:0:
156,309,126254,6,0,P|108:312|67:288,1,95.9999970703126,6|8,3:0|0:0,0:0:0:0:
293,200,126597,2,0,P|340:197|381:221,1,95.9999970703126,2|8,3:0|0:0,0:0:0:0:
405,323,126940,1,2,3:0:0:0:
250,368,127111,2,0,L|234:261,1,95.9999970703126,10|0,0:0|3:0,0:0:0:0:
215,148,127454,1,10,0:0:0:0:
368,54,127625,5,2,3:0:0:0:
330,232,127797,1,8,0:0:0:0:
370,45,127968,1,2,3:0:0:0:
327,241,128140,1,8,0:0:0:0:
273,82,128311,6,0,P|228:60|181:65,1,95.9999970703126,2|8,3:0|0:0,0:0:0:0:
71,158,128654,1,2,3:0:0:0:
209,246,128826,1,10,0:0:0:0:
94,343,128997,6,0,L|107:248,1,95.9999970703126,2|8,3:0|0:0,0:0:0:0:
285,178,129340,2,0,L|298:272,1,95.9999970703126,2|8,3:0|0:0,0:0:0:0:
247,355,129683,1,2,3:0:0:0:
113,324,129854,2,0,L|126:229,1,95.9999970703126,10|0,0:0|3:0,0:0:0:0:
148,119,130197,1,10,0:0:0:0:
19,232,130368,5,2,3:0:0:0:
228,278,130540,1,8,0:0:0:0:
7,230,130711,1,2,3:0:0:0:
239,281,130883,1,8,0:0:0:0:
148,119,131054,6,0,P|179:83|224:71,1,95.9999970703126,2|8,3:0|0:0,0:0:0:0:
402,126,131397,1,2,3:0:0:0:
267,167,131569,1,10,0:0:0:0:
337,20,131740,6,0,L|322:114,1,80,2|8,3:0|0:0,0:0:0:0:
297,259,132083,2,0,L|284:338,1,80,2|8,3:0|0:0,0:0:0:0:
378,372,132426,1,2,3:0:0:0:
464,261,132597,2,0,P|447:215|411:189,1,80,10|0,0:0|3:0,0:0:0:0:
337,184,132940,1,10,0:0:0:0:
209,240,133111,5,2,3:0:0:0:
247,62,133283,1,8,0:0:0:0:
207,249,133454,1,2,3:0:0:0:
250,53,133626,1,8,0:0:0:0:
151,142,133797,2,0,L|63:156,1,64,2|8,3:0|0:0,0:0:0:0:
0,168,134140,1,2,3:0:0:0:
50,242,134311,1,10,0:0:0:0:
1,318,134483,6,0,P|29:331|67:327,1,64,2|8,3:0|0:0,0:0:0:0:
151,370,134825,2,0,P|177:352|192:317,1,64,2|8,3:0|0:0,0:0:0:0:
168,231,135169,1,2,3:0:0:0:
283,277,135340,2,0,P|280:245|258:214,1,64,10|0,0:0|3:0,0:0:0:0:
168,231,135683,1,10,0:0:0:0:
137,130,135854,6,0,L|144:82,1,47.9999985351563,2|8,3:0|0:0,0:0:0:0:
221,113,136197,2,0,L|228:65,1,47.9999985351563,2|8,3:0|0:0,0:0:0:0:
305,96,136540,2,0,L|312:48,1,47.9999985351563,2|8,3:0|0:0,0:0:0:0:
374,216,136883,1,2,3:0:0:0:
457,186,137054,1,10,0:0:0:0:
388,127,137225,5,4,3:0:0:0:
