osu file format v14

[General]
AudioFilename: audio.mp3
AudioLeadIn: 0
PreviewTime: 218682
Countdown: 0
SampleSet: Normal
StackLeniency: 0.7
Mode: 1
LetterboxInBreaks: 0
WidescreenStoryboard: 1

[Editor]
Bookmarks: 21967,32939,43910,54882,63110,65853,71339,93282,104253,126196,137167,148139,159110,170082,181053,192025,202996,213967,219453,230253,235910,246539,247567,254425,255110,257853,268825,278596,279796,290767,301739,312710,322310,323682
DistanceSpacing: 1
BeatDivisor: 4
GridSize: 32
TimelineZoom: 2.000001

[Metadata]
Title:Bass Slut
TitleUnicode:Bass Slut
Artist:S3RL
ArtistUnicode:S3RL
Creator:Log On Now
Version:Hivie's Seductive Oni
Source:
Tags:hivie lugu atmo mokobe serl featured artist fa english long full version dj techno hardstyle electronic
BeatmapID:2569352
BeatmapSetID:1227249

[Difficulty]
HPDrainRate:6
CircleSize:2
OverallDifficulty:6
ApproachRate:9
SliderMultiplier:1.4
SliderTickRate:1

[Events]
//Background and Video events
0,0,"MOSHED-2020-8-1-23-32-26.jpg",0,0
//Break Periods
//Storyboard Layer 0 (Background)
//Storyboard Layer 1 (Fail)
//Storyboard Layer 2 (Pass)
//Storyboard Layer 3 (Foreground)
//Storyboard Layer 4 (Overlay)
//Storyboard Sound Samples

[TimingPoints]
30,342.857142857143,4,1,0,100,1,0
21885,-111.111111111111,4,1,0,70,0,0
22056,-125,4,1,0,50,0,0
32942,-111.111111111111,4,1,0,80,0,0
43656,-100,4,1,0,90,0,0
52399,-95.2380952380952,4,1,0,90,0,0
52485,-100,4,1,0,90,0,0
52742,-95.2380952380952,4,1,0,90,0,0
52828,-100,4,1,0,90,0,0
53085,-95.2380952380952,4,1,0,90,0,0
53170,-100,4,1,0,90,0,0
54456,-95.2380952380952,4,1,0,90,0,0
54885,-90.9090909090909,4,1,0,100,0,0
63285,-111.111111111111,4,1,0,100,0,0
65856,-100,4,1,0,90,0,0
68599,-90.9090909090909,4,1,0,90,0,0
69885,-20,4,1,0,100,0,0
71342,-83.3333333333333,4,1,0,100,0,0
71344,-83.3333333333333,4,1,0,100,0,1
80942,-90.9090909090909,4,1,0,100,0,1
80944,-90.9090909090909,4,1,0,100,0,0
81285,-111.111111111111,4,1,0,100,0,0
81970,-90.9090909090909,4,1,0,100,0,0
82142,-86.9565217391304,4,1,0,100,0,0
82313,-83.3333333333333,4,1,0,100,0,0
82315,-83.3333333333333,4,1,0,100,0,1
91913,-90.9090909090909,4,1,0,100,0,1
91915,-90.9090909090909,4,1,0,100,0,0
92256,-100,4,1,0,100,0,0
92599,-105.263157894737,4,1,0,100,0,0
93113,-102.564102564103,4,1,0,100,0,0
93285,-100,4,1,0,100,0,0
98685,-50,4,1,0,100,0,0
98856,-100,4,1,0,100,0,0
101513,-100,4,1,0,100,0,0
101856,-103.885634382821,4,1,0,100,0,0
102028,-105.943875172689,4,1,0,100,0,0
102199,-108.085322553624,4,1,0,100,0,0
102542,-112.638996521708,4,1,0,97,0,0
102885,-117.593104340361,4,1,0,93,0,0
103228,-123.003196853086,4,1,0,90,0,0
103570,-128.935099228452,4,1,0,87,0,0
103913,-135.467946929077,4,1,0,83,0,0
104256,-142.698339990211,4,1,0,80,0,0
115142,-100,4,1,0,100,0,0
115313,-133.333333333333,4,1,0,80,0,0
126199,-100,4,1,0,90,0,0
136999,-95.2380952380952,4,1,0,90,0,0
137170,-90.9090909090909,4,1,0,90,0,0
146770,-20,4,1,0,100,0,0
148142,-83.3333333333333,4,1,0,100,0,0
148144,-83.3333333333333,4,1,0,100,0,1
157570,-86.9565217391304,4,1,0,100,0,1
157656,-88.1057268722467,4,1,0,100,0,1
157742,-90.9090909090909,4,1,0,100,0,1
157744,-90.9090909090909,4,1,0,100,0,0
158085,-100,4,1,0,100,0,0
158770,-90.9090909090909,4,1,0,100,0,0
158942,-86.9565217391304,4,1,0,100,0,0
159113,-83.3333333333333,4,1,0,100,0,0
159115,-83.3333333333333,4,1,0,100,0,1
169399,-83.3333333333333,4,1,0,100,0,1
169570,-88.8278542832347,4,1,0,100,0,1
169742,-95.0980746443807,4,1,0,100,0,1
169913,-102.320631932223,4,1,0,100,0,1
170085,-110.730567062307,4,1,0,90,0,1
170087,-110.730567062307,4,1,0,90,0,0
180713,-107.181136120043,4,1,0,90,0,0
180885,-103.51966873706,4,1,0,100,0,0
181056,-100,4,1,0,100,0,0
189542,-95.2380952380952,4,1,0,90,0,0
189628,-100,4,1,0,90,0,0
189885,-95.2380952380952,4,1,0,90,0,0
189971,-100,4,1,0,90,0,0
190228,-95.2380952380952,4,1,0,90,0,0
190313,-100,4,1,0,90,0,0
191513,-83.3333333333333,4,1,0,100,0,0
191685,-86.2068965517241,4,1,0,100,0,0
191856,-89.2857142857143,4,1,0,100,0,0
192028,-83.3333333333333,4,1,0,100,0,0
192030,-83.3333333333333,4,1,0,100,0,1
201456,-86.9565217391304,4,1,0,100,0,1
201542,-88.1057268722467,4,1,0,100,0,1
201628,-90.9090909090909,4,1,0,100,0,1
201630,-90.9090909090909,4,1,0,100,0,0
201971,-100,4,1,0,100,0,0
202656,-90.9090909090909,4,1,0,100,0,0
202828,-86.9565217391304,4,1,0,100,0,0
202999,-83.3333333333333,4,1,0,100,0,0
203001,-83.3333333333333,4,1,0,100,0,1
209856,-83.3333333333333,4,1,0,100,0,1
210199,-85.7142612244968,4,1,0,100,0,1
210542,-88.2353200692118,4,1,0,100,0,1
210885,-90.9090909090909,4,1,0,100,0,1
211056,-92.3077207100679,4,1,0,100,0,1
211228,-93.7499707031342,4,1,0,100,0,1
211570,-96.774224765879,4,1,0,100,0,1
211913,-100,4,1,0,100,0,1
212085,-101.694949727102,4,1,0,100,0,1
212428,-105.263157894737,4,1,0,100,0,1
212599,-107.142895408177,4,1,0,100,0,1
212942,-111.111111111111,4,1,0,92,0,1
213285,-115.384571005934,4,1,0,85,0,1
213628,-120.000048000019,4,1,0,78,0,1
213970,-125,4,1,0,70,0,1
213972,-125,4,1,0,70,0,0
215342,-142.857142857143,4,1,0,40,0,0
215685,-130.48714766839,4,1,0,50,0,0
216028,-120.088529263773,4,1,0,60,0,0
216370,-111.22505500079,4,1,0,70,0,0
216713,-103.579929524216,4,1,0,78,0,0
216885,-100.138391256717,4,1,0,78,0,0
218085,-100.138391256717,4,1,0,80,0,0
219285,-95.2380952380952,4,1,0,80,0,0
219456,-90.9090909090909,4,1,0,90,0,0
219799,-111.111111111111,4,1,0,90,0,0
220999,-105.263157894737,4,1,0,90,0,0
221085,-108.108108108108,4,1,0,90,0,0
221170,-111.111111111111,4,1,0,90,0,0
221342,-105.263157894737,4,1,0,90,0,0
221399,-107.142895408177,4,1,0,90,0,0
221456,-109.090869421502,4,1,0,90,0,0
221513,-111.111111111111,4,1,0,90,0,0
222713,-105.263157894737,4,1,0,90,0,0
222799,-108.108108108108,4,1,0,90,0,0
222884,-111.111111111111,4,1,0,90,0,0
223056,-105.263157894737,4,1,0,90,0,0
223142,-108.108108108108,4,1,0,90,0,0
223227,-111.111111111111,4,1,0,90,0,0
223399,-117.64705882353,4,1,0,90,0,0
223485,-114.285714285714,4,1,0,90,0,0
223570,-111.111111111111,4,1,0,90,0,0
226485,-105.263157894737,4,1,0,90,0,0
226570,-108.108108108108,4,1,0,90,0,0
226656,-111.111111111111,4,1,0,90,0,0
226999,-108.108108108108,4,1,0,90,0,0
227085,-111.111111111111,4,1,0,90,0,0
227256,-108.108108108108,4,1,0,90,0,0
227342,-111.111111111111,4,1,0,90,0,0
227513,-117.647058823529,4,1,0,90,0,0
227599,-114.285714285714,4,1,0,90,0,0
227685,-111.111111111111,4,1,0,90,0,0
228028,-105.263157894737,4,1,0,90,0,0
228199,-107.52688172043,4,1,0,90,0,0
228370,-105.263157894737,4,1,0,90,0,0
228542,-106.382978723404,4,1,0,90,0,0
228713,-107.52688172043,4,1,0,90,0,0
229056,-111.111111111111,4,1,0,90,0,0
229228,-105.263157894737,4,1,0,90,0,0
229313,-108.108108108108,4,1,0,90,0,0
229399,-111.111111111111,4,1,0,90,0,0
229572,-108.108108108108,4,1,0,90,0,0
229744,-111.111111111111,4,1,0,90,0,0
230087,-117.647058823529,4,1,0,90,0,0
230256,-121.212121212121,4,1,0,90,0,0
230428,-125,4,1,0,80,0,0
234370,-20,4,1,0,100,0,0
235742,-100,4,1,0,100,0,0
244399,-95.2380952380952,4,1,0,90,0,0
244485,-100,4,1,0,90,0,0
244742,-95.2380952380952,4,1,0,90,0,0
244828,-100,4,1,0,90,0,0
245085,-95.2380952380952,4,1,0,90,0,0
245170,-100,4,1,0,90,0,0
247485,-50,4,1,0,100,0,0
247656,-90.9090909090909,4,1,0,100,0,0
255113,-100,4,1,0,90,0,0
257856,-83.3333333333333,4,1,0,100,0,0
257858,-83.3333333333333,4,1,0,100,0,1
267456,-90.9090909090909,4,1,0,100,0,1
267458,-90.9090909090909,4,1,0,100,0,0
267799,-111.111111111111,4,1,0,100,0,0
268484,-90.9090909090909,4,1,0,100,0,0
268656,-86.9565217391304,4,1,0,100,0,0
268828,-83.3333333333333,4,1,0,100,0,0
268830,-83.3333333333333,4,1,0,100,0,1
278428,-83.3333333333333,4,1,0,100,0,1
278430,-83.3333333333333,4,1,0,100,0,0
279885,-100,4,1,0,100,0,0
289399,-90.9090909090909,4,1,0,100,0,0
290428,-90.9090909090909,4,1,0,100,0,0
290599,-95.2380952380952,4,1,0,100,0,0
290770,-100,4,1,0,100,0,0
301828,-111.111111111111,4,1,0,90,0,0
312542,-117.647058823529,4,1,0,85,0,0
312713,-125,4,1,0,80,0,0
322142,-20,4,1,0,100,0,0

[Colours]
Combo1 : 38,48,166
Combo2 : 115,34,85

[HitObjects]
256,96,21972,5,4,0:0:0:0:
256,192,23344,1,0,0:0:0:0:
256,192,24715,1,0,0:0:0:0:
256,192,26087,1,0,0:0:0:0:
256,192,27458,1,0,0:0:0:0:
256,192,28830,5,0,0:0:0:0:
256,192,30201,12,0,32772,0:0:0:0:
256,192,32944,5,8,0:0:0:0:
256,192,33115,1,0,0:0:0:0:
256,192,33287,1,8,0:0:0:0:
256,192,33630,1,8,0:0:0:0:
256,192,33972,1,0,0:0:0:0:
256,192,34315,1,8,0:0:0:0:
256,192,34658,1,0,0:0:0:0:
256,192,35001,1,8,0:0:0:0:
256,192,35344,1,0,0:0:0:0:
256,192,35515,1,8,0:0:0:0:
256,192,35687,1,8,0:0:0:0:
256,192,36030,1,0,0:0:0:0:
256,192,36372,1,8,0:0:0:0:
256,192,36715,1,0,0:0:0:0:
256,192,37058,1,0,0:0:0:0:
256,192,37401,1,8,0:0:0:0:
256,192,37744,1,8,0:0:0:0:
256,192,38087,1,0,0:0:0:0:
256,192,38258,1,8,0:0:0:0:
256,192,38430,1,0,0:0:0:0:
256,192,38772,1,0,0:0:0:0:
256,192,39115,1,8,0:0:0:0:
256,192,39458,1,0,0:0:0:0:
256,192,39801,1,8,0:0:0:0:
256,192,40144,1,8,0:0:0:0:
256,192,40487,1,0,0:0:0:0:
256,192,40830,1,0,0:0:0:0:
256,192,41172,1,8,0:0:0:0:
256,192,41515,1,0,0:0:0:0:
256,192,41858,1,8,0:0:0:0:
256,192,42201,1,0,0:0:0:0:
352,192,43744,1,8,0:0:0:0:
352,192,43787,1,8,0:0:0:0:
256,96,43915,1,4,0:0:0:0:
256,192,44087,1,8,0:0:0:0:
256,192,44258,1,0,0:0:0:0:
256,192,44430,1,0,0:0:0:0:
256,192,44601,1,8,0:0:0:0:
256,192,44944,1,8,0:0:0:0:
256,192,45115,1,0,0:0:0:0:
256,192,45287,1,8,0:0:0:0:
256,192,45458,1,0,0:0:0:0:
256,192,45630,1,8,0:0:0:0:
256,192,45801,1,0,0:0:0:0:
256,192,45972,1,8,0:0:0:0:
256,192,46144,1,8,0:0:0:0:
256,192,46315,1,0,0:0:0:0:
256,192,46487,1,8,0:0:0:0:
256,192,46658,1,8,0:0:0:0:
256,192,46830,1,0,0:0:0:0:
256,192,47001,1,8,0:0:0:0:
256,192,47172,1,0,0:0:0:0:
256,192,47344,1,8,0:0:0:0:
256,192,47515,1,0,0:0:0:0:
256,192,47687,1,0,0:0:0:0:
256,192,47858,1,8,0:0:0:0:
256,192,48030,1,8,0:0:0:0:
256,192,48201,1,0,0:0:0:0:
256,192,48372,1,8,0:0:0:0:
256,192,48544,1,0,0:0:0:0:
256,192,48715,1,8,0:0:0:0:
256,192,48887,1,8,0:0:0:0:
256,192,49058,1,0,0:0:0:0:
256,192,49401,1,8,0:0:0:0:
256,192,49572,1,0,0:0:0:0:
256,192,49744,1,0,0:0:0:0:
256,192,50087,1,8,0:0:0:0:
256,192,50258,1,0,0:0:0:0:
256,192,50430,1,0,0:0:0:0:
256,192,50601,1,8,0:0:0:0:
256,192,50772,1,8,0:0:0:0:
256,192,50944,1,0,0:0:0:0:
256,192,51115,1,8,0:0:0:0:
256,192,51287,1,0,0:0:0:0:
256,192,51458,1,8,0:0:0:0:
256,192,51630,1,0,0:0:0:0:
256,192,51801,1,8,0:0:0:0:
256,192,52144,1,8,0:0:0:0:
256,192,52401,1,0,0:0:0:0:
256,192,52487,1,8,0:0:0:0:
256,192,52744,1,0,0:0:0:0:
256,192,52830,1,8,0:0:0:0:
256,192,53087,1,0,0:0:0:0:
256,192,53172,1,8,0:0:0:0:
256,192,53515,1,8,0:0:0:0:
256,192,53687,1,0,0:0:0:0:
256,192,53858,1,8,0:0:0:0:
256,192,54030,1,8,0:0:0:0:
256,192,54201,1,0,0:0:0:0:
256,192,54372,1,0,0:0:0:0:
256,192,54544,2,0,L|256:288,1,73.4999977569581
256,96,54887,1,12,0:0:0:0:
256,192,55058,1,0,0:0:0:0:
256,192,55230,1,8,0:0:0:0:
256,192,55315,1,8,0:0:0:0:
256,192,55401,1,0,0:0:0:0:
256,192,55572,1,8,0:0:0:0:
256,192,55744,1,0,0:0:0:0:
256,192,55830,1,0,0:0:0:0:
256,192,55915,1,8,0:0:0:0:
256,192,56087,1,8,0:0:0:0:
256,192,56172,1,0,0:0:0:0:
256,192,56258,1,8,0:0:0:0:
256,192,56430,1,0,0:0:0:0:
256,192,56601,1,8,0:0:0:0:
256,192,56772,1,0,0:0:0:0:
256,192,56944,1,0,0:0:0:0:
256,192,57030,1,8,0:0:0:0:
256,192,57115,1,0,0:0:0:0:
256,192,57287,1,8,0:0:0:0:
256,192,57458,1,8,0:0:0:0:
256,192,57544,1,0,0:0:0:0:
256,192,57630,1,8,0:0:0:0:
256,192,57801,1,0,0:0:0:0:
256,192,57972,1,8,0:0:0:0:
256,192,58144,1,0,0:0:0:0:
256,192,58315,1,8,0:0:0:0:
256,192,58487,1,0,0:0:0:0:
256,192,58572,1,0,0:0:0:0:
256,192,58658,1,8,0:0:0:0:
256,192,58830,1,8,0:0:0:0:
256,192,58915,1,0,0:0:0:0:
256,192,59001,1,8,0:0:0:0:
256,192,59172,1,0,0:0:0:0:
256,192,59344,1,8,0:0:0:0:
256,192,59515,1,0,0:0:0:0:
256,192,59687,1,8,0:0:0:0:
256,192,59858,1,8,0:0:0:0:
256,192,59944,1,8,0:0:0:0:
256,192,60030,1,0,0:0:0:0:
256,192,60201,1,8,0:0:0:0:
256,192,60372,1,0,0:0:0:0:
256,192,60458,1,0,0:0:0:0:
256,192,60544,1,0,0:0:0:0:
256,192,60715,1,8,0:0:0:0:
256,192,60887,1,0,0:0:0:0:
256,192,61058,1,8,0:0:0:0:
256,192,61230,1,0,0:0:0:0:
256,192,61315,1,0,0:0:0:0:
256,192,61401,1,8,0:0:0:0:
256,192,61572,1,0,0:0:0:0:
256,192,61744,1,8,0:0:0:0:
256,192,61915,1,8,0:0:0:0:
256,192,62087,1,0,0:0:0:0:
256,192,62172,1,0,0:0:0:0:
256,192,62258,1,0,0:0:0:0:
256,192,62430,1,8,0:0:0:0:
256,192,62601,1,0,0:0:0:0:
256,192,62687,1,0,0:0:0:0:
256,192,62772,1,8,0:0:0:0:
256,192,62944,1,0,0:0:0:0:
256,96,63115,1,12,0:0:0:0:
256,96,65858,1,4,0:0:0:0:
256,96,66201,1,4,0:0:0:0:
256,96,66544,1,4,0:0:0:0:
256,96,66887,1,4,0:0:0:0:
256,96,67230,1,4,0:0:0:0:
256,96,67572,1,4,0:0:0:0:
256,96,67915,1,4,0:0:0:0:
256,96,68258,1,4,0:0:0:0:
256,192,68601,1,0,0:0:0:0:
256,192,68772,1,0,0:0:0:0:
256,192,68944,1,8,0:0:0:0:
256,192,69115,1,0,0:0:0:0:
256,192,69287,1,8,0:0:0:0:
256,192,69458,1,8,0:0:0:0:
256,192,69630,1,0,0:0:0:0:
256,192,69972,2,0,L|256:320,24,87.5
256,192,71344,1,0,0:0:0:0:
256,192,71430,1,0,0:0:0:0:
256,192,71515,1,0,0:0:0:0:
256,192,71687,1,8,0:0:0:0:
256,192,71858,1,0,0:0:0:0:
256,192,72030,1,8,0:0:0:0:
160,192,72201,1,0,0:0:0:0:
160,192,72258,1,0,0:0:0:0:
160,192,72315,1,0,0:0:0:0:
160,192,72372,1,8,0:0:0:0:
256,192,72544,1,8,0:0:0:0:
256,192,72715,1,0,0:0:0:0:
256,192,72887,1,0,0:0:0:0:
256,192,73058,1,0,0:0:0:0:
256,192,73144,1,0,0:0:0:0:
256,192,73230,1,8,0:0:0:0:
256,192,73401,1,0,0:0:0:0:
256,192,73572,1,8,0:0:0:0:
256,192,73658,1,0,0:0:0:0:
256,192,73744,1,8,0:0:0:0:
256,192,73915,1,0,0:0:0:0:
256,192,74087,1,8,0:0:0:0:
256,192,74172,1,0,0:0:0:0:
256,192,74258,1,0,0:0:0:0:
256,192,74430,1,8,0:0:0:0:
256,192,74601,1,8,0:0:0:0:
256,192,74772,1,0,0:0:0:0:
160,192,74944,1,0,0:0:0:0:
160,192,75001,1,0,0:0:0:0:
160,192,75058,1,0,0:0:0:0:
160,192,75115,1,8,0:0:0:0:
256,192,75287,1,0,0:0:0:0:
256,192,75458,1,8,0:0:0:0:
256,192,75630,1,0,0:0:0:0:
256,192,75801,1,0,0:0:0:0:
256,192,75887,1,0,0:0:0:0:
256,192,75972,1,8,0:0:0:0:
256,192,76144,1,0,0:0:0:0:
256,192,76315,1,8,0:0:0:0:
256,192,76401,1,0,0:0:0:0:
256,192,76487,1,8,0:0:0:0:
256,192,76658,1,0,0:0:0:0:
256,192,76830,1,0,0:0:0:0:
256,192,76915,1,0,0:0:0:0:
256,192,77001,1,0,0:0:0:0:
256,192,77172,1,8,0:0:0:0:
256,192,77344,1,8,0:0:0:0:
256,192,77515,1,0,0:0:0:0:
160,192,77687,1,8,0:0:0:0:
160,192,77744,1,0,0:0:0:0:
160,192,77801,1,0,0:0:0:0:
160,192,77858,1,8,0:0:0:0:
256,192,78030,1,0,0:0:0:0:
256,192,78201,1,8,0:0:0:0:
256,192,78372,1,0,0:0:0:0:
256,192,78544,1,0,0:0:0:0:
256,192,78630,1,0,0:0:0:0:
256,192,78715,1,8,0:0:0:0:
256,192,78887,1,0,0:0:0:0:
256,192,79058,5,8,0:0:0:0:
256,192,79144,1,8,0:0:0:0:
256,192,79230,1,0,0:0:0:0:
256,192,79401,1,0,0:0:0:0:
256,192,79572,5,8,0:0:0:0:
256,192,79658,1,0,0:0:0:0:
256,192,79744,1,0,0:0:0:0:
256,192,79830,1,0,0:0:0:0:
160,192,79915,1,8,0:0:0:0:
160,192,79972,1,8,0:0:0:0:
160,192,80030,1,8,0:0:0:0:
160,192,80087,1,0,0:0:0:0:
256,192,80258,5,8,0:0:0:0:
256,192,80344,1,0,0:0:0:0:
256,192,80430,1,0,0:0:0:0:
256,192,80515,1,0,0:0:0:0:
160,192,80601,1,8,0:0:0:0:
160,192,80658,1,8,0:0:0:0:
160,192,80715,1,8,0:0:0:0:
160,192,80772,1,0,0:0:0:0:
256,192,80944,1,0,0:0:0:0:
256,192,81287,1,0,0:0:0:0:
256,192,81630,1,0,0:0:0:0:
256,96,81972,1,12,0:0:0:0:
256,96,82144,1,12,0:0:0:0:
256,192,82315,1,0,0:0:0:0:
256,192,82401,1,8,0:0:0:0:
256,192,82487,1,0,0:0:0:0:
256,192,82658,1,8,0:0:0:0:
256,192,82744,1,8,0:0:0:0:
256,192,82830,1,0,0:0:0:0:
256,192,83001,1,0,0:0:0:0:
160,192,83172,1,0,0:0:0:0:
160,192,83230,1,0,0:0:0:0:
160,192,83287,1,0,0:0:0:0:
160,192,83344,1,8,0:0:0:0:
256,192,83515,1,8,0:0:0:0:
256,192,83687,1,0,0:0:0:0:
256,192,83858,1,0,0:0:0:0:
256,192,84030,1,0,0:0:0:0:
256,192,84115,1,0,0:0:0:0:
256,192,84201,1,8,0:0:0:0:
256,192,84287,1,8,0:0:0:0:
256,192,84372,1,0,0:0:0:0:
256,192,84544,1,0,0:0:0:0:
256,192,84630,1,0,0:0:0:0:
256,192,84715,1,8,0:0:0:0:
256,192,84801,1,0,0:0:0:0:
256,192,84887,1,8,0:0:0:0:
256,192,85058,1,0,0:0:0:0:
256,192,85144,1,0,0:0:0:0:
256,192,85230,1,0,0:0:0:0:
256,192,85401,1,8,0:0:0:0:
256,192,85487,1,8,0:0:0:0:
256,192,85572,1,0,0:0:0:0:
256,192,85744,1,0,0:0:0:0:
160,192,85915,1,0,0:0:0:0:
160,192,85972,1,0,0:0:0:0:
160,192,86030,1,0,0:0:0:0:
160,192,86087,1,8,0:0:0:0:
256,192,86258,1,0,0:0:0:0:
256,192,86430,1,8,0:0:0:0:
256,192,86601,1,0,0:0:0:0:
256,192,86772,1,8,0:0:0:0:
256,192,86858,1,0,0:0:0:0:
256,192,86944,1,8,0:0:0:0:
256,192,87030,1,8,0:0:0:0:
256,192,87115,1,0,0:0:0:0:
256,192,87287,1,0,0:0:0:0:
256,192,87372,1,0,0:0:0:0:
256,192,87458,1,8,0:0:0:0:
256,192,87544,1,8,0:0:0:0:
256,192,87630,1,0,0:0:0:0:
256,192,87801,1,8,0:0:0:0:
256,192,87887,1,0,0:0:0:0:
256,192,87972,1,0,0:0:0:0:
256,192,88144,1,8,0:0:0:0:
256,192,88230,1,8,0:0:0:0:
256,192,88315,1,0,0:0:0:0:
256,192,88401,1,0,0:0:0:0:
256,192,88487,1,8,0:0:0:0:
160,192,88658,1,8,0:0:0:0:
160,192,88715,1,0,0:0:0:0:
160,192,88772,1,0,0:0:0:0:
160,192,88830,1,8,0:0:0:0:
256,192,88915,1,8,0:0:0:0:
256,192,89001,1,0,0:0:0:0:
256,192,89172,1,0,0:0:0:0:
256,192,89344,1,0,0:0:0:0:
256,192,89515,1,8,0:0:0:0:
256,192,89601,1,0,0:0:0:0:
256,192,89687,1,8,0:0:0:0:
256,192,89772,1,8,0:0:0:0:
256,192,89858,1,0,0:0:0:0:
256,192,90030,1,0,0:0:0:0:
256,192,90115,1,0,0:0:0:0:
256,192,90201,1,8,0:0:0:0:
256,192,90287,1,8,0:0:0:0:
256,192,90372,1,0,0:0:0:0:
256,192,90544,5,8,0:0:0:0:
256,192,90630,1,0,0:0:0:0:
256,192,90715,1,0,0:0:0:0:
256,192,90801,1,0,0:0:0:0:
160,192,90887,1,8,0:0:0:0:
160,192,90944,1,8,0:0:0:0:
160,192,91001,1,8,0:0:0:0:
160,192,91058,1,0,0:0:0:0:
256,192,91230,5,8,0:0:0:0:
256,192,91315,1,8,0:0:0:0:
256,192,91401,1,0,0:0:0:0:
256,192,91487,1,0,0:0:0:0:
160,192,91572,1,8,0:0:0:0:
160,192,91630,1,0,0:0:0:0:
160,192,91687,1,0,0:0:0:0:
160,192,91744,1,8,0:0:0:0:
256,192,91915,1,0,0:0:0:0:
256,192,92258,1,0,0:0:0:0:
256,192,92601,1,0,0:0:0:0:
256,192,92944,1,0,0:0:0:0:
256,192,93115,1,8,0:0:0:0:
256,96,93287,1,4,0:0:0:0:
256,192,93630,1,8,0:0:0:0:
256,192,93972,1,0,0:0:0:0:
256,192,94144,1,0,0:0:0:0:
256,192,94315,1,8,0:0:0:0:
256,192,94487,1,0,0:0:0:0:
256,192,94658,1,0,0:0:0:0:
256,192,95001,1,0,0:0:0:0:
256,192,95172,1,8,0:0:0:0:
256,192,95344,1,0,0:0:0:0:
256,192,95515,1,0,0:0:0:0:
256,192,95601,1,0,0:0:0:0:
256,192,95687,1,8,0:0:0:0:
256,192,95858,1,0,0:0:0:0:
256,192,96030,1,0,0:0:0:0:
256,192,96372,1,8,0:0:0:0:
256,192,96544,1,0,0:0:0:0:
256,192,96715,1,0,0:0:0:0:
256,192,96887,1,8,0:0:0:0:
256,192,97058,1,0,0:0:0:0:
256,192,97230,1,0,0:0:0:0:
256,192,97401,1,8,0:0:0:0:
256,192,97744,1,8,0:0:0:0:
256,192,97915,1,8,0:0:0:0:
256,192,98087,1,0,0:0:0:0:
256,192,98430,1,0,0:0:0:0:
256,96,98772,1,12,0:0:0:0:
256,192,99115,1,0,0:0:0:0:
256,192,99458,1,0,0:0:0:0:
256,192,99630,1,0,0:0:0:0:
256,192,99801,1,8,0:0:0:0:
256,192,100144,1,0,0:0:0:0:
256,192,100315,1,0,0:0:0:0:
256,192,100487,1,8,0:0:0:0:
256,192,100658,1,0,0:0:0:0:
256,192,100830,1,8,0:0:0:0:
256,192,101172,1,0,0:0:0:0:
256,192,101344,1,0,0:0:0:0:
256,192,101515,1,8,0:0:0:0:
256,192,101858,1,0,0:0:0:0:
256,192,102030,1,0,0:0:0:0:
256,192,102201,1,8,0:0:0:0:
256,192,102544,1,0,0:0:0:0:
256,192,102887,1,0,0:0:0:0:
256,192,103230,1,0,0:0:0:0:
256,192,103572,1,0,0:0:0:0:
256,192,103915,1,0,0:0:0:0:
256,192,104258,1,8,0:0:0:0:
256,192,105287,1,0,0:0:0:0:
256,192,105630,1,8,0:0:0:0:
256,192,106658,1,8,0:0:0:0:
256,192,107001,1,0,0:0:0:0:
256,192,108030,1,0,0:0:0:0:
256,192,108372,1,0,0:0:0:0:
256,192,109401,1,8,0:0:0:0:
256,192,109744,1,0,0:0:0:0:
256,192,110772,1,0,0:0:0:0:
256,192,111115,1,8,0:0:0:0:
256,192,112144,1,8,0:0:0:0:
256,192,112487,1,0,0:0:0:0:
256,192,113515,1,0,0:0:0:0:
256,192,113858,1,0,0:0:0:0:
256,192,114887,1,8,0:0:0:0:
256,96,115230,1,4,0:0:0:0:
256,192,116601,1,0,0:0:0:0:
256,192,117972,1,0,0:0:0:0:
256,192,119344,1,0,0:0:0:0:
256,192,120372,1,8,0:0:0:0:
256,192,120715,1,0,0:0:0:0:
256,192,122087,1,0,0:0:0:0:
256,192,123458,1,0,0:0:0:0:
256,192,124487,1,0,0:0:0:0:
256,192,124830,12,0,125858,0:0:0:0:
256,192,126201,5,0,0:0:0:0:
256,192,126544,1,8,0:0:0:0:
256,192,126887,1,0,0:0:0:0:
256,192,127058,1,0,0:0:0:0:
256,192,127401,1,0,0:0:0:0:
256,192,127572,1,8,0:0:0:0:
256,192,127915,1,8,0:0:0:0:
256,192,128258,1,0,0:0:0:0:
256,192,128601,1,8,0:0:0:0:
256,192,128772,1,8,0:0:0:0:
256,192,128944,5,0,0:0:0:0:
256,192,129287,1,8,0:0:0:0:
256,192,129630,1,0,0:0:0:0:
256,192,129801,1,0,0:0:0:0:
256,192,130144,1,0,0:0:0:0:
256,192,130315,1,8,0:0:0:0:
256,192,130658,1,8,0:0:0:0:
256,192,131001,1,0,0:0:0:0:
256,192,131344,1,8,0:0:0:0:
256,192,131515,1,8,0:0:0:0:
256,192,131687,5,0,0:0:0:0:
256,192,132030,1,8,0:0:0:0:
256,192,132372,1,0,0:0:0:0:
256,192,132544,1,0,0:0:0:0:
256,192,132887,1,0,0:0:0:0:
256,192,133058,1,8,0:0:0:0:
256,192,133401,1,8,0:0:0:0:
256,192,133744,1,0,0:0:0:0:
256,192,134087,1,8,0:0:0:0:
256,192,134258,1,8,0:0:0:0:
256,192,134430,5,0,0:0:0:0:
256,192,134772,1,8,0:0:0:0:
256,192,135115,1,8,0:0:0:0:
256,192,135287,1,0,0:0:0:0:
256,192,135630,1,0,0:0:0:0:
256,192,135801,1,8,0:0:0:0:
256,192,136144,1,8,0:0:0:0:
256,192,136487,1,0,0:0:0:0:
256,192,136830,1,8,0:0:0:0:
256,192,137001,1,8,0:0:0:0:
256,192,137172,1,0,0:0:0:0:
256,192,137515,1,8,0:0:0:0:
256,192,137858,1,0,0:0:0:0:
256,192,138030,1,0,0:0:0:0:
256,192,138372,1,0,0:0:0:0:
256,192,138544,1,8,0:0:0:0:
256,192,138887,1,8,0:0:0:0:
256,192,139058,1,0,0:0:0:0:
256,192,139230,1,8,0:0:0:0:
256,192,139572,1,8,0:0:0:0:
256,192,139744,1,8,0:0:0:0:
256,192,139915,5,0,0:0:0:0:
256,192,140258,1,8,0:0:0:0:
256,192,140601,1,0,0:0:0:0:
256,192,140772,1,0,0:0:0:0:
256,192,141115,1,0,0:0:0:0:
256,192,141287,1,8,0:0:0:0:
256,192,141630,1,8,0:0:0:0:
256,192,141801,1,8,0:0:0:0:
256,192,141972,1,0,0:0:0:0:
256,192,142315,1,8,0:0:0:0:
256,192,142487,1,0,0:0:0:0:
256,192,142658,5,8,0:0:0:0:
256,192,143001,1,8,0:0:0:0:
256,192,143344,1,0,0:0:0:0:
256,192,143515,1,0,0:0:0:0:
256,192,143858,1,0,0:0:0:0:
256,192,144030,1,8,0:0:0:0:
256,192,144372,1,8,0:0:0:0:
256,192,144715,1,0,0:0:0:0:
256,192,145058,1,8,0:0:0:0:
256,192,145230,1,8,0:0:0:0:
256,192,145401,1,0,0:0:0:0:
256,192,145572,12,0,146601,0:0:0:0:
256,192,146772,6,0,L|256:320,24,87.5
256,96,148144,1,4,0:0:0:0:
256,192,148315,1,0,0:0:0:0:
256,192,148487,1,8,0:0:0:0:
256,192,148658,1,0,0:0:0:0:
256,192,148830,1,8,0:0:0:0:
256,192,148915,1,0,0:0:0:0:
256,192,149001,1,8,0:0:0:0:
256,192,149172,1,0,0:0:0:0:
256,192,149344,1,0,0:0:0:0:
256,192,149430,1,0,0:0:0:0:
256,192,149515,1,8,0:0:0:0:
256,192,149687,1,0,0:0:0:0:
256,192,149858,1,8,0:0:0:0:
256,192,150030,1,0,0:0:0:0:
256,192,150201,1,8,0:0:0:0:
256,192,150372,1,0,0:0:0:0:
256,192,150544,1,8,0:0:0:0:
256,192,150630,1,0,0:0:0:0:
256,192,150715,1,8,0:0:0:0:
256,192,150887,1,0,0:0:0:0:
256,192,151058,1,0,0:0:0:0:
256,192,151230,1,8,0:0:0:0:
256,192,151401,1,0,0:0:0:0:
256,192,151572,1,8,0:0:0:0:
256,192,151658,1,8,0:0:0:0:
256,192,151744,1,0,0:0:0:0:
256,192,151915,1,8,0:0:0:0:
256,192,152087,1,0,0:0:0:0:
256,192,152172,1,0,0:0:0:0:
256,192,152258,1,8,0:0:0:0:
256,192,152430,1,0,0:0:0:0:
256,192,152601,1,8,0:0:0:0:
256,192,152772,1,8,0:0:0:0:
256,192,152944,1,0,0:0:0:0:
256,192,153115,1,0,0:0:0:0:
256,192,153287,1,8,0:0:0:0:
256,192,153372,1,0,0:0:0:0:
256,192,153458,1,8,0:0:0:0:
256,192,153630,1,0,0:0:0:0:
256,192,153801,1,0,0:0:0:0:
256,192,153972,1,8,0:0:0:0:
256,192,154144,1,0,0:0:0:0:
256,192,154315,1,8,0:0:0:0:
256,192,154401,1,0,0:0:0:0:
256,192,154487,1,8,0:0:0:0:
256,192,154658,1,0,0:0:0:0:
256,192,154830,1,0,0:0:0:0:
256,192,154915,1,0,0:0:0:0:
256,192,155001,1,8,0:0:0:0:
256,192,155172,1,0,0:0:0:0:
256,192,155344,1,8,0:0:0:0:
256,192,155515,1,0,0:0:0:0:
256,192,155687,1,8,0:0:0:0:
256,192,155858,1,0,0:0:0:0:
256,192,156030,1,8,0:0:0:0:
256,192,156115,1,0,0:0:0:0:
256,192,156201,1,8,0:0:0:0:
256,192,156372,1,0,0:0:0:0:
256,192,156544,1,0,0:0:0:0:
256,192,156715,1,8,0:0:0:0:
256,192,156887,1,0,0:0:0:0:
256,192,157058,1,8,0:0:0:0:
256,192,157144,1,0,0:0:0:0:
256,192,157230,1,0,0:0:0:0:
256,192,157401,1,0,0:0:0:0:
256,192,157572,1,8,0:0:0:0:
256,192,157658,1,8,0:0:0:0:
256,192,157744,1,0,0:0:0:0:
256,192,158087,1,0,0:0:0:0:
256,192,158430,1,0,0:0:0:0:
256,192,158772,1,8,0:0:0:0:
256,192,158944,1,8,0:0:0:0:
256,96,159115,1,4,0:0:0:0:
256,192,159287,1,0,0:0:0:0:
256,192,159372,1,0,0:0:0:0:
256,192,159458,1,8,0:0:0:0:
256,192,159630,1,0,0:0:0:0:
256,192,159801,1,8,0:0:0:0:
256,192,159887,1,0,0:0:0:0:
256,192,159972,1,8,0:0:0:0:
256,192,160058,1,8,0:0:0:0:
256,192,160144,1,0,0:0:0:0:
256,192,160315,1,0,0:0:0:0:
256,192,160401,1,0,0:0:0:0:
256,192,160487,1,8,0:0:0:0:
256,192,160658,1,0,0:0:0:0:
256,192,160830,1,8,0:0:0:0:
256,192,161001,1,8,0:0:0:0:
256,192,161087,1,8,0:0:0:0:
256,192,161172,1,0,0:0:0:0:
256,192,161344,1,0,0:0:0:0:
256,192,161515,1,8,0:0:0:0:
256,192,161601,1,8,0:0:0:0:
256,192,161687,1,0,0:0:0:0:
256,192,161772,1,0,0:0:0:0:
256,192,161858,1,8,0:0:0:0:
256,192,162030,1,0,0:0:0:0:
256,192,162115,1,0,0:0:0:0:
256,192,162201,1,8,0:0:0:0:
256,192,162372,1,8,0:0:0:0:
256,192,162544,1,0,0:0:0:0:
256,192,162630,1,0,0:0:0:0:
256,192,162715,1,8,0:0:0:0:
256,192,162801,1,8,0:0:0:0:
256,192,162887,1,0,0:0:0:0:
256,192,163058,1,0,0:0:0:0:
256,192,163144,1,0,0:0:0:0:
256,192,163230,1,8,0:0:0:0:
256,192,163401,1,0,0:0:0:0:
256,192,163572,1,8,0:0:0:0:
256,192,163744,1,8,0:0:0:0:
256,192,163830,1,0,0:0:0:0:
256,192,163915,1,8,0:0:0:0:
256,192,164087,1,0,0:0:0:0:
256,192,164258,1,8,0:0:0:0:
256,192,164344,1,0,0:0:0:0:
256,192,164430,1,8,0:0:0:0:
256,192,164515,1,8,0:0:0:0:
256,192,164601,1,0,0:0:0:0:
256,192,164772,1,0,0:0:0:0:
256,192,164858,1,0,0:0:0:0:
256,192,164944,1,8,0:0:0:0:
256,192,165115,1,0,0:0:0:0:
256,192,165287,1,8,0:0:0:0:
256,192,165372,1,0,0:0:0:0:
256,192,165458,1,8,0:0:0:0:
256,192,165544,1,0,0:0:0:0:
256,192,165630,1,8,0:0:0:0:
256,192,165801,1,0,0:0:0:0:
256,192,165887,1,0,0:0:0:0:
256,192,165972,1,8,0:0:0:0:
256,192,166144,1,0,0:0:0:0:
256,192,166315,1,8,0:0:0:0:
256,192,166401,1,8,0:0:0:0:
256,192,166487,1,0,0:0:0:0:
256,192,166658,1,8,0:0:0:0:
256,192,166830,1,0,0:0:0:0:
256,192,167001,1,8,0:0:0:0:
256,192,167087,1,8,0:0:0:0:
256,192,167172,1,0,0:0:0:0:
256,192,167258,1,0,0:0:0:0:
256,192,167344,1,8,0:0:0:0:
256,192,167515,1,0,0:0:0:0:
256,192,167601,1,0,0:0:0:0:
256,192,167687,1,8,0:0:0:0:
256,192,167858,1,0,0:0:0:0:
256,192,168030,1,8,0:0:0:0:
256,192,168115,1,0,0:0:0:0:
256,192,168201,1,8,0:0:0:0:
256,192,168287,1,8,0:0:0:0:
256,192,168372,1,0,0:0:0:0:
256,192,168544,1,0,0:0:0:0:
256,192,168630,1,0,0:0:0:0:
256,192,168715,1,8,0:0:0:0:
256,192,168887,1,0,0:0:0:0:
256,192,169058,1,8,0:0:0:0:
256,192,169230,1,8,0:0:0:0:
256,192,169315,1,0,0:0:0:0:
256,192,169401,1,8,0:0:0:0:
256,192,169572,1,0,0:0:0:0:
256,192,169744,1,8,0:0:0:0:
256,192,169915,1,8,0:0:0:0:
256,192,170087,5,0,0:0:0:0:
256,192,170430,1,8,0:0:0:0:
256,192,170772,1,0,0:0:0:0:
256,192,171458,1,0,0:0:0:0:
256,192,171801,1,8,0:0:0:0:
256,192,172144,1,0,0:0:0:0:
256,192,172487,1,8,0:0:0:0:
256,192,172658,1,8,0:0:0:0:
256,192,172830,5,0,0:0:0:0:
256,192,173172,1,8,0:0:0:0:
256,192,173515,1,0,0:0:0:0:
256,192,174201,1,0,0:0:0:0:
256,192,174544,1,8,0:0:0:0:
256,192,174887,1,0,0:0:0:0:
256,192,175230,1,8,0:0:0:0:
256,192,175401,1,8,0:0:0:0:
256,192,175572,5,0,0:0:0:0:
256,192,175915,1,8,0:0:0:0:
256,192,176258,1,0,0:0:0:0:
256,192,176944,1,8,0:0:0:0:
256,192,177287,1,8,0:0:0:0:
256,192,177630,1,0,0:0:0:0:
256,192,177972,1,8,0:0:0:0:
256,192,178144,1,8,0:0:0:0:
256,192,178315,5,0,0:0:0:0:
256,192,178658,1,8,0:0:0:0:
256,192,179001,1,8,0:0:0:0:
256,192,179687,1,8,0:0:0:0:
256,192,180030,1,8,0:0:0:0:
256,192,180372,5,0,0:0:0:0:
256,192,180715,1,0,0:0:0:0:
352,192,180887,5,8,0:0:0:0:
352,192,180930,1,8,0:0:0:0:
256,192,181058,5,0,0:0:0:0:
256,192,181230,1,8,0:0:0:0:
256,192,181401,1,0,0:0:0:0:
256,192,181572,1,0,0:0:0:0:
256,192,181744,1,8,0:0:0:0:
256,192,182087,1,0,0:0:0:0:
256,192,182430,1,8,0:0:0:0:
256,192,182601,1,0,0:0:0:0:
256,192,182772,1,8,0:0:0:0:
256,192,182944,1,0,0:0:0:0:
256,192,183115,1,8,0:0:0:0:
256,192,183287,1,8,0:0:0:0:
256,192,183458,1,0,0:0:0:0:
256,192,183801,1,8,0:0:0:0:
256,192,183972,1,0,0:0:0:0:
256,192,184144,1,8,0:0:0:0:
256,192,184315,1,0,0:0:0:0:
256,192,184487,1,8,0:0:0:0:
256,192,184658,1,0,0:0:0:0:
256,192,184830,1,0,0:0:0:0:
256,192,185172,1,8,0:0:0:0:
256,192,185344,1,0,0:0:0:0:
256,192,185515,1,8,0:0:0:0:
256,192,185687,1,0,0:0:0:0:
256,192,185858,1,8,0:0:0:0:
256,192,186030,1,8,0:0:0:0:
256,192,186201,1,0,0:0:0:0:
256,192,186544,1,8,0:0:0:0:
256,192,186715,1,0,0:0:0:0:
256,192,186887,1,0,0:0:0:0:
256,192,187230,1,8,0:0:0:0:
256,192,187401,1,8,0:0:0:0:
256,192,187572,1,0,0:0:0:0:
256,192,187915,1,8,0:0:0:0:
256,192,188087,1,0,0:0:0:0:
256,192,188258,1,8,0:0:0:0:
256,192,188430,1,0,0:0:0:0:
256,192,188601,1,8,0:0:0:0:
256,192,188772,1,8,0:0:0:0:
256,192,188944,1,0,0:0:0:0:
256,192,189287,1,8,0:0:0:0:
256,192,189544,1,0,0:0:0:0:
256,192,189630,1,8,0:0:0:0:
256,192,189887,1,0,0:0:0:0:
256,192,189972,1,8,0:0:0:0:
256,192,190230,1,0,0:0:0:0:
256,192,190315,1,8,0:0:0:0:
256,192,191515,1,8,0:0:0:0:
256,192,191687,1,8,0:0:0:0:
256,192,191858,1,8,0:0:0:0:
256,96,192030,1,4,0:0:0:0:
256,192,192201,1,0,0:0:0:0:
256,192,192372,1,8,0:0:0:0:
256,192,192544,1,0,0:0:0:0:
256,192,192715,1,8,0:0:0:0:
256,192,192801,1,0,0:0:0:0:
256,192,192887,1,8,0:0:0:0:
256,192,193058,1,0,0:0:0:0:
256,192,193230,1,0,0:0:0:0:
256,192,193315,1,0,0:0:0:0:
256,192,193401,1,8,0:0:0:0:
256,192,193572,1,0,0:0:0:0:
256,192,193744,1,8,0:0:0:0:
256,192,193915,1,0,0:0:0:0:
256,192,194087,1,8,0:0:0:0:
256,192,194258,1,0,0:0:0:0:
256,192,194430,1,8,0:0:0:0:
256,192,194515,1,0,0:0:0:0:
256,192,194601,1,8,0:0:0:0:
256,192,194772,1,0,0:0:0:0:
256,192,194944,1,0,0:0:0:0:
256,192,195115,1,8,0:0:0:0:
256,192,195287,1,0,0:0:0:0:
256,192,195458,1,8,0:0:0:0:
256,192,195544,1,8,0:0:0:0:
256,192,195630,1,0,0:0:0:0:
256,192,195801,1,8,0:0:0:0:
256,192,195972,1,0,0:0:0:0:
256,192,196058,1,0,0:0:0:0:
256,192,196144,1,8,0:0:0:0:
256,192,196315,1,0,0:0:0:0:
256,192,196487,1,8,0:0:0:0:
256,192,196658,1,8,0:0:0:0:
256,192,196830,1,0,0:0:0:0:
256,192,197001,1,0,0:0:0:0:
256,192,197172,1,8,0:0:0:0:
256,192,197258,1,8,0:0:0:0:
256,192,197344,1,8,0:0:0:0:
256,192,197515,1,0,0:0:0:0:
256,192,197687,1,0,0:0:0:0:
256,192,197858,1,8,0:0:0:0:
256,192,198030,1,0,0:0:0:0:
256,192,198201,1,8,0:0:0:0:
256,192,198287,1,0,0:0:0:0:
256,192,198372,1,8,0:0:0:0:
256,192,198544,1,0,0:0:0:0:
256,192,198715,1,0,0:0:0:0:
256,192,198801,1,0,0:0:0:0:
256,192,198887,1,8,0:0:0:0:
256,192,199058,1,0,0:0:0:0:
256,192,199230,1,8,0:0:0:0:
256,192,199401,1,0,0:0:0:0:
256,192,199572,1,8,0:0:0:0:
256,192,199744,1,0,0:0:0:0:
256,192,199915,1,8,0:0:0:0:
256,192,200001,1,0,0:0:0:0:
256,192,200087,1,8,0:0:0:0:
256,192,200258,1,0,0:0:0:0:
256,192,200430,1,0,0:0:0:0:
256,192,200601,1,8,0:0:0:0:
256,192,200772,1,0,0:0:0:0:
256,192,200944,1,8,0:0:0:0:
256,192,201030,1,0,0:0:0:0:
256,192,201115,1,0,0:0:0:0:
256,192,201287,1,0,0:0:0:0:
256,192,201458,1,8,0:0:0:0:
256,192,201544,1,8,0:0:0:0:
256,192,201630,1,0,0:0:0:0:
256,192,201972,1,0,0:0:0:0:
256,192,202315,1,0,0:0:0:0:
256,192,202658,1,8,0:0:0:0:
256,192,202830,1,8,0:0:0:0:
256,96,203001,1,4,0:0:0:0:
256,192,203172,1,0,0:0:0:0:
256,192,203258,1,0,0:0:0:0:
256,192,203344,1,8,0:0:0:0:
256,192,203515,1,0,0:0:0:0:
256,192,203687,1,8,0:0:0:0:
256,192,203772,1,0,0:0:0:0:
256,192,203858,1,8,0:0:0:0:
256,192,203944,1,8,0:0:0:0:
256,192,204030,1,0,0:0:0:0:
256,192,204201,1,0,0:0:0:0:
256,192,204287,1,0,0:0:0:0:
256,192,204372,1,8,0:0:0:0:
256,192,204544,1,0,0:0:0:0:
256,192,204715,1,8,0:0:0:0:
256,192,204887,1,8,0:0:0:0:
256,192,204972,1,8,0:0:0:0:
256,192,205058,1,0,0:0:0:0:
256,192,205144,1,0,0:0:0:0:
256,192,205230,1,8,0:0:0:0:
256,192,205401,1,8,0:0:0:0:
256,192,205487,1,0,0:0:0:0:
256,192,205572,1,8,0:0:0:0:
256,192,205658,1,0,0:0:0:0:
256,192,205744,1,8,0:0:0:0:
256,192,205915,1,0,0:0:0:0:
256,192,206001,1,0,0:0:0:0:
256,192,206087,1,8,0:0:0:0:
256,192,206258,1,8,0:0:0:0:
256,192,206430,1,0,0:0:0:0:
256,192,206515,1,0,0:0:0:0:
256,192,206601,1,8,0:0:0:0:
256,192,206687,1,8,0:0:0:0:
256,192,206772,1,0,0:0:0:0:
256,192,206944,1,0,0:0:0:0:
256,192,207030,1,0,0:0:0:0:
256,192,207115,1,8,0:0:0:0:
256,192,207287,1,0,0:0:0:0:
256,192,207458,1,8,0:0:0:0:
256,192,207630,1,8,0:0:0:0:
256,192,207715,1,0,0:0:0:0:
256,192,207801,1,8,0:0:0:0:
256,192,207887,1,0,0:0:0:0:
256,192,207972,1,0,0:0:0:0:
256,192,208144,1,8,0:0:0:0:
256,192,208230,1,0,0:0:0:0:
256,192,208315,1,8,0:0:0:0:
256,192,208401,1,8,0:0:0:0:
256,192,208487,1,0,0:0:0:0:
256,192,208658,1,0,0:0:0:0:
256,192,208744,1,0,0:0:0:0:
256,192,208830,1,8,0:0:0:0:
256,192,209001,1,0,0:0:0:0:
256,192,209172,1,8,0:0:0:0:
256,192,209258,1,8,0:0:0:0:
256,192,209344,1,0,0:0:0:0:
256,192,209515,1,8,0:0:0:0:
256,192,209687,1,0,0:0:0:0:
256,192,209858,1,8,0:0:0:0:
256,192,210201,1,8,0:0:0:0:
256,192,210544,1,0,0:0:0:0:
256,192,210887,1,8,0:0:0:0:
256,192,211058,1,8,0:0:0:0:
256,192,211230,1,0,0:0:0:0:
256,192,211572,1,8,0:0:0:0:
256,192,211915,1,0,0:0:0:0:
256,192,212087,1,0,0:0:0:0:
256,192,212430,1,0,0:0:0:0:
256,192,212601,1,0,0:0:0:0:
256,192,212944,1,8,0:0:0:0:
256,192,213287,1,8,0:0:0:0:
256,192,213630,1,8,0:0:0:0:
256,96,213972,5,4,0:0:0:0:
256,192,215344,1,8,0:0:0:0:
256,192,215687,1,8,0:0:0:0:
256,192,216030,1,8,0:0:0:0:
256,192,216372,1,8,0:0:0:0:
256,192,216715,1,8,0:0:0:0:
256,192,216887,12,0,217915,0:0:0:0:
256,192,218087,5,0,0:0:0:0:
256,192,218172,1,0,0:0:0:0:
256,192,218258,1,0,0:0:0:0:
256,192,218344,1,0,0:0:0:0:
256,192,218430,1,0,0:0:0:0:
256,192,218515,1,0,0:0:0:0:
256,192,218601,1,0,0:0:0:0:
256,192,218687,1,0,0:0:0:0:
256,192,218772,5,8,0:0:0:0:
256,192,218944,1,8,0:0:0:0:
352,192,219115,1,0,0:0:0:0:
352,192,219158,1,0,0:0:0:0:
256,192,219287,1,8,0:0:0:0:
256,192,219458,1,8,0:0:0:0:
256,192,219801,1,0,0:0:0:0:
256,192,219972,1,0,0:0:0:0:
256,192,220144,1,8,0:0:0:0:
256,192,220487,1,0,0:0:0:0:
256,192,220830,1,8,0:0:0:0:
256,192,221001,1,0,0:0:0:0:
256,192,221087,1,0,0:0:0:0:
256,192,221172,1,8,0:0:0:0:
256,192,221344,1,8,0:0:0:0:
256,192,221401,1,0,0:0:0:0:
256,192,221458,1,0,0:0:0:0:
256,192,221515,1,8,0:0:0:0:
256,192,221687,1,0,0:0:0:0:
256,192,221858,1,0,0:0:0:0:
256,192,222030,1,8,0:0:0:0:
256,192,222201,1,8,0:0:0:0:
256,192,222544,1,0,0:0:0:0:
256,192,222715,1,0,0:0:0:0:
256,192,222801,1,0,0:0:0:0:
256,192,222887,1,8,0:0:0:0:
256,192,223058,1,0,0:0:0:0:
256,192,223144,1,0,0:0:0:0:
256,192,223230,1,8,0:0:0:0:
256,192,223401,1,8,0:0:0:0:
256,192,223487,1,8,0:0:0:0:
256,192,223572,1,0,0:0:0:0:
256,192,223744,1,0,0:0:0:0:
256,192,223915,1,8,0:0:0:0:
352,192,224258,1,8,0:0:0:0:
352,192,224301,1,8,0:0:0:0:
256,192,224601,1,0,0:0:0:0:
256,192,224772,1,8,0:0:0:0:
256,192,224944,1,0,0:0:0:0:
256,192,225287,1,0,0:0:0:0:
256,192,225458,1,0,0:0:0:0:
256,192,225630,1,8,0:0:0:0:
256,192,225972,1,0,0:0:0:0:
256,192,226315,1,8,0:0:0:0:
256,192,226487,1,8,0:0:0:0:
256,192,226572,1,8,0:0:0:0:
256,192,226658,1,0,0:0:0:0:
256,192,226830,1,0,0:0:0:0:
256,192,227001,1,8,0:0:0:0:
256,192,227087,1,8,0:0:0:0:
256,192,227258,1,0,0:0:0:0:
256,192,227344,1,8,0:0:0:0:
256,192,227515,1,8,0:0:0:0:
256,192,227601,1,8,0:0:0:0:
256,192,227687,1,8,0:0:0:0:
256,192,227858,1,8,0:0:0:0:
256,192,228030,1,0,0:0:0:0:
256,192,228072,1,0,0:0:0:0:
256,192,228201,1,0,0:0:0:0:
256,192,228372,1,8,0:0:0:0:
256,192,228544,1,8,0:0:0:0:
256,192,228715,1,0,0:0:0:0:
256,192,229058,1,8,0:0:0:0:
256,192,229230,1,0,0:0:0:0:
256,192,229315,1,0,0:0:0:0:
256,192,229401,1,8,0:0:0:0:
256,192,229572,1,0,0:0:0:0:
256,192,229744,1,8,0:0:0:0:
256,192,230087,1,0,0:0:0:0:
256,192,230258,1,8,0:0:0:0:
256,192,230430,1,8,0:0:0:0:
256,192,233001,1,0,0:0:0:0:
256,192,233087,1,0,0:0:0:0:
256,192,233172,1,8,0:0:0:0:
256,192,233515,1,8,0:0:0:0:
256,192,233858,1,8,0:0:0:0:
256,192,234201,1,8,0:0:0:0:
256,192,234544,2,0,L|256:320,20,87.5
352,192,235744,1,8,0:0:0:0:
352,192,235787,1,8,0:0:0:0:
256,96,235915,1,4,0:0:0:0:
256,192,236087,1,8,0:0:0:0:
256,192,236258,1,0,0:0:0:0:
256,192,236430,1,0,0:0:0:0:
256,192,236601,1,8,0:0:0:0:
256,192,236944,1,8,0:0:0:0:
256,192,237115,1,0,0:0:0:0:
256,192,237287,1,8,0:0:0:0:
256,192,237458,1,0,0:0:0:0:
256,192,237630,1,8,0:0:0:0:
256,192,237801,1,0,0:0:0:0:
256,192,237972,1,8,0:0:0:0:
256,192,238144,1,8,0:0:0:0:
256,192,238315,1,0,0:0:0:0:
256,192,238487,1,8,0:0:0:0:
256,192,238658,1,8,0:0:0:0:
256,192,238830,1,0,0:0:0:0:
256,192,239001,1,8,0:0:0:0:
256,192,239172,1,0,0:0:0:0:
256,192,239344,1,8,0:0:0:0:
256,192,239515,1,0,0:0:0:0:
256,192,239687,1,0,0:0:0:0:
256,192,239858,1,8,0:0:0:0:
256,192,240030,1,8,0:0:0:0:
256,192,240201,1,0,0:0:0:0:
256,192,240372,1,8,0:0:0:0:
256,192,240544,1,0,0:0:0:0:
256,192,240715,1,8,0:0:0:0:
256,192,240887,1,8,0:0:0:0:
256,192,241058,1,0,0:0:0:0:
256,192,241401,1,8,0:0:0:0:
256,192,241572,1,0,0:0:0:0:
256,192,241744,1,0,0:0:0:0:
256,192,242087,1,8,0:0:0:0:
256,192,242258,1,0,0:0:0:0:
256,192,242430,1,0,0:0:0:0:
256,192,242601,1,8,0:0:0:0:
256,192,242772,1,8,0:0:0:0:
256,192,242944,1,0,0:0:0:0:
256,192,243115,1,8,0:0:0:0:
256,192,243287,1,0,0:0:0:0:
256,192,243458,1,8,0:0:0:0:
256,192,243630,1,0,0:0:0:0:
256,192,243801,1,8,0:0:0:0:
256,192,244144,1,8,0:0:0:0:
256,192,244401,1,0,0:0:0:0:
256,192,244487,1,8,0:0:0:0:
256,192,244744,1,0,0:0:0:0:
256,192,244830,1,8,0:0:0:0:
256,192,245087,1,0,0:0:0:0:
256,192,245172,1,8,0:0:0:0:
256,192,245515,1,8,0:0:0:0:
256,192,245687,1,0,0:0:0:0:
256,192,245858,1,8,0:0:0:0:
256,192,246030,1,8,0:0:0:0:
256,192,246201,1,0,0:0:0:0:
256,192,246372,1,0,0:0:0:0:
256,96,246544,1,12,0:0:0:0:
256,96,247572,1,12,0:0:0:0:
256,192,247744,1,0,0:0:0:0:
256,192,247830,1,0,0:0:0:0:
256,192,247915,1,8,0:0:0:0:
256,192,248087,1,8,0:0:0:0:
256,192,248172,1,0,0:0:0:0:
256,192,248258,1,8,0:0:0:0:
256,192,248430,1,0,0:0:0:0:
256,192,248601,1,8,0:0:0:0:
256,192,248772,1,0,0:0:0:0:
256,192,248944,1,0,0:0:0:0:
256,192,249030,1,8,0:0:0:0:
256,192,249115,1,0,0:0:0:0:
256,192,249287,1,8,0:0:0:0:
256,192,249458,1,8,0:0:0:0:
256,192,249544,1,0,0:0:0:0:
256,192,249630,1,8,0:0:0:0:
256,192,249801,1,0,0:0:0:0:
256,192,249972,1,8,0:0:0:0:
256,192,250144,1,0,0:0:0:0:
256,192,250315,1,8,0:0:0:0:
256,192,250487,1,0,0:0:0:0:
256,192,250572,1,0,0:0:0:0:
256,192,250658,1,8,0:0:0:0:
256,192,250830,1,8,0:0:0:0:
256,192,250915,1,0,0:0:0:0:
256,192,251001,1,8,0:0:0:0:
256,192,251172,1,0,0:0:0:0:
256,192,251344,1,8,0:0:0:0:
256,192,251515,1,0,0:0:0:0:
256,192,251687,1,8,0:0:0:0:
256,192,251858,1,8,0:0:0:0:
256,192,251944,1,8,0:0:0:0:
256,192,252030,1,0,0:0:0:0:
256,192,252201,1,8,0:0:0:0:
256,192,252372,1,0,0:0:0:0:
256,192,252458,1,0,0:0:0:0:
256,192,252544,1,0,0:0:0:0:
256,192,252715,1,8,0:0:0:0:
256,192,252887,1,0,0:0:0:0:
256,192,253058,1,8,0:0:0:0:
256,192,253230,1,0,0:0:0:0:
256,192,253315,1,0,0:0:0:0:
256,192,253401,1,8,0:0:0:0:
256,192,253572,1,0,0:0:0:0:
256,192,253744,1,8,0:0:0:0:
256,192,253915,1,8,0:0:0:0:
256,192,254087,1,0,0:0:0:0:
256,192,254172,1,0,0:0:0:0:
256,192,254258,1,0,0:0:0:0:
256,192,254430,1,8,0:0:0:0:
256,96,255115,1,4,0:0:0:0:
256,96,255458,1,4,0:0:0:0:
256,96,255801,1,4,0:0:0:0:
256,96,256144,1,4,0:0:0:0:
256,192,257172,12,0,257687,0:0:0:0:
256,192,257858,5,0,0:0:0:0:
256,192,257944,1,0,0:0:0:0:
256,192,258030,1,0,0:0:0:0:
256,192,258201,1,8,0:0:0:0:
256,192,258372,1,8,0:0:0:0:
256,192,258544,1,0,0:0:0:0:
160,192,258715,1,0,0:0:0:0:
160,192,258772,1,0,0:0:0:0:
160,192,258830,1,0,0:0:0:0:
160,192,258887,1,8,0:0:0:0:
256,192,259058,1,8,0:0:0:0:
256,192,259230,1,0,0:0:0:0:
256,192,259401,1,0,0:0:0:0:
256,192,259572,1,0,0:0:0:0:
256,192,259658,1,0,0:0:0:0:
256,192,259744,1,8,0:0:0:0:
256,192,259915,1,0,0:0:0:0:
256,192,260087,1,8,0:0:0:0:
256,192,260172,1,0,0:0:0:0:
256,192,260258,1,8,0:0:0:0:
256,192,260430,1,0,0:0:0:0:
256,192,260601,1,8,0:0:0:0:
256,192,260687,1,0,0:0:0:0:
256,192,260772,1,0,0:0:0:0:
256,192,260944,1,8,0:0:0:0:
256,192,261115,1,8,0:0:0:0:
256,192,261287,1,0,0:0:0:0:
160,192,261458,1,0,0:0:0:0:
160,192,261515,1,0,0:0:0:0:
160,192,261572,1,0,0:0:0:0:
160,192,261630,1,8,0:0:0:0:
256,192,261801,1,0,0:0:0:0:
256,192,261972,1,8,0:0:0:0:
256,192,262144,1,0,0:0:0:0:
256,192,262315,1,0,0:0:0:0:
256,192,262401,1,0,0:0:0:0:
256,192,262487,1,8,0:0:0:0:
256,192,262658,1,0,0:0:0:0:
256,192,262830,1,8,0:0:0:0:
256,192,262915,1,0,0:0:0:0:
256,192,263001,1,8,0:0:0:0:
256,192,263172,1,0,0:0:0:0:
256,192,263344,1,0,0:0:0:0:
256,192,263430,1,0,0:0:0:0:
256,192,263515,1,0,0:0:0:0:
256,192,263687,1,8,0:0:0:0:
256,192,263858,1,8,0:0:0:0:
256,192,264030,1,0,0:0:0:0:
160,192,264201,1,8,0:0:0:0:
160,192,264258,1,0,0:0:0:0:
160,192,264315,1,0,0:0:0:0:
160,192,264372,1,8,0:0:0:0:
256,192,264544,1,0,0:0:0:0:
256,192,264715,1,8,0:0:0:0:
256,192,264887,1,0,0:0:0:0:
256,192,265058,1,0,0:0:0:0:
256,192,265144,1,0,0:0:0:0:
256,192,265230,1,8,0:0:0:0:
256,192,265401,1,0,0:0:0:0:
256,192,265572,5,8,0:0:0:0:
256,192,265658,1,8,0:0:0:0:
256,192,265744,1,0,0:0:0:0:
256,192,265915,1,0,0:0:0:0:
256,192,266087,5,8,0:0:0:0:
256,192,266172,1,0,0:0:0:0:
256,192,266258,1,0,0:0:0:0:
256,192,266344,1,0,0:0:0:0:
160,192,266430,1,8,0:0:0:0:
160,192,266487,1,8,0:0:0:0:
160,192,266544,1,8,0:0:0:0:
160,192,266601,1,0,0:0:0:0:
256,192,266687,1,0,0:0:0:0:
256,192,266772,5,8,0:0:0:0:
256,192,266858,1,8,0:0:0:0:
256,192,266944,1,0,0:0:0:0:
256,192,267030,1,0,0:0:0:0:
160,192,267115,1,8,0:0:0:0:
160,192,267172,1,0,0:0:0:0:
160,192,267230,1,0,0:0:0:0:
160,192,267287,1,8,0:0:0:0:
256,192,267458,1,0,0:0:0:0:
256,192,267801,1,0,0:0:0:0:
256,192,268144,1,0,0:0:0:0:
256,96,268487,1,12,0:0:0:0:
256,96,268658,1,12,0:0:0:0:
256,192,268830,1,0,0:0:0:0:
256,192,268915,1,8,0:0:0:0:
256,192,269001,1,0,0:0:0:0:
256,192,269172,1,8,0:0:0:0:
256,192,269258,1,8,0:0:0:0:
256,192,269344,1,0,0:0:0:0:
256,192,269515,1,0,0:0:0:0:
160,192,269687,1,0,0:0:0:0:
160,192,269744,1,0,0:0:0:0:
160,192,269801,1,0,0:0:0:0:
160,192,269858,1,8,0:0:0:0:
256,192,270030,1,8,0:0:0:0:
256,192,270201,1,0,0:0:0:0:
256,192,270372,1,0,0:0:0:0:
256,192,270544,1,0,0:0:0:0:
256,192,270630,1,0,0:0:0:0:
256,192,270715,1,8,0:0:0:0:
256,192,270801,1,8,0:0:0:0:
256,192,270887,1,0,0:0:0:0:
256,192,271058,1,0,0:0:0:0:
256,192,271144,1,0,0:0:0:0:
256,192,271230,1,8,0:0:0:0:
256,192,271315,1,0,0:0:0:0:
256,192,271401,1,8,0:0:0:0:
256,192,271572,1,0,0:0:0:0:
256,192,271658,1,0,0:0:0:0:
256,192,271744,1,0,0:0:0:0:
256,192,271915,1,8,0:0:0:0:
256,192,272001,1,8,0:0:0:0:
256,192,272087,1,0,0:0:0:0:
256,192,272258,1,0,0:0:0:0:
160,192,272430,1,0,0:0:0:0:
160,192,272487,1,0,0:0:0:0:
160,192,272544,1,0,0:0:0:0:
160,192,272601,1,8,0:0:0:0:
256,192,272772,1,0,0:0:0:0:
256,192,272944,1,8,0:0:0:0:
256,192,273115,1,0,0:0:0:0:
256,192,273287,1,8,0:0:0:0:
256,192,273372,1,0,0:0:0:0:
256,192,273458,1,8,0:0:0:0:
256,192,273544,1,8,0:0:0:0:
256,192,273630,1,0,0:0:0:0:
256,192,273801,1,0,0:0:0:0:
256,192,273887,1,0,0:0:0:0:
256,192,273972,1,8,0:0:0:0:
256,192,274058,1,8,0:0:0:0:
256,192,274144,1,0,0:0:0:0:
256,192,274315,1,8,0:0:0:0:
256,192,274401,1,0,0:0:0:0:
256,192,274487,1,0,0:0:0:0:
256,192,274658,1,8,0:0:0:0:
256,192,274744,1,8,0:0:0:0:
256,192,274830,1,0,0:0:0:0:
256,192,274915,1,0,0:0:0:0:
256,192,275001,1,8,0:0:0:0:
160,192,275172,1,8,0:0:0:0:
160,192,275230,1,0,0:0:0:0:
160,192,275287,1,0,0:0:0:0:
160,192,275344,1,8,0:0:0:0:
256,192,275430,1,8,0:0:0:0:
256,192,275515,1,0,0:0:0:0:
256,192,275687,1,0,0:0:0:0:
256,192,275858,1,0,0:0:0:0:
256,192,276030,1,8,0:0:0:0:
256,192,276115,1,0,0:0:0:0:
256,192,276201,1,8,0:0:0:0:
256,192,276287,1,8,0:0:0:0:
256,192,276372,1,0,0:0:0:0:
256,192,276544,1,0,0:0:0:0:
256,192,276630,1,0,0:0:0:0:
256,192,276715,1,8,0:0:0:0:
256,192,276801,1,8,0:0:0:0:
256,192,276887,1,0,0:0:0:0:
256,192,277058,5,8,0:0:0:0:
256,192,277144,1,0,0:0:0:0:
256,192,277230,1,0,0:0:0:0:
256,192,277315,1,0,0:0:0:0:
160,192,277401,1,8,0:0:0:0:
160,192,277458,1,8,0:0:0:0:
160,192,277515,1,8,0:0:0:0:
160,192,277572,1,0,0:0:0:0:
256,192,277658,1,0,0:0:0:0:
256,192,277744,5,8,0:0:0:0:
256,192,277830,1,8,0:0:0:0:
256,192,277915,1,0,0:0:0:0:
256,192,278001,1,0,0:0:0:0:
160,192,278087,1,8,0:0:0:0:
160,192,278144,1,8,0:0:0:0:
160,192,278201,1,8,0:0:0:0:
160,192,278258,1,0,0:0:0:0:
256,192,278344,1,0,0:0:0:0:
256,192,278430,1,8,0:0:0:0:
256,192,278601,2,0,L|256:227,24,20.9999993591309
256,96,279801,1,4,0:0:0:0:
256,192,280144,1,0,0:0:0:0:
256,192,280487,1,0,0:0:0:0:
256,192,280830,1,0,0:0:0:0:
256,192,281172,1,8,0:0:0:0:
256,192,281258,1,0,0:0:0:0:
256,192,281344,1,0,0:0:0:0:
256,192,281515,1,8,0:0:0:0:
256,192,281687,1,8,0:0:0:0:
256,192,281858,1,0,0:0:0:0:
256,192,282030,1,0,0:0:0:0:
256,192,282115,1,0,0:0:0:0:
256,192,282201,1,8,0:0:0:0:
256,192,282372,1,8,0:0:0:0:
256,192,282544,1,0,0:0:0:0:
256,192,282887,1,0,0:0:0:0:
256,192,283230,1,0,0:0:0:0:
256,192,283572,1,0,0:0:0:0:
256,192,283915,1,0,0:0:0:0:
256,192,284087,1,0,0:0:0:0:
256,192,284258,1,0,0:0:0:0:
256,192,284344,1,0,0:0:0:0:
256,192,284430,1,8,0:0:0:0:
256,192,284601,1,0,0:0:0:0:
256,192,284772,1,8,0:0:0:0:
256,192,284858,1,0,0:0:0:0:
256,192,284944,1,8,0:0:0:0:
256,192,285115,1,8,0:0:0:0:
256,192,285287,1,0,0:0:0:0:
256,192,285630,1,0,0:0:0:0:
256,192,285972,1,0,0:0:0:0:
256,192,286315,1,0,0:0:0:0:
256,192,286658,1,8,0:0:0:0:
256,192,286744,1,0,0:0:0:0:
256,192,286830,1,0,0:0:0:0:
256,192,286915,1,0,0:0:0:0:
256,192,287001,1,8,0:0:0:0:
256,192,287172,1,0,0:0:0:0:
256,192,287344,1,8,0:0:0:0:
256,192,287430,1,0,0:0:0:0:
256,192,287515,1,0,0:0:0:0:
256,192,287601,1,0,0:0:0:0:
256,192,287687,1,8,0:0:0:0:
256,192,287858,1,0,0:0:0:0:
256,192,288030,1,0,0:0:0:0:
256,192,288372,1,0,0:0:0:0:
256,192,288715,1,0,0:0:0:0:
256,192,289058,1,0,0:0:0:0:
256,96,289401,1,12,0:0:0:0:
256,96,289744,1,12,0:0:0:0:
256,96,290087,1,12,0:0:0:0:
256,96,290430,1,12,0:0:0:0:
256,96,290601,1,12,0:0:0:0:
256,96,290772,1,4,0:0:0:0:
256,192,291115,1,0,0:0:0:0:
256,192,291458,1,0,0:0:0:0:
256,192,291801,1,0,0:0:0:0:
256,192,292144,1,8,0:0:0:0:
256,192,292230,1,0,0:0:0:0:
256,192,292315,1,0,0:0:0:0:
256,192,292487,1,8,0:0:0:0:
256,192,292658,1,8,0:0:0:0:
256,192,292830,1,0,0:0:0:0:
256,192,293001,1,0,0:0:0:0:
256,192,293087,1,0,0:0:0:0:
256,192,293172,1,8,0:0:0:0:
256,192,293344,1,8,0:0:0:0:
256,192,293515,1,0,0:0:0:0:
256,192,293858,1,0,0:0:0:0:
256,192,294201,1,0,0:0:0:0:
256,192,294544,1,0,0:0:0:0:
256,192,294887,1,8,0:0:0:0:
256,192,295058,1,8,0:0:0:0:
256,192,295230,1,0,0:0:0:0:
256,192,295315,1,0,0:0:0:0:
256,192,295401,1,8,0:0:0:0:
256,192,295572,1,0,0:0:0:0:
256,192,295744,1,8,0:0:0:0:
256,192,295830,1,0,0:0:0:0:
256,192,295915,1,8,0:0:0:0:
256,192,296087,1,8,0:0:0:0:
256,192,296258,1,0,0:0:0:0:
256,192,296601,1,0,0:0:0:0:
256,192,296944,1,0,0:0:0:0:
256,192,297287,1,0,0:0:0:0:
256,192,297630,1,8,0:0:0:0:
256,192,297715,1,8,0:0:0:0:
256,192,297801,1,0,0:0:0:0:
256,192,297887,1,0,0:0:0:0:
256,192,297972,1,8,0:0:0:0:
256,192,298144,1,0,0:0:0:0:
256,192,298315,1,8,0:0:0:0:
256,192,298401,1,8,0:0:0:0:
256,192,298487,1,0,0:0:0:0:
256,192,298572,1,0,0:0:0:0:
256,192,298658,1,8,0:0:0:0:
256,192,298830,1,0,0:0:0:0:
256,192,299001,1,0,0:0:0:0:
256,192,299344,1,0,0:0:0:0:
256,192,299687,1,0,0:0:0:0:
256,192,300030,1,0,0:0:0:0:
256,96,300372,1,12,0:0:0:0:
256,192,300544,2,0,L|256:224,24,17.5
256,96,301744,1,4,0:0:0:0:
256,192,302087,1,0,0:0:0:0:
256,192,302430,1,0,0:0:0:0:
256,192,302772,1,0,0:0:0:0:
256,192,303115,1,8,0:0:0:0:
256,192,303201,1,0,0:0:0:0:
256,192,303287,1,0,0:0:0:0:
256,192,303458,1,8,0:0:0:0:
256,192,303630,1,8,0:0:0:0:
256,192,303801,1,0,0:0:0:0:
256,192,303972,1,0,0:0:0:0:
256,192,304144,1,8,0:0:0:0:
256,192,304315,1,8,0:0:0:0:
256,192,304487,1,0,0:0:0:0:
256,192,304830,1,0,0:0:0:0:
256,192,305172,1,0,0:0:0:0:
256,192,305515,1,0,0:0:0:0:
256,192,305858,1,0,0:0:0:0:
256,192,306030,1,0,0:0:0:0:
256,192,306201,1,0,0:0:0:0:
256,192,306287,1,0,0:0:0:0:
256,192,306372,1,8,0:0:0:0:
256,192,306544,1,0,0:0:0:0:
256,192,306715,1,0,0:0:0:0:
256,192,306887,1,8,0:0:0:0:
256,192,307058,1,8,0:0:0:0:
256,192,307230,1,0,0:0:0:0:
256,192,307572,1,0,0:0:0:0:
256,192,307915,1,0,0:0:0:0:
256,192,308258,1,0,0:0:0:0:
256,192,308601,1,8,0:0:0:0:
256,192,308687,1,0,0:0:0:0:
256,192,308772,1,0,0:0:0:0:
256,192,308944,1,8,0:0:0:0:
256,192,309115,1,0,0:0:0:0:
256,192,309287,1,8,0:0:0:0:
256,192,309372,1,0,0:0:0:0:
256,192,309458,1,0,0:0:0:0:
256,192,309630,1,8,0:0:0:0:
256,192,309801,1,0,0:0:0:0:
256,192,309972,1,0,0:0:0:0:
256,192,310315,1,0,0:0:0:0:
256,192,310658,1,0,0:0:0:0:
256,192,311001,1,0,0:0:0:0:
256,192,311344,1,8,0:0:0:0:
256,192,311687,1,8,0:0:0:0:
256,192,312030,1,8,0:0:0:0:
256,192,312372,1,8,0:0:0:0:
256,192,312544,1,8,0:0:0:0:
256,192,312715,1,0,0:0:0:0:
256,192,313401,1,0,0:0:0:0:
256,192,314087,1,8,0:0:0:0:
256,192,314258,1,0,0:0:0:0:
256,192,314430,1,8,0:0:0:0:
256,192,314772,1,0,0:0:0:0:
256,192,314944,1,0,0:0:0:0:
256,192,315115,1,8,0:0:0:0:
256,192,315458,1,0,0:0:0:0:
256,192,316144,1,0,0:0:0:0:
256,192,316830,1,0,0:0:0:0:
256,192,317172,1,0,0:0:0:0:
256,192,317344,1,8,0:0:0:0:
256,192,317687,1,8,0:0:0:0:
256,192,317858,1,8,0:0:0:0:
256,192,318201,1,0,0:0:0:0:
256,192,318887,1,0,0:0:0:0:
256,192,319572,1,8,0:0:0:0:
256,192,319744,1,0,0:0:0:0:
256,192,319915,1,8,0:0:0:0:
256,192,320258,1,8,0:0:0:0:
256,192,320430,1,0,0:0:0:0:
256,192,320601,1,8,0:0:0:0:
256,192,320944,1,0,0:0:0:0:
256,192,321630,1,0,0:0:0:0:
256,192,322315,2,0,L|256:320,28,87.5
