osu file format v14

[General]
AudioFilename: audio.mp3
AudioLeadIn: 0
PreviewTime: 218682
Countdown: 0
SampleSet: Soft
StackLeniency: 0.7
Mode: 0
LetterboxInBreaks: 0
WidescreenStoryboard: 0

[Editor]
Bookmarks: 21967,32939,43910,54882,63110,65853,71339,93282,104253,126196,137167,148139,159110,170082,181053,192025,202996,213967,219453,230253,235910,246539,247567,254425,255110,257853,268825,278596,279796,290767,301739,312710,322310,323682
DistanceSpacing: 1.1
BeatDivisor: 4
GridSize: 32
TimelineZoom: 4.399999

[Metadata]
Title:Bass Slut
TitleUnicode:Bass Slut
Artist:S3RL
ArtistUnicode:S3RL
Creator:Log On Now
Version:Dopamine Rush
Source:
Tags:hivie lugu atmo mokobe serl featured artist fa english long full version dj techno hardstyle electronic
BeatmapID:2552046
BeatmapSetID:1227249

[Difficulty]
HPDrainRate:5
CircleSize:3.8
OverallDifficulty:9.4
ApproachRate:9.4
SliderMultiplier:1.88
SliderTickRate:1

[Events]
//Background and Video events
0,0,"MOSHED-2020-8-1-23-32-26.jpg",0,0
//Break Periods
//Storyboard Layer 0 (Background)
//Storyboard Layer 1 (Fail)
//Storyboard Layer 2 (Pass)
//Storyboard Layer 3 (Foreground)
//Storyboard Layer 4 (Overlay)
//Storyboard Sound Samples

[TimingPoints]
30,342.857142857143,4,2,1,40,1,0
32944,-166.666666666667,4,2,1,60,0,0
42544,-1000,4,2,1,40,0,0
43744,-125,4,2,1,40,0,0
43915,-125,4,2,1,72,0,0
54887,-111.111111111111,4,2,1,74,0,0
69972,-111.111111111111,4,1,2,40,0,0
71344,-90.9090909090909,4,2,1,82,0,1
91915,-90.9090909090909,4,2,1,82,0,0
93287,-100,4,2,1,74,0,0
94658,-100,4,2,1,70,0,0
96030,-100,4,2,1,66,0,0
97401,-100,4,2,1,60,0,0
97744,-100,4,2,1,55,0,0
99458,-100,4,2,1,52,0,0
101515,-100,4,2,1,45,0,0
104258,-250,4,2,1,40,0,0
115230,-250,4,2,1,40,0,0
126201,-125,4,2,1,74,0,0
137172,-111.111111111111,4,2,1,78,0,0
146772,-111.111111111111,4,2,1,40,0,0
148144,-83.3333333333333,4,2,1,86,0,1
157744,-125,4,2,1,80,0,0
159115,-76.9230769230769,4,2,1,86,0,1
170087,-100,4,2,1,65,0,0
181058,-100,4,2,1,72,0,0
192030,-83.3333333333333,4,2,1,86,0,1
201630,-83.3333333333333,4,2,1,80,0,0
203001,-76.9230769230769,4,2,1,86,0,1
211230,-100,4,2,1,74,0,1
213972,-100,4,2,1,40,0,0
218772,-100,4,2,1,50,0,0
219458,-125,4,2,1,65,0,0
235915,-90.9090909090909,4,2,1,74,0,0
247572,-83.3333333333333,4,2,1,78,0,0
255458,-83.3333333333333,4,2,1,60,0,0
256487,-83.3333333333333,4,2,2,60,0,0
257858,-83.3333333333333,4,2,1,82,0,1
267458,-100,4,2,1,78,0,0
268830,-76.9230769230769,4,2,1,82,0,1
278430,-100,4,2,1,40,0,0
279801,-100,4,2,1,72,0,0
290772,-111.111111111111,4,2,1,70,0,0
301744,-166.666666666666,4,2,1,60,0,0
312715,-249.999999999999,4,2,1,50,0,0

[Colours]
Combo1 : 72,64,149
Combo2 : 115,34,85
Combo3 : 38,48,166
Combo4 : 147,68,157

[HitObjects]
256,192,21972,12,0,32772,0:0:0:0:
91,19,32944,6,0,L|84:102,1,56.3999982788087,6|2,1:2|0:0,0:0:0:0:
190,163,33287,2,0,L|183:80,1,56.3999982788087,2|0,1:2|0:0,0:0:0:0:
106,246,33630,2,0,P|73:246|31:227,1,56.3999982788087,2|0,1:2|0:0,0:0:0:0:
168,348,33972,2,0,P|201:348|243:329,1,56.3999982788087,2|2,1:2|0:0,0:0:0:0:
296,227,34315,1,2,1:2:0:0:
359,364,34487,1,2,0:0:0:0:
421,225,34658,1,2,1:2:0:0:
360,383,34830,1,2,0:0:0:0:
470,297,35001,2,0,L|541:289,1,56.3999982788087,2|2,1:2|0:0,0:0:0:0:
383,137,35344,1,2,1:2:0:0:
383,137,35515,2,0,L|342:140,1,28.1999991394043,2|0,0:0|0:0,0:0:0:0:
455,22,35687,6,0,L|449:99,1,56.3999982788087,2|2,1:2|0:0,0:0:0:0:
359,195,36030,2,0,L|354:138,1,56.3999982788087,2|2,1:2|0:0,0:0:0:0:
253,23,36372,1,2,1:2:0:0:
161,18,36544,1,2,0:0:0:0:
156,110,36715,1,2,1:2:0:0:
248,115,36887,1,2,0:0:0:0:
89,60,37058,2,0,L|23:65,1,56.3999982788087,2|2,1:2|0:0,0:0:0:0:
45,180,37401,2,0,L|101:175,1,56.3999982788087,2|2,1:2|0:0,0:0:0:0:
175,293,37744,1,2,1:2:0:0:
64,267,37915,1,2,0:0:0:0:
251,217,38087,1,2,1:2:0:0:
251,217,38258,2,0,L|245:260,1,28.1999991394043,2|0,0:1|0:0,0:0:0:0:
306,368,38430,6,0,L|312:305,1,56.3999982788087,2|2,1:2|0:0,0:0:0:0:
337,172,38772,2,0,L|326:247,1,56.3999982788086,2|0,1:2|0:0,0:0:0:0:
453,15,39115,1,2,1:2:0:0:
418,97,39287,1,2,0:0:0:0:
359,26,39458,2,0,L|277:33,1,56.3999982788087,2|2,1:2|0:0,0:0:0:0:
125,140,39801,1,2,1:2:0:0:
186,35,39972,1,2,0:0:0:0:
250,125,40144,2,0,L|244:198,1,56.3999982788087,2|2,1:2|0:0,0:0:0:0:
91,60,40487,2,0,L|86:3,1,56.3999982788087,2|2,1:2|0:0,0:0:0:0:
19,202,40830,1,2,1:2:0:0:
19,202,41001,2,0,L|20:240,1,28.1999991394043,0|0,0:0|0:0,0:0:0:0:
24,314,41172,6,0,L|109:307,1,84.599997418213,2|0,1:2|0:0,0:0:0:0:
171,359,41515,2,0,L|256:352,1,84.599997418213,2|0,1:2|0:0,0:0:0:0:
252,198,41858,2,0,P|224:259|233:291,1,84.599997418213,2|0,1:2|0:0,0:0:0:0:
337,366,42201,2,0,P|335:324|311:290,1,84.599997418213,2|0,1:2|0:0,0:0:0:0:
226,273,42544,6,0,L|167:277,1,56.4,2|0,0:2|0:0,0:0:0:0:
317,126,43744,2,0,L|337:124,2,18.8,2|0|0,1:2|1:0|1:0,0:0:0:0:
347,198,43915,6,0,L|435:190,1,75.2,2|2,1:2|0:0,0:0:0:0:
447,324,44258,2,0,L|372:330,1,75.2,2|0,1:2|0:0,0:0:0:0:
363,78,44601,1,2,1:2:0:0:
421,191,44772,1,0,0:0:0:0:
293,46,44944,2,0,P|330:9|378:8,1,75.2,2|2,1:2|0:0,0:0:0:0:
111,56,45287,1,2,1:2:0:0:
211,209,45458,1,2,0:0:0:0:
293,46,45630,1,2,1:2:0:0:
215,228,45801,1,2,0:0:0:0:
111,56,45972,2,0,L|14:73,1,75.2,2|2,1:2|0:0,0:0:0:0:
75,261,46315,1,2,1:2:0:0:
75,261,46487,2,0,L|122:265,1,37.6,2|0,0:1|0:0,0:0:0:0:
160,377,46658,6,0,L|264:360,1,75.2,2|2,1:2|0:0,0:0:0:0:
289,240,47001,2,0,L|214:227,1,75.2,2|2,1:2|0:0,0:0:0:0:
458,360,47344,1,2,1:2:0:0:
370,178,47515,1,2,0:0:0:0:
321,371,47687,1,2,1:2:0:0:
437,268,47858,1,2,0:0:0:0:
376,103,48030,2,0,L|368:194,1,75.2,2|2,1:2|0:0,0:0:0:0:
221,302,48372,2,0,L|214:227,1,75.2,2|2,1:2|0:0,0:0:0:0:
79,64,48715,1,2,1:2:0:0:
229,94,48887,1,2,0:0:0:0:
50,189,49058,1,2,1:2:0:0:
143,147,49230,2,0,L|136:105,1,37.6,2|0,0:1|0:0,0:0:0:0:
81,295,49401,6,0,L|71:376,1,75.2,2|2,1:2|0:0,0:0:0:0:
220,330,49744,2,0,L|325:314,1,75.2,2|0,1:2|0:0,0:0:0:0:
473,204,50087,1,2,1:2:0:0:
391,368,50258,1,2,0:0:0:0:
353,144,50430,1,2,1:2:0:0:
465,290,50601,1,2,0:0:0:0:
415,92,50772,2,0,P|379:69|326:72,1,75.2,2|2,1:2|0:0,0:0:0:0:
405,229,51115,2,0,P|441:224|472:203,1,75.2,2|0,1:2|0:0,0:0:0:0:
206,110,51458,1,2,1:2:0:0:
287,273,51630,1,2,0:0:0:0:
271,171,51801,1,2,1:2:0:0:
190,334,51972,2,0,L|200:389,1,37.6,0|0,0:1|0:1,0:1:0:0:
43,282,52144,6,0,B|20:228|20:228|38:156,1,112.8,2|0,1:2|0:0,0:0:0:0:
112,162,52487,2,0,B|135:216|135:216|117:288,1,112.8,2|0,1:2|0:0,0:0:0:0:
0,100,52830,2,0,L|120:87,1,112.8,2|0,1:2|0:0,0:0:0:0:
112,162,53172,2,0,L|0:174,1,112.8,2|0,1:2|0:0,0:0:0:0:
146,5,53515,5,2,1:2:0:0:
241,214,53687,1,2,0:0:0:0:
331,0,53858,1,2,1:2:0:0:
158,189,54030,1,2,0:0:0:0:
383,80,54201,1,2,1:2:0:0:
98,89,54372,1,2,0:0:0:0:
319,190,54544,6,0,L|341:185,6,18.8,2|0|2|2|2|2|2,0:0|0:1|0:1|0:1|0:1|0:1|0:1,0:0:0:0:
117,344,54887,5,6,1:2:0:0:
117,344,54972,1,0,0:0:0:0:
117,344,55058,1,2,0:2:0:0:
253,197,55230,2,0,L|341:185,1,84.599997418213,2|0,1:2|0:0,0:0:0:0:
255,362,55572,1,2,1:2:0:0:
135,177,55744,1,0,0:0:0:0:
32,373,55915,1,2,1:2:0:0:
182,251,56087,1,2,0:0:0:0:
23,122,56258,2,0,L|44:222,1,84.599997418213,2|2,1:2|0:0,0:0:0:0:
206,12,56601,2,0,L|188:94,1,84.599997418213,2|2,1:2|0:0,0:0:0:0:
367,270,56944,1,2,1:2:0:0:
158,321,57115,1,2,0:0:0:0:
386,176,57287,1,2,1:2:0:0:
138,154,57458,2,0,L|141:205,1,42.2999987091065,2|0,0:1|0:0,0:0:0:0:
221,371,57630,6,0,P|236:320|215:265,1,84.599997418213,2|2,1:2|0:0,0:0:0:0:
47,174,57972,2,0,P|42:215|57:255,1,84.599997418213,2|2,1:2|0:0,0:0:0:0:
228,290,58315,1,2,1:2:0:0:
31,346,58487,1,2,0:0:0:0:
305,375,58658,1,2,1:2:0:0:
125,320,58830,1,2,0:0:0:0:
314,228,59001,2,0,L|406:219,1,84.599997418213,2|2,1:2|0:0,0:0:0:0:
367,65,59344,2,0,L|282:73,1,84.599997418213,2|2,1:2|0:0,0:0:0:0:
470,292,59687,1,2,1:2:0:0:
354,151,59858,1,2,0:0:0:0:
350,339,60030,1,2,1:2:0:0:
459,194,60201,2,0,L|453:148,1,42.2999987091065,2|0,0:1|0:0,0:0:0:0:
342,254,60372,6,0,L|351:361,1,84.599997418213,2|2,1:2|0:0,0:0:0:0:
206,220,60715,2,0,L|215:113,1,84.599997418213,2|0,1:2|0:0,0:0:0:0:
31,359,61058,1,2,1:2:0:0:
106,192,61230,1,2,0:0:0:0:
157,369,61401,1,2,1:2:0:0:
33,258,61572,1,2,0:0:0:0:
206,220,61744,2,0,P|255:202|295:206,1,84.599997418213,2|2,1:2|0:0,0:0:0:0:
360,370,62087,2,0,P|317:370|279:353,1,84.599997418213,2|2,1:2|0:0,0:0:0:0:
368,140,62430,1,2,1:2:0:0:
470,319,62601,1,2,0:0:0:0:
464,91,62772,1,2,1:2:0:0:
377,282,62944,1,2,0:0:0:0:
309,25,63115,5,6,1:2:0:0:
93,133,65858,6,0,L|249:116,1,126.899996127319,10|0,1:2|0:0,0:0:0:0:
315,29,66201,2,0,L|332:185,1,126.899996127319,10|0,1:2|0:0,0:0:0:0:
419,251,66544,2,0,L|263:268,1,126.899996127319,10|0,1:2|0:0,0:0:0:0:
197,355,66887,2,0,L|180:199,1,126.899996127319,10|0,1:2|0:0,0:0:0:0:
93,133,67230,6,0,P|160:96|236:118,1,126.899996127319,10|0,1:2|0:0,0:0:0:0:
315,29,67572,2,0,P|352:96|330:172,1,126.899996127319,10|0,1:2|0:0,0:0:0:0:
419,251,67915,2,0,P|352:288|276:266,1,126.899996127319,10|0,1:2|0:0,0:0:0:0:
197,355,68258,2,0,P|160:288|182:212,1,126.899996127319,10|0,1:2|0:0,0:0:0:0:
315,29,68601,5,10,0:0:0:0:
415,249,68772,1,2,1:2:0:0:
160,99,68944,1,10,0:0:0:0:
440,42,69115,1,2,1:2:0:0:
119,182,69287,1,10,0:0:0:0:
487,193,69458,1,2,1:2:0:0:
125,8,69630,1,10,0:0:0:0:
130,359,69972,6,0,L|159:353,30,21.1499993545532,2|0|0|0|0|0|0|0|0|0|0|0|0|0|0|0|0|0|0|0|0|0|0|0|0|0|0|0|0|0|0,1:0|0:0|0:0|0:0|0:0|0:0|0:0|0:0|0:0|0:0|0:0|0:0|0:0|0:0|0:0|0:0|0:0|0:0|0:0|0:0|0:0|0:0|0:0|0:0|0:0|0:0|0:0|0:0|0:0|0:0|0:0,0:0:0:0:
281,176,71344,5,14,0:0:0:0:
281,176,71430,1,2,0:0:0:0:
281,176,71515,1,2,0:0:0:0:
375,334,71687,2,0,L|494:319,1,103.400003155518,10|2,0:0|0:0,0:0:0:0:
311,77,72030,1,10,0:0:0:0:
439,235,72201,1,2,0:0:0:0:
440,23,72372,1,10,0:0:0:0:
308,265,72544,1,2,0:0:0:0:
191,19,72715,6,0,L|198:132,1,103.400003155518,10|2,0:0|0:0,0:0:0:0:
221,356,73058,1,8,0:0:0:0:
221,356,73144,1,2,0:0:0:0:
221,356,73230,1,2,0:0:0:0:
63,130,73401,1,8,0:0:0:0:
336,213,73572,1,2,0:0:0:0:
336,213,73658,1,2,0:0:0:0:
336,213,73744,1,10,0:0:0:0:
78,246,73915,1,2,0:0:0:0:
302,85,74087,5,8,0:0:0:0:
302,85,74172,1,2,0:0:0:0:
302,85,74258,1,2,0:0:0:0:
202,254,74430,2,0,L|223:370,1,103.400003155518,10|2,0:0|0:0,0:0:0:0:
414,234,74772,1,10,0:0:0:0:
185,129,74944,1,2,0:0:0:0:
474,92,75115,1,10,0:0:0:0:
261,180,75287,1,2,0:0:0:0:
427,248,75458,6,0,L|413:359,1,103.400003155518,10|2,0:0|0:0,0:0:0:0:
202,254,75801,1,10,0:0:0:0:
202,254,75887,1,2,0:0:0:0:
202,254,75972,1,2,0:0:0:0:
454,156,76144,1,10,0:0:0:0:
158,105,76315,1,2,0:0:0:0:
158,105,76401,1,2,0:0:0:0:
158,105,76487,1,10,0:0:0:0:
427,248,76658,1,2,0:0:0:0:
279,63,76830,5,10,0:0:0:0:
279,63,76915,1,2,0:0:0:0:
279,63,77001,1,2,0:0:0:0:
113,241,77172,2,0,L|5:227,1,103.400003155518,10|2,0:0|0:0,0:0:0:0:
315,149,77515,1,10,0:0:0:0:
201,360,77687,1,2,0:0:0:0:
158,105,77858,1,10,0:0:0:0:
276,302,78030,1,2,0:0:0:0:
395,101,78201,6,0,L|509:88,1,103.400003155518,10|2,0:0|0:0,0:0:0:0:
405,311,78544,1,10,0:0:0:0:
405,311,78630,1,2,0:0:0:0:
405,311,78715,1,2,0:0:0:0:
243,128,78887,1,10,0:0:0:0:
485,211,79058,1,2,0:0:0:0:
485,211,79144,1,2,0:0:0:0:
485,211,79230,1,10,0:0:0:0:
328,378,79401,1,2,0:0:0:0:
297,79,79572,5,10,0:0:0:0:
297,79,79658,1,2,0:0:0:0:
297,79,79744,2,0,L|306:170,1,51.7000015777588,2|2,0:0|0:0,0:0:0:0:
239,346,79915,2,0,P|188:349|145:322,1,103.400003155518,10|2,0:0|0:0,0:0:0:0:
157,0,80258,5,10,0:0:0:0:
157,0,80344,1,2,0:0:0:0:
157,0,80430,2,0,L|148:91,1,51.7000015777588,2|2,0:0|0:0,0:0:0:0:
215,267,80601,2,0,P|265:270|308:243,1,103.400003155518,10|2,0:0|0:0,0:0:0:0:
42,146,80944,5,2,1:2:0:0:
248,194,81115,1,0,0:0:0:0:
23,242,81287,5,2,1:2:0:0:
295,124,81458,1,0,0:0:0:0:
9,73,81630,5,2,1:2:0:0:
386,240,81801,1,0,0:0:0:0:
102,343,81972,5,10,0:2:0:0:
229,38,82144,1,10,0:2:0:0:
402,325,82315,5,10,0:0:0:0:
402,325,82401,1,2,0:0:0:0:
402,325,82487,1,2,0:0:0:0:
248,194,82658,2,0,L|143:219,1,103.400003155518,10|2,0:0|0:0,0:0:0:0:
276,289,83001,1,10,0:0:0:0:
366,128,83172,1,2,0:0:0:0:
402,325,83344,1,8,0:0:0:0:
268,118,83515,1,2,0:0:0:0:
455,220,83687,6,0,P|473:167|445:103,1,103.400003155518,10|0,0:0|0:0,0:0:0:0:
252,39,84030,1,10,0:0:0:0:
252,39,84115,1,2,0:0:0:0:
252,39,84201,1,2,0:0:0:0:
389,164,84372,1,10,0:0:0:0:
331,4,84544,1,2,0:0:0:0:
331,4,84630,1,2,0:0:0:0:
331,4,84715,1,10,0:0:0:0:
236,190,84887,1,2,0:0:0:0:
416,54,85058,5,10,0:0:0:0:
416,54,85144,1,2,0:0:0:0:
416,54,85230,1,2,0:0:0:0:
333,250,85401,2,0,L|354:370,1,103.400003155518,10|2,0:0|0:0,0:0:0:0:
103,137,85744,1,10,0:0:0:0:
222,318,85915,1,2,0:0:0:0:
199,73,86087,1,10,0:0:0:0:
92,278,86258,1,2,0:0:0:0:
295,148,86430,6,0,L|428:154,1,103.400003155518,10|2,0:0|0:0,0:0:0:0:
222,318,86772,1,10,0:0:0:0:
222,318,86858,1,2,0:0:0:0:
222,318,86944,1,2,0:0:0:0:
326,62,87115,1,10,0:0:0:0:
446,312,87287,1,2,0:0:0:0:
446,312,87372,1,2,0:0:0:0:
446,312,87458,1,10,0:0:0:0:
212,157,87630,1,2,0:0:0:0:
343,369,87801,5,10,0:0:0:0:
343,369,87887,1,2,0:0:0:0:
343,369,87972,1,2,0:0:0:0:
226,246,88144,2,0,L|124:261,1,103.400003155518,10|2,0:0|0:0,0:0:0:0:
283,112,88487,1,10,0:0:0:0:
393,293,88658,1,2,0:0:0:0:
379,50,88830,1,10,0:0:0:0:
312,267,89001,1,2,0:0:0:0:
409,136,89172,6,0,L|512:128,1,103.400003155518,10|2,0:0|0:0,0:0:0:0:
312,267,89515,1,10,0:0:0:0:
312,267,89601,1,2,0:0:0:0:
312,267,89687,1,2,0:0:0:0:
436,35,89858,1,10,0:0:0:0:
512,356,90030,1,2,0:0:0:0:
512,356,90115,1,2,0:0:0:0:
512,356,90201,1,10,0:0:0:0:
376,117,90372,1,2,0:0:0:0:
253,353,90544,5,10,0:0:0:0:
253,353,90630,1,2,0:0:0:0:
253,353,90715,2,0,L|193:342,1,51.7000015777588,2|2,0:0|0:0,0:0:0:0:
421,183,90887,2,0,L|529:163,1,103.400003155518,10|2,0:0|0:0,0:0:0:0:
347,358,91230,5,10,0:0:0:0:
347,358,91315,1,2,0:0:0:0:
347,358,91401,2,0,L|408:345,1,51.7000015777588,2|2,0:0|0:0,0:0:0:0:
179,188,91572,2,0,L|71:168,1,103.400003155518,10|2,0:0|0:0,0:0:0:0:
275,11,91915,1,2,0:0:0:0:
251,362,93287,5,2,1:2:0:0:
251,362,93372,1,2,0:0:0:0:
251,362,93458,1,2,0:0:0:0:
345,260,93630,2,0,L|439:273,1,94,2|2,1:2|0:0,0:0:0:0:
326,370,93972,1,2,1:2:0:0:
231,217,94144,1,2,0:0:0:0:
110,364,94315,1,2,1:2:0:0:
268,288,94487,1,2,0:0:0:0:
136,199,94658,2,0,L|157:308,1,94,2|2,1:2|0:0,0:0:0:0:
225,129,95001,1,2,1:2:0:0:
225,129,95087,1,2,0:0:0:0:
225,129,95172,1,2,0:0:0:0:
50,218,95344,2,0,P|107:219|140:194,1,94,2|2,1:2|0:0,0:0:0:0:
148,169,95601,1,2,0:0:0:0:
148,169,95687,1,2,1:2:0:0:
105,65,95858,1,2,0:0:0:0:
199,0,96030,5,2,1:2:0:0:
199,0,96115,1,2,0:0:0:0:
199,0,96201,1,2,0:0:0:0:
278,66,96372,2,0,L|379:54,1,94,2|2,1:2|0:0,0:0:0:0:
451,81,96715,1,0,1:2:0:0:
432,164,96887,1,2,0:0:0:0:
339,158,97058,1,2,1:2:0:0:
358,241,97230,1,2,0:0:0:0:
419,320,97401,2,0,L|513:309,1,94,2|2,1:2|0:0,0:0:0:0:
323,330,97744,1,2,1:2:0:0:
323,330,97830,1,2,0:0:0:0:
323,330,97915,1,2,0:0:0:0:
227,340,98087,2,0,L|133:351,1,94,2|2,1:2|0:0,0:0:0:0:
92,340,98344,1,2,0:0:0:0:
92,340,98430,2,0,P|71:291|78:242,1,94,2|2,1:2|0:0,0:0:0:0:
144,161,98772,5,6,1:2:0:0:
144,161,98858,1,2,0:0:0:0:
144,161,98944,1,2,0:0:0:0:
77,79,99115,1,2,1:2:0:0:
151,22,99287,1,2,0:0:0:0:
222,91,99458,2,0,L|326:79,1,94,0|2,1:2|0:0,0:0:0:0:
402,30,99801,1,2,1:2:0:0:
402,30,99972,1,2,0:0:0:0:
461,119,100144,2,0,L|449:222,1,94,0|2,1:2|0:0,0:0:0:0:
361,249,100487,2,0,L|366:311,2,47,2|2|2,1:2|0:0|0:0,0:0:0:0:
299,182,100830,1,2,1:2:0:0:
224,239,101001,2,0,L|219:301,2,47,2|2|2,0:0|0:0|1:2,0:0:0:0:
147,167,101344,1,2,0:0:0:0:
69,258,101515,6,0,L|12:266,4,47,2|2|2|2|2,1:2|0:0|0:0|0:0|1:2,0:0:0:0:
82,76,102201,2,0,L|25:68,4,47,2|2|2|2|2,1:2|0:0|0:0|0:0|1:2,0:0:0:0:
189,355,102887,6,0,L|345:334,1,141,0|0,1:0|0:0,0:0:0:0:
189,360,103230,6,0,L|345:339,1,141,0|0,1:0|0:0,0:0:0:0:
189,369,103572,6,0,L|345:348,1,141,0|0,0:0|0:0,0:0:0:0:
189,374,103915,6,0,L|345:353,1,141
364,284,104258,6,0,B|396:300|409:346|409:346|443:259|377:207,1,225.6,2|0,0:1|0:1,0:0:0:0:
313,138,105630,2,0,B|281:122|268:76|268:76|234:163|300:215,1,225.6,2|2,0:1|0:1,0:0:0:0:
485,63,107001,2,0,P|443:37|449:145,1,225.6,2|2,0:1|0:1,0:0:0:0:
245,292,108372,2,0,P|287:318|281:210,1,225.6,2|2,0:1|0:1,0:0:0:0:
194,168,109744,2,0,B|204:267|204:267|224:291|224:291|238:394,1,225.6,2|2,0:1|0:1,0:0:0:0:
72,369,111115,2,0,B|82:270|82:270|102:246|102:246|116:143,1,225.6,2|2,0:1|0:1,0:0:0:0:
160,43,112487,2,0,B|298:37|217:147|356:135,1,225.6,2|2,0:1|0:1,0:0:0:0:
512,197,113858,2,0,B|374:191|455:301|316:289,1,225.6,2|2,0:1|0:0,0:0:0:0:
53,70,115230,6,0,B|135:50|135:50|112:187|112:187|119:202|119:202|99:358|99:358|29:315|29:315|253:292|253:292|236:329|236:329|174:339|174:339|200:216|200:216|365:218|365:218|299:374|299:374|471:374|471:374|441:263|441:263|451:238|451:238|420:145|420:145|237:141|237:141|213:122|213:122|211:39|211:39|229:20|229:20|346:13|346:13|384:32|384:32|468:28|468:28|426:59|426:59,1,2293.6,6|0,1:2|0:0,0:0:0:0:
429,56,125858,5,0,0:0:0:0:
63,31,126201,6,0,L|77:133,1,75.2,2|0,0:1|0:0,0:0:0:0:
168,205,126544,2,0,L|178:130,1,75.2,2|0,0:1|0:0,0:0:0:0:
55,298,126887,1,2,0:1:0:0:
168,205,127058,2,0,P|216:168|304:192,1,150.4,0|2,0:1|0:1,0:0:0:0:
396,313,127572,2,0,L|407:225,1,75.2,2|0,0:1|0:0,0:0:0:0:
289,111,127915,2,0,L|300:199,1,75.2,2|0,0:1|0:0,0:0:0:0:
441,30,128258,2,0,P|379:25|350:44,1,75.2,2|0,0:1|0:0,0:0:0:0:
298,185,128601,1,2,0:1:0:0:
368,29,128772,1,2,0:1:0:0:
298,185,128944,6,0,L|193:179,1,75.2,2|0,0:1|0:0,0:0:0:0:
179,46,129287,2,0,L|254:41,1,75.2,2|0,0:1|0:0,0:0:0:0:
112,233,129630,1,2,0:1:0:0:
51,12,129801,2,0,B|39:81|39:81|51:98|51:98|43:159,1,150.4,2|2,0:1|0:1,0:0:0:0:
75,323,130315,2,0,L|171:308,1,75.2,2|0,0:1|0:0,0:0:0:0:
112,233,130658,2,0,L|37:244,1,75.2,2|0,0:1|0:0,0:0:0:0:
221,336,131001,2,0,P|220:284|198:252,1,75.2,2|0,0:1|0:0,0:0:0:0:
75,323,131344,1,2,0:1:0:0:
180,187,131515,1,2,0:1:0:0:
225,337,131687,6,0,L|321:324,1,75.2,2|0,0:1|0:0,0:0:0:0:
427,374,132030,2,0,L|352:384,1,75.2,2|0,0:1|0:0,0:0:0:0:
413,263,132372,1,2,0:1:0:0:
324,190,132544,2,0,L|327:32,1,150.4,2|2,0:1|0:1,0:0:0:0:
235,183,133058,2,0,L|149:170,1,75.2,2|0,0:1|0:0,0:0:0:0:
82,73,133401,2,0,L|156:61,1,75.2,2|0,0:1|0:0,0:0:0:0:
86,183,133744,2,0,L|160:171,1,75.2,2|0,0:1|0:0,0:0:0:0:
50,304,134087,1,2,0:1:0:0:
86,183,134258,1,2,0:1:0:0:
50,304,134430,6,0,L|74:391,1,75.2,2|0,0:1|0:0,0:0:0:0:
185,323,134772,2,0,L|204:250,1,75.2,2|0,0:1|0:0,0:0:0:0:
296,154,135115,1,2,0:1:0:0:
363,256,135287,2,0,L|517:235,1,150.4,0|2,0:1|0:1,0:0:0:0:
419,168,135801,2,0,P|400:124|413:78,1,75.2,2|0,0:1|0:0,0:0:0:0:
512,14,136144,2,0,P|513:51|496:84,1,75.2,2|0,0:1|0:0,0:0:0:0:
407,12,136487,2,0,L|326:28,1,75.2,2|0,0:1|0:0,0:0:0:0:
264,117,136830,1,2,0:1:0:0:
201,17,137001,1,2,0:1:0:0:
123,101,137172,6,0,L|30:91,1,84.599997418213,10|0,0:1|0:0,0:0:0:0:
104,186,137515,2,0,L|11:176,1,84.599997418213,10|0,0:1|0:0,0:0:0:0:
91,322,137858,1,8,0:1:0:0:
175,255,138030,2,0,L|351:234,1,169.199994836426,2|2,0:1|0:1,0:0:0:0:
392,82,138544,2,0,P|414:141|396:175,1,84.599997418213,10|0,0:1|0:0,0:0:0:0:
326,311,138887,2,0,P|320:269|342:234,1,84.599997418213,10|0,0:1|0:0,0:0:0:0:
497,122,139230,2,0,L|319:112,1,169.199994836426,10|10,0:1|0:1,0:0:0:0:
428,17,139744,1,2,0:1:0:0:
497,122,139915,6,0,L|482:209,1,84.599997418213,10|0,0:1|0:0,0:0:0:0:
427,346,140258,2,0,L|412:259,1,84.599997418213,10|0,0:1|0:0,0:0:0:0:
335,189,140601,1,10,0:1:0:0:
261,300,140772,2,0,B|166:277|205:379|85:353,1,169.199994836426,2|2,0:1|0:1,0:0:0:0:
3,313,141287,2,0,L|25:211,1,84.599997418213,10|0,0:1|0:0,0:0:0:0:
105,98,141630,2,0,L|87:180,1,84.599997418213,10|0,0:1|0:0,0:0:0:0:
195,82,141972,2,0,L|213:0,1,84.599997418213,10|0,0:1|0:0,0:0:0:0:
352,176,142315,1,10,0:1:0:0:
254,142,142487,1,2,0:1:0:0:
430,127,142658,6,0,P|440:170|424:238,1,84.599997418213,10|0,0:1|0:0,0:0:0:0:
282,310,143001,2,0,P|272:267|288:199,1,84.599997418213,10|0,0:1|0:0,0:0:0:0:
375,376,143344,1,10,0:1:0:0:
282,310,143515,2,0,L|98:323,1,169.199994836426,2|2,0:1|0:1,0:0:0:0:
102,175,144030,2,0,P|136:218|137:268,1,84.599997418213,10|0,0:1|0:0,0:0:0:0:
19,315,144372,2,0,P|28:274|57:243,1,84.599997418213,10|0,0:1|0:0,0:0:0:0:
168,147,144715,2,0,L|0:162,1,169.199994836426,10|10,0:1|0:1,0:0:0:0:
53,72,145230,1,2,0:1:0:0:
168,147,145401,6,0,L|163:191,7,42.2999987091065,2|0|0|0|2|0|0|0,0:1|0:0|0:0|0:0|0:1|0:0|0:0|0:0,0:0:0:0:
229,99,146087,2,0,L|226:70,7,21.1499993545532,2|0|0|0|2|0|0|0,0:1|0:0|0:0|0:0|0:1|0:0|0:0|0:0,0:0:0:0:
291,149,146430,1,2,0:1:0:0:
291,149,146772,6,0,L|296:180,26,21.1499993545532,4|0|0|0|0|0|0|0|0|0|0|0|0|0|0|0|0|0|0|0|0|0|0|0|0|0|0,0:1|0:0|0:0|0:0|0:0|0:0|0:0|0:0|0:0|0:0|0:0|0:0|0:0|0:0|0:0|0:0|0:0|0:0|0:0|0:0|0:0|0:0|0:0|0:0|0:0|0:0|0:0,0:0:0:0:
405,384,148144,6,0,L|394:256,1,112.799996557617,6|0,1:2|0:0,0:0:0:0:
184,103,148487,2,0,L|173:231,1,112.799996557617,2|0,1:0|0:0,0:0:0:0:
402,112,148830,1,2,1:0:0:0:
265,328,149001,2,0,B|134:293|193:402|56:382,1,225.599993115235,2|2,0:1|0:1,0:0:0:0:
37,83,149515,5,2,1:0:0:0:
125,275,149687,1,0,0:0:0:0:
179,66,149858,1,2,1:0:0:0:
127,289,150030,1,0,0:0:0:0:
226,149,150201,2,0,L|353:130,1,112.799996557617,2|0,1:0|0:0,0:0:0:0:
130,300,150544,1,2,1:0:0:0:
235,60,150715,1,2,0:1:0:0:
388,331,150887,6,0,P|317:341|241:294,1,112.799996557617,2|0,1:0|0:0,0:0:0:0:
337,132,151230,2,0,P|391:120|445:135,1,112.799996557617,2|0,1:0|0:0,0:0:0:0:
279,327,151572,1,2,1:0:0:0:
180,109,151744,2,0,B|156:83|145:46|145:46|59:110|132:218,1,225.599993115235,2|2,0:1|0:1,0:0:0:0:
47,346,152258,5,2,1:0:0:0:
272,215,152430,1,0,0:0:0:0:
38,234,152601,2,0,L|49:366,1,112.799996557617,2|0,1:0|0:0,0:0:0:0:
283,103,152944,2,0,L|273:215,1,112.799996557617,2|0,1:0|0:0,0:0:0:0:
38,121,153287,1,2,1:0:0:0:
182,320,153458,1,2,0:1:0:0:
283,103,153630,6,0,P|338:72|430:97,1,112.799996557617,2|0,1:0|0:0,0:0:0:0:
459,298,153972,2,0,P|403:297|355:268,1,112.799996557617,2|0,1:0|0:0,0:0:0:0:
283,103,154315,1,2,1:0:0:0:
131,322,154487,2,0,B|263:275|207:414|367:360,1,225.599993115235,2|2,0:1|0:1,0:0:0:0:
47,104,155001,5,2,1:0:0:0:
131,322,155172,1,0,0:0:0:0:
122,62,155344,1,2,1:0:0:0:
0,300,155515,1,0,0:0:0:0:
228,169,155687,2,0,L|367:156,1,112.799996557617,2|0,1:0|0:0,0:0:0:0:
131,322,156030,1,2,1:0:0:0:
286,64,156201,1,2,0:1:0:0:
415,316,156372,6,0,P|343:345|278:322,1,112.799996557617,2|0,1:0|0:0,0:0:0:0:
408,119,156715,2,0,P|463:116|512:142,1,112.799996557617,2|0,1:0|0:0,0:0:0:0:
312,338,157058,1,2,1:0:0:0:
174,44,157230,2,0,B|187:137|187:137|229:166|229:166|244:269,1,225.599993115235,2|2,0:1|0:1,0:0:0:0:
0,221,157744,5,2,1:0:0:0:
104,377,157915,1,2,0:0:0:0:
105,205,158087,5,2,1:0:0:0:
172,287,158258,1,2,0:0:0:0:
198,183,158430,5,2,1:0:0:0:
225,210,158601,5,2,0:0:0:0:
459,118,158772,1,2,1:0:0:0:
323,384,158944,1,2,1:0:0:0:
145,119,159115,6,0,L|173:-4,1,122.199994406128,6|2,1:2|0:0,0:0:0:0:
344,174,159458,2,0,L|372:297,1,122.199994406128,2|2,1:0|0:0,0:0:0:0:
176,350,159801,1,2,1:0:0:0:
388,103,159972,1,2,0:1:0:0:
60,131,160144,2,0,P|50:190|96:256,1,122.199994406128,0|0,1:0|0:1,0:0:0:0:
427,230,160487,5,2,1:0:0:0:
99,364,160658,1,2,0:0:0:0:
453,379,160830,1,2,1:0:0:0:
152,282,161001,1,2,0:0:0:0:
408,89,161172,1,2,1:0:0:0:
262,370,161344,1,2,0:0:0:0:
210,45,161515,1,2,1:0:0:0:
376,306,161687,1,2,0:1:0:0:
440,11,161858,6,0,L|293:31,1,122.199994406128,2|2,1:0|0:0,0:0:0:0:
179,191,162201,2,0,L|300:207,1,122.199994406128,2|2,1:0|0:0,0:0:0:0:
51,47,162544,1,2,1:0:0:0:
123,328,162715,1,2,0:1:0:0:
361,153,162887,2,0,P|376:228|344:274,1,122.199994406128,0|2,1:0|0:1,0:0:0:0:
20,154,163230,5,2,1:0:0:0:
325,13,163401,1,2,0:0:0:0:
16,76,163572,1,2,1:0:0:0:
361,153,163744,1,2,0:0:0:0:
43,336,163915,1,2,1:0:0:0:
218,49,164087,1,2,0:0:0:0:
245,379,164258,1,2,1:0:0:0:
20,154,164430,1,2,0:1:0:0:
340,279,164601,6,0,L|486:257,1,122.199994406128,2|2,1:0|0:0,0:0:0:0:
218,49,164944,2,0,P|189:110|231:197,1,122.199994406128,2|2,1:0|0:0,0:0:0:0:
421,100,165287,1,2,1:0:0:0:
119,39,165458,1,2,0:1:0:0:
335,263,165630,2,0,L|318:396,1,122.199994406128,0|2,1:0|0:1,0:0:0:0:
119,39,165972,5,2,1:0:0:0:
234,337,166144,1,2,0:0:0:0:
247,11,166315,1,2,1:0:0:0:
75,280,166487,1,2,0:0:0:0:
388,103,166658,1,2,1:0:0:0:
104,183,166830,1,2,0:0:0:0:
432,239,167001,1,2,1:0:0:0:
33,110,167172,1,2,0:1:0:0:
269,377,167344,6,0,L|428:356,1,122.199994406128,2|2,1:0|0:0,0:0:0:0:
158,189,167687,2,0,P|139:248|178:325,1,122.199994406128,2|2,1:0|0:0,0:0:0:0:
421,147,168030,1,2,1:0:0:0:
114,85,168201,1,2,0:1:0:0:
328,247,168372,2,0,L|307:102,1,122.199994406128,0|2,1:0|0:1,0:0:0:0:
18,333,168715,5,2,1:0:0:0:
328,247,168887,1,2,0:0:0:0:
22,211,169058,1,2,1:0:0:0:
267,337,169230,1,2,0:0:0:0:
192,104,169401,1,2,1:0:0:0:
97,361,169572,1,2,0:0:0:0:
63,89,169744,5,2,0:1:0:0:
235,263,169915,1,2,0:1:0:0:
274,36,170087,1,6,1:2:0:0:
256,192,170172,12,0,180887,0:0:0:0:
51,70,181058,6,0,L|175:52,1,94,2|2,1:2|0:0,0:0:0:0:
226,180,181401,2,0,L|132:166,1,94,2|0,1:2|0:0,0:0:0:0:
250,29,181744,1,2,1:2:0:0:
322,194,181915,1,2,0:0:0:0:
404,28,182087,1,2,1:2:0:0:
323,193,182258,1,2,0:0:0:0:
405,341,182430,2,0,L|506:326,1,94,2|2,1:2|0:0,0:0:0:0:
415,206,182772,2,0,L|314:191,1,94,2|2,1:2|0:0,0:0:0:0:
170,313,183115,1,2,1:2:0:0:
292,110,183287,1,2,0:0:0:0:
298,368,183458,1,2,1:2:0:0:
202,189,183630,2,0,L|141:194,1,47,2|0,0:1|0:0,0:0:0:0:
46,335,183801,6,0,L|30:205,1,94,2|2,1:2|0:0,0:0:0:0:
166,99,184144,2,0,L|150:229,1,94,2|2,1:2|0:0,0:0:0:0:
86,30,184487,1,2,1:2:0:0:
231,13,184658,1,2,0:0:0:0:
311,137,184830,2,0,L|426:118,1,94,2|2,1:2|0:0,0:0:0:0:
237,353,185172,1,2,1:2:0:0:
341,204,185344,1,2,0:0:0:0:
353,379,185515,1,2,1:2:0:0:
247,187,185687,1,2,0:2:0:0:
148,369,185858,2,0,L|42:360,1,94,2|2,1:2|0:0,0:0:0:0:
123,157,186201,1,2,1:2:0:0:
123,157,186372,2,0,L|118:234,1,47,2|0,0:1|0:0,0:0:0:0:
63,83,186544,6,0,L|175:66,1,94,2|2,1:2|0:0,0:0:0:0:
330,41,186887,2,0,L|237:55,1,94,2|0,1:2|0:0,0:0:0:0:
198,261,187230,1,2,1:2:0:0:
292,129,187401,1,2,0:0:0:0:
323,310,187572,1,2,1:2:0:0:
195,177,187744,1,2,0:0:0:0:
160,353,187915,2,0,L|51:343,1,94,2|2,1:2|0:0,0:0:0:0:
302,229,188258,2,0,L|395:220,1,94,2|2,1:2|0:0,0:0:0:0:
81,74,188601,1,2,1:2:0:0:
198,261,188772,1,2,0:0:0:0:
194,34,188944,1,2,1:2:0:0:
80,195,189115,1,2,0:0:0:0:
295,130,189287,6,0,L|458:102,1,141,2|0,1:2|0:0,0:0:0:0:
240,77,189630,2,0,P|230:172|296:200,1,141,2|0,1:2|0:0,0:0:0:0:
353,180,189972,2,0,P|363:85|297:57,1,141,2|0,1:2|0:0,0:0:0:0:
316,245,190315,2,0,L|334:389,1,141,2|0,1:2|0:0,0:0:0:0:
307,252,190658,5,2,1:2:0:0:
195,57,191515,5,2,0:1:0:0:
163,343,191687,1,2,0:1:0:0:
195,57,191858,1,2,0:1:0:0:
163,343,192030,6,0,L|44:333,1,112.799996557617,10|0,0:1|0:0,0:0:0:0:
171,156,192372,2,0,L|283:146,1,112.799996557617,10|0,0:1|0:0,0:0:0:0:
443,276,192715,1,10,0:1:0:0:
328,0,192887,2,0,B|303:128|418:63|377:219,1,225.599993115235,2|2,0:1|0:1,0:0:0:0:
299,375,193401,5,10,0:1:0:0:
204,139,193572,1,0,0:0:0:0:
163,343,193744,1,10,0:1:0:0:
302,149,193915,1,0,0:0:0:0:
99,254,194087,2,0,L|-31:241,1,112.799996557617,10|0,0:1|0:0,0:0:0:0:
147,63,194430,1,10,0:1:0:0:
244,290,194601,1,2,0:1:0:0:
106,2,194772,6,0,P|70:62|93:122,1,112.799996557617,10|0,0:1|0:0,0:0:0:0:
244,290,195115,2,0,P|248:235|215:191,1,112.799996557617,10|0,0:1|0:0,0:0:0:0:
123,378,195458,1,10,0:1:0:0:
334,278,195630,2,0,B|474:261|403:388|539:355,1,225.599993115235,2|2,0:1|0:1,0:0:0:0:
292,122,196144,5,10,0:1:0:0:
369,363,196315,1,0,0:0:0:0:
502,119,196487,2,0,L|477:255,1,112.799996557617,10|0,0:1|0:0,0:0:0:0:
272,12,196830,2,0,L|297:148,1,112.799996557617,10|0,0:1|0:0,0:0:0:0:
123,378,197172,1,10,0:1:0:0:
292,122,197344,1,2,0:1:0:0:
25,236,197515,6,0,P|81:210|147:222,1,112.799996557617,10|0,0:1|0:0,0:0:0:0:
369,363,197858,2,0,P|313:366|263:341,1,112.799996557617,10|0,0:1|0:0,0:0:0:0:
76,96,198201,1,10,0:1:0:0:
232,269,198372,2,0,B|101:308|159:189|21:237,1,225.599993115235,2|2,0:1|0:1,0:0:0:0:
241,113,198887,5,10,0:1:0:0:
364,360,199058,1,0,0:0:0:0:
371,70,199230,1,10,0:1:0:0:
232,269,199401,1,0,0:0:0:0:
419,159,199572,2,0,L|539:141,1,112.799996557617,10|0,0:1|0:0,0:0:0:0:
348,353,199915,1,10,0:1:0:0:
294,49,200087,1,2,0:1:0:0:
197,329,200258,6,0,B|132:343|132:343|74:313,1,112.799996557617,10|0,0:1|0:0,0:0:0:0:
0,130,200601,2,0,B|41:108|41:108|106:122,1,112.799996557617,10|0,0:1|0:0,0:0:0:0:
197,329,200944,1,10,0:1:0:0:
181,13,201115,2,0,L|197:246,1,225.599993115235,2|2,0:1|0:1,0:0:0:0:
457,368,201630,5,10,0:1:0:0:
272,199,201801,1,0,1:0:0:0:
381,343,201972,5,10,0:1:0:0:
353,204,202144,1,0,1:0:0:0:
403,274,202315,5,10,0:1:0:0:
374,269,202487,5,0,1:0:0:0:
266,378,202658,1,2,1:0:0:0:
489,201,202830,1,2,1:0:0:0:
173,282,203001,6,0,L|19:268,1,122.199994406128,10|2,0:1|0:0,0:0:0:0:
85,46,203344,2,0,L|206:57,1,122.199994406128,10|2,0:1|0:0,0:0:0:0:
435,362,203687,1,10,0:1:0:0:
290,149,203858,1,2,0:1:0:0:
248,365,204030,1,8,0:1:0:0:
398,126,204201,1,2,0:1:0:0:
172,281,204372,6,0,L|51:298,1,122.199994406128,10|0,0:1|0:0,0:0:0:0:
97,126,204715,1,10,0:1:0:0:
363,267,204887,1,2,0:0:0:0:
66,361,205058,1,10,0:1:0:0:
320,195,205230,1,2,0:0:0:0:
17,114,205401,1,10,0:1:0:0:
215,375,205572,1,2,0:1:0:0:
356,116,205744,6,0,P|274:118|230:189,1,122.199994406128,10|2,0:1|0:0,0:0:0:0:
62,255,206087,2,0,P|111:288|171:281,1,122.199994406128,10|2,0:1|0:0,0:0:0:0:
460,354,206430,1,10,0:1:0:0:
356,116,206601,1,2,0:1:0:0:
299,359,206772,1,8,0:1:0:0:
446,89,206944,1,2,0:1:0:0:
164,108,207115,5,10,0:1:0:0:
451,236,207287,1,2,0:0:0:0:
117,272,207458,1,10,0:1:0:0:
404,163,207630,1,2,0:0:0:0:
27,121,207801,1,10,0:1:0:0:
354,266,207972,1,2,0:0:0:0:
165,89,208144,1,10,0:1:0:0:
146,384,208315,1,2,0:1:0:0:
291,21,208487,6,0,P|255:71|268:149,1,122.199994406128,10|2,0:1|0:0,0:0:0:0:
146,384,208830,2,0,P|182:334|169:256,1,122.199994406128,10|2,0:1|0:0,0:0:0:0:
65,185,209172,1,10,0:1:0:0:
311,253,209344,1,2,0:1:0:0:
91,282,209515,1,8,0:0:0:0:
292,167,209687,1,2,0:1:0:0:
148,118,209858,5,10,0:1:0:0:
256,311,210030,1,2,0:0:0:0:
229,56,210201,1,10,0:1:0:0:
154,242,210372,1,2,0:0:0:0:
282,142,210544,1,10,0:1:0:0:
357,273,210715,1,2,0:0:0:0:
411,66,210887,1,10,0:1:0:0:
371,162,211058,1,2,0:1:0:0:
326,15,211230,6,0,L|209:36,1,94,2|0,1:0|0:0,0:0:0:0:
176,116,211572,2,0,L|268:132,1,94,2|0,1:0|0:0,0:0:0:0:
84,45,211915,1,2,1:0:0:0:
0,129,212087,2,0,B|-13:249|93:171|65:334,1,188,2|0,0:1|0:0,0:0:0:0:
89,366,212601,2,0,L|195:347,1,94,2|0,1:0|0:0,0:0:0:0:
69,291,212944,2,0,L|175:272,1,94,2|0,1:0|0:0,0:0:0:0:
253,372,213287,2,0,P|284:287|207:225,1,188,2|2,1:0|0:1,0:0:0:0:
422,154,213801,1,2,0:1:0:0:
361,373,213972,5,4,1:2:0:0:
361,373,215344,5,4,0:0:0:0:
361,373,215687,5,4,0:0:0:0:
361,373,216030,5,4,0:0:0:0:
361,373,216372,5,4,0:0:0:0:
361,373,216715,5,4,0:0:0:0:
202,52,218087,6,0,L|212:127,7,47,2|2|2|2|2|2|2|2,0:1|0:1|0:1|0:1|0:1|0:1|0:1|0:1,0:0:0:0:
283,151,218772,2,0,P|276:190|265:234,1,47,2|0,0:0|0:0,0:0:0:0:
192,228,218944,2,0,P|199:267|210:311,1,47,2|0,0:0|0:0,0:0:0:0:
241,353,219115,2,0,L|268:359,2,23.5,2|0|0,0:1|0:0|0:0,0:0:0:0:
148,347,219287,2,0,P|104:355|83:362,1,47,2|0,0:0|0:0,0:0:0:0:
18,379,219458,6,0,L|21:289,1,75.2,2|2,1:2|0:0,0:0:0:0:
34,113,219801,2,0,L|27:183,1,37.6,2|0,1:2|0:0,0:0:0:0:
34,113,219972,2,0,L|27:183,1,37.6,2|0,1:2|0:0,0:0:0:0:
117,239,220144,2,0,L|209:225,1,75.2,2|2,1:2|0:0,0:0:0:0:
241,353,220487,2,0,L|166:341,1,75.2,2|2,1:2|0:0,0:0:0:0:
251,179,220830,2,0,P|269:215|253:275,1,75.2,2|2,1:2|0:1,0:0:0:0:
261,277,221087,1,0,0:0:0:0:
261,277,221172,2,0,L|327:269,1,56.4,2|0,1:2|0:0,0:0:0:0:
348,270,221344,2,0,L|353:306,2,18.8,2|0|0,0:1|0:0|0:0,0:0:0:0:
457,305,221515,2,0,L|464:390,1,75.2,2|2,1:2|0:0,0:0:0:0:
414,186,221858,1,2,1:2:0:0:
416,103,222030,1,10,1:2:0:0:
462,39,222201,6,0,P|422:25|365:39,1,75.2,2|2,1:2|0:0,0:0:0:0:
341,197,222544,2,0,P|378:199|413:185,1,75.2,2|2,1:2|0:0,0:0:0:0:
249,51,222887,2,0,L|257:130,1,75.2,2|2,1:2|0:0,0:0:0:0:
256,162,223144,1,2,0:0:0:0:
256,162,223230,2,0,P|224:170|190:165,1,56.4,2|0,1:2|0:0,0:0:0:0:
174,163,223401,2,0,L|167:195,2,18.8,2|0|0,0:1|0:0|0:0,0:0:0:0:
42,87,223572,1,2,1:2:0:0:
111,226,223744,1,2,0:0:0:0:
179,82,223915,2,0,L|269:72,1,75.2,2|2,1:2|0:0,0:0:0:0:
432,44,224258,2,0,L|406:48,4,18.8,2|0|0|0|2,0:1|0:0|0:0|0:0|0:0,0:0:0:0:
346,210,224601,1,2,1:2:0:0:
452,138,224772,1,2,0:1:0:0:
451,249,224944,6,0,L|458:338,1,75.2,2|2,1:2|0:0,0:0:0:0:
328,365,225287,2,0,L|281:372,1,37.6,2|0,1:2|0:0,0:0:0:0:
328,365,225458,2,0,L|281:372,1,37.6,2|0,1:2|0:0,0:0:0:0:
220,307,225630,2,0,L|114:292,1,75.2,2|2,1:2|0:0,0:0:0:0:
11,384,225972,2,0,L|85:373,1,75.2,2|2,1:2|0:0,0:0:0:0:
18,172,226315,1,2,1:2:0:0:
71,276,226487,2,0,L|71:303,2,18.8,2|2|2,0:1|0:1|0:1,0:0:0:0:
106,106,226658,1,2,1:2:0:0:
1,250,226830,1,2,0:0:0:0:
156,175,227001,1,2,1:0:0:0:
156,175,227087,2,0,L|212:172,1,37.6,0|0,0:0|0:0,0:0:0:0:
296,278,227344,1,2,1:2:0:0:
263,66,227515,1,2,0:1:0:0:
263,66,227601,1,0,0:0:0:0:
263,66,227687,6,0,L|323:69,1,37.6,2|0,1:2|0:0,0:0:0:0:
259,139,227858,2,0,L|319:142,1,37.6,2|0,1:2|0:0,0:0:0:0:
372,148,228030,2,0,L|369:177,2,18.8,2|0|0,0:1|0:0|0:0,0:0:0:0:
383,70,228201,2,0,L|386:41,2,18.8,10|0|0,0:1|0:0|0:0,0:0:0:0:
499,155,228372,2,0,L|439:152,1,37.6,10|0,0:0|0:0,0:0:0:0:
503,78,228544,2,0,L|454:76,1,37.6,10|0,0:0|0:0,0:0:0:0:
316,225,228715,2,0,P|359:244|407:233,1,75.2,10|2,0:0|0:0,0:0:0:0:
470,357,229058,2,0,L|442:360,2,18.8,10|0|0,0:1|0:0|0:0,0:0:0:0:
370,371,229230,2,0,L|330:376,1,37.6,2|0,0:0|0:0,0:0:0:0:
159,268,229401,1,10,0:0:0:0:
242,379,229572,1,2,0:0:0:0:
239,177,229744,1,10,0:0:0:0:
101,352,229915,5,2,0:1:0:0:
101,352,230001,1,0,0:0:0:0:
101,352,230087,2,0,L|53:343,1,37.6,10|0,0:0|0:0,0:0:0:0:
175,99,230258,2,0,L|223:90,1,37.6,2|0,0:0|0:0,0:0:0:0:
175,99,230430,2,0,L|223:90,1,37.6,2|0,0:0|0:0,0:0:0:0:
351,325,233001,1,2,0:1:0:0:
351,325,233087,1,0,0:0:0:0:
351,325,233172,5,2,0:0:0:0:
123,287,233515,1,2,0:0:0:0:
161,59,233858,1,2,0:0:0:0:
389,97,234201,1,2,0:0:0:0:
256,192,234544,6,0,L|256:224,28,18.8,6|0|0|0|0|0|0|0|0|0|0|0|0|0|0|0|0|0|0|0|0|0|0|0|2|0|0|0|2,0:1|0:0|0:0|0:0|0:0|0:0|0:0|0:0|0:0|0:0|0:0|0:0|0:0|0:0|0:0|0:0|0:0|0:0|0:0|0:0|0:0|0:0|0:0|0:0|0:1|0:0|0:0|0:0|0:0,0:0:0:0:
28,66,235915,6,0,P|98:41|139:58,1,103.400003155518,6|2,1:2|0:0,0:0:0:0:
256,192,236258,2,0,P|205:198|160:174,1,103.400003155518,2|2,1:2|0:0,0:0:0:0:
301,55,236601,1,2,1:2:0:0:
418,246,236772,1,2,0:0:0:0:
390,100,236944,1,2,1:2:0:0:
281,303,237115,1,2,0:0:0:0:
391,85,237287,6,0,L|503:69,1,103.400003155518,2|2,1:2|0:0,0:0:0:0:
410,264,237630,2,0,L|307:249,1,103.400003155518,2|2,1:2|0:0,0:0:0:0:
65,177,237972,1,2,1:2:0:0:
273,103,238144,1,2,0:0:0:0:
28,77,238315,1,2,1:2:0:0:
217,182,238487,2,0,P|188:176|155:178,1,51.7000015777588,2|0,0:1|0:0,0:0:0:0:
4,269,238658,6,0,L|11:381,1,103.400003155518,2|2,1:2|0:0,0:0:0:0:
232,204,239001,2,0,L|225:307,1,103.400003155518,2|2,1:2|0:0,0:0:0:0:
5,101,239344,1,2,1:2:0:0:
119,274,239515,1,2,0:0:0:0:
110,46,239687,1,2,1:2:0:0:
0,210,239858,1,2,0:0:0:0:
172,126,240030,6,0,L|285:113,1,103.400003155518,2|2,1:2|0:0,0:0:0:0:
328,330,240372,2,0,L|225:318,1,103.400003155518,2|2,1:2|0:0,0:0:0:0:
466,338,240715,1,2,1:2:0:0:
377,123,240887,1,2,0:0:0:0:
493,210,241058,1,2,1:2:0:0:
321,29,241230,1,2,0:1:0:0:
493,26,241401,6,0,L|472:152,1,103.400003155518,2|2,1:2|0:0,0:0:0:0:
332,352,241744,2,0,L|311:226,1,103.400003155518,2|0,1:2|0:0,0:0:0:0:
177,47,242087,1,2,1:2:0:0:
373,137,242258,1,2,0:0:0:0:
136,184,242430,1,2,1:2:0:0:
328,76,242601,1,2,0:0:0:0:
35,25,242772,6,0,L|42:141,1,103.400003155518,2|2,1:2|0:0,0:0:0:0:
64,367,243115,2,0,L|57:263,1,103.400003155518,2|2,1:2|0:0,0:0:0:0:
263,212,243458,1,2,1:2:0:0:
177,47,243630,1,2,0:0:0:0:
39,191,243801,2,0,P|95:202|160:148,1,103.400003155518,2|0,1:2|0:0,0:0:0:0:
346,67,244144,5,2,1:2:0:0:
229,281,244315,1,0,0:0:0:0:
237,24,244487,5,2,1:2:0:0:
349,236,244658,1,0,0:0:0:0:
171,128,244830,5,2,1:2:0:0:
421,147,245001,1,0,0:0:0:0:
191,282,245172,5,2,1:2:0:0:
457,229,245344,1,0,0:0:0:0:
252,35,245515,6,0,L|274:159,1,103.400003155518,2|2,1:2|0:0,0:0:0:0:
85,320,245858,2,0,L|103:218,1,103.400003155518,2|2,1:2|0:0,0:0:0:0:
342,320,246201,1,2,1:2:0:0:
185,252,246372,1,2,0:0:0:0:
407,84,246544,1,2,1:2:0:0:
10,185,247572,5,2,1:2:0:0:
248,96,247744,1,2,0:0:0:0:
16,60,247915,1,2,1:2:0:0:
251,171,248087,1,2,0:0:0:0:
88,245,248258,6,0,L|67:371,1,112.799996557617,2|2,1:2|0:0,0:0:0:0:
263,350,248601,1,2,1:2:0:0:
141,155,248772,1,2,0:0:0:0:
158,367,248944,1,2,1:2:0:0:
308,182,249115,1,2,0:0:0:0:
399,375,249287,1,2,1:2:0:0:
198,266,249458,2,0,L|259:258,1,56.3999982788086,2|0,0:1|0:0,0:0:0:0:
478,227,249630,6,0,L|348:244,1,112.799996557617,2|2,1:2|0:0,0:0:0:0:
338,80,249972,2,0,L|449:65,1,112.799996557617,2|2,1:2|0:0,0:0:0:0:
172,273,250315,1,2,1:2:0:0:
256,58,250487,1,2,0:0:0:0:
315,325,250658,1,2,1:2:0:0:
190,135,250830,1,2,0:0:0:0:
62,287,251001,5,2,1:2:0:0:
320,192,251172,1,2,0:0:0:0:
36,152,251344,1,2,1:2:0:0:
250,317,251515,1,2,0:0:0:0:
73,375,251687,1,2,1:2:0:0:
151,123,251858,1,2,0:0:0:0:
269,335,252030,1,2,1:2:0:0:
269,335,252201,1,2,0:1:0:0:
358,154,252372,6,0,L|478:132,1,112.799996557617,2|2,1:2|0:0,0:0:0:0:
244,0,252715,2,0,P|224:69|250:123,1,112.799996557617,2|2,1:2|0:0,0:0:0:0:
363,346,253058,1,2,1:2:0:0:
186,189,253230,1,2,0:0:0:0:
156,384,253401,1,2,1:2:0:0:
279,177,253572,1,2,0:0:0:0:
59,246,253744,5,2,1:2:0:0:
265,357,253915,1,2,0:0:0:0:
158,108,254087,1,2,1:2:0:0:
96,350,254258,1,2,0:0:0:0:
352,233,254430,1,2,1:2:0:0:
256,192,255115,6,0,L|256:224,49,18.7999994262695,0|0|0|0|0|0|0|0|0|0|0|0|2|0|0|0|0|0|0|0|0|0|0|0|2|0|0|0|0|0|0|0|0|0|0|0|2|0|0|0|0|0|0|0|0|0|0|0|2|0,1:2|0:0|0:0|0:0|0:0|0:0|0:0|0:0|0:0|0:0|0:0|0:0|1:2|0:0|0:0|0:0|0:0|0:0|0:0|0:0|0:0|0:0|0:0|0:0|1:2|0:0|0:0|0:0|0:0|0:0|0:0|0:0|0:0|0:0|0:0|0:0|1:2|0:0|0:0|0:0|0:0|0:0|0:0|0:0|0:0|0:0|0:0|0:0|0:1|0:0,0:0:0:0:
88,68,257858,5,14,0:0:0:0:
88,68,257944,1,2,0:0:0:0:
88,68,258030,1,2,0:0:0:0:
190,256,258201,2,0,L|315:241,1,112.799996557617,10|2,0:0|0:0,0:0:0:0:
352,108,258544,1,10,0:0:0:0:
477,340,258715,1,2,0:0:0:0:
512,69,258887,1,10,0:0:0:0:
387,298,259058,1,2,0:0:0:0:
241,141,259230,6,0,L|368:123,1,112.799996557617,10|0,0:0|0:0,0:0:0:0:
139,339,259572,1,10,0:0:0:0:
139,339,259658,1,2,0:0:0:0:
139,339,259744,1,2,0:0:0:0:
189,78,259915,1,10,0:0:0:0:
285,342,260087,1,2,0:0:0:0:
285,342,260172,1,2,0:0:0:0:
285,342,260258,1,10,0:0:0:0:
67,182,260430,1,2,0:0:0:0:
320,217,260601,5,10,0:0:0:0:
320,217,260687,1,2,0:0:0:0:
320,217,260772,1,2,0:0:0:0:
118,346,260944,2,0,L|-8:339,1,112.799996557617,10|2,0:0|0:0,0:0:0:0:
151,108,261287,1,10,0:0:0:0:
284,309,261458,1,2,0:0:0:0:
302,65,261630,1,10,0:0:0:0:
197,265,261801,1,2,0:0:0:0:
178,25,261972,6,0,L|22:57,1,112.799996557617,10|2,0:0|0:0,0:0:0:0:
270,197,262315,1,10,0:0:0:0:
270,197,262401,1,2,0:0:0:0:
270,197,262487,1,2,0:0:0:0:
42,149,262658,1,10,0:0:0:0:
302,65,262830,1,2,0:0:0:0:
302,65,262915,1,2,0:0:0:0:
302,65,263001,1,10,0:0:0:0:
105,260,263172,1,2,0:0:0:0:
181,57,263344,5,10,0:0:0:0:
181,57,263430,1,2,0:0:0:0:
181,57,263515,1,2,0:0:0:0:
264,255,263687,2,0,L|388:236,1,112.799996557617,10|2,0:0|0:0,0:0:0:0:
91,159,264030,1,10,0:0:0:0:
204,352,264201,1,2,0:0:0:0:
244,118,264372,1,10,0:0:0:0:
97,288,264544,1,2,0:0:0:0:
356,122,264715,6,0,L|243:117,1,112.799996557617,10|2,0:0|0:0,0:0:0:0:
421,271,265058,1,10,0:0:0:0:
421,271,265144,1,2,0:0:0:0:
421,271,265230,1,2,0:0:0:0:
358,38,265401,1,10,0:0:0:0:
242,245,265572,1,2,0:0:0:0:
242,245,265658,1,2,0:0:0:0:
242,245,265744,1,10,0:0:0:0:
479,132,265915,1,2,0:0:0:0:
327,358,266087,5,10,0:0:0:0:
327,358,266172,1,2,0:0:0:0:
327,358,266258,2,0,L|397:355,1,56.3999982788086,2|2,0:0|0:0,0:0:0:0:
421,271,266430,2,0,L|261:276,1,112.799996557617,10|2,0:0|0:0,0:0:0:0:
185,358,266772,1,10,0:0:0:0:
185,358,266858,1,2,0:0:0:0:
185,358,266944,2,0,L|122:357,1,56.3999982788086,2|2,0:0|0:0,0:0:0:0:
91,271,267115,2,0,L|251:276,1,112.799996557617,10|2,0:0|0:0,0:0:0:0:
482,149,267458,5,10,0:0:0:0:
84,72,267630,1,2,1:2:0:0:
433,72,267801,5,10,0:0:0:0:
148,134,267972,1,2,1:2:0:0:
367,136,268144,5,10,0:0:0:0:
220,72,268315,5,2,1:2:0:0:
321,329,268487,1,10,0:0:0:0:
512,92,268658,1,10,0:0:0:0:
189,252,268830,5,10,1:2:0:0:
189,252,268915,1,2,0:0:0:0:
189,252,269001,1,2,0:0:0:0:
97,67,269172,2,0,L|227:72,1,122.199994406128,10|2,0:0|0:0,0:0:0:0:
428,54,269515,1,10,0:0:0:0:
279,281,269687,1,2,0:0:0:0:
489,166,269858,1,10,0:0:0:0:
191,122,270030,1,2,0:0:0:0:
357,19,270201,6,0,L|364:162,1,122.199994406128,10|2,0:0|0:0,0:0:0:0:
181,317,270544,1,10,0:0:0:0:
181,317,270630,1,2,0:0:0:0:
181,317,270715,1,2,0:0:0:0:
271,69,270887,1,10,0:0:0:0:
374,292,271058,1,2,0:0:0:0:
374,292,271144,1,2,0:0:0:0:
374,292,271230,1,10,0:0:0:0:
98,199,271401,1,2,0:0:0:0:
299,381,271572,5,10,0:0:0:0:
299,381,271658,1,2,0:0:0:0:
299,381,271744,1,2,0:0:0:0:
177,153,271915,2,0,L|194:16,1,122.199994406128,10|2,0:0|0:0,0:0:0:0:
389,174,272258,1,10,0:0:0:0:
149,297,272430,1,2,0:0:0:0:
439,252,272601,1,10,0:0:0:0:
173,156,272772,1,2,0:0:0:0:
395,346,272944,5,10,0:0:0:0:
253,49,273115,1,2,0:0:0:0:
229,364,273287,1,10,0:0:0:0:
229,364,273372,1,2,0:0:0:0:
229,364,273458,1,2,0:0:0:0:
397,142,273630,1,10,0:0:0:0:
109,238,273801,1,2,0:0:0:0:
109,238,273887,1,2,0:0:0:0:
109,238,273972,1,10,0:0:0:0:
405,285,274144,1,2,0:0:0:0:
253,49,274315,6,8,L|247:126,1,61.0999972030641,10|2,0:0|0:0,0:0:0:0:
277,358,274487,1,2,0:0:0:0:
145,89,274658,1,10,0:0:0:0:
12,362,274830,1,2,0:0:0:0:
146,72,275001,1,10,0:0:0:0:
283,373,275172,1,2,0:0:0:0:
0,168,275344,1,10,0:0:0:0:
313,168,275515,1,2,0:0:0:0:
2,373,275687,5,10,0:0:0:0:
77,38,275858,1,2,0:0:0:0:
324,273,276030,2,0,L|251:258,1,61.0999972030641,10|2,0:0|0:0,0:0:0:0:
0,168,276201,1,2,0:0:0:0:
278,47,276372,5,10,0:0:0:0:
5,285,276544,2,0,L|77:270,1,61.0999972030641,10|2,0:0|0:0,0:0:0:0:
385,162,276715,1,10,0:0:0:0:
166,384,276887,1,2,0:0:0:0:
60,69,277058,5,10,0:0:0:0:
60,69,277144,1,10,0:0:0:0:
60,69,277230,2,0,P|91:77|130:85,1,61.0999972030641,10|8,0:0|0:0,0:0:0:0:
288,239,277401,2,0,P|258:245|228:253,3,61.0999972030641,10|10|10|8,0:0|0:0|0:0|0:0,0:0:0:0:
83,202,277744,1,10,0:0:0:0:
83,202,277830,1,10,0:0:0:0:
83,202,277915,2,0,P|114:194|153:186,1,61.0999972030641,10|10,0:0|0:0,0:0:0:0:
311,32,278087,2,0,P|281:25|251:17,3,61.0999972030641,10|10|10|8,0:0|0:0|0:0|0:0,0:0:0:0:
160,384,278430,5,2,1:2:0:0:
256,192,278601,12,0,279715,0:0:0:0:
127,22,279801,6,0,L|11:38,1,94,4|2,1:2|0:0,0:0:0:0:
236,142,280144,2,0,L|142:129,1,94,0|2,1:2|0:0,0:0:0:0:
319,0,280487,2,0,P|339:54|314:96,1,94,0|0,1:0|0:0,0:0:0:0:
229,226,280830,2,0,P|215:182|235:141,1,94,0|0,1:0|0:0,0:0:0:0:
331,328,281172,1,2,1:2:0:0:
331,328,281258,1,2,0:0:0:0:
331,328,281344,1,2,0:0:0:0:
430,227,281515,2,0,L|538:236,1,94,2|2,1:2|0:0,0:0:0:0:
428,361,281858,1,2,1:2:0:0:
392,139,282030,1,2,0:0:0:0:
308,283,282201,1,2,1:2:0:0:
421,59,282372,1,2,0:0:0:0:
280,117,282544,6,0,L|150:95,1,94,0|0,1:2|0:0,0:0:0:0:
118,252,282887,2,0,L|210:236,1,94,0|0,1:0|0:0,0:0:0:0:
114,45,283230,2,0,P|95:112|111:157,1,94,0|0,1:0|0:0,0:0:0:0:
292,281,283572,2,0,P|295:234|277:191,1,94,0|0,1:0|0:0,0:0:0:0:
32,274,283915,1,2,1:2:0:0:
236,365,284087,1,2,0:0:0:0:
6,367,284258,1,2,1:2:0:0:
6,367,284344,1,2,0:0:0:0:
6,367,284430,1,2,0:0:0:0:
210,236,284601,1,2,1:2:0:0:
111,383,284772,1,2,0:0:0:0:
111,383,284858,1,2,0:0:0:0:
111,383,284944,1,2,1:2:0:0:
157,178,285115,1,2,0:0:0:0:
271,366,285287,6,0,L|384:354,1,94,0|2,1:0|0:0,0:0:0:0:
465,253,285630,2,0,L|371:243,1,94,0|2,1:0|0:0,0:0:0:0:
290,79,285972,2,0,P|279:139|301:187,1,94,0|2,1:0|0:0,0:0:0:0:
370,333,286315,2,0,P|382:288|371:242,1,94,0|2,1:0|0:0,0:0:0:0:
183,152,286658,1,2,1:2:0:0:
183,152,286744,1,2,0:0:0:0:
183,152,286830,2,0,L|241:133,1,47,2|2,0:0|0:0,0:0:0:0:
104,134,287001,2,0,P|114:200|155:225,1,94,2|2,1:2|0:0,0:0:0:0:
211,321,287344,1,2,1:2:0:0:
211,321,287430,1,2,0:0:0:0:
211,321,287515,2,0,L|153:302,1,47,2|2,0:0|0:0,0:0:0:0:
281,302,287687,2,0,P|271:368|230:393,1,94,2|2,1:2|0:0,0:0:0:0:
245,215,288030,6,0,L|360:199,1,94,0|2,1:0|0:0,0:0:0:0:
462,350,288372,2,0,L|368:337,1,94,0|2,1:0|0:0,0:0:0:0:
393,141,288715,2,0,P|415:207|401:252,1,94,0|2,1:0|0:0,0:0:0:0:
273,379,289058,2,0,P|270:332|291:290,1,94,0|2,1:0|0:0,0:0:0:0:
74,31,289401,5,10,0:2:0:0:
245,46,289572,1,2,0:0:0:0:
230,217,289744,1,10,0:0:0:0:
59,202,289915,1,2,0:0:0:0:
162,3,290087,1,10,0:0:0:0:
272,134,290258,1,2,0:0:0:0:
31,113,290430,1,10,1:2:0:0:
141,244,290601,1,10,1:2:0:0:
50,361,290772,6,0,L|165:346,1,84.599997418213,0|2,1:0|0:0,0:0:0:0:
224,254,291115,2,0,L|140:243,1,84.599997418213,0|2,1:0|0:0,0:0:0:0:
281,314,291458,2,0,P|303:259|292:217,1,84.599997418213,0|2,1:0|0:0,0:0:0:0:
197,86,291801,2,0,P|177:122|178:164,1,84.599997418213,0|2,1:0|0:0,0:0:0:0:
289,17,292144,1,2,1:2:0:0:
289,17,292230,1,2,0:0:0:0:
289,17,292315,1,2,0:0:0:0:
372,118,292487,2,0,L|484:106,1,84.599997418213,2|2,1:2|0:0,0:0:0:0:
373,316,292830,1,2,1:2:0:0:
457,203,293001,1,2,0:0:0:0:
459,358,293172,1,2,1:2:0:0:
376,221,293344,1,2,0:0:0:0:
286,365,293515,6,0,L|194:359,1,84.599997418213,0|2,1:0|0:0,0:0:0:0:
177,215,293858,2,0,L|85:221,1,84.599997418213,0|2,1:0|0:0,0:0:0:0:
89,384,294201,2,0,P|113:324|100:281,1,84.599997418213,0|2,1:0|0:0,0:0:0:0:
33,169,294544,2,0,P|9:229|22:272,1,84.599997418213,0|2,1:0|0:0,0:0:0:0:
88,82,294887,1,2,1:2:0:0:
177,215,295058,1,2,0:0:0:0:
171,40,295230,1,2,1:2:0:0:
171,40,295315,1,2,0:0:0:0:
171,40,295401,1,2,0:0:0:0:
104,164,295572,1,2,1:2:0:0:
242,83,295744,1,2,0:0:0:0:
242,83,295830,1,2,0:0:0:0:
242,83,295915,1,2,1:2:0:0:
280,207,296087,1,2,0:0:0:0:
350,102,296258,6,0,L|444:95,1,84.599997418213,0|2,1:0|0:0,0:0:0:0:
309,280,296601,2,0,P|280:240|283:196,1,84.599997418213,0|2,1:0|0:0,0:0:0:0:
396,129,296944,2,0,P|393:170|366:202,1,84.599997418213,0|2,1:0|0:0,0:0:0:0:
224,289,297287,2,0,L|322:278,1,84.599997418213,0|2,1:0|0:0,0:0:0:0:
134,217,297630,1,2,1:2:0:0:
134,217,297715,1,2,0:0:0:0:
134,217,297801,2,0,L|128:274,1,42.2999987091065,2|2,0:0|0:0,0:0:0:0:
61,169,297972,2,0,L|48:271,1,84.599997418213,2|2,1:2|0:0,0:0:0:0:
141,82,298315,1,2,1:2:0:0:
141,82,298401,1,2,0:0:0:0:
141,82,298487,2,0,L|147:139,1,42.2999987091065,2|2,0:0|0:0,0:0:0:0:
214,34,298658,2,0,L|230:157,1,84.599997418213,2|2,1:2|0:0,0:0:0:0:
392,99,299001,6,0,P|338:77|295:108,1,84.599997418213,0|2,1:0|0:0,0:0:0:0:
324,195,299344,2,0,P|364:202|399:181,1,84.599997418213,0|2,1:0|0:0,0:0:0:0:
479,40,299687,2,0,L|468:132,1,84.599997418213,0|2,1:0|0:0,0:0:0:0:
410,263,300030,2,0,L|399:178,1,84.599997418213,0|2,1:0|0:0,0:0:0:0:
256,192,300372,12,0,301572,0:0:0:0:
41,52,301744,6,0,L|118:42,1,56.3999982788086,0|0,1:0|0:0,0:0:0:0:
56,129,302087,2,0,L|133:119,1,56.3999982788086,0|0,1:0|0:0,0:0:0:0:
263,103,302430,2,0,L|186:93,1,56.3999982788086,0|0,1:0|0:0,0:0:0:0:
248,180,302772,2,0,L|171:170,1,56.3999982788086,0|0,1:0|0:0,0:0:0:0:
119,227,303115,1,2,1:2:0:0:
119,227,303201,1,2,0:0:0:0:
119,227,303287,1,2,0:0:0:0:
160,300,303458,1,2,1:2:0:0:
160,300,303630,1,2,0:0:0:0:
17,303,303801,2,0,L|97:298,1,56.3999982788086,2|2,1:2|0:0,0:0:0:0:
157,296,304144,1,2,1:2:0:0:
17,303,304315,1,2,0:0:0:0:
157,296,304487,6,0,L|165:358,1,56.3999982788086,0|0,1:0|0:0,0:0:0:0:
232,264,304830,2,0,L|240:326,1,56.3999982788086,0|0,1:0|0:0,0:0:0:0:
401,230,305172,2,0,L|393:292,1,56.3999982788086,0|0,1:0|0:0,0:0:0:0:
326,198,305515,2,0,L|318:260,1,56.3999982788086,0|0,1:0|0:0,0:0:0:0:
397,145,305858,1,2,1:2:0:0:
348,80,306030,1,2,0:0:0:0:
404,18,306201,1,2,1:2:0:0:
404,18,306287,1,2,0:0:0:0:
404,18,306372,1,2,0:0:0:0:
345,81,306544,1,2,1:2:0:0:
284,25,306715,1,2,0:0:0:0:
284,25,306801,1,2,0:0:0:0:
284,25,306887,1,2,1:2:0:0:
220,80,307058,1,2,0:0:0:0:
150,20,307230,6,0,L|134:83,1,56.3999982788086,0|0,1:0|0:0,0:0:0:0:
62,52,307572,2,0,L|46:115,1,56.3999982788086,0|0,1:0|0:0,0:0:0:0:
18,248,307915,2,0,L|34:185,1,56.3999982788086,0|0,1:0|0:0,0:0:0:0:
106,216,308258,2,0,L|122:153,1,56.3999982788086,0|0,1:0|0:0,0:0:0:0:
150,290,308601,1,2,1:2:0:0:
150,290,308687,1,2,0:0:0:0:
150,290,308772,2,0,L|189:286,1,28.1999991394043,2|2,0:0|0:0,0:0:0:0:
206,363,308944,2,0,L|126:375,1,56.3999982788086,2|2,1:2|0:0,0:0:0:0:
319,235,309287,1,2,1:2:0:0:
319,235,309372,1,2,0:0:0:0:
319,235,309458,2,0,L|280:231,1,28.1999991394043,2|2,0:0|0:0,0:0:0:0:
263,308,309630,2,0,L|343:320,1,56.3999982788086,2|2,1:2|0:0,0:0:0:0:
394,248,309972,6,0,P|392:211|373:182,1,56.3999982788086,0|2,1:0|0:1,0:0:0:0:
441,147,310315,2,0,P|414:121|380:113,1,56.3999982788086,0|0,1:0|0:0,0:0:0:0:
276,148,310658,2,0,P|278:111|297:82,1,56.3999982788086,0|0,1:0|0:0,0:0:0:0:
229,47,311001,2,0,P|255:21|289:13,1,56.3999982788086,0|0,1:0|0:0,0:0:0:0:
349,41,311344,1,2,1:2:0:0:
349,41,311515,1,2,0:0:0:0:
429,8,311687,1,2,1:2:0:0:
429,8,311858,1,2,0:0:0:0:
491,67,312030,1,2,1:2:0:0:
491,67,312201,1,2,0:0:0:0:
437,129,312372,1,2,1:2:0:0:
484,189,312544,1,2,0:0:0:0:
429,253,312715,6,0,L|344:245,1,75.2,4|0,1:2|1:0,0:0:0:0:
416,329,313401,2,0,L|331:321,1,75.2,0|0,1:0|1:0,0:0:0:0:
253,305,314087,1,2,1:2:0:0:
253,305,314172,1,2,0:0:0:0:
253,305,314258,1,2,0:0:0:0:
257,379,314430,2,0,L|294:383,1,37.6,2|2,1:2|0:0,0:0:0:0:
175,361,314772,1,2,1:2:0:0:
175,361,314944,1,2,0:0:0:0:
257,379,315115,2,0,L|294:383,1,37.6,2|2,1:2|0:0,0:0:0:0:
169,358,315458,6,0,L|179:280,1,75.2,2|0,1:2|1:0,0:0:0:0:
99,319,316144,2,0,L|109:241,1,75.2,0|0,1:0|1:0,0:0:0:0:
185,246,316830,6,0,L|176:295,1,37.6,2|2,1:2|0:0,0:0:0:0:
208,168,317172,1,2,1:2:0:0:
208,168,317258,1,2,0:0:0:0:
208,168,317344,1,2,0:0:0:0:
185,246,317515,2,0,L|178:282,1,37.6,2|2,1:2|0:0,0:0:0:0:
170,315,317772,1,2,0:0:0:0:
170,315,317858,1,2,1:2:0:0:
225,376,318030,1,2,0:0:0:0:
282,313,318201,6,0,L|361:298,1,75.2,0|0,1:0|1:0,0:0:0:0:
287,227,318887,2,0,L|366:212,1,75.2,0|0,1:0|1:0,0:0:0:0:
443,194,319572,5,2,1:2:0:0:
443,194,319658,1,2,0:0:0:0:
443,194,319744,2,0,L|451:229,1,18.8,2|2,0:0|0:0,0:0:0:0:
418,323,319915,2,0,L|408:283,1,37.6,2|2,1:2|0:0,0:0:0:0:
356,194,320258,1,2,1:2:0:0:
356,194,320344,1,2,0:0:0:0:
356,194,320430,2,0,L|364:229,1,18.8,2|2,0:0|0:0,0:0:0:0:
331,323,320601,2,0,L|321:283,1,37.6,2|2,1:2|0:0,0:0:0:0:
335,120,320944,6,0,L|357:198,1,75.2,0|0,1:0|1:0,0:0:0:0:
403,59,321630,2,0,L|425:137,1,75.2,0|0,1:0|1:0,0:0:0:0:
256,192,322315,6,0,L|256:201,26,9.4,4|0|0|0|0|0|0|0|0|0|0|0|0|0|0|0|0|0|0|0|0|0|0|0|2|0|0,0:1|0:0|0:0|0:0|0:0|0:0|0:0|0:0|0:0|0:0|0:0|0:0|0:0|0:0|0:0|0:0|0:0|0:0|0:0|0:0|0:0|0:0|0:0|0:0|0:0|0:0|0:0,0:0:0:0:
