osu file format v14

[General]
AudioFilename: Luminal 180.mp3
AudioLeadIn: 0
PreviewTime: 120006
Countdown: 0
SampleSet: Normal
StackLeniency: 0.7
Mode: 3
LetterboxInBreaks: 0
SpecialStyle: 0
WidescreenStoryboard: 1

[Editor]
Bookmarks: 37006
DistanceSpacing: 0.9
BeatDivisor: 4
GridSize: 8
TimelineZoom: 1.8

[Metadata]
Title:Super Luminal
TitleUnicode:Super Luminal
Artist:S2TB Recording
ArtistUnicode:S2TB Recording
Creator:Morbon
Version:*
Source:
Tags:
BeatmapID:1881815
BeatmapSetID:901172

[Difficulty]
HPDrainRate:6
CircleSize:4
OverallDifficulty:9
ApproachRate:9
SliderMultiplier:2.1
SliderTickRate:2

[Events]
//Background and Video events
0,0,"8fkofj.jpg",0,0
//Break Periods
//Storyboard Layer 0 (Background)
//Storyboard Layer 1 (Fail)
//Storyboard Layer 2 (Pass)
//Storyboard Layer 3 (Foreground)
//Storyboard Sound Samples

[TimingPoints]
8007,333.333333333333,4,1,0,60,1,0
8007,-100,4,1,0,60,0,0
13340,-100,4,1,0,60,0,0
18673,-100,4,1,0,80,0,0
29340,-100,4,1,0,80,0,0
40006,-100,4,1,0,80,0,0
50673,-100,4,1,0,80,0,0
61340,-100,4,1,0,80,0,0
72006,-100,4,1,0,50,0,0
82673,-100,4,1,0,60,0,0
92006,-100,4,1,0,70,0,0
93340,-100,4,1,0,80,0,0
104006,-100,4,1,0,80,0,0
114673,-100,4,1,0,80,0,0
120006,-100,4,1,0,80,0,0
130673,-100,4,1,0,80,0,0
141340,-100,4,1,0,90,0,0
146673,-100,4,1,0,90,0,0
157340,-100,4,1,0,90,0,0

[Colours]
Combo1 : 253,205,115
Combo2 : 14,241,230
Combo3 : 244,223,138
Combo4 : 176,255,255

[HitObjects]
192,192,8006,5,0,0:0:0:0:
448,192,8006,1,0,0:0:0:0:
320,192,8090,1,0,0:0:0:0:
64,192,8173,1,0,0:0:0:0:
192,192,8257,1,0,0:0:0:0:
64,192,8340,1,0,0:0:0:0:
320,192,8340,1,0,0:0:0:0:
448,192,8423,1,0,0:0:0:0:
320,192,8506,1,0,0:0:0:0:
192,192,8590,1,0,0:0:0:0:
64,192,8673,1,0,0:0:0:0:
448,192,8673,1,0,0:0:0:0:
320,192,8756,1,0,0:0:0:0:
192,192,8840,1,0,0:0:0:0:
448,192,8923,1,0,0:0:0:0:
192,192,9006,1,0,0:0:0:0:
320,192,9006,1,0,0:0:0:0:
64,192,9090,1,0,0:0:0:0:
192,192,9173,1,0,0:0:0:0:
320,192,9256,1,0,0:0:0:0:
448,192,9340,1,0,0:0:0:0:
64,192,9340,1,0,0:0:0:0:
192,192,9423,1,0,0:0:0:0:
448,192,9506,1,0,0:0:0:0:
320,192,9506,1,0,0:0:0:0:
192,192,9590,1,0,0:0:0:0:
64,192,9673,1,0,0:0:0:0:
448,192,9756,1,0,0:0:0:0:
192,192,9840,1,0,0:0:0:0:
64,192,9840,1,0,0:0:0:0:
320,192,9923,1,0,0:0:0:0:
448,192,10006,1,0,0:0:0:0:
64,192,10090,1,0,0:0:0:0:
320,192,10173,1,0,0:0:0:0:
448,192,10173,1,0,0:0:0:0:
192,192,10256,1,0,0:0:0:0:
64,192,10340,1,0,0:0:0:0:
448,192,10423,1,0,0:0:0:0:
192,192,10506,1,0,0:0:0:0:
64,192,10506,1,0,0:0:0:0:
320,192,10590,1,0,0:0:0:0:
448,192,10673,1,0,0:0:0:0:
64,192,10673,1,0,0:0:0:0:
320,192,10756,1,0,0:0:0:0:
192,192,10840,1,0,0:0:0:0:
320,192,10923,1,0,0:0:0:0:
192,192,11006,1,0,0:0:0:0:
448,192,11006,1,0,0:0:0:0:
64,192,11090,1,0,0:0:0:0:
192,192,11173,1,0,0:0:0:0:
320,192,11256,1,0,0:0:0:0:
448,192,11340,1,0,0:0:0:0:
64,192,11340,1,0,0:0:0:0:
192,192,11423,1,0,0:0:0:0:
320,192,11506,1,0,0:0:0:0:
448,192,11590,1,0,0:0:0:0:
192,192,11673,1,0,0:0:0:0:
64,192,11673,1,0,0:0:0:0:
448,192,11756,1,0,0:0:0:0:
320,192,11840,1,0,0:0:0:0:
64,192,11923,1,0,0:0:0:0:
320,192,12006,1,0,0:0:0:0:
192,192,12006,1,0,0:0:0:0:
64,192,12090,1,0,0:0:0:0:
448,192,12173,1,0,0:0:0:0:
192,192,12173,1,0,0:0:0:0:
320,192,12256,1,0,0:0:0:0:
192,192,12340,1,0,0:0:0:0:
448,192,12423,1,0,0:0:0:0:
64,192,12506,1,0,0:0:0:0:
320,192,12506,1,0,0:0:0:0:
192,192,12590,1,0,0:0:0:0:
320,192,12673,1,0,0:0:0:0:
64,192,12756,1,0,0:0:0:0:
192,192,12840,1,0,0:0:0:0:
448,192,12840,1,0,0:0:0:0:
320,192,12923,1,0,0:0:0:0:
64,192,13006,1,0,0:0:0:0:
192,192,13090,1,0,0:0:0:0:
320,192,13173,1,0,0:0:0:0:
448,192,13173,1,0,0:0:0:0:
192,192,13256,1,0,0:0:0:0:
64,192,13340,1,0,0:0:0:0:
448,192,13340,1,0,0:0:0:0:
320,192,13423,1,0,0:0:0:0:
64,192,13506,1,0,0:0:0:0:
320,192,13590,1,0,0:0:0:0:
448,192,13673,1,0,0:0:0:0:
64,192,13673,1,0,0:0:0:0:
192,192,13756,1,0,0:0:0:0:
320,192,13840,1,0,0:0:0:0:
64,192,13923,1,0,0:0:0:0:
448,192,14006,1,0,0:0:0:0:
192,192,14006,1,0,0:0:0:0:
320,192,14090,1,0,0:0:0:0:
64,192,14173,1,0,0:0:0:0:
192,192,14256,1,0,0:0:0:0:
320,192,14340,1,0,0:0:0:0:
448,192,14340,1,0,0:0:0:0:
64,192,14423,1,0,0:0:0:0:
448,192,14506,1,0,0:0:0:0:
320,192,14590,1,0,0:0:0:0:
192,192,14673,1,0,0:0:0:0:
64,192,14673,1,0,0:0:0:0:
448,192,14756,1,0,0:0:0:0:
320,192,14840,1,0,0:0:0:0:
192,192,14840,1,0,0:0:0:0:
64,192,14923,1,0,0:0:0:0:
192,192,15006,1,0,0:0:0:0:
320,192,15090,1,0,0:0:0:0:
192,192,15173,1,0,0:0:0:0:
448,192,15173,1,0,0:0:0:0:
320,192,15256,1,0,0:0:0:0:
64,192,15340,1,0,0:0:0:0:
192,192,15340,1,0,0:0:0:0:
320,192,15423,1,0,0:0:0:0:
448,192,15506,1,0,0:0:0:0:
64,192,15506,1,0,0:0:0:0:
192,192,15590,1,0,0:0:0:0:
448,192,15673,1,0,0:0:0:0:
320,192,15673,1,0,0:0:0:0:
64,192,15756,1,0,0:0:0:0:
192,192,15840,1,0,0:0:0:0:
320,192,15840,1,0,0:0:0:0:
448,192,15923,1,0,0:0:0:0:
320,192,16006,1,0,0:0:0:0:
64,192,16006,1,0,0:0:0:0:
192,192,16090,1,0,0:0:0:0:
320,192,16173,1,0,0:0:0:0:
448,192,16173,1,0,0:0:0:0:
192,192,16256,1,0,0:0:0:0:
64,192,16340,1,0,0:0:0:0:
448,192,16340,1,0,0:0:0:0:
320,192,16423,1,0,0:0:0:0:
448,192,16506,1,0,0:0:0:0:
192,192,16506,1,0,0:0:0:0:
64,192,16590,1,0,0:0:0:0:
192,192,16673,1,0,0:0:0:0:
448,192,16673,1,0,0:0:0:0:
320,192,16756,1,0,0:0:0:0:
64,192,16840,1,0,0:0:0:0:
192,192,16840,1,0,0:0:0:0:
320,192,16923,1,0,0:0:0:0:
448,192,17006,1,0,0:0:0:0:
64,192,17006,1,0,0:0:0:0:
192,192,17090,1,0,0:0:0:0:
320,192,17173,1,0,0:0:0:0:
448,192,17173,1,0,0:0:0:0:
192,192,17256,1,0,0:0:0:0:
64,192,17340,1,0,0:0:0:0:
320,192,17340,1,0,0:0:0:0:
448,192,17340,1,0,0:0:0:0:
64,192,17590,1,0,0:0:0:0:
192,192,17590,1,0,0:0:0:0:
448,192,17590,1,0,0:0:0:0:
320,192,17590,1,0,0:0:0:0:
448,192,17840,1,0,0:0:0:0:
320,192,17840,1,0,0:0:0:0:
192,192,17840,1,0,0:0:0:0:
64,192,17840,1,0,0:0:0:0:
448,192,18173,1,0,0:0:0:0:
320,192,18173,1,0,0:0:0:0:
192,192,18173,1,0,0:0:0:0:
64,192,18173,1,0,0:0:0:0:
64,192,18340,1,0,0:0:0:0:
192,192,18340,1,0,0:0:0:0:
320,192,18340,1,0,0:0:0:0:
448,192,18340,1,0,0:0:0:0:
448,192,18673,1,0,0:0:0:0:
192,192,18673,1,0,0:0:0:0:
64,192,18673,1,0,0:0:0:0:
320,192,18756,1,0,0:0:0:0:
448,192,18840,1,0,0:0:0:0:
192,192,18840,1,0,0:0:0:0:
64,192,18923,1,0,0:0:0:0:
448,192,19006,1,0,0:0:0:0:
320,192,19006,1,0,0:0:0:0:
64,192,19090,1,0,0:0:0:0:
192,192,19173,1,0,0:0:0:0:
320,192,19173,1,0,0:0:0:0:
448,192,19256,1,0,0:0:0:0:
192,192,19340,1,0,0:0:0:0:
64,192,19340,1,0,0:0:0:0:
320,192,19423,1,0,0:0:0:0:
448,192,19506,1,0,0:0:0:0:
192,192,19506,1,0,0:0:0:0:
320,192,19590,1,0,0:0:0:0:
192,192,19673,1,0,0:0:0:0:
64,192,19673,1,0,0:0:0:0:
448,192,19756,1,0,0:0:0:0:
64,192,19840,1,0,0:0:0:0:
320,192,19840,1,0,0:0:0:0:
192,192,19923,1,0,0:0:0:0:
64,192,20006,1,0,0:0:0:0:
448,192,20006,1,0,0:0:0:0:
320,192,20090,1,0,0:0:0:0:
192,192,20173,1,0,0:0:0:0:
448,192,20173,1,0,0:0:0:0:
64,192,20256,1,0,0:0:0:0:
320,192,20340,1,0,0:0:0:0:
192,192,20340,1,0,0:0:0:0:
448,192,20423,1,0,0:0:0:0:
320,192,20506,1,0,0:0:0:0:
192,192,20506,1,0,0:0:0:0:
64,192,20590,1,0,0:0:0:0:
448,192,20673,1,0,0:0:0:0:
320,192,20673,1,0,0:0:0:0:
192,192,20756,1,0,0:0:0:0:
64,192,20840,1,0,0:0:0:0:
448,192,20840,1,0,0:0:0:0:
320,192,20923,1,0,0:0:0:0:
448,192,21006,1,0,0:0:0:0:
192,192,21006,1,0,0:0:0:0:
320,192,21090,1,0,0:0:0:0:
64,192,21173,1,0,0:0:0:0:
448,192,21173,1,0,0:0:0:0:
192,192,21256,1,0,0:0:0:0:
64,192,21340,1,0,0:0:0:0:
448,192,21340,1,0,0:0:0:0:
320,192,21340,1,0,0:0:0:0:
192,192,21423,1,0,0:0:0:0:
448,192,21506,1,0,0:0:0:0:
320,192,21506,1,0,0:0:0:0:
192,192,21590,1,0,0:0:0:0:
64,192,21673,1,0,0:0:0:0:
448,192,21673,1,0,0:0:0:0:
320,192,21756,1,0,0:0:0:0:
192,192,21840,1,0,0:0:0:0:
448,192,21840,1,0,0:0:0:0:
64,192,21923,1,0,0:0:0:0:
320,192,22006,1,0,0:0:0:0:
192,192,22006,1,0,0:0:0:0:
448,192,22090,1,0,0:0:0:0:
320,192,22173,1,0,0:0:0:0:
64,192,22173,1,0,0:0:0:0:
192,192,22256,1,0,0:0:0:0:
64,192,22340,1,0,0:0:0:0:
320,192,22340,1,0,0:0:0:0:
448,192,22423,1,0,0:0:0:0:
192,192,22506,1,0,0:0:0:0:
64,192,22506,1,0,0:0:0:0:
320,192,22590,1,0,0:0:0:0:
448,192,22673,1,0,0:0:0:0:
192,192,22673,1,0,0:0:0:0:
320,192,22756,1,0,0:0:0:0:
192,192,22840,1,0,0:0:0:0:
64,192,22840,1,0,0:0:0:0:
320,192,22923,1,0,0:0:0:0:
448,192,23006,1,0,0:0:0:0:
64,192,23006,1,0,0:0:0:0:
192,192,23090,1,0,0:0:0:0:
320,192,23173,1,0,0:0:0:0:
64,192,23173,1,0,0:0:0:0:
192,192,23256,1,0,0:0:0:0:
320,192,23340,1,0,0:0:0:0:
448,192,23340,1,0,0:0:0:0:
192,192,23423,1,0,0:0:0:0:
64,192,23423,1,0,0:0:0:0:
320,192,23506,1,0,0:0:0:0:
448,192,23506,1,0,0:0:0:0:
192,192,23590,1,0,0:0:0:0:
320,192,23673,1,0,0:0:0:0:
64,192,23673,1,0,0:0:0:0:
448,192,23756,1,0,0:0:0:0:
192,192,23840,1,0,0:0:0:0:
64,192,23840,1,0,0:0:0:0:
320,192,23923,1,0,0:0:0:0:
64,192,24006,1,0,0:0:0:0:
448,192,24006,1,0,0:0:0:0:
192,192,24006,1,0,0:0:0:0:
320,192,24090,1,0,0:0:0:0:
192,192,24173,1,0,0:0:0:0:
64,192,24173,1,0,0:0:0:0:
448,192,24256,1,0,0:0:0:0:
320,192,24340,1,0,0:0:0:0:
64,192,24340,1,0,0:0:0:0:
192,192,24423,1,0,0:0:0:0:
320,192,24506,1,0,0:0:0:0:
448,192,24506,1,0,0:0:0:0:
192,192,24590,1,0,0:0:0:0:
64,192,24673,1,0,0:0:0:0:
448,192,24673,1,0,0:0:0:0:
320,192,24756,1,0,0:0:0:0:
448,192,24840,1,0,0:0:0:0:
192,192,24840,1,0,0:0:0:0:
320,192,24923,1,0,0:0:0:0:
64,192,25006,1,0,0:0:0:0:
192,192,25006,1,0,0:0:0:0:
448,192,25090,1,0,0:0:0:0:
320,192,25173,1,0,0:0:0:0:
192,192,25173,1,0,0:0:0:0:
448,192,25256,1,0,0:0:0:0:
64,192,25340,1,0,0:0:0:0:
192,192,25340,1,0,0:0:0:0:
320,192,25423,1,0,0:0:0:0:
192,192,25506,1,0,0:0:0:0:
448,192,25506,1,0,0:0:0:0:
320,192,25590,1,0,0:0:0:0:
448,192,25673,1,0,0:0:0:0:
64,192,25673,1,0,0:0:0:0:
192,192,25756,1,0,0:0:0:0:
448,192,25840,1,0,0:0:0:0:
320,192,25840,1,0,0:0:0:0:
192,192,25923,1,0,0:0:0:0:
448,192,26006,1,0,0:0:0:0:
64,192,26006,1,0,0:0:0:0:
320,192,26090,1,0,0:0:0:0:
192,192,26173,1,0,0:0:0:0:
448,192,26173,1,0,0:0:0:0:
320,192,26256,1,0,0:0:0:0:
192,192,26340,1,0,0:0:0:0:
64,192,26340,1,0,0:0:0:0:
320,192,26423,1,0,0:0:0:0:
448,192,26423,1,0,0:0:0:0:
64,192,26506,1,0,0:0:0:0:
192,192,26506,1,0,0:0:0:0:
320,192,26590,1,0,0:0:0:0:
192,192,26673,1,0,0:0:0:0:
64,192,26673,1,0,0:0:0:0:
448,192,26673,1,0,0:0:0:0:
320,192,26756,1,0,0:0:0:0:
64,192,26840,1,0,0:0:0:0:
448,192,26840,1,0,0:0:0:0:
192,192,26923,1,0,0:0:0:0:
448,192,27006,1,0,0:0:0:0:
64,192,27006,1,0,0:0:0:0:
320,192,27090,1,0,0:0:0:0:
64,192,27173,1,0,0:0:0:0:
192,192,27173,1,0,0:0:0:0:
448,192,27256,1,0,0:0:0:0:
320,192,27340,1,0,0:0:0:0:
192,192,27340,1,0,0:0:0:0:
64,192,27423,5,0,0:0:0:0:
448,192,27506,1,0,0:0:0:0:
320,192,27506,1,0,0:0:0:0:
192,192,27590,1,0,0:0:0:0:
64,192,27673,1,0,0:0:0:0:
448,192,27673,1,0,0:0:0:0:
320,192,27756,1,0,0:0:0:0:
448,192,27840,1,0,0:0:0:0:
192,192,27840,1,0,0:0:0:0:
320,192,27923,1,0,0:0:0:0:
192,192,28006,5,0,0:0:0:0:
64,192,28006,1,0,0:0:0:0:
448,192,28090,1,0,0:0:0:0:
320,192,28090,1,0,0:0:0:0:
192,192,28173,1,0,0:0:0:0:
64,192,28173,1,0,0:0:0:0:
320,192,28256,1,0,0:0:0:0:
448,192,28256,1,0,0:0:0:0:
192,192,28340,1,0,0:0:0:0:
64,192,28340,1,0,0:0:0:0:
320,192,28423,1,0,0:0:0:0:
448,192,28423,1,0,0:0:0:0:
192,192,28506,1,0,0:0:0:0:
64,192,28506,1,0,0:0:0:0:
320,192,28590,1,0,0:0:0:0:
448,192,28590,1,0,0:0:0:0:
192,192,28673,1,0,0:0:0:0:
64,192,28673,1,0,0:0:0:0:
448,192,28756,1,0,0:0:0:0:
192,192,28840,1,0,0:0:0:0:
64,192,28840,1,0,0:0:0:0:
320,192,28840,1,0,0:0:0:0:
448,192,28923,1,0,0:0:0:0:
192,192,29006,1,0,0:0:0:0:
64,192,29006,1,0,0:0:0:0:
320,192,29006,1,0,0:0:0:0:
448,192,29090,1,0,0:0:0:0:
192,192,29173,1,0,0:0:0:0:
64,192,29173,1,0,0:0:0:0:
320,192,29173,1,0,0:0:0:0:
448,192,29256,1,0,0:0:0:0:
192,192,29340,1,0,0:0:0:0:
64,192,29340,1,0,0:0:0:0:
320,192,29340,1,0,0:0:0:0:
448,192,29423,1,0,0:0:0:0:
320,192,29506,1,0,0:0:0:0:
64,192,29506,1,0,0:0:0:0:
192,192,29590,1,0,0:0:0:0:
320,192,29673,1,0,0:0:0:0:
448,192,29673,1,0,0:0:0:0:
192,192,29756,1,0,0:0:0:0:
64,192,29840,1,0,0:0:0:0:
320,192,29840,1,0,0:0:0:0:
192,192,29923,1,0,0:0:0:0:
448,192,30006,1,0,0:0:0:0:
64,192,30006,1,0,0:0:0:0:
320,192,30090,1,0,0:0:0:0:
192,192,30173,1,0,0:0:0:0:
64,192,30173,1,0,0:0:0:0:
448,192,30256,1,0,0:0:0:0:
320,192,30340,1,0,0:0:0:0:
64,192,30340,1,0,0:0:0:0:
192,192,30423,1,0,0:0:0:0:
320,192,30506,1,0,0:0:0:0:
448,192,30506,1,0,0:0:0:0:
192,192,30590,1,0,0:0:0:0:
64,192,30673,1,0,0:0:0:0:
448,192,30673,1,0,0:0:0:0:
320,192,30756,1,0,0:0:0:0:
192,192,30840,1,0,0:0:0:0:
64,192,30840,1,0,0:0:0:0:
320,192,30923,1,0,0:0:0:0:
448,192,31006,1,0,0:0:0:0:
192,192,31006,1,0,0:0:0:0:
320,192,31090,1,0,0:0:0:0:
448,192,31173,1,0,0:0:0:0:
64,192,31173,1,0,0:0:0:0:
192,192,31256,1,0,0:0:0:0:
320,192,31340,1,0,0:0:0:0:
64,192,31340,1,0,0:0:0:0:
448,192,31423,1,0,0:0:0:0:
192,192,31506,1,0,0:0:0:0:
64,192,31506,1,0,0:0:0:0:
448,192,31590,1,0,0:0:0:0:
192,192,31673,1,0,0:0:0:0:
320,192,31673,1,0,0:0:0:0:
448,192,31756,1,0,0:0:0:0:
64,192,31840,1,0,0:0:0:0:
320,192,31840,1,0,0:0:0:0:
192,192,31923,1,0,0:0:0:0:
320,192,32006,1,0,0:0:0:0:
64,192,32006,1,0,0:0:0:0:
448,192,32006,1,0,0:0:0:0:
192,192,32090,1,0,0:0:0:0:
64,192,32173,1,0,0:0:0:0:
448,192,32173,1,0,0:0:0:0:
192,192,32256,1,0,0:0:0:0:
320,192,32340,1,0,0:0:0:0:
448,192,32340,1,0,0:0:0:0:
64,192,32423,1,0,0:0:0:0:
320,192,32506,1,0,0:0:0:0:
192,192,32506,1,0,0:0:0:0:
448,192,32590,1,0,0:0:0:0:
320,192,32673,1,0,0:0:0:0:
192,192,32673,1,0,0:0:0:0:
64,192,32756,1,0,0:0:0:0:
192,192,32840,1,0,0:0:0:0:
448,192,32840,1,0,0:0:0:0:
320,192,32923,1,0,0:0:0:0:
448,192,33006,1,0,0:0:0:0:
64,192,33006,1,0,0:0:0:0:
192,192,33090,1,0,0:0:0:0:
320,192,33173,1,0,0:0:0:0:
448,192,33173,1,0,0:0:0:0:
192,192,33256,1,0,0:0:0:0:
64,192,33340,1,0,0:0:0:0:
448,192,33340,1,0,0:0:0:0:
320,192,33423,1,0,0:0:0:0:
192,192,33506,1,0,0:0:0:0:
64,192,33506,1,0,0:0:0:0:
448,192,33590,1,0,0:0:0:0:
320,192,33673,1,0,0:0:0:0:
64,192,33673,1,0,0:0:0:0:
192,192,33756,1,0,0:0:0:0:
320,192,33840,1,0,0:0:0:0:
448,192,33840,1,0,0:0:0:0:
64,192,33923,1,0,0:0:0:0:
192,192,34006,1,0,0:0:0:0:
448,192,34006,1,0,0:0:0:0:
320,192,34090,1,0,0:0:0:0:
448,192,34173,1,0,0:0:0:0:
64,192,34173,1,0,0:0:0:0:
320,192,34256,1,0,0:0:0:0:
192,192,34340,1,0,0:0:0:0:
64,192,34340,1,0,0:0:0:0:
448,192,34423,1,0,0:0:0:0:
320,192,34506,1,0,0:0:0:0:
192,192,34506,1,0,0:0:0:0:
448,192,34590,1,0,0:0:0:0:
192,192,34673,1,0,0:0:0:0:
64,192,34673,1,0,0:0:0:0:
320,192,34673,1,0,0:0:0:0:
448,192,34756,1,0,0:0:0:0:
64,192,34840,1,0,0:0:0:0:
192,192,34840,1,0,0:0:0:0:
448,192,34923,1,0,0:0:0:0:
320,192,35006,1,0,0:0:0:0:
64,192,35006,1,0,0:0:0:0:
192,192,35090,1,0,0:0:0:0:
320,192,35173,1,0,0:0:0:0:
448,192,35173,1,0,0:0:0:0:
64,192,35256,1,0,0:0:0:0:
320,192,35340,1,0,0:0:0:0:
192,192,35340,1,0,0:0:0:0:
448,192,35423,1,0,0:0:0:0:
64,192,35506,1,0,0:0:0:0:
192,192,35506,1,0,0:0:0:0:
320,192,35590,1,0,0:0:0:0:
448,192,35673,1,0,0:0:0:0:
64,192,35673,1,0,0:0:0:0:
320,192,35756,1,0,0:0:0:0:
192,192,35840,1,0,0:0:0:0:
448,192,35840,1,0,0:0:0:0:
64,192,35923,1,0,0:0:0:0:
192,192,36006,1,0,0:0:0:0:
320,192,36006,1,0,0:0:0:0:
448,192,36090,1,0,0:0:0:0:
320,192,36173,1,0,0:0:0:0:
64,192,36173,1,0,0:0:0:0:
192,192,36256,1,0,0:0:0:0:
64,192,36340,1,0,0:0:0:0:
448,192,36340,1,0,0:0:0:0:
192,192,36423,1,0,0:0:0:0:
448,192,36506,1,0,0:0:0:0:
320,192,36506,1,0,0:0:0:0:
64,192,36590,1,0,0:0:0:0:
448,192,36673,1,0,0:0:0:0:
320,192,36673,1,0,0:0:0:0:
64,192,36756,1,0,0:0:0:0:
192,192,36840,1,0,0:0:0:0:
448,192,36840,1,0,0:0:0:0:
320,192,36923,1,0,0:0:0:0:
64,192,37006,1,0,0:0:0:0:
192,192,37006,1,0,0:0:0:0:
320,192,37090,1,0,0:0:0:0:
64,192,37173,1,0,0:0:0:0:
448,192,37173,1,0,0:0:0:0:
192,192,37256,1,0,0:0:0:0:
320,192,37340,1,0,0:0:0:0:
448,192,37340,1,0,0:0:0:0:
64,192,37340,1,0,0:0:0:0:
192,192,37423,1,0,0:0:0:0:
320,192,37506,1,0,0:0:0:0:
448,192,37506,1,0,0:0:0:0:
192,192,37590,1,0,0:0:0:0:
64,192,37673,1,0,0:0:0:0:
448,192,37673,1,0,0:0:0:0:
192,192,37756,1,0,0:0:0:0:
320,192,37840,1,0,0:0:0:0:
448,192,37840,1,0,0:0:0:0:
64,192,37923,1,0,0:0:0:0:
448,192,38006,1,0,0:0:0:0:
192,192,38006,1,0,0:0:0:0:
320,192,38090,1,0,0:0:0:0:
192,192,38173,1,0,0:0:0:0:
64,192,38173,1,0,0:0:0:0:
320,192,38256,1,0,0:0:0:0:
192,192,38340,1,0,0:0:0:0:
448,192,38340,1,0,0:0:0:0:
64,192,38423,1,0,0:0:0:0:
320,192,38506,1,0,0:0:0:0:
192,192,38506,1,0,0:0:0:0:
448,192,38590,1,0,0:0:0:0:
192,192,38673,1,0,0:0:0:0:
64,192,38673,1,0,0:0:0:0:
320,192,38756,1,0,0:0:0:0:
448,192,38840,1,0,0:0:0:0:
64,192,38840,1,0,0:0:0:0:
192,192,38923,1,0,0:0:0:0:
320,192,39006,1,0,0:0:0:0:
64,192,39006,1,0,0:0:0:0:
192,192,39090,1,0,0:0:0:0:
320,192,39173,1,0,0:0:0:0:
448,192,39173,1,0,0:0:0:0:
64,192,39256,1,0,0:0:0:0:
448,192,39340,1,0,0:0:0:0:
192,192,39340,1,0,0:0:0:0:
320,192,39423,1,0,0:0:0:0:
64,192,39423,1,0,0:0:0:0:
192,192,39506,1,0,0:0:0:0:
448,192,39506,1,0,0:0:0:0:
64,192,39590,1,0,0:0:0:0:
320,192,39673,1,0,0:0:0:0:
448,192,39673,1,0,0:0:0:0:
192,192,39756,1,0,0:0:0:0:
64,192,39756,1,0,0:0:0:0:
448,192,39840,1,0,0:0:0:0:
320,192,39881,1,0,0:0:0:0:
192,192,39923,1,0,0:0:0:0:
64,192,39965,1,0,0:0:0:0:
320,192,40006,1,0,0:0:0:0:
448,192,40006,1,0,0:0:0:0:
192,192,40090,1,0,0:0:0:0:
320,192,40173,1,0,0:0:0:0:
64,192,40173,1,0,0:0:0:0:
192,192,40256,1,0,0:0:0:0:
448,192,40340,1,0,0:0:0:0:
64,192,40340,1,0,0:0:0:0:
320,192,40423,1,0,0:0:0:0:
192,192,40506,1,0,0:0:0:0:
64,192,40506,1,0,0:0:0:0:
448,192,40590,1,0,0:0:0:0:
320,192,40673,1,0,0:0:0:0:
64,192,40673,1,0,0:0:0:0:
192,192,40756,1,0,0:0:0:0:
320,192,40840,1,0,0:0:0:0:
448,192,40840,1,0,0:0:0:0:
192,192,40923,1,0,0:0:0:0:
64,192,41006,1,0,0:0:0:0:
448,192,41006,1,0,0:0:0:0:
320,192,41090,1,0,0:0:0:0:
192,192,41173,1,0,0:0:0:0:
64,192,41173,1,0,0:0:0:0:
320,192,41256,1,0,0:0:0:0:
448,192,41340,1,0,0:0:0:0:
192,192,41340,1,0,0:0:0:0:
320,192,41423,1,0,0:0:0:0:
192,192,41506,1,0,0:0:0:0:
64,192,41506,1,0,0:0:0:0:
448,192,41590,1,0,0:0:0:0:
64,192,41673,1,0,0:0:0:0:
320,192,41673,1,0,0:0:0:0:
192,192,41756,1,0,0:0:0:0:
320,192,41840,1,0,0:0:0:0:
448,192,41840,1,0,0:0:0:0:
64,192,41923,1,0,0:0:0:0:
192,192,42006,1,0,0:0:0:0:
320,192,42006,1,0,0:0:0:0:
448,192,42090,1,0,0:0:0:0:
64,192,42173,1,0,0:0:0:0:
192,192,42173,1,0,0:0:0:0:
320,192,42256,1,0,0:0:0:0:
448,192,42340,1,0,0:0:0:0:
192,192,42340,1,0,0:0:0:0:
64,192,42423,1,0,0:0:0:0:
320,192,42506,1,0,0:0:0:0:
448,192,42506,1,0,0:0:0:0:
192,192,42590,1,0,0:0:0:0:
64,192,42673,1,0,0:0:0:0:
320,192,42673,1,0,0:0:0:0:
448,192,42673,1,0,0:0:0:0:
192,192,42756,1,0,0:0:0:0:
64,192,42840,1,0,0:0:0:0:
448,192,42840,1,0,0:0:0:0:
320,192,42923,1,0,0:0:0:0:
192,192,43006,1,0,0:0:0:0:
64,192,43006,1,0,0:0:0:0:
320,192,43090,1,0,0:0:0:0:
192,192,43173,1,0,0:0:0:0:
448,192,43173,1,0,0:0:0:0:
64,192,43256,1,0,0:0:0:0:
448,192,43340,1,0,0:0:0:0:
320,192,43340,1,0,0:0:0:0:
192,192,43423,1,0,0:0:0:0:
64,192,43506,1,0,0:0:0:0:
448,192,43506,1,0,0:0:0:0:
320,192,43590,1,0,0:0:0:0:
192,192,43673,1,0,0:0:0:0:
64,192,43673,1,0,0:0:0:0:
448,192,43756,1,0,0:0:0:0:
320,192,43840,1,0,0:0:0:0:
64,192,43840,1,0,0:0:0:0:
192,192,43923,1,0,0:0:0:0:
320,192,44006,1,0,0:0:0:0:
448,192,44006,1,0,0:0:0:0:
64,192,44090,1,0,0:0:0:0:
192,192,44173,1,0,0:0:0:0:
448,192,44173,1,0,0:0:0:0:
320,192,44256,1,0,0:0:0:0:
192,192,44340,1,0,0:0:0:0:
64,192,44340,1,0,0:0:0:0:
448,192,44423,1,0,0:0:0:0:
320,192,44506,1,0,0:0:0:0:
64,192,44506,1,0,0:0:0:0:
192,192,44590,1,0,0:0:0:0:
448,192,44673,1,0,0:0:0:0:
64,192,44673,1,0,0:0:0:0:
320,192,44756,1,0,0:0:0:0:
448,192,44840,1,0,0:0:0:0:
192,192,44840,1,0,0:0:0:0:
320,192,44923,1,0,0:0:0:0:
64,192,44923,1,0,0:0:0:0:
448,192,45006,1,0,0:0:0:0:
192,192,45006,1,0,0:0:0:0:
64,192,45090,1,0,0:0:0:0:
448,192,45173,1,0,0:0:0:0:
320,192,45173,1,0,0:0:0:0:
192,192,45256,1,0,0:0:0:0:
320,192,45340,1,0,0:0:0:0:
448,192,45340,1,0,0:0:0:0:
64,192,45340,1,0,0:0:0:0:
192,192,45423,1,0,0:0:0:0:
448,192,45506,1,0,0:0:0:0:
320,192,45506,1,0,0:0:0:0:
64,192,45590,1,0,0:0:0:0:
448,192,45673,1,0,0:0:0:0:
192,192,45673,1,0,0:0:0:0:
320,192,45756,1,0,0:0:0:0:
192,192,45840,1,0,0:0:0:0:
64,192,45840,1,0,0:0:0:0:
448,192,45923,1,0,0:0:0:0:
320,192,46006,1,0,0:0:0:0:
192,192,46006,1,0,0:0:0:0:
448,192,46090,1,0,0:0:0:0:
320,192,46173,1,0,0:0:0:0:
64,192,46173,1,0,0:0:0:0:
192,192,46256,1,0,0:0:0:0:
320,192,46340,1,0,0:0:0:0:
448,192,46340,1,0,0:0:0:0:
192,192,46423,1,0,0:0:0:0:
64,192,46506,1,0,0:0:0:0:
320,192,46506,1,0,0:0:0:0:
192,192,46590,1,0,0:0:0:0:
448,192,46673,1,0,0:0:0:0:
64,192,46673,1,0,0:0:0:0:
320,192,46756,1,0,0:0:0:0:
192,192,46840,1,0,0:0:0:0:
64,192,46840,1,0,0:0:0:0:
320,192,46923,1,0,0:0:0:0:
448,192,47006,1,0,0:0:0:0:
192,192,47006,1,0,0:0:0:0:
64,192,47090,1,0,0:0:0:0:
192,192,47173,1,0,0:0:0:0:
448,192,47173,1,0,0:0:0:0:
320,192,47256,1,0,0:0:0:0:
448,192,47340,1,0,0:0:0:0:
64,192,47340,1,0,0:0:0:0:
192,192,47423,1,0,0:0:0:0:
64,192,47506,1,0,0:0:0:0:
448,192,47506,1,0,0:0:0:0:
320,192,47590,1,0,0:0:0:0:
192,192,47673,1,0,0:0:0:0:
64,192,47673,1,0,0:0:0:0:
448,192,47756,1,0,0:0:0:0:
64,192,47840,1,0,0:0:0:0:
320,192,47840,1,0,0:0:0:0:
192,192,47923,1,0,0:0:0:0:
448,192,48006,1,0,0:0:0:0:
64,192,48006,1,0,0:0:0:0:
320,192,48006,1,0,0:0:0:0:
192,192,48090,1,0,0:0:0:0:
320,192,48173,1,0,0:0:0:0:
64,192,48173,1,0,0:0:0:0:
448,192,48256,1,0,0:0:0:0:
64,192,48340,1,0,0:0:0:0:
320,192,48340,1,0,0:0:0:0:
192,192,48423,1,0,0:0:0:0:
448,192,48506,1,0,0:0:0:0:
320,192,48506,1,0,0:0:0:0:
192,192,48590,1,0,0:0:0:0:
64,192,48673,1,0,0:0:0:0:
320,192,48673,1,0,0:0:0:0:
448,192,48756,1,0,0:0:0:0:
64,192,48840,1,0,0:0:0:0:
192,192,48840,1,0,0:0:0:0:
448,192,48923,1,0,0:0:0:0:
320,192,49006,1,0,0:0:0:0:
192,192,49006,1,0,0:0:0:0:
448,192,49090,1,0,0:0:0:0:
64,192,49173,1,0,0:0:0:0:
192,192,49173,1,0,0:0:0:0:
320,192,49256,1,0,0:0:0:0:
192,192,49340,1,0,0:0:0:0:
448,192,49340,1,0,0:0:0:0:
64,192,49340,1,0,0:0:0:0:
320,192,49423,1,0,0:0:0:0:
64,192,49506,1,0,0:0:0:0:
448,192,49506,1,0,0:0:0:0:
192,192,49548,1,0,0:0:0:0:
320,192,49590,1,0,0:0:0:0:
448,192,49631,1,0,0:0:0:0:
64,192,49673,1,0,0:0:0:0:
192,192,49756,1,0,0:0:0:0:
448,192,49840,1,0,0:0:0:0:
64,192,49840,1,0,0:0:0:0:
320,192,49881,1,0,0:0:0:0:
192,192,49923,1,0,0:0:0:0:
64,192,49965,1,0,0:0:0:0:
448,192,50006,1,0,0:0:0:0:
320,192,50090,1,0,0:0:0:0:
64,192,50173,1,0,0:0:0:0:
448,192,50173,1,0,0:0:0:0:
192,192,50215,1,0,0:0:0:0:
320,192,50256,1,0,0:0:0:0:
448,192,50298,1,0,0:0:0:0:
192,192,50340,1,0,0:0:0:0:
64,192,50340,1,0,0:0:0:0:
320,192,50423,1,0,0:0:0:0:
448,192,50423,1,0,0:0:0:0:
192,192,50506,1,0,0:0:0:0:
64,192,50506,1,0,0:0:0:0:
320,192,50590,1,0,0:0:0:0:
192,192,50673,1,0,0:0:0:0:
64,192,50673,1,0,0:0:0:0:
448,192,50673,1,0,0:0:0:0:
320,192,50756,1,0,0:0:0:0:
192,192,50840,1,0,0:0:0:0:
448,192,50840,1,0,0:0:0:0:
320,192,50923,1,0,0:0:0:0:
64,192,50923,1,0,0:0:0:0:
192,192,51006,1,0,0:0:0:0:
448,192,51006,1,0,0:0:0:0:
320,192,51090,1,0,0:0:0:0:
192,192,51173,1,0,0:0:0:0:
64,192,51173,1,0,0:0:0:0:
320,192,51256,1,0,0:0:0:0:
448,192,51256,1,0,0:0:0:0:
192,192,51340,1,0,0:0:0:0:
64,192,51340,1,0,0:0:0:0:
448,192,51423,1,0,0:0:0:0:
320,192,51506,1,0,0:0:0:0:
192,192,51506,1,0,0:0:0:0:
64,192,51590,1,0,0:0:0:0:
448,192,51590,1,0,0:0:0:0:
320,192,51673,1,0,0:0:0:0:
192,192,51673,1,0,0:0:0:0:
448,192,51756,1,0,0:0:0:0:
320,192,51840,1,0,0:0:0:0:
64,192,51840,1,0,0:0:0:0:
192,192,51923,1,0,0:0:0:0:
448,192,51923,1,0,0:0:0:0:
320,192,52006,1,0,0:0:0:0:
64,192,52006,1,0,0:0:0:0:
192,192,52090,1,0,0:0:0:0:
320,192,52173,1,0,0:0:0:0:
448,192,52173,1,0,0:0:0:0:
192,192,52256,1,0,0:0:0:0:
64,192,52340,1,0,0:0:0:0:
448,192,52340,1,0,0:0:0:0:
192,192,52423,1,0,0:0:0:0:
320,192,52506,1,0,0:0:0:0:
64,192,52506,1,0,0:0:0:0:
192,192,52590,1,0,0:0:0:0:
320,192,52673,1,0,0:0:0:0:
448,192,52673,1,0,0:0:0:0:
192,192,52756,1,0,0:0:0:0:
64,192,52756,1,0,0:0:0:0:
448,192,52840,1,0,0:0:0:0:
320,192,52840,1,0,0:0:0:0:
192,192,52923,1,0,0:0:0:0:
64,192,53006,1,0,0:0:0:0:
320,192,53006,1,0,0:0:0:0:
192,192,53090,1,0,0:0:0:0:
448,192,53090,1,0,0:0:0:0:
320,192,53173,1,0,0:0:0:0:
64,192,53173,1,0,0:0:0:0:
192,192,53256,1,0,0:0:0:0:
448,192,53256,1,0,0:0:0:0:
320,192,53340,1,0,0:0:0:0:
64,192,53340,1,0,0:0:0:0:
192,192,53423,1,0,0:0:0:0:
320,192,53506,1,0,0:0:0:0:
448,192,53506,1,0,0:0:0:0:
192,192,53590,1,0,0:0:0:0:
64,192,53590,1,0,0:0:0:0:
320,192,53673,1,0,0:0:0:0:
448,192,53673,1,0,0:0:0:0:
192,192,53756,1,0,0:0:0:0:
64,192,53840,1,0,0:0:0:0:
320,192,53840,1,0,0:0:0:0:
192,192,53923,1,0,0:0:0:0:
448,192,53923,1,0,0:0:0:0:
320,192,54006,1,0,0:0:0:0:
64,192,54006,1,0,0:0:0:0:
192,192,54090,1,0,0:0:0:0:
448,192,54173,1,0,0:0:0:0:
64,192,54173,1,0,0:0:0:0:
192,192,54256,1,0,0:0:0:0:
320,192,54256,1,0,0:0:0:0:
448,192,54340,1,0,0:0:0:0:
64,192,54340,1,0,0:0:0:0:
320,192,54423,1,0,0:0:0:0:
192,192,54506,1,0,0:0:0:0:
448,192,54506,1,0,0:0:0:0:
320,192,54590,1,0,0:0:0:0:
192,192,54673,1,0,0:0:0:0:
64,192,54673,1,0,0:0:0:0:
448,192,54673,1,0,0:0:0:0:
320,192,54756,1,0,0:0:0:0:
192,192,54840,1,0,0:0:0:0:
64,192,54840,1,0,0:0:0:0:
448,192,54923,1,0,0:0:0:0:
320,192,55006,1,0,0:0:0:0:
192,192,55006,1,0,0:0:0:0:
64,192,55090,1,0,0:0:0:0:
192,192,55173,1,0,0:0:0:0:
448,192,55256,1,0,0:0:0:0:
320,192,55256,1,0,0:0:0:0:
192,192,55340,1,0,0:0:0:0:
64,192,55340,1,0,0:0:0:0:
320,192,55423,1,0,0:0:0:0:
64,192,55506,1,0,0:0:0:0:
448,192,55506,1,0,0:0:0:0:
192,192,55590,1,0,0:0:0:0:
320,192,55590,1,0,0:0:0:0:
64,192,55673,1,0,0:0:0:0:
448,192,55673,1,0,0:0:0:0:
320,192,55756,1,0,0:0:0:0:
192,192,55756,1,0,0:0:0:0:
448,192,55840,1,0,0:0:0:0:
64,192,55840,1,0,0:0:0:0:
192,192,55923,1,0,0:0:0:0:
64,192,56006,1,0,0:0:0:0:
448,192,56006,1,0,0:0:0:0:
320,192,56006,1,0,0:0:0:0:
192,192,56090,1,0,0:0:0:0:
64,192,56173,1,0,0:0:0:0:
320,192,56173,1,0,0:0:0:0:
192,192,56256,1,0,0:0:0:0:
448,192,56256,1,0,0:0:0:0:
320,192,56340,1,0,0:0:0:0:
64,192,56340,1,0,0:0:0:0:
192,192,56423,1,0,0:0:0:0:
320,192,56506,1,0,0:0:0:0:
448,192,56506,1,0,0:0:0:0:
192,192,56590,1,0,0:0:0:0:
64,192,56590,1,0,0:0:0:0:
320,192,56673,1,0,0:0:0:0:
448,192,56673,1,0,0:0:0:0:
64,192,56756,1,0,0:0:0:0:
192,192,56840,1,0,0:0:0:0:
320,192,56840,1,0,0:0:0:0:
448,192,56923,1,0,0:0:0:0:
64,192,56923,1,0,0:0:0:0:
320,192,57006,1,0,0:0:0:0:
192,192,57006,1,0,0:0:0:0:
448,192,57090,1,0,0:0:0:0:
192,192,57173,1,0,0:0:0:0:
64,192,57173,1,0,0:0:0:0:
320,192,57256,1,0,0:0:0:0:
448,192,57340,1,0,0:0:0:0:
192,192,57340,1,0,0:0:0:0:
64,192,57340,1,0,0:0:0:0:
320,192,57423,1,0,0:0:0:0:
192,192,57506,1,0,0:0:0:0:
64,192,57506,1,0,0:0:0:0:
320,192,57590,1,0,0:0:0:0:
192,192,57673,1,0,0:0:0:0:
448,192,57673,1,0,0:0:0:0:
320,192,57756,1,0,0:0:0:0:
192,192,57840,1,0,0:0:0:0:
64,192,57840,1,0,0:0:0:0:
448,192,57923,1,0,0:0:0:0:
320,192,58006,1,0,0:0:0:0:
192,192,58006,1,0,0:0:0:0:
64,192,58090,1,0,0:0:0:0:
448,192,58090,1,0,0:0:0:0:
192,192,58173,1,0,0:0:0:0:
320,192,58173,1,0,0:0:0:0:
448,192,58256,1,0,0:0:0:0:
192,192,58340,1,0,0:0:0:0:
64,192,58340,1,0,0:0:0:0:
320,192,58423,1,0,0:0:0:0:
448,192,58423,1,0,0:0:0:0:
192,192,58506,1,0,0:0:0:0:
64,192,58506,1,0,0:0:0:0:
320,192,58590,1,0,0:0:0:0:
192,192,58673,1,0,0:0:0:0:
64,192,58673,1,0,0:0:0:0:
448,192,58673,1,0,0:0:0:0:
320,192,58756,1,0,0:0:0:0:
192,192,58840,1,0,0:0:0:0:
448,192,58840,1,0,0:0:0:0:
320,192,58923,1,0,0:0:0:0:
64,192,58923,1,0,0:0:0:0:
192,192,59006,1,0,0:0:0:0:
448,192,59006,1,0,0:0:0:0:
320,192,59090,1,0,0:0:0:0:
192,192,59173,1,0,0:0:0:0:
64,192,59173,1,0,0:0:0:0:
320,192,59256,1,0,0:0:0:0:
448,192,59256,1,0,0:0:0:0:
192,192,59340,1,0,0:0:0:0:
64,192,59340,1,0,0:0:0:0:
448,192,59423,1,0,0:0:0:0:
320,192,59506,1,0,0:0:0:0:
192,192,59506,1,0,0:0:0:0:
64,192,59590,1,0,0:0:0:0:
448,192,59590,1,0,0:0:0:0:
320,192,59673,1,0,0:0:0:0:
192,192,59673,1,0,0:0:0:0:
64,192,59756,1,0,0:0:0:0:
192,192,59840,1,0,0:0:0:0:
448,192,59840,1,0,0:0:0:0:
320,192,59923,1,0,0:0:0:0:
192,192,60006,1,0,0:0:0:0:
64,192,60006,1,0,0:0:0:0:
320,192,60090,1,0,0:0:0:0:
448,192,60173,1,0,0:0:0:0:
192,192,60173,1,0,0:0:0:0:
64,192,60256,1,0,0:0:0:0:
192,192,60340,1,0,0:0:0:0:
320,192,60340,1,0,0:0:0:0:
64,192,60423,1,0,0:0:0:0:
192,192,60506,1,0,0:0:0:0:
448,192,60506,1,0,0:0:0:0:
320,192,60590,1,0,0:0:0:0:
64,192,60673,1,0,0:0:0:0:
448,192,60673,1,0,0:0:0:0:
320,192,60756,1,0,0:0:0:0:
192,192,60840,1,0,0:0:0:0:
448,192,60840,1,0,0:0:0:0:
64,192,60923,1,0,0:0:0:0:
192,192,61006,1,0,0:0:0:0:
448,192,61006,1,0,0:0:0:0:
320,192,61090,1,0,0:0:0:0:
64,192,61090,1,0,0:0:0:0:
192,192,61173,1,0,0:0:0:0:
448,192,61173,1,0,0:0:0:0:
320,192,61256,1,0,0:0:0:0:
192,192,61340,1,0,0:0:0:0:
448,192,61340,1,0,0:0:0:0:
64,192,61340,1,0,0:0:0:0:
320,192,61423,1,0,0:0:0:0:
192,192,61506,1,0,0:0:0:0:
64,192,61506,1,0,0:0:0:0:
320,192,61590,1,0,0:0:0:0:
448,192,61590,1,0,0:0:0:0:
192,192,61673,1,0,0:0:0:0:
64,192,61673,1,0,0:0:0:0:
448,192,61756,1,0,0:0:0:0:
320,192,61840,1,0,0:0:0:0:
192,192,61840,1,0,0:0:0:0:
448,192,61923,1,0,0:0:0:0:
64,192,61923,1,0,0:0:0:0:
192,192,62006,1,0,0:0:0:0:
320,192,62006,1,0,0:0:0:0:
64,192,62090,1,0,0:0:0:0:
192,192,62173,1,0,0:0:0:0:
448,192,62173,1,0,0:0:0:0:
320,192,62256,1,0,0:0:0:0:
64,192,62256,1,0,0:0:0:0:
192,192,62340,1,0,0:0:0:0:
448,192,62340,1,0,0:0:0:0:
320,192,62423,1,0,0:0:0:0:
192,192,62506,1,0,0:0:0:0:
64,192,62506,1,0,0:0:0:0:
448,192,62590,1,0,0:0:0:0:
320,192,62590,1,0,0:0:0:0:
64,192,62673,1,0,0:0:0:0:
192,192,62673,1,0,0:0:0:0:
320,192,62756,1,0,0:0:0:0:
192,192,62840,1,0,0:0:0:0:
448,192,62840,1,0,0:0:0:0:
64,192,62923,1,0,0:0:0:0:
192,192,63006,1,0,0:0:0:0:
448,192,63006,1,0,0:0:0:0:
320,192,63090,1,0,0:0:0:0:
192,192,63173,1,0,0:0:0:0:
64,192,63173,1,0,0:0:0:0:
320,192,63256,1,0,0:0:0:0:
448,192,63340,1,0,0:0:0:0:
192,192,63340,1,0,0:0:0:0:
320,192,63423,1,0,0:0:0:0:
64,192,63423,1,0,0:0:0:0:
448,192,63506,1,0,0:0:0:0:
192,192,63506,1,0,0:0:0:0:
320,192,63590,1,0,0:0:0:0:
192,192,63673,1,0,0:0:0:0:
64,192,63673,1,0,0:0:0:0:
320,192,63756,1,0,0:0:0:0:
448,192,63756,1,0,0:0:0:0:
192,192,63840,1,0,0:0:0:0:
64,192,63840,1,0,0:0:0:0:
320,192,63923,1,0,0:0:0:0:
192,192,64006,1,0,0:0:0:0:
64,192,64006,1,0,0:0:0:0:
448,192,64006,1,0,0:0:0:0:
320,192,64090,1,0,0:0:0:0:
192,192,64173,1,0,0:0:0:0:
448,192,64173,1,0,0:0:0:0:
320,192,64256,1,0,0:0:0:0:
64,192,64256,1,0,0:0:0:0:
192,192,64340,1,0,0:0:0:0:
448,192,64340,1,0,0:0:0:0:
64,192,64423,1,0,0:0:0:0:
320,192,64506,1,0,0:0:0:0:
448,192,64506,1,0,0:0:0:0:
192,192,64590,1,0,0:0:0:0:
64,192,64590,1,0,0:0:0:0:
320,192,64673,1,0,0:0:0:0:
448,192,64673,1,0,0:0:0:0:
192,192,64756,1,0,0:0:0:0:
64,192,64840,1,0,0:0:0:0:
448,192,64840,1,0,0:0:0:0:
320,192,64923,1,0,0:0:0:0:
192,192,64923,1,0,0:0:0:0:
448,192,65006,1,0,0:0:0:0:
64,192,65006,1,0,0:0:0:0:
320,192,65090,1,0,0:0:0:0:
192,192,65173,1,0,0:0:0:0:
64,192,65173,1,0,0:0:0:0:
448,192,65256,1,0,0:0:0:0:
320,192,65340,1,0,0:0:0:0:
192,192,65340,1,0,0:0:0:0:
64,192,65423,1,0,0:0:0:0:
192,192,65506,1,0,0:0:0:0:
448,192,65506,1,0,0:0:0:0:
64,192,65590,1,0,0:0:0:0:
192,192,65673,1,0,0:0:0:0:
448,192,65673,1,0,0:0:0:0:
320,192,65756,1,0,0:0:0:0:
192,192,65840,1,0,0:0:0:0:
64,192,65840,1,0,0:0:0:0:
320,192,65923,1,0,0:0:0:0:
448,192,66006,1,0,0:0:0:0:
192,192,66006,1,0,0:0:0:0:
320,192,66090,1,0,0:0:0:0:
192,192,66173,1,0,0:0:0:0:
64,192,66173,1,0,0:0:0:0:
320,192,66256,1,0,0:0:0:0:
448,192,66340,1,0,0:0:0:0:
64,192,66340,1,0,0:0:0:0:
320,192,66423,1,0,0:0:0:0:
192,192,66506,1,0,0:0:0:0:
64,192,66506,1,0,0:0:0:0:
448,192,66590,1,0,0:0:0:0:
320,192,66673,1,0,0:0:0:0:
192,192,66673,1,0,0:0:0:0:
64,192,66673,1,0,0:0:0:0:
448,192,66756,1,0,0:0:0:0:
320,192,66840,1,0,0:0:0:0:
64,192,66840,1,0,0:0:0:0:
192,192,66923,1,0,0:0:0:0:
448,192,66923,1,0,0:0:0:0:
320,192,67006,1,0,0:0:0:0:
64,192,67006,1,0,0:0:0:0:
448,192,67090,1,0,0:0:0:0:
320,192,67173,1,0,0:0:0:0:
192,192,67173,1,0,0:0:0:0:
448,192,67256,1,0,0:0:0:0:
64,192,67256,1,0,0:0:0:0:
320,192,67340,1,0,0:0:0:0:
192,192,67340,1,0,0:0:0:0:
448,192,67423,1,0,0:0:0:0:
192,192,67506,1,0,0:0:0:0:
64,192,67506,1,0,0:0:0:0:
320,192,67590,1,0,0:0:0:0:
448,192,67590,1,0,0:0:0:0:
192,192,67673,1,0,0:0:0:0:
64,192,67673,1,0,0:0:0:0:
448,192,67756,1,0,0:0:0:0:
320,192,67840,1,0,0:0:0:0:
64,192,67840,1,0,0:0:0:0:
192,192,67923,1,0,0:0:0:0:
320,192,68006,1,0,0:0:0:0:
448,192,68006,1,0,0:0:0:0:
192,192,68090,1,0,0:0:0:0:
64,192,68173,1,0,0:0:0:0:
320,192,68173,1,0,0:0:0:0:
192,192,68256,1,0,0:0:0:0:
64,192,68340,1,0,0:0:0:0:
448,192,68340,1,0,0:0:0:0:
320,192,68423,1,0,0:0:0:0:
192,192,68506,1,0,0:0:0:0:
64,192,68506,1,0,0:0:0:0:
320,192,68590,1,0,0:0:0:0:
448,192,68673,1,0,0:0:0:0:
192,192,68673,1,0,0:0:0:0:
320,192,68756,1,0,0:0:0:0:
64,192,68756,1,0,0:0:0:0:
192,192,68840,1,0,0:0:0:0:
448,192,68840,1,0,0:0:0:0:
320,192,68923,1,0,0:0:0:0:
192,192,69006,1,0,0:0:0:0:
64,192,69006,1,0,0:0:0:0:
320,192,69090,1,0,0:0:0:0:
448,192,69090,1,0,0:0:0:0:
192,192,69173,1,0,0:0:0:0:
64,192,69173,1,0,0:0:0:0:
320,192,69256,1,0,0:0:0:0:
192,192,69340,1,0,0:0:0:0:
64,192,69340,1,0,0:0:0:0:
448,192,69340,1,0,0:0:0:0:
320,192,69423,1,0,0:0:0:0:
64,192,69506,1,0,0:0:0:0:
448,192,69506,1,0,0:0:0:0:
192,192,69548,1,0,0:0:0:0:
320,192,69590,1,0,0:0:0:0:
448,192,69631,1,0,0:0:0:0:
192,192,69673,1,0,0:0:0:0:
64,192,69673,1,0,0:0:0:0:
320,192,69756,1,0,0:0:0:0:
448,192,69840,1,0,0:0:0:0:
64,192,69840,1,0,0:0:0:0:
320,192,69881,1,0,0:0:0:0:
192,192,69923,1,0,0:0:0:0:
64,192,69965,1,0,0:0:0:0:
320,192,70006,1,0,0:0:0:0:
448,192,70006,1,0,0:0:0:0:
192,192,70090,1,0,0:0:0:0:
448,192,70173,1,0,0:0:0:0:
64,192,70173,1,0,0:0:0:0:
320,192,70215,1,0,0:0:0:0:
192,192,70256,1,0,0:0:0:0:
64,192,70298,1,0,0:0:0:0:
448,192,70340,1,0,0:0:0:0:
320,192,70340,1,0,0:0:0:0:
192,192,70423,1,0,0:0:0:0:
64,192,70506,1,0,0:0:0:0:
448,192,70506,1,0,0:0:0:0:
192,192,70548,1,0,0:0:0:0:
320,192,70590,1,0,0:0:0:0:
448,192,70631,1,0,0:0:0:0:
192,192,70673,1,0,0:0:0:0:
64,192,70673,1,0,0:0:0:0:
320,192,70756,1,0,0:0:0:0:
448,192,70840,1,0,0:0:0:0:
192,192,70840,1,0,0:0:0:0:
320,192,70923,1,0,0:0:0:0:
64,192,70923,1,0,0:0:0:0:
192,192,71006,1,0,0:0:0:0:
448,192,71006,1,0,0:0:0:0:
320,192,71090,1,0,0:0:0:0:
64,192,71173,1,0,0:0:0:0:
192,192,71173,1,0,0:0:0:0:
320,192,71256,1,0,0:0:0:0:
448,192,71256,1,0,0:0:0:0:
192,192,71340,1,0,0:0:0:0:
64,192,71340,1,0,0:0:0:0:
448,192,71423,1,0,0:0:0:0:
192,192,71506,1,0,0:0:0:0:
320,192,71506,1,0,0:0:0:0:
448,192,71590,1,0,0:0:0:0:
64,192,71590,1,0,0:0:0:0:
192,192,71673,1,0,0:0:0:0:
320,192,71715,1,0,0:0:0:0:
448,192,71756,1,0,0:0:0:0:
64,192,71798,1,0,0:0:0:0:
192,192,71840,1,0,0:0:0:0:
320,192,71881,1,0,0:0:0:0:
448,192,71923,1,0,0:0:0:0:
64,192,72006,1,0,0:0:0:0:
320,192,72006,1,0,0:0:0:0:
192,192,72006,1,0,0:0:0:0:
448,192,72090,1,0,0:0:0:0:
192,192,72173,1,0,0:0:0:0:
320,192,72256,1,0,0:0:0:0:
448,192,72340,1,0,0:0:0:0:
192,192,72340,1,0,0:0:0:0:
64,192,72423,1,0,0:0:0:0:
192,192,72506,1,0,0:0:0:0:
320,192,72590,1,0,0:0:0:0:
448,192,72673,1,0,0:0:0:0:
320,192,72756,1,0,0:0:0:0:
448,192,72840,1,0,0:0:0:0:
64,192,72840,1,0,0:0:0:0:
320,192,72923,1,0,0:0:0:0:
448,192,73006,1,0,0:0:0:0:
192,192,73006,1,0,0:0:0:0:
320,192,73090,1,0,0:0:0:0:
448,192,73173,1,0,0:0:0:0:
320,192,73256,1,0,0:0:0:0:
448,192,73340,1,0,0:0:0:0:
64,192,73340,1,0,0:0:0:0:
320,192,73423,1,0,0:0:0:0:
192,192,73506,1,0,0:0:0:0:
64,192,73590,1,0,0:0:0:0:
448,192,73673,1,0,0:0:0:0:
192,192,73673,1,0,0:0:0:0:
320,192,73756,1,0,0:0:0:0:
192,192,73840,1,0,0:0:0:0:
64,192,73923,1,0,0:0:0:0:
192,192,74006,1,0,0:0:0:0:
64,192,74090,1,0,0:0:0:0:
192,192,74173,1,0,0:0:0:0:
448,192,74173,1,0,0:0:0:0:
64,192,74256,1,0,0:0:0:0:
192,192,74340,1,0,0:0:0:0:
320,192,74340,1,0,0:0:0:0:
64,192,74423,1,0,0:0:0:0:
192,192,74506,1,0,0:0:0:0:
64,192,74590,1,0,0:0:0:0:
192,192,74673,1,0,0:0:0:0:
448,192,74673,1,0,0:0:0:0:
64,192,74756,1,0,0:0:0:0:
192,192,74840,1,0,0:0:0:0:
320,192,74923,1,0,0:0:0:0:
192,192,75006,1,0,0:0:0:0:
64,192,75006,1,0,0:0:0:0:
320,192,75090,1,0,0:0:0:0:
448,192,75173,1,0,0:0:0:0:
320,192,75256,1,0,0:0:0:0:
192,192,75340,1,0,0:0:0:0:
320,192,75423,1,0,0:0:0:0:
192,192,75506,1,0,0:0:0:0:
448,192,75506,1,0,0:0:0:0:
64,192,75590,1,0,0:0:0:0:
192,192,75673,1,0,0:0:0:0:
448,192,75673,1,0,0:0:0:0:
320,192,75756,1,0,0:0:0:0:
192,192,75840,1,0,0:0:0:0:
320,192,75923,1,0,0:0:0:0:
448,192,76006,1,0,0:0:0:0:
64,192,76006,1,0,0:0:0:0:
320,192,76090,1,0,0:0:0:0:
192,192,76173,1,0,0:0:0:0:
320,192,76256,1,0,0:0:0:0:
192,192,76340,1,0,0:0:0:0:
448,192,76340,1,0,0:0:0:0:
320,192,76423,1,0,0:0:0:0:
192,192,76506,1,0,0:0:0:0:
64,192,76506,1,0,0:0:0:0:
320,192,76590,1,0,0:0:0:0:
448,192,76673,1,0,0:0:0:0:
192,192,76756,1,0,0:0:0:0:
320,192,76840,1,0,0:0:0:0:
64,192,76840,1,0,0:0:0:0:
448,192,76923,1,0,0:0:0:0:
320,192,77006,1,0,0:0:0:0:
192,192,77006,1,0,0:0:0:0:
64,192,77090,1,0,0:0:0:0:
192,192,77173,1,0,0:0:0:0:
320,192,77256,1,0,0:0:0:0:
448,192,77340,1,0,0:0:0:0:
64,192,77340,1,0,0:0:0:0:
320,192,77423,1,0,0:0:0:0:
192,192,77506,1,0,0:0:0:0:
64,192,77590,1,0,0:0:0:0:
448,192,77673,1,0,0:0:0:0:
320,192,77673,1,0,0:0:0:0:
64,192,77756,1,0,0:0:0:0:
448,192,77840,1,0,0:0:0:0:
64,192,77923,1,0,0:0:0:0:
320,192,78006,1,0,0:0:0:0:
192,192,78090,1,0,0:0:0:0:
320,192,78173,1,0,0:0:0:0:
64,192,78173,1,0,0:0:0:0:
192,192,78256,1,0,0:0:0:0:
448,192,78340,1,0,0:0:0:0:
320,192,78340,1,0,0:0:0:0:
64,192,78423,1,0,0:0:0:0:
448,192,78506,1,0,0:0:0:0:
320,192,78590,1,0,0:0:0:0:
64,192,78673,1,0,0:0:0:0:
192,192,78673,1,0,0:0:0:0:
448,192,78756,1,0,0:0:0:0:
192,192,78840,1,0,0:0:0:0:
320,192,78923,1,0,0:0:0:0:
192,192,79006,1,0,0:0:0:0:
448,192,79006,1,0,0:0:0:0:
64,192,79090,1,0,0:0:0:0:
448,192,79173,1,0,0:0:0:0:
64,192,79256,1,0,0:0:0:0:
448,192,79340,1,0,0:0:0:0:
64,192,79423,1,0,0:0:0:0:
192,192,79506,1,0,0:0:0:0:
320,192,79506,1,0,0:0:0:0:
64,192,79590,1,0,0:0:0:0:
192,192,79673,1,0,0:0:0:0:
448,192,79673,1,0,0:0:0:0:
320,192,79756,1,0,0:0:0:0:
192,192,79840,1,0,0:0:0:0:
448,192,79923,1,0,0:0:0:0:
64,192,80006,1,0,0:0:0:0:
320,192,80006,1,0,0:0:0:0:
192,192,80090,1,0,0:0:0:0:
448,192,80173,1,0,0:0:0:0:
192,192,80256,1,0,0:0:0:0:
320,192,80340,1,0,0:0:0:0:
448,192,80340,1,0,0:0:0:0:
64,192,80423,1,0,0:0:0:0:
192,192,80506,1,0,0:0:0:0:
320,192,80590,1,0,0:0:0:0:
192,192,80673,1,0,0:0:0:0:
64,192,80756,1,0,0:0:0:0:
192,192,80840,1,0,0:0:0:0:
448,192,80840,1,0,0:0:0:0:
320,192,80923,1,0,0:0:0:0:
192,192,81006,1,0,0:0:0:0:
64,192,81006,1,0,0:0:0:0:
320,192,81090,1,0,0:0:0:0:
192,192,81173,1,0,0:0:0:0:
320,192,81256,1,0,0:0:0:0:
448,192,81340,1,0,0:0:0:0:
64,192,81340,1,0,0:0:0:0:
320,192,81423,1,0,0:0:0:0:
192,192,81506,1,0,0:0:0:0:
320,192,81590,1,0,0:0:0:0:
192,192,81673,1,0,0:0:0:0:
448,192,81673,1,0,0:0:0:0:
64,192,81756,1,0,0:0:0:0:
192,192,81840,1,0,0:0:0:0:
448,192,81840,1,0,0:0:0:0:
320,192,81923,1,0,0:0:0:0:
192,192,82006,1,0,0:0:0:0:
64,192,82090,1,0,0:0:0:0:
192,192,82173,1,0,0:0:0:0:
448,192,82173,1,0,0:0:0:0:
320,192,82256,1,0,0:0:0:0:
448,192,82340,1,0,0:0:0:0:
192,192,82340,1,0,0:0:0:0:
320,192,82423,1,0,0:0:0:0:
192,192,82506,1,0,0:0:0:0:
64,192,82506,1,0,0:0:0:0:
320,192,82590,1,0,0:0:0:0:
448,192,82673,1,0,0:0:0:0:
64,192,82673,1,0,0:0:0:0:
320,192,82756,1,0,0:0:0:0:
192,192,82840,1,0,0:0:0:0:
448,192,82923,1,0,0:0:0:0:
320,192,83006,1,0,0:0:0:0:
64,192,83006,1,0,0:0:0:0:
192,192,83090,1,0,0:0:0:0:
64,192,83173,1,0,0:0:0:0:
192,192,83256,1,0,0:0:0:0:
320,192,83340,1,0,0:0:0:0:
64,192,83423,1,0,0:0:0:0:
192,192,83506,1,0,0:0:0:0:
448,192,83506,1,0,0:0:0:0:
320,192,83590,1,0,0:0:0:0:
448,192,83673,1,0,0:0:0:0:
64,192,83673,1,0,0:0:0:0:
320,192,83756,1,0,0:0:0:0:
192,192,83840,1,0,0:0:0:0:
448,192,83923,1,0,0:0:0:0:
192,192,84006,1,0,0:0:0:0:
64,192,84006,1,0,0:0:0:0:
448,192,84090,1,0,0:0:0:0:
320,192,84173,1,0,0:0:0:0:
192,192,84256,1,0,0:0:0:0:
320,192,84340,1,0,0:0:0:0:
64,192,84340,1,0,0:0:0:0:
448,192,84423,1,0,0:0:0:0:
64,192,84506,1,0,0:0:0:0:
192,192,84590,1,0,0:0:0:0:
320,192,84673,1,0,0:0:0:0:
192,192,84756,1,0,0:0:0:0:
64,192,84840,1,0,0:0:0:0:
448,192,84840,1,0,0:0:0:0:
320,192,84923,1,0,0:0:0:0:
192,192,85006,1,0,0:0:0:0:
64,192,85006,1,0,0:0:0:0:
448,192,85090,1,0,0:0:0:0:
192,192,85173,1,0,0:0:0:0:
320,192,85256,1,0,0:0:0:0:
448,192,85340,1,0,0:0:0:0:
64,192,85340,1,0,0:0:0:0:
320,192,85423,1,0,0:0:0:0:
192,192,85506,1,0,0:0:0:0:
448,192,85590,1,0,0:0:0:0:
320,192,85673,1,0,0:0:0:0:
192,192,85673,1,0,0:0:0:0:
64,192,85756,1,0,0:0:0:0:
192,192,85840,1,0,0:0:0:0:
64,192,85923,1,0,0:0:0:0:
448,192,86006,1,0,0:0:0:0:
192,192,86090,1,0,0:0:0:0:
448,192,86173,1,0,0:0:0:0:
320,192,86173,1,0,0:0:0:0:
192,192,86256,1,0,0:0:0:0:
64,192,86340,1,0,0:0:0:0:
320,192,86340,1,0,0:0:0:0:
192,192,86423,1,0,0:0:0:0:
448,192,86506,1,0,0:0:0:0:
320,192,86590,1,0,0:0:0:0:
64,192,86673,1,0,0:0:0:0:
448,192,86673,1,0,0:0:0:0:
320,192,86756,1,0,0:0:0:0:
192,192,86840,1,0,0:0:0:0:
448,192,86923,1,0,0:0:0:0:
320,192,87006,1,0,0:0:0:0:
64,192,87006,1,0,0:0:0:0:
192,192,87090,1,0,0:0:0:0:
448,192,87173,1,0,0:0:0:0:
320,192,87173,1,0,0:0:0:0:
192,192,87256,1,0,0:0:0:0:
64,192,87340,1,0,0:0:0:0:
320,192,87423,1,0,0:0:0:0:
192,192,87506,1,0,0:0:0:0:
448,192,87506,1,0,0:0:0:0:
320,192,87590,1,0,0:0:0:0:
192,192,87673,1,0,0:0:0:0:
64,192,87673,1,0,0:0:0:0:
320,192,87756,1,0,0:0:0:0:
448,192,87840,1,0,0:0:0:0:
320,192,87923,1,0,0:0:0:0:
64,192,88006,1,0,0:0:0:0:
192,192,88006,1,0,0:0:0:0:
448,192,88090,1,0,0:0:0:0:
320,192,88173,1,0,0:0:0:0:
192,192,88256,1,0,0:0:0:0:
320,192,88340,1,0,0:0:0:0:
448,192,88340,1,0,0:0:0:0:
64,192,88423,1,0,0:0:0:0:
192,192,88506,1,0,0:0:0:0:
320,192,88590,1,0,0:0:0:0:
192,192,88673,1,0,0:0:0:0:
320,192,88756,1,0,0:0:0:0:
448,192,88840,1,0,0:0:0:0:
64,192,88840,1,0,0:0:0:0:
320,192,88923,1,0,0:0:0:0:
192,192,89006,1,0,0:0:0:0:
448,192,89006,1,0,0:0:0:0:
320,192,89090,1,0,0:0:0:0:
192,192,89173,1,0,0:0:0:0:
320,192,89256,1,0,0:0:0:0:
64,192,89340,1,0,0:0:0:0:
448,192,89340,1,0,0:0:0:0:
320,192,89423,1,0,0:0:0:0:
192,192,89506,1,0,0:0:0:0:
448,192,89590,1,0,0:0:0:0:
320,192,89673,1,0,0:0:0:0:
64,192,89673,1,0,0:0:0:0:
192,192,89756,1,0,0:0:0:0:
320,192,89840,1,0,0:0:0:0:
192,192,89923,1,0,0:0:0:0:
64,192,90006,1,0,0:0:0:0:
320,192,90090,1,0,0:0:0:0:
192,192,90173,1,0,0:0:0:0:
64,192,90173,1,0,0:0:0:0:
448,192,90256,1,0,0:0:0:0:
320,192,90340,1,0,0:0:0:0:
64,192,90340,1,0,0:0:0:0:
192,192,90423,1,0,0:0:0:0:
320,192,90506,1,0,0:0:0:0:
448,192,90506,1,0,0:0:0:0:
192,192,90590,1,0,0:0:0:0:
448,192,90673,1,0,0:0:0:0:
320,192,90673,1,0,0:0:0:0:
64,192,90673,1,0,0:0:0:0:
192,192,90756,1,0,0:0:0:0:
320,192,90840,1,0,0:0:0:0:
448,192,90923,1,0,0:0:0:0:
320,192,91006,1,0,0:0:0:0:
192,192,91006,1,0,0:0:0:0:
64,192,91006,1,0,0:0:0:0:
448,192,91090,1,0,0:0:0:0:
320,192,91173,1,0,0:0:0:0:
192,192,91256,1,0,0:0:0:0:
64,192,91340,1,0,0:0:0:0:
320,192,91340,1,0,0:0:0:0:
448,192,91340,1,0,0:0:0:0:
192,192,91423,1,0,0:0:0:0:
320,192,91506,1,0,0:0:0:0:
192,192,91590,1,0,0:0:0:0:
64,192,91673,1,0,0:0:0:0:
320,192,91673,1,0,0:0:0:0:
448,192,91673,1,0,0:0:0:0:
192,192,91756,1,0,0:0:0:0:
320,192,91840,1,0,0:0:0:0:
448,192,91840,1,0,0:0:0:0:
320,192,91923,1,0,0:0:0:0:
448,192,91923,1,0,0:0:0:0:
448,192,92006,1,0,0:0:0:0:
320,192,92006,1,0,0:0:0:0:
192,192,92006,1,0,0:0:0:0:
64,192,92006,1,0,0:0:0:0:
64,192,92256,1,0,0:0:0:0:
192,192,92256,1,0,0:0:0:0:
320,192,92256,1,0,0:0:0:0:
448,192,92256,1,0,0:0:0:0:
448,192,92506,1,0,0:0:0:0:
320,192,92506,1,0,0:0:0:0:
64,192,92506,1,0,0:0:0:0:
192,192,92506,1,0,0:0:0:0:
320,192,92840,1,0,0:0:0:0:
192,192,92840,1,0,0:0:0:0:
64,192,92840,1,0,0:0:0:0:
448,192,92840,1,0,0:0:0:0:
64,192,93006,128,0,93173:0:0:0:0:
192,192,93006,128,0,93173:0:0:0:0:
320,192,93006,128,0,93173:0:0:0:0:
448,192,93006,128,0,93173:0:0:0:0:
448,192,93340,1,0,0:0:0:0:
320,192,93340,1,0,0:0:0:0:
64,192,93340,1,0,0:0:0:0:
192,192,93423,1,0,0:0:0:0:
320,192,93506,1,0,0:0:0:0:
448,192,93506,1,0,0:0:0:0:
192,192,93590,1,0,0:0:0:0:
64,192,93673,1,0,0:0:0:0:
192,192,93756,1,0,0:0:0:0:
320,192,93756,1,0,0:0:0:0:
448,192,93840,1,0,0:0:0:0:
320,192,93923,1,0,0:0:0:0:
192,192,94006,1,0,0:0:0:0:
64,192,94006,1,0,0:0:0:0:
448,192,94090,1,0,0:0:0:0:
320,192,94173,1,0,0:0:0:0:
192,192,94256,1,0,0:0:0:0:
64,192,94256,1,0,0:0:0:0:
320,192,94340,1,0,0:0:0:0:
192,192,94423,1,0,0:0:0:0:
448,192,94423,1,0,0:0:0:0:
64,192,94506,1,0,0:0:0:0:
320,192,94506,1,0,0:0:0:0:
192,192,94590,1,0,0:0:0:0:
448,192,94590,1,0,0:0:0:0:
320,192,94673,1,0,0:0:0:0:
64,192,94673,1,0,0:0:0:0:
192,192,94756,1,0,0:0:0:0:
448,192,94756,1,0,0:0:0:0:
320,192,94840,1,0,0:0:0:0:
192,192,94923,1,0,0:0:0:0:
320,192,95006,1,0,0:0:0:0:
64,192,95006,1,0,0:0:0:0:
448,192,95090,1,0,0:0:0:0:
320,192,95173,1,0,0:0:0:0:
192,192,95256,1,0,0:0:0:0:
64,192,95256,1,0,0:0:0:0:
320,192,95340,1,0,0:0:0:0:
192,192,95423,1,0,0:0:0:0:
64,192,95506,1,0,0:0:0:0:
320,192,95506,1,0,0:0:0:0:
192,192,95590,1,0,0:0:0:0:
64,192,95673,1,0,0:0:0:0:
448,192,95673,1,0,0:0:0:0:
320,192,95756,1,0,0:0:0:0:
192,192,95840,1,0,0:0:0:0:
64,192,95840,1,0,0:0:0:0:
320,192,95923,1,0,0:0:0:0:
448,192,96006,1,0,0:0:0:0:
64,192,96006,1,0,0:0:0:0:
320,192,96090,1,0,0:0:0:0:
192,192,96090,1,0,0:0:0:0:
64,192,96173,1,0,0:0:0:0:
192,192,96256,1,0,0:0:0:0:
448,192,96340,1,0,0:0:0:0:
320,192,96340,1,0,0:0:0:0:
64,192,96423,1,0,0:0:0:0:
192,192,96506,1,0,0:0:0:0:
448,192,96590,1,0,0:0:0:0:
320,192,96590,1,0,0:0:0:0:
64,192,96673,1,0,0:0:0:0:
192,192,96756,1,0,0:0:0:0:
320,192,96840,1,0,0:0:0:0:
448,192,96840,1,0,0:0:0:0:
192,192,96923,1,0,0:0:0:0:
64,192,97006,1,0,0:0:0:0:
320,192,97090,1,0,0:0:0:0:
448,192,97090,1,0,0:0:0:0:
192,192,97173,1,0,0:0:0:0:
64,192,97173,1,0,0:0:0:0:
448,192,97256,1,0,0:0:0:0:
320,192,97256,1,0,0:0:0:0:
64,192,97340,1,0,0:0:0:0:
192,192,97340,1,0,0:0:0:0:
320,192,97423,1,0,0:0:0:0:
448,192,97423,1,0,0:0:0:0:
192,192,97506,1,0,0:0:0:0:
448,192,97590,1,0,0:0:0:0:
320,192,97673,1,0,0:0:0:0:
64,192,97673,1,0,0:0:0:0:
192,192,97756,1,0,0:0:0:0:
320,192,97840,1,0,0:0:0:0:
448,192,97923,1,0,0:0:0:0:
192,192,97923,1,0,0:0:0:0:
320,192,98006,1,0,0:0:0:0:
192,192,98090,1,0,0:0:0:0:
448,192,98173,1,0,0:0:0:0:
64,192,98173,1,0,0:0:0:0:
320,192,98256,1,0,0:0:0:0:
192,192,98340,1,0,0:0:0:0:
64,192,98340,1,0,0:0:0:0:
448,192,98423,1,0,0:0:0:0:
320,192,98506,1,0,0:0:0:0:
192,192,98506,1,0,0:0:0:0:
64,192,98590,1,0,0:0:0:0:
448,192,98590,1,0,0:0:0:0:
320,192,98673,1,0,0:0:0:0:
192,192,98756,1,0,0:0:0:0:
64,192,98840,1,0,0:0:0:0:
320,192,98840,1,0,0:0:0:0:
192,192,98923,1,0,0:0:0:0:
320,192,99006,1,0,0:0:0:0:
448,192,99090,1,0,0:0:0:0:
192,192,99090,1,0,0:0:0:0:
320,192,99173,1,0,0:0:0:0:
64,192,99256,1,0,0:0:0:0:
192,192,99340,1,0,0:0:0:0:
320,192,99340,1,0,0:0:0:0:
448,192,99423,1,0,0:0:0:0:
320,192,99506,1,0,0:0:0:0:
192,192,99590,1,0,0:0:0:0:
448,192,99590,1,0,0:0:0:0:
64,192,99673,1,0,0:0:0:0:
320,192,99756,1,0,0:0:0:0:
192,192,99756,1,0,0:0:0:0:
64,192,99840,1,0,0:0:0:0:
320,192,99923,1,0,0:0:0:0:
448,192,99923,1,0,0:0:0:0:
192,192,100006,1,0,0:0:0:0:
64,192,100006,1,0,0:0:0:0:
320,192,100090,1,0,0:0:0:0:
448,192,100090,1,0,0:0:0:0:
192,192,100173,1,0,0:0:0:0:
320,192,100256,1,0,0:0:0:0:
448,192,100340,1,0,0:0:0:0:
64,192,100340,1,0,0:0:0:0:
320,192,100423,1,0,0:0:0:0:
192,192,100506,1,0,0:0:0:0:
448,192,100590,1,0,0:0:0:0:
320,192,100590,1,0,0:0:0:0:
64,192,100673,1,0,0:0:0:0:
192,192,100756,1,0,0:0:0:0:
320,192,100840,1,0,0:0:0:0:
64,192,100840,1,0,0:0:0:0:
448,192,100923,1,0,0:0:0:0:
192,192,101006,1,0,0:0:0:0:
64,192,101090,1,0,0:0:0:0:
320,192,101173,1,0,0:0:0:0:
192,192,101173,1,0,0:0:0:0:
448,192,101256,1,0,0:0:0:0:
64,192,101256,1,0,0:0:0:0:
320,192,101340,1,0,0:0:0:0:
192,192,101340,1,0,0:0:0:0:
448,192,101423,1,0,0:0:0:0:
320,192,101506,1,0,0:0:0:0:
192,192,101590,1,0,0:0:0:0:
320,192,101673,1,0,0:0:0:0:
64,192,101673,1,0,0:0:0:0:
192,192,101756,1,0,0:0:0:0:
320,192,101840,1,0,0:0:0:0:
192,192,101923,1,0,0:0:0:0:
448,192,101923,1,0,0:0:0:0:
320,192,102006,1,0,0:0:0:0:
192,192,102090,1,0,0:0:0:0:
64,192,102173,1,0,0:0:0:0:
320,192,102173,1,0,0:0:0:0:
192,192,102256,1,0,0:0:0:0:
64,192,102340,1,0,0:0:0:0:
448,192,102423,1,0,0:0:0:0:
320,192,102423,1,0,0:0:0:0:
192,192,102506,1,0,0:0:0:0:
320,192,102590,1,0,0:0:0:0:
64,192,102590,1,0,0:0:0:0:
192,192,102673,1,0,0:0:0:0:
448,192,102673,1,0,0:0:0:0:
320,192,102756,1,0,0:0:0:0:
64,192,102756,1,0,0:0:0:0:
192,192,102840,1,0,0:0:0:0:
64,192,102923,1,0,0:0:0:0:
192,192,103006,1,0,0:0:0:0:
448,192,103006,1,0,0:0:0:0:
320,192,103090,1,0,0:0:0:0:
192,192,103173,1,0,0:0:0:0:
64,192,103256,1,0,0:0:0:0:
320,192,103340,1,0,0:0:0:0:
192,192,103423,1,0,0:0:0:0:
64,192,103423,1,0,0:0:0:0:
320,192,103506,1,0,0:0:0:0:
448,192,103506,1,0,0:0:0:0:
192,192,103590,1,0,0:0:0:0:
64,192,103590,1,0,0:0:0:0:
320,192,103673,1,0,0:0:0:0:
448,192,103673,1,0,0:0:0:0:
192,192,103756,1,0,0:0:0:0:
448,192,103840,1,0,0:0:0:0:
320,192,103840,1,0,0:0:0:0:
64,192,103923,1,0,0:0:0:0:
192,192,103923,1,0,0:0:0:0:
448,192,104006,1,0,0:0:0:0:
320,192,104006,1,0,0:0:0:0:
192,192,104090,1,0,0:0:0:0:
320,192,104173,1,0,0:0:0:0:
64,192,104173,1,0,0:0:0:0:
192,192,104256,1,0,0:0:0:0:
320,192,104340,1,0,0:0:0:0:
192,192,104423,1,0,0:0:0:0:
64,192,104423,1,0,0:0:0:0:
320,192,104506,1,0,0:0:0:0:
448,192,104590,1,0,0:0:0:0:
320,192,104673,1,0,0:0:0:0:
192,192,104673,1,0,0:0:0:0:
64,192,104756,1,0,0:0:0:0:
192,192,104840,1,0,0:0:0:0:
320,192,104923,1,0,0:0:0:0:
448,192,104923,1,0,0:0:0:0:
64,192,105006,1,0,0:0:0:0:
192,192,105006,1,0,0:0:0:0:
320,192,105090,1,0,0:0:0:0:
448,192,105090,1,0,0:0:0:0:
192,192,105173,1,0,0:0:0:0:
320,192,105256,1,0,0:0:0:0:
64,192,105256,1,0,0:0:0:0:
192,192,105340,1,0,0:0:0:0:
448,192,105340,1,0,0:0:0:0:
320,192,105423,1,0,0:0:0:0:
64,192,105423,1,0,0:0:0:0:
192,192,105506,1,0,0:0:0:0:
64,192,105590,1,0,0:0:0:0:
320,192,105590,1,0,0:0:0:0:
448,192,105673,1,0,0:0:0:0:
192,192,105673,1,0,0:0:0:0:
320,192,105756,1,0,0:0:0:0:
192,192,105840,1,0,0:0:0:0:
320,192,105923,1,0,0:0:0:0:
448,192,105923,1,0,0:0:0:0:
192,192,106006,1,0,0:0:0:0:
64,192,106006,1,0,0:0:0:0:
448,192,106090,1,0,0:0:0:0:
320,192,106090,1,0,0:0:0:0:
192,192,106173,1,0,0:0:0:0:
64,192,106173,1,0,0:0:0:0:
320,192,106256,1,0,0:0:0:0:
448,192,106340,1,0,0:0:0:0:
192,192,106340,1,0,0:0:0:0:
320,192,106423,1,0,0:0:0:0:
64,192,106423,1,0,0:0:0:0:
192,192,106506,1,0,0:0:0:0:
448,192,106506,1,0,0:0:0:0:
320,192,106590,1,0,0:0:0:0:
64,192,106590,1,0,0:0:0:0:
448,192,106673,1,0,0:0:0:0:
192,192,106673,1,0,0:0:0:0:
320,192,106756,1,0,0:0:0:0:
448,192,106840,1,0,0:0:0:0:
64,192,106840,1,0,0:0:0:0:
192,192,106923,1,0,0:0:0:0:
320,192,107006,1,0,0:0:0:0:
448,192,107006,1,0,0:0:0:0:
192,192,107090,1,0,0:0:0:0:
64,192,107090,1,0,0:0:0:0:
320,192,107173,1,0,0:0:0:0:
448,192,107256,1,0,0:0:0:0:
320,192,107340,1,0,0:0:0:0:
192,192,107340,1,0,0:0:0:0:
64,192,107423,1,0,0:0:0:0:
192,192,107506,1,0,0:0:0:0:
448,192,107506,1,0,0:0:0:0:
320,192,107590,1,0,0:0:0:0:
192,192,107673,1,0,0:0:0:0:
64,192,107673,1,0,0:0:0:0:
320,192,107756,1,0,0:0:0:0:
448,192,107756,1,0,0:0:0:0:
192,192,107840,1,0,0:0:0:0:
320,192,107923,1,0,0:0:0:0:
448,192,107923,1,0,0:0:0:0:
192,192,108006,1,0,0:0:0:0:
64,192,108006,1,0,0:0:0:0:
320,192,108090,1,0,0:0:0:0:
448,192,108090,1,0,0:0:0:0:
64,192,108173,1,0,0:0:0:0:
320,192,108256,1,0,0:0:0:0:
448,192,108340,1,0,0:0:0:0:
192,192,108340,1,0,0:0:0:0:
64,192,108423,1,0,0:0:0:0:
320,192,108506,1,0,0:0:0:0:
192,192,108590,1,0,0:0:0:0:
64,192,108590,1,0,0:0:0:0:
448,192,108673,1,0,0:0:0:0:
320,192,108756,1,0,0:0:0:0:
448,192,108840,1,0,0:0:0:0:
64,192,108840,1,0,0:0:0:0:
320,192,108923,1,0,0:0:0:0:
192,192,109006,1,0,0:0:0:0:
64,192,109006,1,0,0:0:0:0:
320,192,109090,1,0,0:0:0:0:
448,192,109173,1,0,0:0:0:0:
192,192,109173,1,0,0:0:0:0:
320,192,109256,1,0,0:0:0:0:
64,192,109256,1,0,0:0:0:0:
448,192,109340,1,0,0:0:0:0:
192,192,109340,1,0,0:0:0:0:
64,192,109423,1,0,0:0:0:0:
320,192,109423,1,0,0:0:0:0:
448,192,109506,1,0,0:0:0:0:
320,192,109548,1,0,0:0:0:0:
192,192,109590,1,0,0:0:0:0:
64,192,109631,1,0,0:0:0:0:
448,192,109673,1,0,0:0:0:0:
320,192,109673,1,0,0:0:0:0:
192,192,109756,1,0,0:0:0:0:
64,192,109840,1,0,0:0:0:0:
192,192,109881,1,0,0:0:0:0:
320,192,109923,1,0,0:0:0:0:
448,192,109965,1,0,0:0:0:0:
192,192,110006,1,0,0:0:0:0:
64,192,110006,1,0,0:0:0:0:
320,192,110090,1,0,0:0:0:0:
448,192,110173,1,0,0:0:0:0:
320,192,110215,1,0,0:0:0:0:
192,192,110256,1,0,0:0:0:0:
64,192,110298,1,0,0:0:0:0:
320,192,110340,1,0,0:0:0:0:
448,192,110340,1,0,0:0:0:0:
192,192,110423,1,0,0:0:0:0:
64,192,110506,1,0,0:0:0:0:
192,192,110548,1,0,0:0:0:0:
320,192,110590,1,0,0:0:0:0:
448,192,110631,1,0,0:0:0:0:
192,192,110673,1,0,0:0:0:0:
64,192,110673,1,0,0:0:0:0:
320,192,110756,1,0,0:0:0:0:
448,192,110840,1,0,0:0:0:0:
320,192,110881,1,0,0:0:0:0:
192,192,110923,1,0,0:0:0:0:
64,192,110965,1,0,0:0:0:0:
320,192,111006,1,0,0:0:0:0:
448,192,111006,1,0,0:0:0:0:
192,192,111090,1,0,0:0:0:0:
64,192,111173,1,0,0:0:0:0:
192,192,111215,1,0,0:0:0:0:
320,192,111256,1,0,0:0:0:0:
448,192,111298,1,0,0:0:0:0:
192,192,111340,1,0,0:0:0:0:
64,192,111340,1,0,0:0:0:0:
320,192,111423,1,0,0:0:0:0:
448,192,111506,1,0,0:0:0:0:
320,192,111548,1,0,0:0:0:0:
192,192,111590,1,0,0:0:0:0:
64,192,111631,1,0,0:0:0:0:
320,192,111673,1,0,0:0:0:0:
448,192,111673,1,0,0:0:0:0:
192,192,111756,1,0,0:0:0:0:
64,192,111840,1,0,0:0:0:0:
192,192,111881,1,0,0:0:0:0:
320,192,111923,1,0,0:0:0:0:
448,192,111965,1,0,0:0:0:0:
192,192,112006,1,0,0:0:0:0:
64,192,112006,1,0,0:0:0:0:
320,192,112090,1,0,0:0:0:0:
448,192,112090,1,0,0:0:0:0:
192,192,112173,1,0,0:0:0:0:
64,192,112173,1,0,0:0:0:0:
320,192,112256,1,0,0:0:0:0:
448,192,112256,1,0,0:0:0:0:
192,192,112340,1,0,0:0:0:0:
64,192,112340,1,0,0:0:0:0:
320,192,112423,1,0,0:0:0:0:
448,192,112423,1,0,0:0:0:0:
192,192,112506,1,0,0:0:0:0:
64,192,112506,1,0,0:0:0:0:
448,192,112590,1,0,0:0:0:0:
320,192,112590,1,0,0:0:0:0:
192,192,112673,1,0,0:0:0:0:
64,192,112673,1,0,0:0:0:0:
448,192,112756,1,0,0:0:0:0:
320,192,112756,1,0,0:0:0:0:
192,192,112840,1,0,0:0:0:0:
64,192,112840,1,0,0:0:0:0:
320,192,112923,1,0,0:0:0:0:
448,192,112923,1,0,0:0:0:0:
192,192,113006,1,0,0:0:0:0:
64,192,113006,1,0,0:0:0:0:
320,192,113090,1,0,0:0:0:0:
448,192,113090,1,0,0:0:0:0:
192,192,113173,1,0,0:0:0:0:
64,192,113173,1,0,0:0:0:0:
320,192,113256,1,0,0:0:0:0:
448,192,113256,1,0,0:0:0:0:
64,192,113340,1,0,0:0:0:0:
192,192,113381,1,0,0:0:0:0:
320,192,113423,1,0,0:0:0:0:
448,192,113465,1,0,0:0:0:0:
64,192,113506,1,0,0:0:0:0:
192,192,113548,1,0,0:0:0:0:
320,192,113590,1,0,0:0:0:0:
448,192,113631,1,0,0:0:0:0:
64,192,113673,1,0,0:0:0:0:
192,192,113715,1,0,0:0:0:0:
320,192,113756,1,0,0:0:0:0:
448,192,113798,1,0,0:0:0:0:
64,192,113840,1,0,0:0:0:0:
192,192,113881,1,0,0:0:0:0:
320,192,113923,1,0,0:0:0:0:
448,192,113965,1,0,0:0:0:0:
64,192,114006,1,0,0:0:0:0:
192,192,114048,1,0,0:0:0:0:
320,192,114090,1,0,0:0:0:0:
448,192,114131,1,0,0:0:0:0:
64,192,114173,1,0,0:0:0:0:
192,192,114215,1,0,0:0:0:0:
320,192,114256,1,0,0:0:0:0:
448,192,114298,1,0,0:0:0:0:
64,192,114340,1,0,0:0:0:0:
192,192,114381,1,0,0:0:0:0:
320,192,114423,1,0,0:0:0:0:
448,192,114465,1,0,0:0:0:0:
64,192,114506,1,0,0:0:0:0:
192,192,114548,1,0,0:0:0:0:
320,192,114590,1,0,0:0:0:0:
448,192,114631,1,0,0:0:0:0:
192,192,114673,1,0,0:0:0:0:
320,192,114756,1,0,0:0:0:0:
192,192,114840,1,0,0:0:0:0:
320,192,114923,1,0,0:0:0:0:
192,192,115006,1,0,0:0:0:0:
320,192,115090,1,0,0:0:0:0:
192,192,115173,1,0,0:0:0:0:
320,192,115256,1,0,0:0:0:0:
192,192,115340,1,0,0:0:0:0:
320,192,115423,1,0,0:0:0:0:
192,192,115506,1,0,0:0:0:0:
320,192,115590,1,0,0:0:0:0:
192,192,115673,1,0,0:0:0:0:
320,192,115756,1,0,0:0:0:0:
192,192,115840,1,0,0:0:0:0:
320,192,115923,1,0,0:0:0:0:
192,192,116006,1,0,0:0:0:0:
64,192,116006,1,0,0:0:0:0:
320,192,116090,1,0,0:0:0:0:
192,192,116173,1,0,0:0:0:0:
64,192,116173,1,0,0:0:0:0:
320,192,116256,1,0,0:0:0:0:
192,192,116340,1,0,0:0:0:0:
64,192,116340,1,0,0:0:0:0:
320,192,116423,1,0,0:0:0:0:
448,192,116423,1,0,0:0:0:0:
192,192,116506,1,0,0:0:0:0:
64,192,116506,1,0,0:0:0:0:
320,192,116590,1,0,0:0:0:0:
448,192,116590,1,0,0:0:0:0:
192,192,116673,1,0,0:0:0:0:
64,192,116673,1,0,0:0:0:0:
320,192,116756,1,0,0:0:0:0:
192,192,116840,1,0,0:0:0:0:
64,192,116840,1,0,0:0:0:0:
320,192,116923,1,0,0:0:0:0:
192,192,117006,1,0,0:0:0:0:
64,192,117006,1,0,0:0:0:0:
320,192,117090,1,0,0:0:0:0:
448,192,117090,1,0,0:0:0:0:
192,192,117173,1,0,0:0:0:0:
64,192,117173,1,0,0:0:0:0:
320,192,117256,1,0,0:0:0:0:
448,192,117256,1,0,0:0:0:0:
192,192,117340,1,0,0:0:0:0:
64,192,117340,1,0,0:0:0:0:
320,192,117423,1,0,0:0:0:0:
448,192,117423,1,0,0:0:0:0:
192,192,117506,1,0,0:0:0:0:
64,192,117506,1,0,0:0:0:0:
320,192,117590,1,0,0:0:0:0:
448,192,117590,1,0,0:0:0:0:
192,192,117673,1,0,0:0:0:0:
64,192,117673,1,0,0:0:0:0:
448,192,117756,1,0,0:0:0:0:
320,192,117756,1,0,0:0:0:0:
192,192,117840,1,0,0:0:0:0:
64,192,117840,1,0,0:0:0:0:
320,192,117923,1,0,0:0:0:0:
448,192,117923,1,0,0:0:0:0:
192,192,118006,1,0,0:0:0:0:
64,192,118006,1,0,0:0:0:0:
320,192,118090,1,0,0:0:0:0:
448,192,118090,1,0,0:0:0:0:
192,192,118173,1,0,0:0:0:0:
64,192,118173,1,0,0:0:0:0:
320,192,118256,1,0,0:0:0:0:
448,192,118256,1,0,0:0:0:0:
192,192,118340,1,0,0:0:0:0:
64,192,118340,1,0,0:0:0:0:
320,192,118423,1,0,0:0:0:0:
448,192,118423,1,0,0:0:0:0:
192,192,118506,1,0,0:0:0:0:
64,192,118506,1,0,0:0:0:0:
320,192,118590,1,0,0:0:0:0:
448,192,118590,1,0,0:0:0:0:
64,192,118673,1,0,0:0:0:0:
192,192,118715,1,0,0:0:0:0:
320,192,118756,1,0,0:0:0:0:
448,192,118798,1,0,0:0:0:0:
64,192,118840,1,0,0:0:0:0:
192,192,118881,1,0,0:0:0:0:
320,192,118923,1,0,0:0:0:0:
448,192,118965,1,0,0:0:0:0:
64,192,119006,1,0,0:0:0:0:
192,192,119048,1,0,0:0:0:0:
320,192,119090,1,0,0:0:0:0:
448,192,119131,1,0,0:0:0:0:
64,192,119173,1,0,0:0:0:0:
192,192,119215,1,0,0:0:0:0:
320,192,119256,1,0,0:0:0:0:
448,192,119298,1,0,0:0:0:0:
64,192,119340,1,0,0:0:0:0:
192,192,119381,1,0,0:0:0:0:
320,192,119423,1,0,0:0:0:0:
448,192,119465,1,0,0:0:0:0:
64,192,119506,1,0,0:0:0:0:
192,192,119548,1,0,0:0:0:0:
320,192,119590,1,0,0:0:0:0:
448,192,119631,1,0,0:0:0:0:
192,192,119673,128,0,119923:0:0:0:0:
64,192,119673,1,0,0:0:0:0:
448,192,120006,1,0,0:0:0:0:
320,192,120006,1,0,0:0:0:0:
64,192,120006,1,0,0:0:0:0:
192,192,120090,1,0,0:0:0:0:
448,192,120173,1,0,0:0:0:0:
64,192,120173,1,0,0:0:0:0:
192,192,120256,1,0,0:0:0:0:
448,192,120340,1,0,0:0:0:0:
320,192,120340,1,0,0:0:0:0:
64,192,120423,1,0,0:0:0:0:
320,192,120506,1,0,0:0:0:0:
192,192,120506,1,0,0:0:0:0:
64,192,120590,1,0,0:0:0:0:
448,192,120673,1,0,0:0:0:0:
320,192,120673,1,0,0:0:0:0:
192,192,120673,1,0,0:0:0:0:
64,192,120756,1,0,0:0:0:0:
320,192,120840,1,0,0:0:0:0:
64,192,120923,1,0,0:0:0:0:
448,192,120923,1,0,0:0:0:0:
192,192,120923,1,0,0:0:0:0:
320,192,121006,1,0,0:0:0:0:
192,192,121090,1,0,0:0:0:0:
64,192,121090,1,0,0:0:0:0:
320,192,121173,1,0,0:0:0:0:
448,192,121173,1,0,0:0:0:0:
192,192,121256,1,0,0:0:0:0:
320,192,121340,1,0,0:0:0:0:
448,192,121340,1,0,0:0:0:0:
64,192,121340,1,0,0:0:0:0:
192,192,121423,1,0,0:0:0:0:
320,192,121506,1,0,0:0:0:0:
448,192,121506,1,0,0:0:0:0:
64,192,121590,1,0,0:0:0:0:
448,192,121673,1,0,0:0:0:0:
192,192,121673,1,0,0:0:0:0:
320,192,121673,1,0,0:0:0:0:
64,192,121756,1,0,0:0:0:0:
448,192,121840,1,0,0:0:0:0:
192,192,121840,1,0,0:0:0:0:
320,192,121923,1,0,0:0:0:0:
192,192,122006,1,0,0:0:0:0:
448,192,122006,1,0,0:0:0:0:
64,192,122006,1,0,0:0:0:0:
320,192,122090,1,0,0:0:0:0:
192,192,122173,1,0,0:0:0:0:
64,192,122173,1,0,0:0:0:0:
320,192,122256,1,0,0:0:0:0:
448,192,122340,1,0,0:0:0:0:
192,192,122340,1,0,0:0:0:0:
64,192,122340,1,0,0:0:0:0:
320,192,122423,1,0,0:0:0:0:
448,192,122506,1,0,0:0:0:0:
192,192,122506,1,0,0:0:0:0:
320,192,122590,1,0,0:0:0:0:
64,192,122590,1,0,0:0:0:0:
448,192,122673,1,0,0:0:0:0:
192,192,122673,1,0,0:0:0:0:
320,192,122756,1,0,0:0:0:0:
64,192,122756,1,0,0:0:0:0:
192,192,122840,1,0,0:0:0:0:
64,192,122923,1,0,0:0:0:0:
448,192,123006,1,0,0:0:0:0:
320,192,123006,1,0,0:0:0:0:
192,192,123006,1,0,0:0:0:0:
64,192,123090,1,0,0:0:0:0:
192,192,123173,1,0,0:0:0:0:
448,192,123256,1,0,0:0:0:0:
320,192,123256,1,0,0:0:0:0:
192,192,123340,1,0,0:0:0:0:
64,192,123340,1,0,0:0:0:0:
320,192,123423,1,0,0:0:0:0:
448,192,123506,1,0,0:0:0:0:
192,192,123506,1,0,0:0:0:0:
320,192,123590,1,0,0:0:0:0:
192,192,123673,1,0,0:0:0:0:
64,192,123673,1,0,0:0:0:0:
448,192,123673,1,0,0:0:0:0:
320,192,123756,1,0,0:0:0:0:
192,192,123840,1,0,0:0:0:0:
448,192,123923,1,0,0:0:0:0:
320,192,123923,1,0,0:0:0:0:
192,192,124006,1,0,0:0:0:0:
64,192,124006,1,0,0:0:0:0:
320,192,124090,1,0,0:0:0:0:
448,192,124090,1,0,0:0:0:0:
192,192,124173,1,0,0:0:0:0:
320,192,124256,1,0,0:0:0:0:
448,192,124340,1,0,0:0:0:0:
192,192,124340,1,0,0:0:0:0:
64,192,124340,1,0,0:0:0:0:
320,192,124423,1,0,0:0:0:0:
192,192,124506,1,0,0:0:0:0:
64,192,124506,1,0,0:0:0:0:
320,192,124590,1,0,0:0:0:0:
448,192,124673,1,0,0:0:0:0:
192,192,124673,1,0,0:0:0:0:
64,192,124673,1,0,0:0:0:0:
320,192,124756,1,0,0:0:0:0:
448,192,124840,1,0,0:0:0:0:
192,192,124840,1,0,0:0:0:0:
64,192,124923,1,0,0:0:0:0:
192,192,125006,1,0,0:0:0:0:
448,192,125006,1,0,0:0:0:0:
320,192,125090,1,0,0:0:0:0:
192,192,125173,1,0,0:0:0:0:
448,192,125173,1,0,0:0:0:0:
64,192,125173,1,0,0:0:0:0:
320,192,125256,1,0,0:0:0:0:
192,192,125340,1,0,0:0:0:0:
64,192,125340,1,0,0:0:0:0:
448,192,125340,1,0,0:0:0:0:
320,192,125423,1,0,0:0:0:0:
192,192,125506,1,0,0:0:0:0:
448,192,125506,1,0,0:0:0:0:
320,192,125590,1,0,0:0:0:0:
64,192,125590,1,0,0:0:0:0:
192,192,125673,1,0,0:0:0:0:
448,192,125673,1,0,0:0:0:0:
320,192,125756,1,0,0:0:0:0:
192,192,125840,1,0,0:0:0:0:
64,192,125840,1,0,0:0:0:0:
320,192,125923,1,0,0:0:0:0:
448,192,126006,1,0,0:0:0:0:
192,192,126006,1,0,0:0:0:0:
64,192,126006,1,0,0:0:0:0:
320,192,126090,1,0,0:0:0:0:
192,192,126173,1,0,0:0:0:0:
448,192,126173,1,0,0:0:0:0:
320,192,126256,1,0,0:0:0:0:
64,192,126256,1,0,0:0:0:0:
192,192,126340,1,0,0:0:0:0:
448,192,126340,1,0,0:0:0:0:
320,192,126423,1,0,0:0:0:0:
64,192,126423,1,0,0:0:0:0:
192,192,126506,1,0,0:0:0:0:
320,192,126590,1,0,0:0:0:0:
448,192,126590,1,0,0:0:0:0:
192,192,126673,1,0,0:0:0:0:
64,192,126673,1,0,0:0:0:0:
320,192,126756,1,0,0:0:0:0:
448,192,126756,1,0,0:0:0:0:
192,192,126840,1,0,0:0:0:0:
320,192,126923,1,0,0:0:0:0:
64,192,127006,1,0,0:0:0:0:
192,192,127006,1,0,0:0:0:0:
448,192,127006,1,0,0:0:0:0:
320,192,127090,1,0,0:0:0:0:
192,192,127173,1,0,0:0:0:0:
64,192,127173,1,0,0:0:0:0:
320,192,127256,1,0,0:0:0:0:
448,192,127256,1,0,0:0:0:0:
192,192,127340,1,0,0:0:0:0:
64,192,127340,1,0,0:0:0:0:
320,192,127423,1,0,0:0:0:0:
448,192,127506,1,0,0:0:0:0:
64,192,127506,1,0,0:0:0:0:
320,192,127590,1,0,0:0:0:0:
192,192,127673,1,0,0:0:0:0:
64,192,127673,1,0,0:0:0:0:
448,192,127673,1,0,0:0:0:0:
320,192,127756,1,0,0:0:0:0:
448,192,127840,1,0,0:0:0:0:
192,192,127840,1,0,0:0:0:0:
320,192,127923,1,0,0:0:0:0:
64,192,127923,1,0,0:0:0:0:
192,192,128006,1,0,0:0:0:0:
448,192,128006,1,0,0:0:0:0:
320,192,128090,1,0,0:0:0:0:
64,192,128090,1,0,0:0:0:0:
192,192,128173,1,0,0:0:0:0:
320,192,128256,1,0,0:0:0:0:
192,192,128340,1,0,0:0:0:0:
64,192,128340,1,0,0:0:0:0:
448,192,128340,1,0,0:0:0:0:
320,192,128423,1,0,0:0:0:0:
448,192,128506,1,0,0:0:0:0:
320,192,128590,1,0,0:0:0:0:
192,192,128590,1,0,0:0:0:0:
448,192,128673,1,0,0:0:0:0:
64,192,128673,1,0,0:0:0:0:
320,192,128756,1,0,0:0:0:0:
192,192,128756,1,0,0:0:0:0:
448,192,128840,1,0,0:0:0:0:
64,192,128840,1,0,0:0:0:0:
320,192,128923,1,0,0:0:0:0:
192,192,129006,1,0,0:0:0:0:
448,192,129006,1,0,0:0:0:0:
64,192,129006,1,0,0:0:0:0:
320,192,129090,1,0,0:0:0:0:
192,192,129173,1,0,0:0:0:0:
64,192,129173,1,0,0:0:0:0:
448,192,129173,1,0,0:0:0:0:
320,192,129256,1,0,0:0:0:0:
192,192,129340,1,0,0:0:0:0:
64,192,129340,1,0,0:0:0:0:
320,192,129423,1,0,0:0:0:0:
448,192,129423,1,0,0:0:0:0:
192,192,129506,1,0,0:0:0:0:
320,192,129590,1,0,0:0:0:0:
448,192,129673,1,0,0:0:0:0:
192,192,129673,1,0,0:0:0:0:
64,192,129673,1,0,0:0:0:0:
320,192,129756,1,0,0:0:0:0:
448,192,129840,1,0,0:0:0:0:
192,192,129840,1,0,0:0:0:0:
64,192,129840,1,0,0:0:0:0:
320,192,129923,1,0,0:0:0:0:
192,192,130006,1,0,0:0:0:0:
64,192,130006,1,0,0:0:0:0:
320,192,130090,1,0,0:0:0:0:
448,192,130090,1,0,0:0:0:0:
192,192,130173,1,0,0:0:0:0:
64,192,130173,1,0,0:0:0:0:
320,192,130256,1,0,0:0:0:0:
448,192,130340,1,0,0:0:0:0:
64,192,130340,1,0,0:0:0:0:
320,192,130423,1,0,0:0:0:0:
192,192,130423,1,0,0:0:0:0:
64,192,130506,1,0,0:0:0:0:
448,192,130506,1,0,0:0:0:0:
320,192,130548,1,0,0:0:0:0:
192,192,130590,1,0,0:0:0:0:
64,192,130631,1,0,0:0:0:0:
320,192,130673,1,0,0:0:0:0:
192,192,130673,1,0,0:0:0:0:
448,192,130673,1,0,0:0:0:0:
64,192,130756,1,0,0:0:0:0:
320,192,130840,1,0,0:0:0:0:
448,192,130840,1,0,0:0:0:0:
192,192,130923,1,0,0:0:0:0:
320,192,131006,1,0,0:0:0:0:
64,192,131006,1,0,0:0:0:0:
448,192,131090,1,0,0:0:0:0:
192,192,131090,1,0,0:0:0:0:
320,192,131173,1,0,0:0:0:0:
64,192,131173,1,0,0:0:0:0:
192,192,131256,1,0,0:0:0:0:
320,192,131340,1,0,0:0:0:0:
448,192,131340,1,0,0:0:0:0:
64,192,131340,1,0,0:0:0:0:
192,192,131423,1,0,0:0:0:0:
320,192,131506,1,0,0:0:0:0:
448,192,131506,1,0,0:0:0:0:
192,192,131590,1,0,0:0:0:0:
64,192,131590,1,0,0:0:0:0:
320,192,131673,1,0,0:0:0:0:
448,192,131673,1,0,0:0:0:0:
192,192,131756,1,0,0:0:0:0:
64,192,131756,1,0,0:0:0:0:
320,192,131840,1,0,0:0:0:0:
448,192,131840,1,0,0:0:0:0:
192,192,131923,1,0,0:0:0:0:
64,192,131923,1,0,0:0:0:0:
320,192,132006,1,0,0:0:0:0:
448,192,132006,1,0,0:0:0:0:
192,192,132090,1,0,0:0:0:0:
64,192,132090,1,0,0:0:0:0:
448,192,132173,1,0,0:0:0:0:
320,192,132256,1,0,0:0:0:0:
448,192,132340,1,0,0:0:0:0:
192,192,132340,1,0,0:0:0:0:
64,192,132340,1,0,0:0:0:0:
320,192,132423,1,0,0:0:0:0:
192,192,132506,1,0,0:0:0:0:
320,192,132590,1,0,0:0:0:0:
64,192,132590,1,0,0:0:0:0:
192,192,132673,1,0,0:0:0:0:
448,192,132673,1,0,0:0:0:0:
64,192,132756,1,0,0:0:0:0:
192,192,132840,1,0,0:0:0:0:
320,192,132840,1,0,0:0:0:0:
448,192,132923,1,0,0:0:0:0:
320,192,133006,1,0,0:0:0:0:
192,192,133006,1,0,0:0:0:0:
64,192,133006,1,0,0:0:0:0:
448,192,133090,1,0,0:0:0:0:
320,192,133173,1,0,0:0:0:0:
192,192,133173,1,0,0:0:0:0:
448,192,133256,1,0,0:0:0:0:
64,192,133256,1,0,0:0:0:0:
320,192,133340,1,0,0:0:0:0:
192,192,133340,1,0,0:0:0:0:
64,192,133423,1,0,0:0:0:0:
448,192,133423,1,0,0:0:0:0:
192,192,133506,1,0,0:0:0:0:
320,192,133506,1,0,0:0:0:0:
64,192,133590,1,0,0:0:0:0:
448,192,133673,1,0,0:0:0:0:
192,192,133673,1,0,0:0:0:0:
320,192,133673,1,0,0:0:0:0:
64,192,133756,1,0,0:0:0:0:
192,192,133840,1,0,0:0:0:0:
448,192,133840,1,0,0:0:0:0:
320,192,133923,1,0,0:0:0:0:
64,192,133923,1,0,0:0:0:0:
192,192,134006,1,0,0:0:0:0:
448,192,134006,1,0,0:0:0:0:
320,192,134090,1,0,0:0:0:0:
192,192,134173,1,0,0:0:0:0:
64,192,134173,1,0,0:0:0:0:
320,192,134256,1,0,0:0:0:0:
448,192,134340,1,0,0:0:0:0:
192,192,134340,1,0,0:0:0:0:
64,192,134340,1,0,0:0:0:0:
320,192,134423,1,0,0:0:0:0:
448,192,134506,1,0,0:0:0:0:
64,192,134506,1,0,0:0:0:0:
320,192,134590,1,0,0:0:0:0:
192,192,134590,1,0,0:0:0:0:
64,192,134673,1,0,0:0:0:0:
448,192,134673,1,0,0:0:0:0:
320,192,134756,1,0,0:0:0:0:
192,192,134756,1,0,0:0:0:0:
64,192,134840,1,0,0:0:0:0:
192,192,134923,1,0,0:0:0:0:
320,192,135006,1,0,0:0:0:0:
448,192,135006,1,0,0:0:0:0:
64,192,135006,1,0,0:0:0:0:
192,192,135090,1,0,0:0:0:0:
320,192,135173,1,0,0:0:0:0:
192,192,135256,1,0,0:0:0:0:
64,192,135256,1,0,0:0:0:0:
320,192,135340,1,0,0:0:0:0:
448,192,135340,1,0,0:0:0:0:
192,192,135423,1,0,0:0:0:0:
320,192,135506,1,0,0:0:0:0:
64,192,135506,1,0,0:0:0:0:
192,192,135590,1,0,0:0:0:0:
320,192,135673,1,0,0:0:0:0:
64,192,135673,1,0,0:0:0:0:
448,192,135756,1,0,0:0:0:0:
192,192,135840,1,0,0:0:0:0:
320,192,135840,1,0,0:0:0:0:
448,192,135923,1,0,0:0:0:0:
320,192,136006,1,0,0:0:0:0:
192,192,136006,1,0,0:0:0:0:
64,192,136006,1,0,0:0:0:0:
448,192,136090,1,0,0:0:0:0:
320,192,136173,1,0,0:0:0:0:
192,192,136173,1,0,0:0:0:0:
448,192,136256,1,0,0:0:0:0:
320,192,136340,1,0,0:0:0:0:
64,192,136340,1,0,0:0:0:0:
448,192,136423,1,0,0:0:0:0:
320,192,136506,1,0,0:0:0:0:
192,192,136506,1,0,0:0:0:0:
64,192,136590,1,0,0:0:0:0:
192,192,136673,1,0,0:0:0:0:
448,192,136673,1,0,0:0:0:0:
320,192,136756,1,0,0:0:0:0:
192,192,136840,1,0,0:0:0:0:
64,192,136840,1,0,0:0:0:0:
320,192,136923,1,0,0:0:0:0:
448,192,137006,1,0,0:0:0:0:
192,192,137006,1,0,0:0:0:0:
320,192,137090,1,0,0:0:0:0:
448,192,137173,1,0,0:0:0:0:
64,192,137173,1,0,0:0:0:0:
192,192,137256,1,0,0:0:0:0:
320,192,137340,1,0,0:0:0:0:
64,192,137340,1,0,0:0:0:0:
192,192,137423,1,0,0:0:0:0:
448,192,137423,1,0,0:0:0:0:
320,192,137506,1,0,0:0:0:0:
64,192,137506,1,0,0:0:0:0:
192,192,137590,1,0,0:0:0:0:
320,192,137673,1,0,0:0:0:0:
448,192,137673,1,0,0:0:0:0:
192,192,137756,1,0,0:0:0:0:
320,192,137840,1,0,0:0:0:0:
64,192,137840,1,0,0:0:0:0:
192,192,137923,1,0,0:0:0:0:
320,192,138006,1,0,0:0:0:0:
448,192,138006,1,0,0:0:0:0:
192,192,138090,1,0,0:0:0:0:
64,192,138173,1,0,0:0:0:0:
448,192,138173,1,0,0:0:0:0:
320,192,138256,1,0,0:0:0:0:
192,192,138340,1,0,0:0:0:0:
64,192,138340,1,0,0:0:0:0:
320,192,138423,1,0,0:0:0:0:
448,192,138506,1,0,0:0:0:0:
192,192,138506,1,0,0:0:0:0:
320,192,138590,1,0,0:0:0:0:
64,192,138673,1,0,0:0:0:0:
192,192,138673,1,0,0:0:0:0:
320,192,138756,1,0,0:0:0:0:
448,192,138756,1,0,0:0:0:0:
192,192,138840,1,0,0:0:0:0:
64,192,138840,1,0,0:0:0:0:
320,192,138923,1,0,0:0:0:0:
448,192,138923,1,0,0:0:0:0:
192,192,139006,1,0,0:0:0:0:
64,192,139006,1,0,0:0:0:0:
320,192,139090,1,0,0:0:0:0:
448,192,139090,1,0,0:0:0:0:
192,192,139173,1,0,0:0:0:0:
64,192,139173,1,0,0:0:0:0:
320,192,139256,1,0,0:0:0:0:
448,192,139256,1,0,0:0:0:0:
192,192,139340,1,0,0:0:0:0:
64,192,139340,1,0,0:0:0:0:
320,192,139423,1,0,0:0:0:0:
448,192,139423,1,0,0:0:0:0:
192,192,139506,1,0,0:0:0:0:
64,192,139506,1,0,0:0:0:0:
320,192,139590,1,0,0:0:0:0:
448,192,139590,1,0,0:0:0:0:
192,192,139673,1,0,0:0:0:0:
64,192,139673,1,0,0:0:0:0:
320,192,139756,1,0,0:0:0:0:
448,192,139756,1,0,0:0:0:0:
192,192,139840,1,0,0:0:0:0:
64,192,139840,1,0,0:0:0:0:
320,192,139923,1,0,0:0:0:0:
448,192,139923,1,0,0:0:0:0:
192,192,140006,1,0,0:0:0:0:
64,192,140006,1,0,0:0:0:0:
320,192,140090,1,0,0:0:0:0:
448,192,140173,1,0,0:0:0:0:
320,192,140256,1,0,0:0:0:0:
192,192,140340,1,0,0:0:0:0:
64,192,140340,1,0,0:0:0:0:
320,192,140423,1,0,0:0:0:0:
448,192,140506,1,0,0:0:0:0:
320,192,140590,1,0,0:0:0:0:
192,192,140673,1,0,0:0:0:0:
320,192,140756,1,0,0:0:0:0:
448,192,140756,1,0,0:0:0:0:
192,192,140840,1,0,0:0:0:0:
64,192,140840,1,0,0:0:0:0:
320,192,140923,1,0,0:0:0:0:
448,192,140923,1,0,0:0:0:0:
192,192,141006,1,0,0:0:0:0:
64,192,141006,1,0,0:0:0:0:
320,192,141090,1,0,0:0:0:0:
192,192,141173,1,0,0:0:0:0:
64,192,141173,1,0,0:0:0:0:
448,192,141256,1,0,0:0:0:0:
192,192,141340,1,0,0:0:0:0:
64,192,141340,1,0,0:0:0:0:
320,192,141340,1,0,0:0:0:0:
448,192,141423,1,0,0:0:0:0:
64,192,141506,1,0,0:0:0:0:
448,192,141590,1,0,0:0:0:0:
64,192,141673,1,0,0:0:0:0:
448,192,141756,1,0,0:0:0:0:
64,192,141840,1,0,0:0:0:0:
448,192,141923,1,0,0:0:0:0:
192,192,142006,1,0,0:0:0:0:
320,192,142006,1,0,0:0:0:0:
448,192,142090,1,0,0:0:0:0:
64,192,142173,1,0,0:0:0:0:
448,192,142256,1,0,0:0:0:0:
64,192,142340,1,0,0:0:0:0:
448,192,142423,1,0,0:0:0:0:
64,192,142506,1,0,0:0:0:0:
448,192,142590,1,0,0:0:0:0:
192,192,142673,1,0,0:0:0:0:
64,192,142673,1,0,0:0:0:0:
448,192,142756,1,0,0:0:0:0:
192,192,142840,1,0,0:0:0:0:
448,192,142923,1,0,0:0:0:0:
192,192,143006,1,0,0:0:0:0:
448,192,143090,1,0,0:0:0:0:
192,192,143173,1,0,0:0:0:0:
448,192,143256,1,0,0:0:0:0:
64,192,143340,1,0,0:0:0:0:
192,192,143340,1,0,0:0:0:0:
320,192,143423,1,0,0:0:0:0:
192,192,143506,1,0,0:0:0:0:
64,192,143506,1,0,0:0:0:0:
320,192,143590,1,0,0:0:0:0:
192,192,143673,1,0,0:0:0:0:
64,192,143673,1,0,0:0:0:0:
320,192,143756,1,0,0:0:0:0:
448,192,143756,1,0,0:0:0:0:
192,192,143840,1,0,0:0:0:0:
64,192,143840,1,0,0:0:0:0:
320,192,143923,1,0,0:0:0:0:
192,192,144006,1,0,0:0:0:0:
64,192,144006,1,0,0:0:0:0:
448,192,144090,1,0,0:0:0:0:
192,192,144173,1,0,0:0:0:0:
64,192,144173,1,0,0:0:0:0:
448,192,144256,1,0,0:0:0:0:
192,192,144340,1,0,0:0:0:0:
64,192,144340,1,0,0:0:0:0:
448,192,144423,1,0,0:0:0:0:
320,192,144423,1,0,0:0:0:0:
192,192,144506,1,0,0:0:0:0:
64,192,144506,1,0,0:0:0:0:
320,192,144590,1,0,0:0:0:0:
448,192,144590,1,0,0:0:0:0:
192,192,144673,1,0,0:0:0:0:
64,192,144673,1,0,0:0:0:0:
320,192,144756,1,0,0:0:0:0:
448,192,144756,1,0,0:0:0:0:
192,192,144840,1,0,0:0:0:0:
64,192,144840,1,0,0:0:0:0:
320,192,144923,1,0,0:0:0:0:
448,192,144923,1,0,0:0:0:0:
192,192,145006,1,0,0:0:0:0:
64,192,145006,1,0,0:0:0:0:
320,192,145090,1,0,0:0:0:0:
448,192,145090,1,0,0:0:0:0:
192,192,145173,1,0,0:0:0:0:
64,192,145173,1,0,0:0:0:0:
320,192,145256,1,0,0:0:0:0:
448,192,145256,1,0,0:0:0:0:
64,192,145340,1,0,0:0:0:0:
192,192,145381,1,0,0:0:0:0:
320,192,145423,1,0,0:0:0:0:
448,192,145465,1,0,0:0:0:0:
64,192,145506,1,0,0:0:0:0:
192,192,145548,1,0,0:0:0:0:
320,192,145590,1,0,0:0:0:0:
448,192,145631,1,0,0:0:0:0:
64,192,145673,1,0,0:0:0:0:
192,192,145715,1,0,0:0:0:0:
320,192,145756,1,0,0:0:0:0:
448,192,145798,1,0,0:0:0:0:
64,192,145840,1,0,0:0:0:0:
192,192,145881,1,0,0:0:0:0:
320,192,145923,1,0,0:0:0:0:
448,192,145965,1,0,0:0:0:0:
64,192,146006,1,0,0:0:0:0:
192,192,146048,1,0,0:0:0:0:
320,192,146090,1,0,0:0:0:0:
448,192,146131,1,0,0:0:0:0:
64,192,146173,1,0,0:0:0:0:
192,192,146215,1,0,0:0:0:0:
320,192,146256,1,0,0:0:0:0:
448,192,146298,1,0,0:0:0:0:
64,192,146340,128,0,146506:0:0:0:0:
192,192,146340,1,0,0:0:0:0:
64,192,146673,1,0,0:0:0:0:
448,192,146673,1,0,0:0:0:0:
320,192,146673,1,0,0:0:0:0:
192,192,146756,1,0,0:0:0:0:
320,192,146840,1,0,0:0:0:0:
192,192,146923,1,0,0:0:0:0:
64,192,147006,1,0,0:0:0:0:
448,192,147006,1,0,0:0:0:0:
320,192,147090,1,0,0:0:0:0:
192,192,147173,1,0,0:0:0:0:
320,192,147256,1,0,0:0:0:0:
448,192,147340,1,0,0:0:0:0:
64,192,147340,1,0,0:0:0:0:
320,192,147423,1,0,0:0:0:0:
192,192,147506,1,0,0:0:0:0:
64,192,147590,1,0,0:0:0:0:
448,192,147673,1,0,0:0:0:0:
192,192,147673,1,0,0:0:0:0:
320,192,147756,1,0,0:0:0:0:
448,192,147840,1,0,0:0:0:0:
64,192,147923,1,0,0:0:0:0:
192,192,148006,1,0,0:0:0:0:
320,192,148006,1,0,0:0:0:0:
448,192,148006,1,0,0:0:0:0:
64,192,148090,1,0,0:0:0:0:
192,192,148173,1,0,0:0:0:0:
448,192,148173,1,0,0:0:0:0:
320,192,148256,1,0,0:0:0:0:
192,192,148340,1,0,0:0:0:0:
320,192,148423,1,0,0:0:0:0:
448,192,148506,1,0,0:0:0:0:
64,192,148506,1,0,0:0:0:0:
192,192,148590,1,0,0:0:0:0:
320,192,148673,1,0,0:0:0:0:
192,192,148756,1,0,0:0:0:0:
64,192,148840,1,0,0:0:0:0:
320,192,148840,1,0,0:0:0:0:
192,192,148923,1,0,0:0:0:0:
448,192,149006,1,0,0:0:0:0:
320,192,149090,1,0,0:0:0:0:
64,192,149173,1,0,0:0:0:0:
192,192,149173,1,0,0:0:0:0:
320,192,149256,1,0,0:0:0:0:
192,192,149340,1,0,0:0:0:0:
64,192,149340,1,0,0:0:0:0:
448,192,149340,1,0,0:0:0:0:
320,192,149423,1,0,0:0:0:0:
64,192,149506,1,0,0:0:0:0:
192,192,149590,1,0,0:0:0:0:
320,192,149673,1,0,0:0:0:0:
448,192,149673,1,0,0:0:0:0:
192,192,149756,1,0,0:0:0:0:
64,192,149840,1,0,0:0:0:0:
192,192,149923,1,0,0:0:0:0:
320,192,150006,1,0,0:0:0:0:
448,192,150006,1,0,0:0:0:0:
192,192,150090,1,0,0:0:0:0:
64,192,150173,1,0,0:0:0:0:
448,192,150256,1,0,0:0:0:0:
320,192,150340,1,0,0:0:0:0:
64,192,150340,1,0,0:0:0:0:
192,192,150423,1,0,0:0:0:0:
320,192,150506,1,0,0:0:0:0:
448,192,150590,1,0,0:0:0:0:
64,192,150673,1,0,0:0:0:0:
320,192,150673,1,0,0:0:0:0:
192,192,150673,1,0,0:0:0:0:
448,192,150756,1,0,0:0:0:0:
320,192,150840,1,0,0:0:0:0:
64,192,150840,1,0,0:0:0:0:
192,192,150923,1,0,0:0:0:0:
448,192,151006,1,0,0:0:0:0:
320,192,151090,1,0,0:0:0:0:
448,192,151173,1,0,0:0:0:0:
64,192,151173,1,0,0:0:0:0:
192,192,151256,1,0,0:0:0:0:
320,192,151340,1,0,0:0:0:0:
192,192,151423,1,0,0:0:0:0:
64,192,151506,1,0,0:0:0:0:
448,192,151506,1,0,0:0:0:0:
320,192,151590,1,0,0:0:0:0:
192,192,151673,1,0,0:0:0:0:
64,192,151756,1,0,0:0:0:0:
448,192,151840,1,0,0:0:0:0:
192,192,151840,1,0,0:0:0:0:
320,192,151923,1,0,0:0:0:0:
192,192,152006,1,0,0:0:0:0:
64,192,152006,1,0,0:0:0:0:
448,192,152006,1,0,0:0:0:0:
320,192,152090,1,0,0:0:0:0:
64,192,152173,1,0,0:0:0:0:
192,192,152256,1,0,0:0:0:0:
320,192,152340,1,0,0:0:0:0:
64,192,152340,1,0,0:0:0:0:
192,192,152423,1,0,0:0:0:0:
448,192,152506,1,0,0:0:0:0:
320,192,152590,1,0,0:0:0:0:
192,192,152673,1,0,0:0:0:0:
448,192,152673,1,0,0:0:0:0:
64,192,152756,1,0,0:0:0:0:
192,192,152840,1,0,0:0:0:0:
320,192,152923,1,0,0:0:0:0:
448,192,153006,1,0,0:0:0:0:
64,192,153006,1,0,0:0:0:0:
192,192,153090,1,0,0:0:0:0:
64,192,153173,1,0,0:0:0:0:
320,192,153256,1,0,0:0:0:0:
192,192,153340,1,0,0:0:0:0:
64,192,153340,1,0,0:0:0:0:
448,192,153340,1,0,0:0:0:0:
320,192,153423,1,0,0:0:0:0:
448,192,153506,1,0,0:0:0:0:
64,192,153506,1,0,0:0:0:0:
192,192,153590,1,0,0:0:0:0:
448,192,153673,1,0,0:0:0:0:
320,192,153756,1,0,0:0:0:0:
192,192,153840,1,0,0:0:0:0:
64,192,153840,1,0,0:0:0:0:
448,192,153923,1,0,0:0:0:0:
320,192,154006,1,0,0:0:0:0:
192,192,154090,1,0,0:0:0:0:
448,192,154173,1,0,0:0:0:0:
64,192,154173,1,0,0:0:0:0:
320,192,154256,1,0,0:0:0:0:
192,192,154340,1,0,0:0:0:0:
320,192,154423,1,0,0:0:0:0:
448,192,154506,1,0,0:0:0:0:
64,192,154506,1,0,0:0:0:0:
192,192,154590,1,0,0:0:0:0:
448,192,154673,1,0,0:0:0:0:
320,192,154673,1,0,0:0:0:0:
64,192,154673,1,0,0:0:0:0:
192,192,154756,1,0,0:0:0:0:
64,192,154840,1,0,0:0:0:0:
192,192,154881,1,0,0:0:0:0:
320,192,154923,1,0,0:0:0:0:
448,192,154965,1,0,0:0:0:0:
192,192,155006,1,0,0:0:0:0:
64,192,155006,1,0,0:0:0:0:
320,192,155090,1,0,0:0:0:0:
448,192,155173,1,0,0:0:0:0:
320,192,155215,1,0,0:0:0:0:
192,192,155256,1,0,0:0:0:0:
64,192,155298,1,0,0:0:0:0:
448,192,155340,1,0,0:0:0:0:
320,192,155340,1,0,0:0:0:0:
192,192,155423,1,0,0:0:0:0:
64,192,155506,1,0,0:0:0:0:
192,192,155548,1,0,0:0:0:0:
320,192,155590,1,0,0:0:0:0:
448,192,155631,1,0,0:0:0:0:
192,192,155673,1,0,0:0:0:0:
64,192,155673,1,0,0:0:0:0:
320,192,155756,1,0,0:0:0:0:
448,192,155840,1,0,0:0:0:0:
320,192,155881,1,0,0:0:0:0:
192,192,155923,1,0,0:0:0:0:
64,192,155965,1,0,0:0:0:0:
448,192,156006,1,0,0:0:0:0:
320,192,156006,1,0,0:0:0:0:
192,192,156090,1,0,0:0:0:0:
64,192,156090,1,0,0:0:0:0:
320,192,156173,1,0,0:0:0:0:
448,192,156173,1,0,0:0:0:0:
64,192,156256,1,0,0:0:0:0:
192,192,156256,1,0,0:0:0:0:
320,192,156340,1,0,0:0:0:0:
448,192,156340,1,0,0:0:0:0:
192,192,156423,1,0,0:0:0:0:
64,192,156423,1,0,0:0:0:0:
320,192,156506,1,0,0:0:0:0:
448,192,156506,1,0,0:0:0:0:
192,192,156590,1,0,0:0:0:0:
64,192,156590,1,0,0:0:0:0:
448,192,156673,1,0,0:0:0:0:
320,192,156715,1,0,0:0:0:0:
64,192,156756,1,0,0:0:0:0:
192,192,156798,1,0,0:0:0:0:
448,192,156840,1,0,0:0:0:0:
320,192,156881,1,0,0:0:0:0:
64,192,156923,1,0,0:0:0:0:
192,192,156965,1,0,0:0:0:0:
448,192,157006,1,0,0:0:0:0:
320,192,157048,1,0,0:0:0:0:
64,192,157090,1,0,0:0:0:0:
192,192,157131,1,0,0:0:0:0:
448,192,157173,1,0,0:0:0:0:
320,192,157215,1,0,0:0:0:0:
64,192,157256,1,0,0:0:0:0:
192,192,157298,1,0,0:0:0:0:
320,192,157340,128,0,158506:0:0:0:0:
448,192,157340,128,0,158506:0:0:0:0:
