osu file format v14

[General]
AudioFilename: Intersect Thunderbolt.mp3
AudioLeadIn: 1500
PreviewTime: 9800
Countdown: 0
SampleSet: None
StackLeniency: 0.5
Mode: 0
LetterboxInBreaks: 0
WidescreenStoryboard: 1

[Editor]
Bookmarks: 200,9800,17480,21320,25160,32840,36680,40520,57800,75080,90440,105800,123080
DistanceSpacing: 0.4
BeatDivisor: 4
GridSize: 4
TimelineZoom: 2.5

[Metadata]
Title:Intersect Thunderbolt-Remix
TitleUnicode:Intersect Thunderbolt-Remix
Artist:S.S.H.
ArtistUnicode:S.S.H.
Creator:DT-sama
Version:nerf
Source:eXceed3rd-JADE PENETRATE-BLACK PACKAGE
Tags:
BeatmapID:1209188
BeatmapSetID:558081

[Difficulty]
HPDrainRate:5
CircleSize:4
OverallDifficulty:9.5
ApproachRate:9.7
SliderMultiplier:2.1
SliderTickRate:1

[Events]
//Background and Video events
0,0,"Exceed.jpg",0,0
//Break Periods
//Storyboard Layer 0 (Background)
//Storyboard Layer 1 (Fail)
//Storyboard Layer 2 (Pass)
//Storyboard Layer 3 (Foreground)
//Storyboard Sound Samples

[TimingPoints]
200.581127504251,240,4,1,0,60,1,0

[Colours]
Combo1 : 234,0,0
Combo2 : 234,117,0
Combo3 : 234,234,0

[HitObjects]
76,172,200,5,8,0:0:0:0:
92,220,260,1,0,0:0:0:0:
132,252,320,1,0,0:0:0:0:
184,248,380,1,0,0:0:0:0:
236,248,440,2,0,P|280:264|304:280,1,52.5
316,356,560,5,8,0:0:0:0:
364,340,620,1,0,0:0:0:0:
388,292,680,1,0,0:0:0:0:
368,244,740,1,0,0:0:0:0:
380,192,800,2,0,P|408:144|428:136,1,52.5
496,176,920,5,8,0:0:0:0:
462,213,980,1,0,0:0:0:0:
413,227,1040,1,0,0:0:0:0:
368,200,1100,1,0,0:0:0:0:
322,176,1160,2,0,P|264:192|244:200,1,52.5
203,251,1280,5,8,0:0:0:0:
165,218,1340,1,0,0:0:0:0:
161,164,1400,1,0,0:0:0:0:
199,128,1460,1,0,0:0:0:0:
208,75,1520,2,0,P|188:32|176:20,1,52.5
116,68,1640,5,8,0:0:0:0:
76,104,1700,1,0,0:0:0:0:
64,156,1760,1,0,0:0:0:0:
84,204,1820,1,0,0:0:0:0:
140,272,1880,5,8,0:0:0:0:
203,251,1940,1,0,0:0:0:0:
271,261,2000,1,0,0:0:0:0:
326,301,2060,1,0,0:0:0:0:
383,382,2120,5,4,0:0:0:0:
80,316,3800,5,12,0:0:0:0:
444,64,4040,1,4,0:0:0:0:
224,300,5000,5,8,0:0:0:0:
276,304,5060,1,0,0:0:0:0:
316,272,5120,1,8,0:0:0:0:
352,172,5240,1,0,0:0:0:0:
284,64,5360,1,8,0:0:0:0:
144,104,5480,1,0,0:0:0:0:
80,260,5600,1,0,0:0:0:0:
224,300,5720,1,8,0:0:0:0:
268,160,5840,1,0,0:0:0:0:
128,120,5960,5,4,0:0:0:0:
260,360,7640,5,12,0:0:0:0:
256,28,7880,1,4,0:0:0:0:
172,144,8600,5,12,0:0:0:0:
318,199,8720,1,8,0:0:0:0:
318,199,8780,1,0,0:0:0:0:
318,199,8840,5,8,0:0:0:0:
367,179,8900,1,0,0:0:0:0:
384,128,8960,1,0,0:0:0:0:
368,76,9020,1,0,0:0:0:0:
312,64,9080,5,8,0:0:0:0:
260,80,9140,1,0,0:0:0:0:
240,128,9200,1,0,0:0:0:0:
228,180,9260,1,0,0:0:0:0:
184,208,9320,1,0,0:0:0:0:
132,200,9380,1,0,0:0:0:0:
104,148,9440,5,8,0:0:0:0:
132,92,9500,1,0,0:0:0:0:
191,75,9560,5,8,0:0:0:0:
260,80,9620,1,0,0:0:0:0:
308,136,9680,1,0,0:0:0:0:
320,216,9740,1,0,0:0:0:0:
282,297,9800,5,4,0:0:0:0:
144,292,9920,1,0,0:0:0:0:
228,180,10040,1,8,0:0:0:0:
212,372,10160,1,0,0:0:0:0:
132,200,10280,1,0,0:0:0:0:
320,216,10400,2,0,P|404:268|420:312,1,105,2|0,0:0|0:0,0:0:0:0:
300,348,10640,1,0,0:0:0:0:
235,254,10760,6,0,P|195:162|235:50,1,210,4|0,0:0|0:0,0:0:0:0:
226,62,11120,1,0,0:0:0:0:
352,176,11240,2,0,P|392:268|352:380,1,210,4|0,0:0|0:0,0:0:0:0:
356,374,11600,1,0,0:0:0:0:
240,276,11720,5,4,0:0:0:0:
151,350,11840,1,0,0:0:0:0:
136,240,11960,1,8,0:0:0:0:
244,371,12080,1,0,0:0:0:0:
48,310,12200,1,0,0:0:0:0:
229,176,12320,2,0,P|318:198|344:232,1,105,2|0,0:0|0:0,0:0:0:0:
388,316,12560,1,0,0:0:0:0:
248,288,12680,6,0,P|124:240|104:132,1,210,4|0,0:0|0:0,0:0:0:0:
99,175,13040,1,0,0:0:0:0:
207,44,13160,2,0,P|309:59|386:128,1,210,4|0,0:0|0:0,0:0:0:0:
387,128,13521,1,0,0:0:0:0:
272,152,13640,5,4,0:0:0:0:
176,208,13760,1,0,0:0:0:0:
284,260,13880,1,8,0:0:0:0:
172,104,14000,1,0,0:0:0:0:
188,320,14120,1,0,0:0:0:0:
372,188,14240,2,0,P|420:216|456:280,1,105,2|0,0:0|0:0,0:0:0:0:
372,352,14480,1,0,0:0:0:0:
256,316,14600,6,0,P|260:212|172:136,1,210,4|0,0:0|0:0,0:0:0:0:
144,260,14960,1,0,0:0:0:0:
36,184,15080,2,0,P|24:300|84:372,1,210,4|0,0:0|0:0,0:0:0:0:
144,260,15440,1,0,0:0:0:0:
216,184,15560,5,4,0:0:0:0:
100,172,15680,1,0,0:0:0:0:
144,260,15800,1,8,0:0:0:0:
252,272,15920,1,0,0:0:0:0:
172,96,16040,1,0,0:0:0:0:
36,256,16160,2,0,P|68:328|120:360,1,105,2|0,0:0|0:0,0:0:0:0:
188,360,16400,1,0,0:0:0:0:
244,272,16520,6,0,P|248:168|160:92,1,210,4|0,0:0|0:0,0:0:0:0:
132,216,16880,1,0,0:0:0:0:
24,140,17000,2,0,P|12:256|72:328,1,210,4|0,0:0|0:0,0:0:0:0:
132,216,17360,1,0,0:0:0:0:
200,140,17480,5,4,0:0:0:0:
268,216,17600,1,0,0:0:0:0:
200,288,17720,1,8,0:0:0:0:
100,120,17840,1,0,0:0:0:0:
312,128,17960,1,0,0:0:0:0:
200,288,18080,6,0,P|128:312|56:300,2,105,2|0|0,0:0|0:0|0:0,0:0:0:0:
296,248,18440,5,8,0:0:0:0:
308,280,18560,1,0,0:0:0:0:
360,212,18680,5,8,0:0:0:0:
348,280,18800,1,0,0:0:0:0:
436,196,18920,5,8,0:0:0:0:
384,300,19040,1,0,0:0:0:0:
508,248,19160,5,8,0:0:0:0:
412,332,19280,1,0,0:0:0:0:
252,336,19400,6,0,P|176:292|152:232,1,105,4|0,0:0|0:0,0:0:0:0:
168,164,19640,1,8,0:0:0:0:
260,220,19760,1,0,0:0:0:0:
76,228,19880,1,0,0:0:0:0:
272,92,20000,2,0,P|232:56|140:40,2,105,2|0|0,0:0|0:0|0:0,0:0:0:0:
216,188,20360,5,8,0:0:0:0:
184,284,20480,1,0,0:0:0:0:
236,200,20600,5,8,0:0:0:0:
264,336,20720,1,0,0:0:0:0:
256,204,20840,5,8,0:0:0:0:
368,336,20960,1,0,0:0:0:0:
276,200,21080,5,8,0:0:0:0:
472,304,21200,1,0,0:0:0:0:
412,92,21320,5,4,0:0:0:0:
344,212,21440,1,0,0:0:0:0:
432,328,21560,1,0,0:0:0:0:
496,200,21680,1,0,0:0:0:0:
412,92,21800,6,0,P|344:92|288:124,1,105,8|0,0:0|0:0,0:0:0:0:
260,220,22040,1,0,0:0:0:0:
120,260,22160,1,0,0:0:0:0:
40,64,22280,5,12,0:0:0:0:
192,172,22400,1,0,0:0:0:0:
128,12,22520,1,0,0:0:0:0:
120,212,22640,5,12,0:0:0:0:
304,8,22760,1,0,0:0:0:0:
268,208,22880,1,0,0:0:0:0:
220,40,23000,5,10,0:0:0:0:
344,232,23120,1,0,0:0:0:0:
460,32,23240,5,8,0:0:0:0:
428,300,23360,2,0,P|436:188|324:128,1,210,4|0,0:0|0:0,0:0:0:0:
344,232,23720,2,0,P|316:300|268:320,1,105,4|0,0:0|0:0,0:0:0:0:
192,340,23960,2,0,P|175:268|203:224,1,105,4|0,0:0|0:0,0:0:0:0:
208,136,24200,5,8,0:0:0:0:
172,100,24260,1,0,0:0:0:0:
120,96,24320,1,8,0:0:0:0:
112,232,24440,1,0,0:0:0:0:
280,128,24560,1,8,0:0:0:0:
404,252,24680,1,0,0:0:0:0:
300,360,24800,1,0,0:0:0:0:
168,348,24920,1,8,0:0:0:0:
176,212,25040,1,0,0:0:0:0:
312,224,25160,6,0,P|432:284|464:352,1,210,4|0,0:0|0:0,0:0:0:0:
463,347,25520,1,8,0:0:0:0:
340,344,25640,1,0,0:0:0:0:
219,302,25760,2,0,P|185:263|176:211,2,105,2|0|0,0:0|0:0|0:0,0:0:0:0:
268,108,26120,5,8,0:0:0:0:
176,128,26240,1,0,0:0:0:0:
268,156,26360,5,8,0:0:0:0:
176,75,26480,1,0,0:0:0:0:
236,204,26600,5,8,0:0:0:0:
211,22,26720,1,0,0:0:0:0:
176,212,26840,5,8,0:0:0:0:
277,13,26960,1,0,0:0:0:0:
428,180,27080,6,0,P|432:268|404:304,1,105,4|0,0:0|0:0,0:0:0:0:
336,348,27320,1,8,0:0:0:0:
328,228,27440,1,0,0:0:0:0:
204,372,27560,1,0,0:0:0:0:
140,276,27680,2,0,P|196:256|264:276,2,105,2|0|0,0:0|0:0|0:0,0:0:0:0:
48,352,28040,5,8,0:0:0:0:
60,196,28160,1,0,0:0:0:0:
232,60,28280,5,8,0:0:0:0:
128,240,28400,1,0,0:0:0:0:
52,40,28520,5,8,0:0:0:0:
192,192,28640,1,0,0:0:0:0:
232,368,28760,5,8,0:0:0:0:
264,228,28880,1,0,0:0:0:0:
436,176,29000,6,0,P|440:248|400:296,1,105,4|0,0:0|0:0,0:0:0:0:
332,320,29240,1,8,0:0:0:0:
348,216,29360,1,0,0:0:0:0:
148,284,29480,1,0,0:0:0:0:
216,204,29600,2,0,P|244:252|248:304,2,105,2|0|0,0:0|0:0|0:0,0:0:0:0:
136,216,29960,5,8,0:0:0:0:
164,152,30080,1,0,0:0:0:0:
60,168,30200,5,8,0:0:0:0:
176,132,30320,1,0,0:0:0:0:
48,80,30440,5,8,0:0:0:0:
192,116,30560,1,0,0:0:0:0:
72,0,30680,5,8,0:0:0:0:
212,104,30800,1,0,0:0:0:0:
380,32,30920,6,0,P|404:96|400:140,1,105,4|0,0:0|0:0,0:0:0:0:
296,168,31160,1,8,0:0:0:0:
380,240,31280,1,0,0:0:0:0:
196,336,31400,1,0,0:0:0:0:
260,256,31520,2,0,P|292:304|296:360,2,105,2|0|0,0:0|0:0|0:0,0:0:0:0:
184,184,31880,5,8,0:0:0:0:
184,184,32000,1,0,0:0:0:0:
88,228,32120,5,8,0:0:0:0:
80,248,32240,1,0,0:0:0:0:
96,112,32360,5,8,0:0:0:0:
120,148,32480,1,0,0:0:0:0:
232,24,32600,5,8,0:0:0:0:
172,72,32720,1,0,0:0:0:0:
288,92,32840,5,4,0:0:0:0:
368,140,32960,1,0,0:0:0:0:
288,176,33080,1,8,0:0:0:0:
368,44,33200,1,0,0:0:0:0:
384,228,33320,1,0,0:0:0:0:
208,140,33440,2,0,P|172:68|176:24,1,105,2|0,0:0|0:0,0:0:0:0:
264,32,33680,1,0,0:0:0:0:
320,128,33800,6,0,P|304:208|252:252,1,105,4|0,0:0|0:0,0:0:0:0:
188,296,34040,1,8,0:0:0:0:
188,296,34160,1,0,0:0:0:0:
64,304,34280,2,0,P|88:216|132:184,1,105,4|0,0:0|0:0,0:0:0:0:
192,132,34520,1,8,0:0:0:0:
192,132,34640,1,0,0:0:0:0:
252,208,34760,5,4,0:0:0:0:
304,304,34880,1,0,0:0:0:0:
188,296,35000,1,8,0:0:0:0:
364,212,35120,1,0,0:0:0:0:
244,384,35240,1,0,0:0:0:0:
144,192,35360,2,0,P|176:136|252:120,1,105,2|0,0:0|0:0,0:0:0:0:
320,112,35600,1,0,0:0:0:0:
364,212,35720,6,0,P|344:272|296:296,1,105,4|0,0:0|0:0,0:0:0:0:
168,304,35960,1,8,0:0:0:0:
232,216,36080,1,0,0:0:0:0:
256,368,36200,2,0,P|160:388|112:368,1,105,4|0,0:0|0:0,0:0:0:0:
56,308,36440,1,8,0:0:0:0:
116,212,36560,1,0,0:0:0:0:
176,124,36680,5,4,0:0:0:0:
60,120,36800,1,0,0:0:0:0:
56,308,36920,1,0,0:0:0:0:
12,216,37040,1,0,0:0:0:0:
168,300,37160,1,8,0:0:0:0:
216,196,37280,1,0,0:0:0:0:
120,104,37400,1,0,0:0:0:0:
224,0,37520,1,0,0:0:0:0:
400,80,37640,5,4,0:0:0:0:
216,196,37760,1,0,0:0:0:0:
232,108,37880,1,0,0:0:0:0:
304,64,38000,5,8,0:0:0:0:
448,152,38120,1,0,0:0:0:0:
424,244,38240,1,0,0:0:0:0:
340,292,38360,1,8,0:0:0:0:
260,272,38480,1,0,0:0:0:0:
216,196,38600,5,8,0:0:0:0:
448,152,38720,2,2,P|444:232|328:292,1,210,6|2,0:0|0:0,0:0:0:0:
304,64,39080,2,2,P|256:88|212:144,1,105,6|2,0:0|0:0,0:0:0:0:
163,295,39320,2,2,P|214:297|259:271,1,105,6|0,0:0|0:0,0:0:0:0:
332,172,39560,5,4,0:0:0:0:
332,172,39620,1,0,0:0:0:0:
332,172,39680,1,8,0:0:0:0:
196,40,39800,1,8,0:0:0:0:
48,116,39920,1,0,0:0:0:0:
60,264,40040,1,8,0:0:0:0:
168,332,40160,1,0,0:0:0:0:
280,276,40280,1,8,0:0:0:0:
220,164,40400,1,0,0:0:0:0:
128,212,40520,6,0,P|184:260|244:260,1,105,6|0,0:0|0:0,0:0:0:0:
336,208,40760,1,0,0:0:0:0:
268,52,40880,1,0,0:0:0:0:
220,164,41000,1,0,0:0:0:0:
384,92,41120,1,0,0:0:0:0:
456,184,41240,2,0,P|475:232|473:284,1,105,8|0,0:0|0:0,0:0:0:0:
412,344,41480,6,0,P|328:364|272:356,1,105,6|0,0:0|0:0,0:0:0:0:
120,348,41720,1,0,0:0:0:0:
224,296,41840,2,0,P|184:228|124:192,1,105,6|0,0:0|0:0,0:0:0:0:
120,348,42080,1,0,0:0:0:0:
224,296,42200,2,0,P|220:224|200:172,1,105,6|0,0:0|0:0,0:0:0:0:
120,108,42440,6,0,P|176:48|220:36,1,105,4|0,0:0|0:0,0:0:0:0:
348,120,42680,1,0,0:0:0:0:
240,136,42800,1,0,0:0:0:0:
288,32,42920,1,0,0:0:0:0:
404,28,43040,1,0,0:0:0:0:
452,128,43160,2,0,P|452:216|460:264,1,105,8|0,0:0|0:0,0:0:0:0:
440,352,43400,5,6,0:0:0:0:
332,288,43520,1,0,0:0:0:0:
232,284,43640,1,0,0:0:0:0:
148,336,43760,1,2,0:0:0:0:
150,231,43880,1,0,0:0:0:0:
250,198,44000,1,0,0:0:0:0:
248,370,44120,1,2,0:0:0:0:
148,336,44240,1,0,0:0:0:0:
60,286,44360,6,0,P|32:236|64:156,1,105,4|0,0:0|0:0,0:0:0:0:
120,112,44600,1,0,0:0:0:0:
212,268,44720,1,0,0:0:0:0:
152,124,44840,1,0,0:0:0:0:
276,48,44960,1,0,0:0:0:0:
376,140,45080,1,8,0:0:0:0:
328,236,45200,1,0,0:0:0:0:
240,288,45320,5,2,0:0:0:0:
328,236,45440,1,0,0:0:0:0:
212,268,45560,1,0,0:0:0:0:
328,340,45680,1,2,0:0:0:0:
244,184,45800,1,0,0:0:0:0:
168,344,45920,1,0,0:0:0:0:
416,280,46040,2,0,P|460:252|484:200,1,105,2|0,0:0|0:0,0:0:0:0:
316,104,46280,5,6,0:0:0:0:
244,164,46400,1,0,0:0:0:0:
304,240,46520,1,8,0:0:0:0:
380,184,46640,1,0,0:0:0:0:
287,89,46760,5,6,0:0:0:0:
228,191,46880,1,0,0:0:0:0:
331,254,47000,1,8,0:0:0:0:
396,156,47120,1,0,0:0:0:0:
250,88,47240,5,6,0:0:0:0:
225,227,47360,1,0,0:0:0:0:
367,256,47480,1,8,0:0:0:0:
400,119,47600,1,0,0:0:0:0:
203,100,47720,5,6,0:0:0:0:
233,273,47840,1,0,0:0:0:0:
413,247,47960,1,8,0:0:0:0:
393,71,48080,2,0,P|316:64|256:72,1,105,0|4,0:0|0:0,0:0:0:0:
153,133,48320,5,0,0:0:0:0:
262,323,48440,1,8,0:0:0:0:
462,216,48560,1,0,0:0:0:0:
364,18,48680,1,0,0:0:0:0:
312,28,48740,1,0,0:0:0:0:
292,76,48800,1,0,0:0:0:0:
268,124,48860,1,0,0:0:0:0:
220,144,48920,1,8,0:0:0:0:
76,124,49040,1,0,0:0:0:0:
168,8,49160,5,6,0:0:0:0:
92,240,49280,1,0,0:0:0:0:
188,100,49400,1,8,0:0:0:0:
92,72,49520,6,0,B|108:232|260:172|272:336,1,315,6|10,0:0|0:0,0:0:0:0:
152,320,50000,1,0,0:0:0:0:
188,100,50120,5,6,0:0:0:0:
376,76,50240,1,0,0:0:0:0:
272,80,50360,1,8,0:0:0:0:
376,76,50480,1,0,0:0:0:0:
200,208,50600,5,6,0:0:0:0:
376,76,50720,1,0,0:0:0:0:
280,136,50840,1,8,0:0:0:0:
376,76,50960,1,0,0:0:0:0:
270,315,51080,5,6,0:0:0:0:
376,76,51200,1,0,0:0:0:0:
316,196,51320,1,8,0:0:0:0:
376,76,51440,1,0,0:0:0:0:
400,372,51560,5,6,0:0:0:0:
376,76,51680,1,0,0:0:0:0:
384,224,51800,1,8,0:0:0:0:
376,76,51920,1,0,0:0:0:0:
512,288,52040,5,12,0:0:0:0:
304,304,52160,1,0,0:0:0:0:
160,352,52280,1,0,0:0:0:0:
60,260,52400,5,12,0:0:0:0:
96,152,52520,1,0,0:0:0:0:
204,252,52640,1,0,0:0:0:0:
184,24,52760,5,8,0:0:0:0:
80,44,52880,1,0,0:0:0:0:
300,192,53000,1,6,0:0:0:0:
336,56,53120,5,8,0:0:0:0:
200,136,53240,1,0,0:0:0:0:
448,136,53360,1,0,0:0:0:0:
436,272,53480,1,8,0:0:0:0:
268,348,53600,1,0,0:0:0:0:
124,236,53720,1,8,0:0:0:0:
148,56,53840,1,0,0:0:0:0:
300,16,53960,6,0,P|360:108|368:148,1,105,6|0,0:0|0:0,0:0:0:0:
392,244,54200,1,0,0:0:0:0:
380,296,54260,1,0,0:0:0:0:
332,320,54320,1,0,0:0:0:0:
152,320,54440,1,0,0:0:0:0:
64,188,54560,1,0,0:0:0:0:
152,84,54680,1,0,0:0:0:0:
236,148,54800,1,0,0:0:0:0:
232,252,54920,5,0,0:0:0:0:
232,252,54980,1,0,0:0:0:0:
232,252,55040,1,0,0:0:0:0:
328,296,55160,1,0,0:0:0:0:
436,148,55280,1,0,0:0:0:0:
424,252,55400,1,0,0:0:0:0:
260,128,55520,1,0,0:0:0:0:
356,84,55640,1,0,0:0:0:0:
240,232,55760,1,0,0:0:0:0:
404,360,55880,6,0,P|304:376|264:364,1,105,4|0,0:0|0:0,0:0:0:0:
201,332,56120,5,0,0:0:0:0:
69,272,56240,1,0,0:0:0:0:
197,268,56360,5,0,0:0:0:0:
89,252,56480,1,0,0:0:0:0:
177,192,56600,5,0,0:0:0:0:
93,220,56720,1,0,0:0:0:0:
120,116,56840,5,0,0:0:0:0:
160,100,56900,1,0,0:0:0:0:
200,104,56960,1,0,0:0:0:0:
236,116,57020,1,0,0:0:0:0:
253,136,57080,5,0,0:0:0:0:
289,52,57200,1,0,0:0:0:0:
337,172,57320,5,0,0:0:0:0:
321,36,57440,1,0,0:0:0:0:
441,152,57560,5,0,0:0:0:0:
337,8,57680,1,0,0:0:0:0:
488,64,57800,6,0,P|448:112|448:184,1,105,6|0,0:0|0:0,0:0:0:0:
492,264,58040,1,0,0:0:0:0:
318,168,58160,6,0,P|339:226|401:262,1,105,10|0,0:0|0:0,0:0:0:0:
492,264,58400,1,0,0:0:0:0:
322,367,58520,6,0,P|383:377|445:341,1,105,10|0,0:0|0:0,0:0:0:0:
492,264,58760,1,4,0:0:0:0:
404,148,58880,6,0,P|336:112|272:120,2,105,2|0|0,0:0|0:0|0:0,0:0:0:0:
316,236,59240,1,10,0:0:0:0:
188,140,59360,1,0,0:0:0:0:
136,248,59480,1,2,0:0:0:0:
309,111,59600,1,0,0:0:0:0:
185,362,59720,6,0,P|124:372|62:336,1,105,6|0,0:0|0:0,0:0:0:0:
15,259,59960,1,4,0:0:0:0:
189,163,60080,6,0,P|168:221|106:257,1,105,10|0,0:0|0:0,0:0:0:0:
15,259,60320,1,0,0:0:0:0:
19,59,60440,6,0,P|59:107|59:179,1,105,10|0,0:0|0:0,0:0:0:0:
15,259,60680,1,0,0:0:0:0:
185,362,60800,6,0,P|263:350|299:306,2,105,2|0|0,0:0|0:0|0:0,0:0:0:0:
200,248,61160,1,10,0:0:0:0:
384,267,61280,1,0,0:0:0:0:
371,148,61400,1,2,0:0:0:0:
280,334,61520,1,0,0:0:0:0:
228,92,61640,6,0,P|300:36|356:48,1,105,6|0,0:0|0:0,0:0:0:0:
424,100,61880,1,0,0:0:0:0:
319,265,62000,6,0,P|306:174|344:132,1,105,10|0,0:0|0:0,0:0:0:0:
424,100,62240,1,0,0:0:0:0:
512,268,62360,6,0,P|427:233|409:179,1,105,10|0,0:0|0:0,0:0:0:0:
424,100,62600,1,4,0:0:0:0:
312,40,62720,6,0,P|248:56|200:120,2,105,2|0|0,0:0|0:0|0:0,0:0:0:0:
320,168,63080,1,10,0:0:0:0:
172,196,63200,1,0,0:0:0:0:
228,304,63320,1,2,0:0:0:0:
220,80,63440,1,0,0:0:0:0:
358,318,63560,6,0,P|321:367|252:385,1,105,6|0,0:0|0:0,0:0:0:0:
165,363,63800,1,0,0:0:0:0:
224,172,63920,6,0,P|249:229|229:298,1,105,10|0,0:0|0:0,0:0:0:0:
165,363,64160,1,0,0:0:0:0:
168,88,64280,6,0,P|116:88|48:132,1,105,10|0,0:0|0:0,0:0:0:0:
148,236,64520,6,0,P|200:236|268:192,1,105,12|0,0:0|0:0,0:0:0:0:
246,213,64760,1,0,0:0:0:0:
376,60,64880,6,0,P|428:104|448:172,1,105,10|0,0:0|0:0,0:0:0:0:
443,136,65120,1,0,0:0:0:0:
465,329,65240,6,0,P|418:306|384:268,1,105,10|0,0:0|0:0,0:0:0:0:
300,156,65480,5,6,0:0:0:0:
148,276,65600,1,0,0:0:0:0:
284,296,65720,1,0,0:0:0:0:
176,136,65840,6,0,P|88:148|40:184,1,105,10|0,0:0|0:0,0:0:0:0:
24,280,66080,1,0,0:0:0:0:
225,340,66200,6,0,P|170:269|115:246,1,105,10|0,0:0|0:0,0:0:0:0:
24,280,66440,1,4,0:0:0:0:
112,372,66560,6,0,P|184:372|232:364,1,105,2|0,0:0|0:0,0:0:0:0:
344,364,66800,1,0,0:0:0:0:
352,212,66920,2,0,P|284:240|260:280,1,105,10|0,0:0|0:0,0:0:0:0:
448,300,67160,2,0,P|476:228|468:168,1,105,2|0,0:0|0:0,0:0:0:0:
408,92,67400,6,0,P|320:56|264:56,1,105,6|0,0:0|0:0,0:0:0:0:
164,68,67640,1,0,0:0:0:0:
266,292,67760,6,0,P|253:197|225:149,1,105,10|0,0:0|0:0,0:0:0:0:
164,68,68000,1,0,0:0:0:0:
22,269,68120,6,0,P|97:210|125:162,1,105,10|0,0:0|0:0,0:0:0:0:
164,68,68360,1,4,0:0:0:0:
312,56,68480,2,0,P|352:112|344:192,1,105,2|0,0:0|0:0,0:0:0:0:
352,284,68720,1,0,0:0:0:0:
188,280,68840,2,0,P|228:212|264:196,1,105,10|0,0:0|0:0,0:0:0:0:
276,344,69080,2,0,P|212:384|144:372,1,105,2|0,0:0|0:0,0:0:0:0:
60,320,69320,6,0,P|68:244|108:184,1,105,6|0,0:0|0:0,0:0:0:0:
176,104,69560,1,0,0:0:0:0:
340,140,69680,6,0,P|256:212|220:220,1,105,10|0,0:0|0:0,0:0:0:0:
64,112,69920,1,0,0:0:0:0:
276,308,70040,6,0,P|171:271|146:244,1,105,10|0,0:0|0:0,0:0:0:0:
114,34,70280,1,4,0:0:0:0:
280,64,70400,1,2,0:0:0:0:
280,64,70520,6,0,P|292:128|248:184,1,105
128,184,70760,1,10,0:0:0:0:
220,272,70880,1,0,0:0:0:0:
104,348,71000,2,0,P|24:328|4:308,1,105,2|0,0:0|0:0,0:0:0:0:
128,184,71240,5,14,0:0:0:0:
272,64,71360,1,0,0:0:0:0:
214,204,71480,1,0,0:0:0:0:
195,41,71600,5,14,0:0:0:0:
146,261,71720,1,0,0:0:0:0:
335,123,71840,1,0,0:0:0:0:
239,287,71960,5,10,0:0:0:0:
242,134,72080,1,0,0:0:0:0:
64,234,72200,5,14,0:0:0:0:
304,196,72320,1,0,0:0:0:0:
195,41,72440,1,0,0:0:0:0:
176,344,72560,5,14,0:0:0:0:
352,40,72680,1,0,0:0:0:0:
40,124,72800,1,0,0:0:0:0:
214,204,72920,1,2,0:0:0:0:
238,250,72980,1,0,0:0:0:0:
288,266,73040,1,0,0:0:0:0:
333,293,73100,1,0,0:0:0:0:
346,346,73160,1,4,0:0:0:0:
346,346,74120,5,12,0:0:0:0:
301,370,74180,1,0,0:0:0:0:
250,357,74240,1,0,0:0:0:0:
216,316,74300,1,0,0:0:0:0:
196,268,74360,1,0,0:0:0:0:
144,260,74420,1,0,0:0:0:0:
100,288,74480,5,12,0:0:0:0:
80,336,74540,1,0,0:0:0:0:
44,372,74600,1,0,0:0:0:0:
12,332,74660,1,0,0:0:0:0:
16,280,74720,1,0,0:0:0:0:
52,240,74780,1,0,0:0:0:0:
104,228,74840,5,12,0:0:0:0:
144,192,74900,1,0,0:0:0:0:
144,140,74960,1,0,0:0:0:0:
112,100,75020,1,0,0:0:0:0:
68,72,75080,6,2,P|56:220|108:272,1,210,6|0,0:0|0:0,0:0:0:0:
89,259,75440,1,0,0:0:0:0:
256,344,75560,2,0,P|332:248|343:144,1,210,6|0,0:0|0:0,0:0:0:0:
346,164,75920,1,0,0:0:0:0:
284,68,76040,5,12,0:0:0:0:
224,156,76160,1,0,0:0:0:0:
120,180,76280,1,0,0:0:0:0:
40,112,76400,1,0,0:0:0:0:
152,56,76520,5,8,0:0:0:0:
164,124,76600,1,0,0:0:0:0:
224,156,76680,1,0,0:0:0:0:
292,152,76760,2,0,P|356:128|420:140,1,105
456,240,77000,5,12,0:0:0:0:
388,256,77080,1,0,0:0:0:0:
336,304,77160,1,0,0:0:0:0:
296,360,77240,6,0,L|232:368,2,35
248,264,77360,2,0,L|284:244,2,35
192,328,77480,5,8,0:0:0:0:
124,324,77560,1,0,0:0:0:0:
72,276,77640,1,0,0:0:0:0:
76,208,77720,2,0,P|128:168|144:128,1,105
184,40,77960,5,12,0:0:0:0:
252,24,78040,1,0,0:0:0:0:
320,44,78120,1,0,0:0:0:0:
356,104,78200,1,0,0:0:0:0:
336,172,78280,1,0,0:0:0:0:
360,236,78360,1,0,0:0:0:0:
416,304,78440,5,8,0:0:0:0:
380,348,78520,1,0,0:0:0:0:
324,356,78600,1,0,0:0:0:0:
284,316,78680,1,0,0:0:0:0:
236,288,78760,1,0,0:0:0:0:
180,296,78840,1,0,0:0:0:0:
100,316,78920,5,12,0:0:0:0:
60,303,79000,1,0,0:0:0:0:
49,264,79080,1,0,0:0:0:0:
76,200,79160,6,0,P|112:192|148:176,1,52.5
192,152,79280,1,0,0:0:0:0:
220,64,79400,2,0,P|316:80|336:112,1,105,8|0,0:0|0:0,0:0:0:0:
324,184,79640,1,0,0:0:0:0:
412,240,79760,1,0,0:0:0:0:
508,192,79880,5,14,0:0:0:0:
496,176,79940,1,0,0:0:0:0:
484,160,80000,1,0,0:0:0:0:
320,280,80120,1,0,0:0:0:0:
160,204,80240,1,2,0:0:0:0:
148,220,80300,1,0,0:0:0:0:
136,236,80360,1,8,0:0:0:0:
320,280,80480,1,0,0:0:0:0:
336,144,80600,2,2,P|292:52|232:36,1,140
140,56,80840,5,14,0:0:0:0:
60,136,80920,1,0,0:0:0:0:
56,240,81000,1,0,0:0:0:0:
132,300,81080,1,0,0:0:0:0:
224,296,81160,1,0,0:0:0:0:
284,236,81240,1,0,0:0:0:0:
268,160,81320,5,12,0:0:0:0:
204,136,81400,1,0,0:0:0:0:
144,168,81480,1,0,0:0:0:0:
136,236,81560,1,0,0:0:0:0:
100,280,81640,1,0,0:0:0:0:
44,288,81720,1,0,0:0:0:0:
4,248,81800,5,12,0:0:0:0:
16,228,81860,1,0,0:0:0:0:
28,212,81920,1,0,0:0:0:0:
40,196,81980,1,0,0:0:0:0:
72,192,82040,1,0,0:0:0:0:
84,176,82100,1,0,0:0:0:0:
96,160,82160,1,0,0:0:0:0:
108,144,82220,1,0,0:0:0:0:
144,136,82280,5,12,0:0:0:0:
180,112,82340,1,0,0:0:0:0:
220,108,82400,1,0,0:0:0:0:
260,120,82460,1,0,0:0:0:0:
296,140,82520,5,12,0:0:0:0:
348,152,82580,1,0,0:0:0:0:
400,144,82640,5,8,0:0:0:0:
444,112,82700,1,0,0:0:0:0:
472,56,82760,6,0,P|408:84|364:224,1,210,12|0,0:0|0:0,0:0:0:0:
360,208,83120,1,0,0:0:0:0:
456,312,83240,2,0,P|356:352|256:292,1,210,12|0,0:0|0:0,0:0:0:0:
269,309,83600,1,0,0:0:0:0:
176,244,83720,5,12,0:0:0:0:
140,356,83840,1,0,0:0:0:0:
52,284,83960,1,0,0:0:0:0:
84,176,84080,1,0,0:0:0:0:
84,176,84140,1,0,0:0:0:0:
84,176,84200,2,0,P|136:120|172:96,1,70,8|0,0:0|0:0,0:0:0:0:
192,52,84360,5,0,0:0:0:0:
228,56,84440,2,0,P|292:16|296:12,2,70
352,84,84680,6,0,P|404:156|408:188,1,70,12|0,0:0|0:0,0:0:0:0:
424,220,84840,1,0,0:0:0:0:
424,252,84920,2,0,P|388:300|324:316,2,70
284,320,85160,6,0,P|228:268|208:236,1,70,8|0,0:0|0:0,0:0:0:0:
216,176,85320,1,0,0:0:0:0:
208,144,85400,2,0,P|148:104|64:108,1,140
36,248,85640,5,12,0:0:0:0:
104,320,85720,1,0,0:0:0:0:
196,292,85800,1,0,0:0:0:0:
268,224,85880,1,0,0:0:0:0:
344,192,85960,1,0,0:0:0:0:
424,220,86040,1,0,0:0:0:0:
472,288,86120,5,8,0:0:0:0:
404,268,86200,1,0,0:0:0:0:
392,200,86280,1,0,0:0:0:0:
364,136,86360,1,0,0:0:0:0:
320,100,86440,1,0,0:0:0:0:
264,96,86520,1,0,0:0:0:0:
216,124,86600,5,12,0:0:0:0:
208,140,86680,1,0,0:0:0:0:
200,160,86760,1,0,0:0:0:0:
168,228,86840,2,0,P|76:196|60:172,2,70
264,216,87080,5,8,0:0:0:0:
300,252,87160,1,0,0:0:0:0:
292,308,87240,1,0,0:0:0:0:
236,352,87320,2,0,P|164:372|144:404,2,70
360,376,87560,5,12,0:0:0:0:
412,328,87640,1,0,0:0:0:0:
404,260,87720,1,0,0:0:0:0:
376,184,87800,5,0,0:0:0:0:
336,188,87880,1,0,0:0:0:0:
316,216,87960,1,0,0:0:0:0:
276,276,88040,5,8,0:0:0:0:
208,252,88120,1,0,0:0:0:0:
196,184,88200,1,0,0:0:0:0:
176,104,88280,5,0,0:0:0:0:
136,104,88360,1,0,0:0:0:0:
108,136,88440,1,0,0:0:0:0:
116,212,88520,5,12,0:0:0:0:
48,196,88600,1,0,0:0:0:0:
32,128,88680,1,0,0:0:0:0:
80,28,88760,5,0,0:0:0:0:
80,56,88840,1,0,0:0:0:0:
96,96,88920,1,0,0:0:0:0:
140,128,89000,5,12,0:0:0:0:
196,84,89080,1,0,0:0:0:0:
276,60,89160,1,0,0:0:0:0:
372,80,89240,1,0,0:0:0:0:
424,180,89320,1,0,0:0:0:0:
376,296,89400,1,0,0:0:0:0:
244,360,89480,6,0,B|136:384|48:316|48:316|112:300|132:244,2,315,4|4|4,0:0|0:0|0:0,0:0:0:0:
376,296,90320,1,0,0:0:0:0:
396,280,90380,1,0,0:0:0:0:
412,264,90440,5,4,0:0:0:0:
328,144,90560,1,0,0:0:0:0:
284,232,90680,1,0,0:0:0:0:
412,116,90800,1,0,0:0:0:0:
328,144,90920,5,0,0:0:0:0:
168,64,91040,1,0,0:0:0:0:
284,232,91160,1,0,0:0:0:0:
160,88,91280,1,0,0:0:0:0:
176,200,91400,5,0,0:0:0:0:
140,112,91520,1,0,0:0:0:0:
76,272,91640,1,0,0:0:0:0:
112,124,91760,1,0,0:0:0:0:
8,192,91880,5,0,0:0:0:0:
80,120,92000,1,0,0:0:0:0:
72,108,92060,1,0,0:0:0:0:
64,92,92120,2,0,P|108:40|176:40,1,105
276,24,92360,5,0,0:0:0:0:
208,184,92480,1,0,0:0:0:0:
289,128,92600,1,0,0:0:0:0:
104,176,92720,1,0,0:0:0:0:
208,184,92840,5,0,0:0:0:0:
309,332,92960,1,0,0:0:0:0:
289,128,93080,1,0,0:0:0:0:
327,315,93200,1,0,0:0:0:0:
368,209,93320,5,0,0:0:0:0:
357,303,93440,1,0,0:0:0:0:
491,194,93560,1,0,0:0:0:0:
387,307,93680,1,0,0:0:0:0:
511,297,93800,5,0,0:0:0:0:
413,325,93920,1,0,0:0:0:0:
414,340,93980,1,0,0:0:0:0:
414,358,94040,2,0,P|350:382|290:349,1,105
228,288,94280,5,0,0:0:0:0:
316,144,94400,1,0,0:0:0:0:
220,152,94520,1,0,0:0:0:0:
376,212,94640,1,0,0:0:0:0:
316,268,94760,5,0,0:0:0:0:
316,144,94880,1,0,0:0:0:0:
300,292,95000,1,0,0:0:0:0:
220,152,95120,1,0,0:0:0:0:
264,292,95240,5,0,0:0:0:0:
168,228,95360,1,0,0:0:0:0:
256,320,95480,1,0,0:0:0:0:
80,256,95600,1,0,0:0:0:0:
224,344,95720,5,0,0:0:0:0:
120,340,95840,1,0,0:0:0:0:
96,296,95900,1,0,0:0:0:0:
80,256,95960,2,0,P|72:184|100:124,1,105
176,36,96200,5,0,0:0:0:0:
272,52,96280,1,0,0:0:0:0:
352,96,96360,1,0,0:0:0:0:
384,172,96440,1,0,0:0:0:0:
360,244,96520,1,0,0:0:0:0:
308,288,96600,1,0,0:0:0:0:
240,308,96680,5,0,0:0:0:0:
172,292,96760,1,0,0:0:0:0:
144,228,96840,1,0,0:0:0:0:
176,164,96920,1,0,0:0:0:0:
148,100,97000,1,0,0:0:0:0:
80,88,97080,1,0,0:0:0:0:
28,132,97160,5,0,0:0:0:0:
48,200,97240,1,0,0:0:0:0:
116,216,97320,1,0,0:0:0:0:
184,192,97400,5,0,0:0:0:0:
240,192,97480,1,0,0:0:0:0:
284,228,97560,1,0,0:0:0:0:
292,284,97640,5,0,0:0:0:0:
324,312,97720,1,0,0:0:0:0:
364,320,97800,1,0,0:0:0:0:
404,304,97880,1,0,0:0:0:0:
424,284,97960,1,0,0:0:0:0:
448,268,98040,1,0,0:0:0:0:
476,268,98120,5,0,0:0:0:0:
376,144,98240,1,0,0:0:0:0:
336,228,98360,1,0,0:0:0:0:
468,168,98480,5,0,0:0:0:0:
392,304,98600,1,0,0:0:0:0:
288,132,98720,1,0,0:0:0:0:
212,268,98840,2,0,P|132:292|92:284,1,105
84,152,99080,5,0,0:0:0:0:
192,52,99200,1,0,0:0:0:0:
192,52,99260,1,0,0:0:0:0:
192,52,99320,2,0,P|256:72|304:108,1,105
408,276,99560,1,0,0:0:0:0:
408,276,99620,1,0,0:0:0:0:
408,276,99680,2,0,P|312:248|284:228,1,105
400,152,99920,1,0,0:0:0:0:
364,24,100040,5,0,0:0:0:0:
480,212,100160,1,0,0:0:0:0:
288,76,100280,1,0,0:0:0:0:
348,224,100400,1,0,0:0:0:0:
216,124,100520,1,0,0:0:0:0:
224,236,100640,1,0,0:0:0:0:
136,168,100760,1,0,0:0:0:0:
120,240,100880,1,0,0:0:0:0:
40,184,101000,5,0,0:0:0:0:
24,220,101120,1,0,0:0:0:0:
132,192,101240,1,0,0:0:0:0:
132,224,101360,1,0,0:0:0:0:
220,184,101480,1,0,0:0:0:0:
224,208,101600,1,0,0:0:0:0:
312,172,101720,1,0,0:0:0:0:
316,188,101840,1,0,0:0:0:0:
408,144,101960,5,0,0:0:0:0:
428,196,102040,1,0,0:0:0:0:
412,248,102120,1,0,0:0:0:0:
364,276,102200,1,0,0:0:0:0:
308,276,102280,1,0,0:0:0:0:
260,308,102360,1,0,0:0:0:0:
192,352,102440,5,0,0:0:0:0:
128,338,102520,1,0,0:0:0:0:
105,279,102600,1,0,0:0:0:0:
128,221,102680,1,0,0:0:0:0:
137,159,102760,1,0,0:0:0:0:
93,114,102840,1,0,0:0:0:0:
28,64,102920,5,0,0:0:0:0:
84,24,103000,1,0,0:0:0:0:
152,24,103080,1,0,0:0:0:0:
204,72,103160,1,0,0:0:0:0:
272,88,103240,1,0,0:0:0:0:
340,76,103320,1,0,0:0:0:0:
416,20,103400,5,0,0:0:0:0:
407,97,103480,1,0,0:0:0:0:
453,158,103560,1,0,0:0:0:0:
504,224,103640,1,0,0:0:0:0:
488,300,103720,1,0,0:0:0:0:
420,336,103800,1,0,0:0:0:0:
348,312,103880,5,0,0:0:0:0:
312,252,103960,1,0,0:0:0:0:
248,220,104040,1,0,0:0:0:0:
180,236,104120,1,0,0:0:0:0:
144,204,104200,1,0,0:0:0:0:
148,156,104280,1,0,0:0:0:0:
180,120,104360,5,0,0:0:0:0:
184,72,104440,1,0,0:0:0:0:
148,40,104520,1,0,0:0:0:0:
100,48,104600,1,0,0:0:0:0:
56,92,104680,1,0,0:0:0:0:
48,156,104760,1,0,0:0:0:0:
92,200,104840,5,0,0:0:0:0:
120,256,104920,1,0,0:0:0:0:
100,316,105000,1,0,0:0:0:0:
16,360,105080,5,0,0:0:0:0:
80,336,105160,1,0,0:0:0:0:
148,352,105240,1,0,0:0:0:0:
216,380,105320,5,0,0:0:0:0:
264,352,105400,1,0,0:0:0:0:
264,296,105480,1,0,0:0:0:0:
224,256,105560,5,0,0:0:0:0:
244,220,105640,1,0,0:0:0:0:
276,192,105720,1,0,0:0:0:0:
316,184,105800,6,0,P|412:196|444:212,1,105
428,312,106040,1,0,0:0:0:0:
366,111,106160,2,0,P|418:195|414:243,1,105
324,264,106400,2,0,P|260:292|232:324,1,105
136,344,106640,1,0,0:0:0:0:
56,276,106760,6,0,P|84:200|128:148,2,105
180,244,107120,1,0,0:0:0:0:
224,132,107240,5,0,0:0:0:0:
296,288,107360,1,0,0:0:0:0:
340,180,107480,1,0,0:0:0:0:
180,244,107600,1,0,0:0:0:0:
136,88,107720,6,0,P|208:32|252:40,1,105
312,76,107960,1,0,0:0:0:0:
420,36,108080,2,0,P|452:92|444:144,1,105
296,288,108320,2,0,P|276:220|308:152,1,105
400,224,108560,1,0,0:0:0:0:
400,352,108680,6,0,P|332:368|276:368,2,105
344,228,109040,1,0,0:0:0:0:
289,87,109160,5,0,0:0:0:0:
199,283,109280,1,0,0:0:0:0:
143,148,109400,1,0,0:0:0:0:
344,228,109520,1,0,0:0:0:0:
256,360,109640,6,0,P|176:364|104:344,1,105
56,276,109880,1,0,0:0:0:0:
143,148,110000,2,0,P|176:212|172:272,1,105
20,112,110240,2,0,P|76:40|116:24,1,105
224,44,110480,1,0,0:0:0:0:
360,40,110600,6,0,P|440:20|472:-20,2,105
351,148,110960,1,0,0:0:0:0:
296,288,111080,5,0,0:0:0:0:
206,93,111200,1,0,0:0:0:0:
151,228,111320,1,0,0:0:0:0:
351,148,111440,1,0,0:0:0:0:
432,288,111560,5,0,0:0:0:0:
404,336,111640,1,0,0:0:0:0:
356,364,111720,1,0,0:0:0:0:
300,352,111800,5,0,0:0:0:0:
244,324,111880,1,0,0:0:0:0:
180,336,111960,1,0,0:0:0:0:
136,384,112040,5,0,0:0:0:0:
64,352,112120,1,0,0:0:0:0:
52,276,112200,1,0,0:0:0:0:
96,204,112280,1,0,0:0:0:0:
244,48,112400,1,0,0:0:0:0:
144,0,112520,6,0,B|100:132|252:156|168:304,2,315
244,48,113360,1,0,0:0:0:0:
316,200,113480,6,0,P|412:188|444:172,1,105
428,72,113720,1,0,0:0:0:0:
366,273,113840,2,0,P|418:189|414:141,1,105
324,120,114080,2,0,P|260:92|232:60,1,105
136,40,114320,1,0,0:0:0:0:
56,108,114440,6,0,P|84:184|128:236,2,105
180,140,114800,1,0,0:0:0:0:
224,252,114920,5,0,0:0:0:0:
340,204,115040,1,0,0:0:0:0:
296,96,115160,1,0,0:0:0:0:
180,140,115280,1,0,0:0:0:0:
136,296,115400,6,0,P|208:352|252:344,1,105
312,308,115640,1,0,0:0:0:0:
420,348,115760,2,0,P|452:292|444:240,1,105
296,96,116000,2,0,P|276:164|308:232,1,105
400,160,116240,1,0,0:0:0:0:
400,32,116360,6,0,P|332:16|276:16,2,105
344,156,116720,5,0,0:0:0:0:
289,297,116840,5,0,0:0:0:0:
143,236,116960,1,0,0:0:0:0:
199,101,117080,1,0,0:0:0:0:
344,156,117200,1,0,0:0:0:0:
440,292,117320,6,0,P|377:342|307:368,1,105
228,341,117560,1,0,0:0:0:0:
223,186,117680,2,0,P|287:218|319:269,1,105
104,230,117920,2,0,P|106:138|129:102,1,105
228,55,118160,1,0,0:0:0:0:
404,96,118280,6,0,P|472:140|496:188,2,105
351,236,118640,1,0,0:0:0:0:
206,291,118760,5,0,0:0:0:0:
151,156,118880,1,0,0:0:0:0:
296,96,119000,1,0,0:0:0:0:
351,236,119120,1,0,0:0:0:0:
328,380,119240,6,0,P|260:372|200:344,1,105
132,312,119480,5,0,0:0:0:0:
24,108,119600,1,0,0:0:0:0:
148,292,119720,5,0,0:0:0:0:
136,136,119840,1,0,0:0:0:0:
176,276,119960,5,0,0:0:0:0:
224,172,120080,1,0,0:0:0:0:
288,264,120200,6,0,P|356:256|416:228,1,105
424,144,120440,5,0,0:0:0:0:
224,172,120560,1,0,0:0:0:0:
403,129,120680,5,0,0:0:0:0:
260,96,120800,1,0,0:0:0:0:
385,101,120920,5,0,0:0:0:0:
308,40,121040,1,0,0:0:0:0:
408,12,121160,5,0,0:0:0:0:
432,60,121220,1,0,0:0:0:0:
432,112,121280,1,0,0:0:0:0:
404,156,121340,1,0,0:0:0:0:
352,156,121400,1,0,0:0:0:0:
300,140,121460,1,0,0:0:0:0:
252,160,121520,1,0,0:0:0:0:
236,208,121580,1,0,0:0:0:0:
256,256,121640,5,0,0:0:0:0:
208,232,121700,1,0,0:0:0:0:
160,256,121760,1,0,0:0:0:0:
156,308,121820,1,0,0:0:0:0:
196,344,121880,1,0,0:0:0:0:
244,328,121940,1,0,0:0:0:0:
296,328,122000,1,0,0:0:0:0:
340,356,122060,1,0,0:0:0:0:
384,384,122120,5,0,0:0:0:0:
408,336,122180,1,0,0:0:0:0:
408,284,122240,1,0,0:0:0:0:
376,244,122300,1,0,0:0:0:0:
352,196,122360,6,0,L|376:136,3,52.5
436,220,122600,5,0,0:0:0:0:
404,260,122660,1,0,0:0:0:0:
352,276,122720,1,0,0:0:0:0:
300,272,122780,1,0,0:0:0:0:
248,260,122840,1,0,0:0:0:0:
196,276,122900,1,0,0:0:0:0:
168,320,122960,1,0,0:0:0:0:
132,360,123020,1,0,0:0:0:0:
80,356,123080,1,0,0:0:0:0:
256,192,123140,12,0,125000,0:0:0:0:
