osu file format v14

[General]
AudioFilename: audio.mp3
AudioLeadIn: 0
PreviewTime: 84203
Countdown: 0
SampleSet: None
StackLeniency: 0.7
Mode: 0
LetterboxInBreaks: 0
WidescreenStoryboard: 0

[Editor]
Bookmarks: 25206,56083,84313,98428,136362,159299,173414,201644,222817
DistanceSpacing: 1.1
BeatDivisor: 4
GridSize: 4
TimelineZoom: 2.1

[Metadata]
Title:Holy Orders
TitleUnicode:Holy Orders
Artist:S.S.H.
ArtistUnicode:S.S.H.
Creator:Lolicore_Komari
Version:Collab
Source:Guilty Gear 2
Tags:-Unlimit-
BeatmapID:1084608
BeatmapSetID:510104

[Difficulty]
HPDrainRate:6
CircleSize:4.3
OverallDifficulty:7
ApproachRate:9.5
SliderMultiplier:1.8
SliderTickRate:0.5

[Events]
//Background and Video events
//Break Periods
//Storyboard Layer 0 (Background)
//Storyboard Layer 1 (Fail)
//Storyboard Layer 2 (Pass)
//Storyboard Layer 3 (Foreground)
//Storyboard Sound Samples

[TimingPoints]
7562.68619321967,220.547693438706,4,1,1,45,1,0
7783,-133.333333333333,4,1,1,45,0,0
25206,-100,4,1,1,45,0,0
39321,-133.333333333333,4,1,1,45,0,0
40203,-100,4,1,1,45,0,0
41968,-133.333333333333,4,1,1,45,0,0
44614,-100,4,1,1,45,0,0
45496,-133.333333333333,4,1,1,45,0,0
49025,-100,4,1,1,45,0,0
84313,-100,4,1,1,45,0,1
90488,-133.333333333333,4,1,1,45,0,1
90819,-200,4,1,1,45,0,1
91370,-100,4,1,1,45,0,1
98428,-200,4,1,1,45,0,0
105485,-100,4,1,1,45,0,0
157535,-83.3333333333333,4,1,1,45,0,0
159299,-100,4,1,1,45,0,0
173414,-100,4,1,1,45,0,1
187529,-100,4,1,1,45,0,0
189293,-100,4,1,1,35,0,0
215759,-100,4,3,0,45,0,0
220832,-100,4,1,1,45,0,0

[Colours]
Combo1 : 56,61,239
Combo2 : 73,175,224
Combo3 : 131,137,109
Combo4 : 98,203,58

[HitObjects]
240,168,7562,5,8,0:0:0:0:
144,96,7783,1,0,0:0:0:0:
32,144,8003,2,0,L|8:280,1,135.000005149842
128,368,8444,2,0,L|151:235,1,135.000005149842
208,144,8885,1,0,0:0:0:0:
234,122,8958,1,0,0:0:0:0:
263,107,9032,1,0,0:0:0:0:
296,97,9105,1,0,0:0:0:0:
329,94,9179,1,0,0:0:0:0:
363,99,9252,1,0,0:0:0:0:
395,109,9327,6,0,L|416:248,1,135.000005149842,8|0,0:0|0:0,0:0:0:0:
492,304,9768,2,0,P|430:329|364:319,1,135.000005149842
208,172,10209,1,0,0:0:0:0:
284,248,10429,1,0,0:0:0:0:
136,252,10650,1,0,0:0:0:0:
117,264,10723,1,0,0:0:0:0:
102,281,10797,1,0,0:0:0:0:
89,299,10870,1,0,0:0:0:0:
81,320,10944,1,0,0:0:0:0:
78,343,11017,1,0,0:0:0:0:
78,365,11091,6,0,L|72:224,1,135.000005149842,8|0,0:0|0:0,0:0:0:0:
201,37,11532,2,0,L|208:172,1,135.000005149842
220,308,11973,1,0,0:0:0:0:
68,96,12194,1,0,0:0:0:0:
320,160,12414,1,0,0:0:0:0:
353,158,12487,1,0,0:0:0:0:
385,148,12561,1,0,0:0:0:0:
414,131,12634,1,0,0:0:0:0:
438,107,12708,1,0,0:0:0:0:
454,78,12781,1,0,0:0:0:0:
463,45,12855,6,0,L|488:184,1,135.000005149842,8|0,0:0|0:0,0:0:0:0:
436,304,13296,1,0,0:0:0:0:
316,244,13517,1,0,0:0:0:0:
316,244,13738,2,0,P|345:226|378:224,1,67.5000025749208,8|0,0:0|0:0,0:0:0:0:
340,339,13958,2,0,P|307:346|274:337,1,67.5000025749208
176,264,14179,1,8,0:0:0:0:
151,257,14234,1,0,0:0:0:0:
126,255,14289,1,0,0:0:0:0:
101,258,14344,1,0,0:0:0:0:
77,266,14399,1,8,0:0:0:0:
55,278,14454,1,0,0:0:0:0:
36,295,14509,1,0,0:0:0:0:
20,314,14564,1,0,0:0:0:0:
8,337,14620,1,8,0:0:0:0:
256,192,14675,12,0,16164,0:0:0:0:
184,280,16384,6,0,P|150:276|117:280,1,67.5000025749208,8|0,0:0|0:0,0:0:0:0:
312,231,16605,2,0,P|278:229|251:209,1,67.5000025749208
368,328,16825,1,0,0:0:0:0:
378,302,16898,1,0,0:0:0:0:
395,280,16972,1,0,0:0:0:0:
418,263,17045,1,0,0:0:0:0:
445,254,17119,1,0,0:0:0:0:
473,253,17192,1,0,0:0:0:0:
500,260,17266,6,0,L|492:176,1,67.5000025749208,8|0,0:0|0:0,0:0:0:0:
388,96,17487,2,0,L|394:163,1,67.5000025749208
452,40,17707,1,0,0:0:0:0:
424,21,17780,1,0,0:0:0:0:
391,13,17854,1,0,0:0:0:0:
358,18,17927,1,0,0:0:0:0:
329,36,18001,1,0,0:0:0:0:
309,62,18074,1,0,0:0:0:0:
300,94,18148,2,0,L|306:161,1,67.5000025749208,8|0,0:0|0:0,0:0:0:0:
360,248,18369,5,0,0:0:0:0:
326,243,18424,1,0,0:0:0:0:
294,250,18479,1,0,0:0:0:0:
265,268,18534,1,0,0:0:0:0:
246,295,18590,2,0,L|175:307,1,67.5000025749208
76,280,18810,2,0,L|42:284,2,33.7500012874604
148,212,19031,5,8,0:0:0:0:
173,181,19104,1,0,0:0:0:0:
171,141,19178,1,0,0:0:0:0:
144,112,19251,1,0,0:0:0:0:
105,108,19325,1,0,0:0:0:0:
72,131,19398,1,0,0:0:0:0:
112,140,19472,1,0,0:0:0:0:
151,135,19545,1,0,0:0:0:0:
184,111,19619,1,0,0:0:0:0:
200,74,19692,1,0,0:0:0:0:
196,34,19766,1,0,0:0:0:0:
174,1,19839,1,0,0:0:0:0:
134,2,19913,6,0,L|142:82,1,67.5000025749208,8|0,0:0|0:0,0:0:0:0:
78,198,20133,2,0,L|72:131,1,67.5000025749208
168,200,20354,1,0,0:0:0:0:
161,238,20427,1,0,0:0:0:0:
138,270,20501,1,0,0:0:0:0:
103,288,20574,1,0,0:0:0:0:
64,289,20648,1,0,0:0:0:0:
29,274,20721,1,0,0:0:0:0:
3,244,20795,6,0,L|9:311,1,67.5000025749208,8|0,0:0|0:0,0:0:0:0:
216,348,21016,2,0,L|148:354,1,67.5000025749208
446,327,21236,1,0,0:0:0:0:
433,291,21310,1,0,0:0:0:0:
408,261,21383,1,0,0:0:0:0:
374,241,21457,1,0,0:0:0:0:
335,235,21530,1,0,0:0:0:0:
297,243,21604,1,0,0:0:0:0:
263,264,21677,6,0,L|276:116,1,135.000005149842,8|0,0:0|0:0,0:0:0:0:
164,32,22118,2,0,L|153:166,1,135.000005149842,8|0,0:0|0:0,0:0:0:0:
68,319,22559,2,0,P|91:296|123:285,1,67.5000025749208
216,276,22780,2,0,P|249:276|279:291,1,67.5000025749208,8|0,0:0|0:0,0:0:0:0:
376,344,23001,1,0,0:0:0:0:
324,248,23111,1,0,0:0:0:0:
344,140,23221,2,0,L|368:76,2,67.5000025749208,0|0|8,0:0|0:0|0:0,0:0:0:0:
268,340,23662,1,0,0:0:0:0:
268,340,23772,1,0,0:0:0:0:
171,291,23883,2,0,P|105:297|51:336,1,135.000005149842,8|0,0:0|0:0,0:0:0:0:
244,240,24214,1,0,0:0:0:0:
312,184,24324,5,8,0:0:0:0:
208,204,24434,1,0,0:0:0:0:
104,224,24544,1,0,0:0:0:0:
12,168,24655,2,0,L|24:248,1,67.5000025749208,8|0,0:0|0:0,0:0:0:0:
132,56,24875,1,0,0:0:0:0:
132,56,24985,2,0,L|112:144,1,67.5000025749208,8|0,0:0|0:0,0:0:0:0:
248,88,25206,6,0,L|338:75,1,90,8|0,0:0|0:0,0:0:0:0:
423,141,25427,1,0,0:0:0:0:
307,209,25537,2,0,P|287:102|324:23,1,180,8|0,0:0|0:0,0:0:0:0:
410,190,25868,2,0,B|400:234|400:234|361:278,1,90,8|0,0:0|0:0,0:0:0:0:
237,244,26088,5,8,0:0:0:0:
329,145,26198,1,0,0:0:0:0:
193,148,26309,1,0,0:0:0:0:
399,236,26419,2,0,P|444:237|494:210,1,90,8|0,0:0|0:0,0:0:0:0:
417,99,26640,1,0,0:0:0:0:
291,49,26750,2,0,P|246:48|196:75,1,90,8|0,0:0|0:0,0:0:0:0:
63,175,26970,6,0,L|70:281,1,90,8|0,0:0|0:0,0:0:0:0:
443,264,27191,2,0,L|449:175,1,90,0|8,0:0|0:0,0:0:0:0:
164,41,27411,2,0,L|178:140,1,90
322,343,27632,2,0,L|336:244,1,90,8|0,0:0|0:0,0:0:0:0:
185,292,27853,6,0,L|82:284,1,90,8|0,0:0|0:0,0:0:0:0:
416,98,28073,2,0,L|313:90,1,90,0|8,0:0|0:0,0:0:0:0:
57,134,28294,2,0,L|61:224,1,90
451,224,28514,2,0,L|455:134,1,90,8|0,0:0|0:0,0:0:0:0:
292,52,28735,6,0,L|296:142,1,90,8|0,0:0|0:0,0:0:0:0:
195,181,28955,1,0,0:0:0:0:
303,263,29066,2,0,P|250:336|149:318,1,180,8|0,0:0|0:0,0:0:0:0:
260,178,29396,2,0,B|298:153|298:153|380:141,1,90,8|0,0:0|0:0,0:0:0:0:
459,215,29617,5,8,0:0:0:0:
367,272,29727,1,0,0:0:0:0:
267,112,29838,1,0,0:0:0:0:
363,163,29948,2,0,P|290:211|194:187,1,180,8|0,0:0|0:0,0:0:0:0:
70,116,30279,2,0,L|175:72,1,90,8|0,0:0|0:0,0:0:0:0:
332,88,30499,6,0,L|437:44,1,90,8|0,0:0|0:0,0:0:0:0:
180,178,30720,2,0,L|68:152,1,90
332,268,30940,2,0,L|445:262,1,90,8|0,0:0|0:0,0:0:0:0:
180,358,31161,2,0,L|67:372,1,90
296,280,31381,6,0,P|320:331|322:376,1,90,8|0,0:0|0:0,0:0:0:0:
188,127,31602,2,0,P|238:121|291:88,1,90
388,33,31822,6,8,L|411:78,1,45
345,139,31933,2,0,L|368:184,1,45
440,227,32043,1,8,0:0:0:0:
434,248,32098,1,0,0:0:0:0:
429,270,32153,1,0,0:0:0:0:
424,292,32208,1,0,0:0:0:0:
419,314,32264,6,0,P|331:335|262:261,1,180,8|0,0:0|0:0,0:0:0:0:
376,172,32594,2,0,L|350:261,1,90,8|0,0:0|0:0,0:0:0:0:
279,176,32815,1,0,0:0:0:0:
447,112,32925,2,0,L|422:25,1,90,8|0,0:0|0:0,0:0:0:0:
89,25,33146,6,0,L|65:112,1,90,8|0,0:0|0:0,0:0:0:0:
111,238,33366,1,0,0:0:0:0:
289,206,33477,2,0,L|106:182,1,180,8|0,0:0|0:0,0:0:0:0:
266,92,33807,2,0,P|316:89|376:63,1,90,8|0,0:0|0:0,0:0:0:0:
371,289,34028,6,0,P|357:246|356:202,1,90,8|0,0:0|0:0,0:0:0:0:
469,128,34248,1,0,0:0:0:0:
434,231,34359,2,0,B|309:253|309:253|236:246,1,180,8|0,0:0|0:0,0:0:0:0:
193,159,34690,1,8,0:0:0:0:
121,239,34800,1,0,0:0:0:0:
49,319,34910,6,0,P|118:359|217:346,1,180,8|0,0:0|0:0,0:0:0:0:
276,52,35241,2,0,P|207:12|108:25,1,180,8|0,0:0|0:0,0:0:0:0:
261,192,35572,2,0,L|384:227,1,90,8|0,0:0|0:0,0:0:0:0:
449,69,35792,6,0,L|362:93,1,90,8|0,0:0|0:0,0:0:0:0:
431,210,36013,1,0,0:0:0:0:
260,154,36123,2,0,P|182:141|93:189,1,180,8|0,0:0|0:0,0:0:0:0:
205,266,36454,2,0,L|140:336,1,90,8|0,0:0|0:0,0:0:0:0:
322,315,36674,5,8,0:0:0:0:
452,351,36785,1,0,0:0:0:0:
419,221,36895,1,0,0:0:0:0:
151,255,37005,2,0,L|322:315,1,180,8|0,0:0|0:0,0:0:0:0:
285,183,37336,2,0,L|272:84,1,90,8|0,0:0|0:0,0:0:0:0:
95,128,37557,6,0,L|108:227,1,90,8|0,0:0|0:0,0:0:0:0:
405,217,37777,2,0,L|417:128,1,90
26,206,37998,2,0,L|30:296,1,90,8|0,0:0|0:0,0:0:0:0:
482,296,38218,2,0,L|487:183,1,90
150,343,38439,6,0,P|138:297|138:250,1,90
439,208,38659,2,0,P|405:241|365:265,1,90,8|0,0:0|0:0,0:0:0:0:
178,24,38880,2,0,P|224:37|264:60,1,90,8|0,0:0|0:0,0:0:0:0:
471,140,39101,5,0,0:0:0:0:
412,133,39174,1,0,0:0:0:0:
376,88,39248,1,0,0:0:0:0:
382,30,39321,6,0,P|412:96|412:170,1,135.000005149842,8|0,0:0|0:0,0:0:0:0:
129,353,39762,2,0,P|100:288|100:214,1,135.000005149842,8|0,0:0|0:0,0:0:0:0:
414,226,40203,5,0,0:0:0:0:
329,332,40314,1,0,0:0:0:0:
250,170,40424,1,8,0:0:0:0:
267,155,40479,1,0,0:0:0:0:
286,145,40534,1,0,0:0:0:0:
308,139,40589,1,0,0:0:0:0:
331,139,40644,5,8,0:0:0:0:
258,254,40755,1,0,0:0:0:0:
139,189,40865,1,8,0:0:0:0:
134,211,40920,1,0,0:0:0:0:
130,233,40975,1,0,0:0:0:0:
126,255,41030,1,0,0:0:0:0:
121,277,41085,5,0,0:0:0:0:
285,355,41196,2,0,B|307:338|341:339|341:339|367:351|367:351|397:351|436:320|440:282,1,180,8|0,0:0|0:0,0:0:0:0:
245,175,41527,2,0,P|243:220|262:269,1,90,8|0,0:0|0:0,0:0:0:0:
459,164,41747,2,0,P|434:126|389:97,1,90,8|0,0:0|0:0,0:0:0:0:
179,196,41968,6,0,P|118:170|118:80,1,135.000005149842,8|0,0:0|0:0,0:0:0:0:
407,107,42409,2,0,P|393:171|333:196,1,135.000005149842,8|0,0:0|0:0,0:0:0:0:
143,268,42850,6,0,B|194:309|194:309|272:327,1,135.000005149842
369,116,43291,2,0,B|318:75|318:75|240:57,1,135.000005149842,8|0,0:0|0:0,0:0:0:0:
342,240,43732,6,0,B|392:239|392:239|427:217|427:217|485:217,1,135.000005149842,8|0,0:0|0:0,0:0:0:0:
170,240,44173,2,0,B|120:239|120:239|85:217|85:217|27:217,1,135.000005149842,8|0,0:0|0:0,0:0:0:0:
47,261,44467,1,0,0:0:0:0:
52,306,44541,1,0,0:0:0:0:
58,350,44614,6,0,B|99:356|99:356|131:356|155:337|155:337|189:348|189:348|243:333,1,180,8|0,0:0|0:0,0:0:0:0:
453,33,44945,2,0,B|413:28|413:28|381:28|357:47|357:47|323:36|323:36|269:51,1,180,8|0,0:0|0:0,0:0:0:0:
260,135,45276,1,8,0:0:0:0:
238,222,45386,1,0,0:0:0:0:
216,309,45496,6,0,P|189:254|216:190,1,135.000005149842,8|0,0:0|0:0,0:0:0:0:
480,249,45937,2,0,L|345:249,1,135.000005149842,0|8,0:0|0:0,0:0:0:0:
71,47,46379,2,0,L|206:47,1,135.000005149842
429,199,46820,2,0,P|369:269|475:265,1,236.250009012223,8|0,0:0|0:0,0:0:0:0:
421,253,47261,6,0,P|363:283|279:276,1,135.000005149842,8|0,0:0|0:0,0:0:0:0:
91,253,47702,2,0,P|149:283|233:276,1,135.000005149842,8|0,0:0|0:0,0:0:0:0:
235,240,47995,1,0,0:0:0:0:
237,196,48069,1,0,0:0:0:0:
221,154,48143,6,0,P|197:99|221:32,1,135.000005149842,8|0,0:0|0:0,0:0:0:0:
410,175,48474,2,0,P|434:230|410:297,1,135.000005149842,8|0,0:0|0:0,0:0:0:0:
206,309,48805,1,8,0:0:0:0:
190,315,48860,1,0,0:0:0:0:
174,321,48915,1,0,0:0:0:0:
159,327,48970,1,0,0:0:0:0:
144,335,49025,6,0,P|107:302|86:249,1,90,8|0,0:0|0:0,0:0:0:0:
349,186,49246,2,0,P|338:234|303:279,1,90
128,144,49466,2,0,P|175:128|231:136,1,90,8|0,0:0|0:0,0:0:0:0:
422,266,49687,2,0,P|402:305|368:335,1,90
144,352,49907,6,0,L|122:167,1,180,8|0,0:0|0:0,0:0:0:0:
247,41,50238,1,0,0:0:0:0:
247,41,50348,2,0,L|225:219,1,180,8|0,0:0|0:0,0:0:0:0:
341,359,50679,1,0,0:0:0:0:
458,221,50790,6,0,P|451:174|423:126,1,90,8|0,0:0|0:0,0:0:0:0:
226,228,51010,2,0,P|270:245|325:245,1,90
380,31,51231,2,0,P|342:60|315:108,1,90,8|0,0:0|0:0,0:0:0:0:
396,354,51451,2,0,L|399:254,1,90
184,96,51672,6,0,P|138:157|138:283,1,180,8|0,0:0|0:0,0:0:0:0:
256,307,52003,1,0,0:0:0:0:
382,257,52113,2,0,P|378:169|328:96,1,180,8|0,0:0|0:0,0:0:0:0:
204,152,52444,1,0,0:0:0:0:
87,84,52554,6,0,P|46:107|10:159,1,90,8|0,0:0|0:0,0:0:0:0:
221,235,52774,2,0,L|322:223,1,90
116,342,52995,2,0,P|93:295|93:237,1,90,8|0,0:0|0:0,0:0:0:0:
422,257,53216,2,0,P|416:302|396:342,1,90
204,152,53436,6,0,B|301:126|276:181|403:140,1,180,8|0,0:0|0:0,0:0:0:0:
301,36,53767,1,0,0:0:0:0:
169,64,53877,2,0,P|121:127|166:237,1,180,8|0,0:0|0:0,0:0:0:0:
270,268,54208,1,0,0:0:0:0:
165,353,54318,6,0,P|206:366|273:361,1,90,8|0,0:0|0:0,0:0:0:0:
426,156,54539,2,0,L|392:40,1,90
196,162,54759,2,0,P|164:191|135:251,1,90,8|0,0:0|0:0,0:0:0:0:
359,291,54980,2,0,P|400:303|467:299,1,90
118,258,55200,6,0,L|135:347,1,90
377,347,55421,2,0,L|393:258,1,90,8|0,0:0|0:0,0:0:0:0:
246,118,55642,1,8,0:0:0:0:
340,318,55752,1,0,0:0:0:0:
382,100,55862,1,8,0:0:0:0:
220,252,55972,1,0,0:0:0:0:
440,224,56083,6,0,P|466:142|410:76,1,180,0|8,0:0|0:0,0:0:0:0:
274,303,56414,1,0,0:0:0:0:
274,303,56524,2,0,L|364:292,1,90
92,264,56744,2,0,L|181:252,1,90,8|0,0:0|0:0,0:0:0:0:
364,292,56965,2,0,L|244:152,1,180,0|8,0:0|0:0,0:0:0:0:
151,94,57296,2,0,L|89:267,1,180
72,360,57627,2,0,L|177:339,1,90,8|0,0:0|0:0,0:0:0:0:
272,368,57847,6,0,L|251:262,1,90
368,300,58068,1,8,0:0:0:0:
368,300,58178,1,0,0:0:0:0:
368,300,58288,2,0,L|347:194,1,90
332,112,58509,1,8,0:0:0:0:
332,112,58564,1,0,0:0:0:0:
332,112,58619,1,0,0:0:0:0:
312,15,58729,2,0,P|399:13|467:70,1,180,0|8,0:0|0:0,0:0:0:0:
476,168,59060,2,0,P|434:245|351:275,1,180
256,244,59391,1,8,0:0:0:0:
256,244,59501,1,0,0:0:0:0:
164,212,59611,6,0,P|96:212|16:304,1,180,0|8,0:0|0:0,0:0:0:0:
336,152,59942,2,0,P|240:164|172:116,1,180
116,36,60273,1,8,0:0:0:0:
116,36,60383,1,0,0:0:0:0:
116,36,60494,2,0,L|136:220,1,180,0|8,0:0|0:0,0:0:0:0:
144,312,60824,1,0,0:0:0:0:
216,244,60935,1,0,0:0:0:0:
216,244,61045,1,0,0:0:0:0:
216,244,61155,2,0,P|179:219|135:213,1,90,8|0,0:0|0:0,0:0:0:0:
64,156,61376,6,0,L|19:335,1,180,0|8,0:0|0:0,0:0:0:0:
144,312,61707,2,0,L|360:272,1,180
412,240,62037,2,0,P|441:273|453:316,1,90,8|0,0:0|0:0,0:0:0:0:
362,355,62258,2,0,P|332:322|320:279,1,90,8|0,0:0|0:0,0:0:0:0:
340,180,62479,1,0,0:0:0:0:
340,180,62589,1,0,0:0:0:0:
396,100,62699,1,8,0:0:0:0:
370,84,62772,1,0,0:0:0:0:
341,78,62846,1,0,0:0:0:0:
311,81,62919,1,0,0:0:0:0:
283,92,62993,1,0,0:0:0:0:
261,112,63066,1,0,0:0:0:0:
246,138,63140,6,0,L|56:172,1,180,0|8,0:0|0:0,0:0:0:0:
96,76,63470,1,0,0:0:0:0:
132,244,63581,2,0,L|147:332,1,90
305,336,63802,2,0,L|232:284,1,90,8|0,0:0|0:0,0:0:0:0:
324,252,64022,2,0,L|528:264,1,180,0|8,0:0|0:0,0:0:0:0:
476,168,64353,2,0,L|296:157,1,180
196,148,64684,1,8,0:0:0:0:
196,148,64794,1,0,0:0:0:0:
104,112,64905,5,0,0:0:0:0:
56,24,65015,1,0,0:0:0:0:
56,24,65125,2,0,L|40:120,1,90,8|0,0:0|0:0,0:0:0:0:
20,212,65346,1,0,0:0:0:0:
48,308,65456,1,0,0:0:0:0:
128,364,65566,1,8,0:0:0:0:
228,372,65677,1,0,0:0:0:0:
312,324,65787,2,0,L|272:240,2,90,0|0|8,0:0|0:0|0:0,0:0:0:0:
407,344,66118,2,0,P|486:305|508:220,1,180
456,136,66448,5,8,0:0:0:0:
372,220,66559,1,0,0:0:0:0:
256,192,66669,2,0,L|256:96,1,90
320,332,66890,2,0,P|376:320|420:344,1,90,8|0,0:0|0:0,0:0:0:0:
192,332,67110,2,0,P|136:320|92:344,1,90
256,192,67331,2,0,L|256:244,2,45,8|0|0,0:0|0:0|0:0,0:0:0:0:
56,136,67551,5,0,0:0:0:0:
140,220,67662,1,0,0:0:0:0:
256,192,67772,2,0,L|256:96,1,90,8|0,0:0|0:0,0:0:0:0:
256,360,67992,2,0,L|256:264,1,90
360,268,68213,1,8,0:0:0:0:
360,268,68268,1,0,0:0:0:0:
360,268,68323,1,0,0:0:0:0:
472,336,68433,2,0,P|496:280|476:136,1,180,0|8,0:0|0:0,0:0:0:0:
376,94,68764,2,0,P|347:179|359:267,1,180
472,336,69095,1,8,0:0:0:0:
472,336,69205,1,0,0:0:0:0:
360,268,69316,5,0,0:0:0:0:
328,256,69389,1,0,0:0:0:0:
292,260,69463,1,0,0:0:0:0:
260,272,69536,1,8,0:0:0:0:
232,292,69610,1,0,0:0:0:0:
200,308,69683,1,0,0:0:0:0:
164,312,69757,1,0,0:0:0:0:
128,300,69830,1,0,0:0:0:0:
108,272,69904,1,0,0:0:0:0:
104,236,69977,1,8,0:0:0:0:
124,204,70051,1,0,0:0:0:0:
152,184,70124,1,0,0:0:0:0:
188,180,70198,2,0,L|384:192,1,180,0|8,0:0|0:0,0:0:0:0:
124,60,70639,6,0,L|320:72,1,180,0|8,0:0|0:0,0:0:0:0:
392,116,70970,1,0,0:0:0:0:
476,64,71080,2,0,P|500:128|456:236,1,180,0|8,0:0|0:0,0:0:0:0:
211,291,71521,2,0,P|291:328|376:304,1,180,0|8,0:0|0:0,0:0:0:0:
124,224,71962,6,0,L|156:40,1,180,0|8,0:0|0:0,0:0:0:0:
252,24,72293,2,0,L|221:201,1,180
211,291,72624,1,8,0:0:0:0:
211,291,72734,1,0,0:0:0:0:
119,328,72844,2,0,P|75:336|31:329,1,90
124,224,73065,1,8,0:0:0:0:
124,223,73175,2,0,P|211:206|300:221,1,180
476,288,73506,2,0,P|432:283|392:264,1,90,8|0,0:0|0:0,0:0:0:0:
356,172,73726,5,0,0:0:0:0:
356,172,73837,2,0,L|368:64,2,90,0|8|0,0:0|0:0|0:0,0:0:0:0:
292,248,74168,2,0,L|282:337,1,90
168,148,74388,2,0,L|257:157,1,90,8|0,0:0|0:0,0:0:0:0:
188,252,74609,2,0,L|98:242,1,90
68,152,74829,2,0,L|84:109,3,45,8|0|0|0,0:0|0:0|0:0|0:0,0:0:0:0:
44,196,75050,2,0,P|32:260|36:296,1,90
92,364,75270,1,8,0:0:0:0:
92,364,75381,1,0,0:0:0:0:
180,320,75491,5,0,0:0:0:0:
260,264,75601,2,0,P|308:252|352:256,2,90,0|8|0,0:0|0:0|0:0,0:0:0:0:
272,364,75932,5,0,0:0:0:0:
372,360,76042,2,0,P|428:360|464:344,2,90,0|8|0,0:0|0:0|0:0,0:0:0:0:
348,255,76373,1,0,0:0:0:0:
360,156,76483,1,0,0:0:0:0:
460,168,76594,1,8,0:0:0:0:
452,268,76704,1,0,0:0:0:0:
372,360,76814,2,0,L|276:348,1,90
184,332,77035,2,0,L|88:320,1,90,8|0,0:0|0:0,0:0:0:0:
160,248,77255,6,0,P|204:164|172:64,1,180,0|8,0:0|0:0,0:0:0:0:
96,48,77586,1,0,0:0:0:0:
96,48,77696,2,0,L|0:68,1,90
288,112,77917,2,0,L|376:93,1,90,8|0,0:0|0:0,0:0:0:0:
472,72,78137,2,0,P|488:158|445:235,1,180,0|8,0:0|0:0,0:0:0:0:
352,272,78468,1,0,0:0:0:0:
252,284,78579,2,0,P|292:328|304:360,1,90
160,244,78799,1,8,0:0:0:0:
160,244,78854,1,0,0:0:0:0:
160,244,78909,1,0,0:0:0:0:
76,300,79020,6,0,P|44:260|56:136,1,180,0|8,0:0|0:0,0:0:0:0:
280,144,79350,2,0,P|216:82|129:81,1,180
160,244,79681,2,0,L|264:244,1,90,8|0,0:0|0:0,0:0:0:0:
336,192,79902,1,0,0:0:0:0:
369,195,79957,1,0,0:0:0:0:
402,188,80012,1,0,0:0:0:0:
430,170,80067,1,0,0:0:0:0:
451,144,80122,2,0,L|448:240,1,90,8|0,0:0|0:0,0:0:0:0:
444,336,80343,2,0,L|441:380,2,45
344,340,80563,2,0,L|347:250,1,90,8|0,0:0|0:0,0:0:0:0:
352,152,80784,6,0,P|332:65|264:8,1,180,0|8,0:0|0:0,0:0:0:0:
164,20,81115,2,0,L|180:120,1,90
80,32,81335,1,0,0:0:0:0:
80,32,81446,2,0,P|14:91|0:179,1,180,8|0,0:0|0:0,0:0:0:0:
88,352,81887,1,8,0:0:0:0:
24,276,82107,1,0,0:0:0:0:
184,372,82328,2,0,L|296:364,1,90
364,308,82548,6,0,L|372:360,3,45,8|0|0|0,0:0|0:0|0:0|0:0,0:0:0:0:
372,224,82769,2,0,L|380:276,3,45
376,144,82989,2,0,L|384:196,3,45,8|0|0|0,0:0|0:0|0:0|0:0,0:0:0:0:
384,64,83210,2,0,L|392:116,3,45
376,32,83431,5,8,0:0:0:0:
382,49,83504,1,0,0:0:0:0:
388,67,83578,1,0,0:0:0:0:
394,85,83651,1,8,0:0:0:0:
400,102,83725,1,0,0:0:0:0:
406,120,83798,1,0,0:0:0:0:
412,138,83872,1,8,0:0:0:0:
418,156,83945,1,0,0:0:0:0:
424,173,84019,1,0,0:0:0:0:
430,191,84092,1,8,0:0:0:0:
437,209,84166,1,0,0:0:0:0:
443,227,84239,1,0,0:0:0:0:
449,244,84313,6,0,L|248:228,1,180,8|0,0:0|0:0,0:0:0:0:
207,350,84644,1,0,0:0:0:0:
385,327,84754,2,0,P|434:280|434:157,1,180,8|0,0:0|0:0,0:0:0:0:
127,327,85085,2,0,P|78:280|78:157,1,180,8|0,0:0|0:0,0:0:0:0:
201,136,85416,1,8,0:0:0:0:
166,266,85526,1,0,0:0:0:0:
297,232,85636,6,0,P|352:224|397:198,1,90,8|0,0:0|0:0,0:0:0:0:
328,35,85857,2,0,P|273:43|228:69,1,90,8|0,0:0|0:0,0:0:0:0:
489,165,86077,6,0,B|437:177|437:177|385:162|385:162|303:177,1,180,8|0,0:0|0:0,0:0:0:0:
326,310,86408,1,0,0:0:0:0:
150,270,86518,2,0,L|36:250,1,90
314,156,86739,2,0,L|428:136,1,90,8|0,0:0|0:0,0:0:0:0:
204,35,86959,6,0,P|116:62|106:148,1,180,0|8,0:0|0:0,0:0:0:0:
206,227,87290,1,0,0:0:0:0:
321,157,87400,2,0,L|329:46,1,90
191,227,87621,2,0,L|197:316,1,90,8|0,0:0|0:0,0:0:0:0:
418,365,87842,6,0,B|429:331|429:331|425:298|425:298|451:245|434:177,1,180,0|8,0:0|0:0,0:0:0:0:
176,121,88172,2,0,P|269:127|309:37,1,180
172,240,88503,2,0,P|167:293|181:335,1,90,8|0,0:0|0:0,0:0:0:0:
407,183,88724,6,0,B|354:179|328:136|328:136|277:111|216:152,1,180,0|8,0:0|0:0,0:0:0:0:
50,248,89055,2,0,B|118:231|118:231|245:245,1,180
354,286,89385,1,8,0:0:0:0:
238,357,89496,1,0,0:0:0:0:
301,188,89606,6,0,P|328:124|292:-5,1,180,0|8,0:0|0:0,0:0:0:0:
199,99,89937,1,0,0:0:0:0:
453,187,90047,2,0,L|464:292,1,90,8|0,0:0|0:0,0:0:0:0:
49,276,90268,2,0,L|59:187,1,90,8|0,0:0|0:0,0:0:0:0:
200,42,90488,6,0,B|213:102|213:102|213:189,1,135.000005149842,8|0,0:0|0:0,0:0:0:0:
312,268,90819,2,0,B|351:242|351:242|399:238,1,90,8|0,0:0|0:0,0:0:0:0:
200,268,91150,1,8,0:0:0:0:
189,287,91370,6,0,P|91:305|21:246,1,180,0|8,0:0|0:0,0:0:0:0:
127,166,91701,1,0,0:0:0:0:
257,198,91811,2,0,L|371:179,2,90,0|0|8,0:0|0:0|0:0,0:0:0:0:
165,295,92142,6,0,P|243:347|341:340,1,180,8|0,0:0|0:0,0:0:0:0:
361,75,92473,6,0,P|318:95|297:139,1,90,8|0,0:0|0:0,0:0:0:0:
459,351,92694,2,0,P|462:304|434:263,1,90,8|0,0:0|0:0,0:0:0:0:
170,297,92914,2,0,P|208:323|258:319,1,90,8|0,0:0|0:0,0:0:0:0:
473,166,93135,6,0,B|411:166|411:166|344:148|344:148|272:148,1,180,0|8,0:0|0:0,0:0:0:0:
187,231,93466,1,0,0:0:0:0:
53,212,93576,2,0,P|46:163|46:103,1,90
467,122,93796,2,0,P|465:167|459:212,1,90,8|0,0:0|0:0,0:0:0:0:
217,87,94017,6,0,P|275:48|403:48,1,180,0|8,0:0|0:0,0:0:0:0:
184,278,94348,2,0,P|121:247|57:136,1,180
196,181,94679,1,8,0:0:0:0:
272,69,94789,1,0,0:0:0:0:
378,150,94899,6,0,P|371:207|356:245,1,90
286,23,95120,1,8,0:0:0:0:
85,124,95230,2,0,L|295:100,1,180
352,206,95561,5,8,0:0:0:0:
248,292,95671,1,0,0:0:0:0:
364,360,95781,2,0,P|423:332|445:220,1,180,0|8,0:0|0:0,0:0:0:0:
278,163,96112,1,0,0:0:0:0:
156,351,96222,2,0,L|260:338,1,90,8|0,0:0|0:0,0:0:0:0:
465,180,96443,2,0,L|361:193,1,90,8|0,0:0|0:0,0:0:0:0:
121,280,96663,5,12,0:0:0:0:
256,192,96737,12,8,98428,0:0:0:0:
360,104,98648,5,0,0:0:0:0:
152,280,98869,1,8,0:0:0:0:
194,119,99089,5,0,0:0:0:0:
317,264,99310,1,0,0:0:0:0:
280,144,99531,5,0,0:0:0:0:
232,240,99752,1,8,0:0:0:0:
384,88,99972,1,0,0:0:0:0:
476,156,100192,6,0,P|488:200|468:240,1,90,0|8,0:0|0:0,0:0:0:0:
436,276,100523,1,0,0:0:0:0:
388,280,100633,2,0,L|380:324,1,45
340,264,100854,1,8,0:0:0:0:
308,228,100964,1,0,0:0:0:0:
292,180,101074,2,0,L|248:184,1,45
304,132,101295,2,0,L|268:105,1,45,8|0,0:0|0:0,0:0:0:0:
344,100,101516,2,0,L|336:40,3,45,0|0|8|0,0:0|0:0|0:0|0:0,0:0:0:0:
432,72,101957,5,0,0:0:0:0:
488,148,102067,2,0,L|493:192,2,45,0|8|0,0:0|0:0|0:0,0:0:0:0:
416,188,102398,5,0,0:0:0:0:
360,264,102508,2,0,L|365:308,2,45,0|8|0,0:0|0:0|0:0,0:0:0:0:
340,172,102839,6,0,L|334:127,1,45
408,80,103059,2,0,L|402:35,1,45,8|0,0:0|0:0,0:0:0:0:
260,248,103280,2,0,L|254:203,1,45
184,316,103500,1,8,0:0:0:0:
184,316,103556,1,0,0:0:0:0:
184,316,103611,1,0,0:0:0:0:
264,368,103721,2,0,P|328:368|400:328,2,135,0|8|8,0:0|0:0|0:0,0:0:0:0:
184,316,104603,6,0,L|128:324,1,45
76,256,104824,2,0,L|20:264,1,45,8|0,0:0|0:0,0:0:0:0:
104,152,105044,1,0,0:0:0:0:
142,130,105099,1,0,0:0:0:0:
187,128,105154,1,0,0:0:0:0:
227,147,105209,1,0,0:0:0:0:
254,183,105265,2,0,L|312:192,1,45,8|0,0:0|0:0,0:0:0:0:
396,208,105485,5,0,0:0:0:0:
396,208,105596,1,0,0:0:0:0:
336,112,105706,1,8,0:0:0:0:
227,147,105816,1,0,0:0:0:0:
224,248,105926,2,0,L|224:338,1,90
227,147,106147,2,0,L|227:57,1,90,8|0,0:0|0:0,0:0:0:0:
316,136,106368,6,0,P|344:208|304:320,1,180,0|8,0:0|0:0,0:0:0:0:
184,348,106699,1,0,0:0:0:0:
224,248,106809,1,0,0:0:0:0:
317,303,106919,1,0,0:0:0:0:
184,348,107029,2,0,L|80:332,1,90,8|0,0:0|0:0,0:0:0:0:
129,147,107250,6,0,L|116:236,1,90
237,159,107470,2,0,L|223:247,1,90,8|0,0:0|0:0,0:0:0:0:
272,348,107691,1,0,0:0:0:0:
460,296,107801,1,0,0:0:0:0:
368,320,107911,2,0,L|356:212,1,90,8|0,0:0|0:0,0:0:0:0:
334,42,108132,6,0,L|344:132,1,90
428,184,108352,1,8,0:0:0:0:
284,208,108463,1,0,0:0:0:0:
232,152,108573,1,0,0:0:0:0:
456,112,108684,1,0,0:0:0:0:
395,256,108794,2,0,P|361:284|318:295,1,90,8|0,0:0|0:0,0:0:0:0:
73,292,109014,6,0,P|143:240|228:260,1,180,0|8,0:0|0:0,0:0:0:0:
240,360,109345,1,0,0:0:0:0:
138,353,109455,2,0,L|73:292,1,90
8,112,109676,2,0,L|24:208,1,90,8|0,0:0|0:0,0:0:0:0:
56,344,109896,2,0,L|76:228,1,90
116,48,110117,2,0,L|100:136,1,90,8|0,0:0|0:0,0:0:0:0:
152,332,110337,5,0,0:0:0:0:
56,304,110448,1,0,0:0:0:0:
20,212,110558,1,8,0:0:0:0:
40,116,110668,1,0,0:0:0:0:
116,48,110779,2,0,L|212:24,1,90
292,136,110999,2,0,L|204:157,1,90,8|0,0:0|0:0,0:0:0:0:
130,26,111220,2,0,L|229:28,1,90
277,157,111440,2,0,L|187:155,1,90,8|0,0:0|0:0,0:0:0:0:
149,9,111661,2,0,L|244:37,1,90
258,174,111881,2,0,L|171:149,1,90,8|0,0:0|0:0,0:0:0:0:
328,28,112102,5,0,0:0:0:0:
404,92,112212,1,0,0:0:0:0:
420,188,112322,1,8,0:0:0:0:
392,284,112433,1,0,0:0:0:0:
320,352,112543,2,0,P|232:364|116:340,1,180,0|8,0:0|0:0,0:0:0:0:
149,25,112874,2,0,P|238:13|327:27,1,180
256,192,113205,1,8,0:0:0:0:
256,192,113315,1,0,0:0:0:0:
188,264,113425,6,0,L|4:284,1,180,0|8,0:0|0:0,0:0:0:0:
45,127,113756,2,0,L|224:108,1,180
340,224,114087,1,8,0:0:0:0:
340,224,114197,1,0,0:0:0:0:
424,172,114307,2,0,L|432:56,1,90
88,212,114528,2,0,L|80:328,1,90,8|0,0:0|0:0,0:0:0:0:
168,256,114748,1,0,0:0:0:0:
208,164,114859,1,0,0:0:0:0:
180,68,114969,2,0,L|172:184,1,90,8|0,0:0|0:0,0:0:0:0:
160,344,115189,5,0,0:0:0:0:
84,276,115300,1,0,0:0:0:0:
60,180,115410,1,8,0:0:0:0:
88,84,115520,1,0,0:0:0:0:
168,24,115631,2,0,L|276:4,1,90
316,84,115851,2,0,L|424:64,1,90,8|0,0:0|0:0,0:0:0:0:
484,128,116072,6,0,P|504:220|472:312,1,180,0|8,0:0|0:0,0:0:0:0:
408,368,116402,1,0,0:0:0:0:
408,368,116513,2,0,P|340:376|292:356,1,90
283,280,116733,2,0,P|327:270|371:277,1,90,8|0,0:0|0:0,0:0:0:0:
203,340,116954,2,0,P|76:328|33:207,2,270,0|8|12,0:0|0:0|0:0,0:0:0:0:
332,128,117836,5,0,0:0:0:0:
248,76,117946,1,0,0:0:0:0:
156,116,118057,2,0,L|148:212,1,90,8|0,0:0|0:0,0:0:0:0:
192,296,118277,5,0,0:0:0:0:
276,348,118387,1,0,0:0:0:0:
368,308,118498,2,0,L|376:212,1,90,8|0,0:0|0:0,0:0:0:0:
376,120,118718,2,0,P|308:62|220:62,1,180,0|8,0:0|0:0,0:0:0:0:
136,116,119049,1,0,0:0:0:0:
136,116,119159,2,0,L|112:208,1,90
192,296,119380,2,0,L|214:208,1,90,8|0,0:0|0:0,0:0:0:0:
248,116,119600,5,0,0:0:0:0:
340,76,119711,1,0,0:0:0:0:
436,92,119821,1,8,0:0:0:0:
484,180,119931,1,0,0:0:0:0:
492,280,120042,2,0,L|484:372,1,90
368,257,120262,2,0,L|376:168,1,90,8|0,0:0|0:0,0:0:0:0:
448,32,120483,5,8,0:0:0:0:
434,45,120556,1,0,0:0:0:0:
419,56,120630,1,0,0:0:0:0:
403,65,120703,1,8,0:0:0:0:
386,72,120777,1,0,0:0:0:0:
368,77,120850,1,0,0:0:0:0:
349,79,120924,1,8,0:0:0:0:
330,79,120997,1,0,0:0:0:0:
312,76,121071,1,0,0:0:0:0:
294,71,121144,1,8,0:0:0:0:
277,64,121218,1,0,0:0:0:0:
261,54,121291,1,0,0:0:0:0:
246,42,121365,5,12,0:0:0:0:
160,88,121475,2,0,L|56:104,1,90
236,168,121696,1,0,0:0:0:0:
236,168,121806,2,0,L|132:184,2,90,8|0|0,0:0|0:0|0:0,0:0:0:0:
332,192,122137,1,0,0:0:0:0:
428,220,122247,2,0,P|448:284|356:344,1,180,8|0,0:0|0:0,0:0:0:0:
280,304,122578,1,0,0:0:0:0:
196,352,122688,2,0,L|107:369,1,90,8|0,0:0|0:0,0:0:0:0:
68,280,122909,2,0,L|156:262,1,90
240,212,123129,5,0,0:0:0:0:
268,116,123239,1,0,0:0:0:0:
212,32,123350,2,0,L|104:56,1,90,8|0,0:0|0:0,0:0:0:0:
344,184,123570,2,0,L|431:164,1,90
428,48,123791,2,0,L|340:28,1,90,8|0,0:0|0:0,0:0:0:0:
68,108,124011,5,0,0:0:0:0:
28,200,124122,1,0,0:0:0:0:
36,300,124232,1,8,0:0:0:0:
104,372,124342,1,0,0:0:0:0:
204,368,124452,2,0,L|324:340,1,90
388,320,124673,2,0,L|475:299,1,90,8|0,0:0|0:0,0:0:0:0:
412,220,124894,5,0,0:0:0:0:
352,144,125004,1,0,0:0:0:0:
388,52,125114,1,8,0:0:0:0:
388,52,125224,2,0,L|288:20,1,90
124,52,125445,1,0,0:0:0:0:
124,52,125555,2,0,L|224:20,1,90,8|0,0:0|0:0,0:0:0:0:
160,144,125776,5,0,0:0:0:0:
100,220,125886,1,0,0:0:0:0:
36,299,125996,2,0,L|124:320,1,90,8|0,0:0|0:0,0:0:0:0:
220,340,126217,1,0,0:0:0:0:
316,356,126327,1,0,0:0:0:0:
412,375,126437,2,0,P|439:341|435:297,1,90,8|0,0:0|0:0,0:0:0:0:
396,208,126658,5,0,0:0:0:0:
348,120,126768,1,0,0:0:0:0:
296,204,126878,1,8,0:0:0:0:
448,124,126988,1,0,0:0:0:0:
396,36,127099,1,0,0:0:0:0:
396,36,127209,1,0,0:0:0:0:
296,40,127320,1,8,0:0:0:0:
296,40,127430,1,0,0:0:0:0:
252,128,127540,6,0,L|208:228,1,90
80,280,127761,1,8,0:0:0:0:
80,280,127871,2,0,L|180:324,1,90
296,308,128092,1,0,0:0:0:0:
296,308,128202,2,0,L|340:208,1,90,8|0,0:0|0:0,0:0:0:0:
376,136,128422,5,0,0:0:0:0:
472,156,128533,1,0,0:0:0:0:
488,252,128643,1,8,0:0:0:0:
428,328,128753,1,0,0:0:0:0:
332,348,128863,2,0,L|212:340,1,90
180,36,129084,2,0,L|300:44,1,90,8|0,0:0|0:0,0:0:0:0:
248,140,129305,5,0,0:0:0:0:
148,152,129415,1,0,0:0:0:0:
60,104,129525,2,0,L|40:12,1,90,8|0,0:0|0:0,0:0:0:0:
400,328,129746,5,0,0:0:0:0:
301,305,129856,1,0,0:0:0:0:
235,229,129966,2,0,L|247:135,1,90,8|0,0:0|0:0,0:0:0:0:
424,184,130187,2,0,L|436:90,1,90
88,200,130407,2,0,L|76:294,1,90,8|0,0:0|0:0,0:0:0:0:
422,213,130628,2,0,L|450:122,1,90
89,170,130848,2,0,L|61:261,1,90,8|0,0:0|0:0,0:0:0:0:
28,348,131069,5,0,0:0:0:0:
120,312,131179,1,0,0:0:0:0:
192,244,131289,1,8,0:0:0:0:
216,148,131400,1,0,0:0:0:0:
192,52,131510,1,0,0:0:0:0:
240,140,131620,1,0,0:0:0:0:
324,192,131731,1,8,0:0:0:0:
420,216,131841,1,0,0:0:0:0:
496,276,131951,6,0,L|392:304,1,90
224,360,132172,2,0,L|310:336,1,90,8|0,0:0|0:0,0:0:0:0:
460,304,132392,2,0,L|352:313,1,90
177,339,132613,2,0,L|266:331,1,90,8|0,0:0|0:0,0:0:0:0:
459,304,132833,6,0,P|433:220|355:180,1,180,0|8,0:0|0:0,0:0:0:0:
191,278,133164,2,0,P|233:264|264:232,1,90
268,48,133385,1,0,0:0:0:0:
268,48,133495,2,0,P|258:91|271:134,1,90,8|0,0:0|0:0,0:0:0:0:
355,180,133715,2,0,P|442:170|499:103,1,180,0|8,0:0|0:0,0:0:0:0:
156,180,134046,1,0,0:0:0:0:
156,180,134157,2,0,P|69:170|12:103,1,180,0|8,0:0|0:0,0:0:0:0:
100,56,134487,1,0,0:0:0:0:
192,92,134598,6,0,L|296:76,1,90
388,162,134818,2,0,L|300:176,1,90,8|0,0:0|0:0,0:0:0:0:
216,232,135039,1,0,0:0:0:0:
216,232,135149,1,0,0:0:0:0:
139,295,135259,2,0,P|72:240|66:153,1,180,8|8,0:0|0:0,0:0:0:0:
172,128,135700,5,0,0:0:0:0:
200,40,135811,1,8,0:0:0:0:
336,112,136031,5,0,0:0:0:0:
364,24,136142,1,8,0:0:0:0:
336,112,136252,1,0,0:0:0:0:
427,93,136362,6,0,L|473:130,2,60
379,170,136583,2,0,L|409:220,2,60,8|0|0,0:0|0:0|0:0,0:0:0:0:
307,225,136803,2,0,L|318:282,2,60
220,252,137024,2,0,L|210:310,2,60,8|0|0,0:0|0:0|0:0,0:0:0:0:
129,247,137244,5,0,0:0:0:0:
79,216,137317,1,0,0:0:0:0:
62,159,137391,1,0,0:0:0:0:
86,106,137464,1,8,0:0:0:0:
140,83,137538,1,0,0:0:0:0:
196,101,137611,1,0,0:0:0:0:
226,152,137685,1,0,0:0:0:0:
167,152,137759,5,0,0:0:0:0:
192,98,137832,1,0,0:0:0:0:
235,56,137906,1,8,0:0:0:0:
290,32,137979,1,0,0:0:0:0:
349,28,138053,1,0,0:0:0:0:
407,45,138126,6,0,L|479:16,2,60
473,146,138347,2,0,L|502:217,2,60,8|0|0,0:0|0:0|0:0,0:0:0:0:
372,211,138568,2,0,L|300:240,2,60
207,140,138788,2,0,L|262:116,2,60,8|0|0,0:0|0:0|0:0,0:0:0:0:
111,257,139009,6,0,P|76:176|111:95,1,180,0|8,0:0|0:0,0:0:0:0:
400,95,139339,2,0,P|435:176|400:257,1,180
255,83,139670,2,0,P|276:42|320:21,1,90,8|0,0:0|0:0,0:0:0:0:
142,170,139891,6,0,P|95:172|55:144,1,90
283,170,140111,2,0,P|329:167|369:195,1,90,8|0,0:0|0:0,0:0:0:0:
162,120,140332,6,0,P|128:89|119:41,1,90
262,219,140552,2,0,P|296:250|305:298,1,90,8|0,0:0|0:0,0:0:0:0:
129,253,140773,6,0,L|121:144,1,90
215,318,140994,1,8,0:0:0:0:
82,196,141104,6,0,L|74:87,1,90
215,318,141324,1,0,0:0:0:0:
98,300,141435,6,0,P|50:291|7:291,1,90,8|0,0:0|0:0,0:0:0:0:
269,359,141655,5,0,0:0:0:0:
326,346,141728,1,0,0:0:0:0:
361,299,141802,1,0,0:0:0:0:
357,240,141875,1,8,0:0:0:0:
316,198,141949,1,0,0:0:0:0:
258,193,142022,1,0,0:0:0:0:
210,226,142096,6,0,P|177:220|141:199,2,60
212,135,142317,2,0,P|190:109|176:69,2,60,8|0|0,0:0|0:0|0:0,0:0:0:0:
349,78,142537,6,0,L|393:62,7,30
411,151,142831,2,0,L|456:167,9,30
476,246,143199,2,0,P|440:273|376:287,1,90
216,272,143420,6,0,L|159:299,2,45
296,112,143640,2,0,L|353:85,2,45,8|0|0,0:0|0:0|0:0,0:0:0:0:
162,223,143861,6,0,L|97:199,2,45
349,160,144081,2,0,L|414:184,2,45,8|0|0,0:0|0:0|0:0,0:0:0:0:
160,144,144302,6,0,L|127:75,2,45
352,240,144522,2,0,L|384:308,2,45,8|0|0,0:0|0:0|0:0,0:0:0:0:
219,81,144743,6,0,L|246:4,2,45
292,302,144963,2,0,L|265:379,2,45,8|0|0,0:0|0:0|0:0,0:0:0:0:
311,80,145184,6,0,L|391:42,2,45
200,303,145404,2,0,L|120:341,2,45,8|0|0,0:0|0:0|0:0,0:0:0:0:
384,150,145625,6,0,L|455:175,2,45
128,234,145846,2,0,L|56:208,2,45,8|0|0,0:0|0:0|0:0,0:0:0:0:
384,256,146066,6,0,P|448:225|448:105,1,180,0|8,0:0|0:0,0:0:0:0:
128,256,146397,2,0,P|64:225|64:105,1,180
183,97,146728,5,8,0:0:0:0:
200,106,146801,1,0,0:0:0:0:
218,116,146875,1,0,0:0:0:0:
235,125,146948,6,0,P|309:121|397:18,1,180,0|8,0:0|0:0,0:0:0:0:
451,189,147242,2,0,B|416:215|376:202|376:202|346:223|346:223|305:235|256:219,1,180
151,350,147536,2,0,B|115:344|91:312|97:269|97:269|66:248|70:202,1,180
235,127,147831,6,0,P|318:118|363:12,1,180
322,206,148161,2,0,P|289:282|358:374,1,180
210,242,148437,2,0,P|160:175|46:189,1,180
123,346,148713,6,0,B|140:354|160:348|160:348|194:359|194:359|220:342|272:343|317:358,1,180
456,264,149007,2,0,P|382:243|459:144,1,240
311,258,149448,1,0,0:0:0:0:
276,81,149595,2,0,P|215:92|149:47,1,120
93,67,149815,5,0,0:0:0:0:
71,122,149888,1,0,0:0:0:0:
83,179,149962,1,0,0:0:0:0:
125,221,150035,1,0,0:0:0:0:
183,233,150110,2,0,L|261:216,1,60
331,62,150257,5,0,0:0:0:0:
334,84,150312,1,0,0:0:0:0:
338,106,150367,1,0,0:0:0:0:
341,128,150422,1,0,0:0:0:0:
345,150,150477,6,0,L|364:266,1,90
483,182,150698,1,0,0:0:0:0:
310,230,150808,6,0,L|329:346,1,90
401,108,151028,1,0,0:0:0:0:
220,121,151139,2,0,P|189:91|167:35,1,90
91,180,151359,6,0,L|115:269,1,90
237,208,151580,1,0,0:0:0:0:
215,29,151690,5,0,0:0:0:0:
71,138,151800,1,0,0:0:0:0:
299,109,151911,1,0,0:0:0:0:
386,32,152021,2,0,P|425:65|445:110,1,90
324,234,152241,6,0,L|224:250,1,90
382,159,152462,1,0,0:0:0:0:
246,337,152572,6,0,L|146:353,1,90
235,138,152793,1,0,0:0:0:0:
431,246,152903,2,0,L|447:346,1,90
314,209,153124,6,0,P|311:160|335:103,1,90
438,191,153344,1,0,0:0:0:0:
332,336,153454,2,0,P|239:355|153:306,1,180
295,192,153785,2,0,L|402:192,1,90
258,62,154006,6,0,P|211:69|160:62,1,90
337,126,154226,1,0,0:0:0:0:
237,218,154337,6,0,P|217:264|217:312,1,90
349,289,154557,1,0,0:0:0:0:
437,187,154667,2,0,L|425:84,1,90
85,97,154888,6,0,L|75:187,1,90
119,315,155109,1,0,0:0:0:0:
211,161,155219,6,0,L|230:260,1,90
83,355,155439,1,0,0:0:0:0:
262,330,155550,2,0,B|296:318|296:318|373:318,1,90
415,232,155770,5,0,0:0:0:0:
352,143,155881,2,0,L|347:40,2,90
220,265,156211,2,0,P|171:264|118:288,1,90
58,357,156432,1,0,0:0:0:0:
97,228,156542,1,0,0:0:0:0:
189,326,156652,6,0,P|241:346|298:342,2,90
78,246,156983,1,0,0:0:0:0:
106,113,157094,2,0,L|219:76,1,90
357,15,157314,2,0,L|394:128,1,90
413,316,157535,6,0,P|437:217|322:148,1,215.999993408203
98,315,157865,2,0,P|75:215|152:147,1,215.999993408203
256,273,158196,2,0,P|302:303|361:303,1,107.999996704102
148,234,158417,2,0,L|155:366,1,107.999996704102
159,350,158582,1,0,0:0:0:0:
164,359,158637,5,0,0:0:0:0:
317,303,158748,1,0,0:0:0:0:
202,188,158858,2,0,L|185:68,1,107.999996704102
395,25,159078,1,0,0:0:0:0:
391,51,159133,1,0,0:0:0:0:
387,78,159188,1,0,0:0:0:0:
383,105,159243,1,0,0:0:0:0:
379,131,159299,6,0,P|367:186|328:227,1,90
108,81,159520,2,0,P|161:65|216:78,1,90
219,337,159740,2,0,P|178:298|162:244,1,90
374,181,159961,2,0,P|384:235|365:288,1,90
167,187,160181,6,0,P|118:170|69:174,1,90
261,103,160402,2,0,P|278:54|274:5,1,90
345,197,160622,2,0,P|394:214|443:210,1,90
251,281,160843,2,0,P|234:330|238:379,1,90
142,163,161063,6,0,P|227:129|320:190,1,180
59,285,161394,2,0,L|47:65,1,180
462,105,161725,2,0,L|457:195,1,90
392,314,161946,5,0,0:0:0:0:
341,123,162056,1,0,0:0:0:0:
486,228,162166,1,0,0:0:0:0:
322,301,162276,2,0,P|228:311|123:262,1,180
214,113,162607,2,0,P|228:158|227:214,1,90
86,88,162828,6,0,P|117:53|166:26,1,90
357,127,163048,2,0,L|264:122,1,90
341,42,163269,5,0,0:0:0:0:
421,81,163379,1,0,0:0:0:0:
346,193,163489,5,0,0:0:0:0:
407,257,163599,1,0,0:0:0:0:
299,336,163710,5,0,0:0:0:0:
233,218,163820,1,0,0:0:0:0:
299,100,163931,1,0,0:0:0:0:
452,192,164041,2,0,B|414:205|378:196|378:196|356:208|356:208|314:216|268:177,1,180
231,60,164372,2,0,L|137:76,1,90
301,233,164592,6,0,P|340:207|367:167,1,90
166,281,164813,1,0,0:0:0:0:
166,281,164923,1,0,0:0:0:0:
347,231,165033,6,0,P|374:193|386:146,1,90
166,281,165254,1,0,0:0:0:0:
166,281,165364,1,0,0:0:0:0:
389,213,165474,6,0,P|402:168|397:120,1,90
166,281,165695,1,0,0:0:0:0:
166,281,165805,1,0,0:0:0:0:
422,181,165915,6,0,P|418:134|397:90,1,90
166,281,166136,1,0,0:0:0:0:
166,281,166246,1,0,0:0:0:0:
383,344,166357,6,0,P|421:260|377:157,1,180
223,135,166687,2,0,L|239:230,1,90
190,321,166908,1,0,0:0:0:0:
294,345,167018,2,0,L|389:329,1,90
249,146,167239,6,0,L|59:177,1,180
234,255,167570,2,0,L|329:239,1,90
416,292,167790,1,0,0:0:0:0:
488,127,167900,2,0,L|389:70,1,90
141,42,168121,6,0,P|74:95|58:201,1,180
292,315,168452,2,0,P|359:262|375:156,1,180
120,258,168783,2,0,P|111:306|123:353,1,90
271,180,169003,5,0,0:0:0:0:
271,180,169058,1,0,0:0:0:0:
271,180,169113,2,0,P|280:132|268:85,1,90
154,161,169334,1,0,0:0:0:0:
269,273,169444,2,0,L|359:298,1,90
210,89,169665,2,0,L|120:64,1,90
307,193,169885,6,0,P|362:171|378:48,1,180
205,193,170216,2,0,P|150:171|134:48,1,180
345,118,170547,2,0,P|367:157|367:216,1,90
100,203,170767,6,0,L|84:114,1,90
262,253,170988,2,0,L|246:342,1,90
330,131,171209,2,0,L|314:42,1,90
492,181,171430,2,0,L|476:270,1,90
175,360,171650,6,0,L|76:346,1,90
337,284,171870,2,0,L|425:236,1,90
184,208,172091,2,0,L|117:133,1,90
337,132,172311,2,0,L|374:39,1,90
175,56,172532,5,8,0:0:0:0:
116,63,172605,1,0,0:0:0:0:
79,108,172679,1,0,0:0:0:0:
83,167,172752,1,8,0:0:0:0:
125,207,172826,1,0,0:0:0:0:
184,208,172899,1,0,0:0:0:0:
227,169,172973,5,8,0:0:0:0:
270,130,173047,1,0,0:0:0:0:
329,131,173120,1,0,0:0:0:0:
371,171,173194,1,8,0:0:0:0:
375,230,173267,1,0,0:0:0:0:
338,275,173341,1,0,0:0:0:0:
280,283,173414,6,0,L|65:263,1,180,0|8,0:0|0:0,0:0:0:0:
148,180,173745,1,0,0:0:0:0:
64,128,173855,2,0,P|56:72|68:36,1,90
204,114,174076,2,0,P|183:153|147:179,1,90,8|0,0:0|0:0,0:0:0:0:
135,44,174296,2,0,P|222:26|299:70,1,180,0|8,0:0|0:0,0:0:0:0:
364,144,174627,2,0,P|381:230|337:307,1,180
248,352,174958,1,8,0:0:0:0:
248,352,175068,1,0,0:0:0:0:
136,368,175178,6,0,L|172:172,1,180,0|8,0:0|0:0,0:0:0:0:
188,92,175509,1,0,0:0:0:0:
104,36,175620,2,0,P|52:40|12:64,1,90
83,211,175840,2,0,P|127:209|168:190,1,90,8|0,0:0|0:0,0:0:0:0:
252,139,176061,2,0,P|335:107|423:117,1,180,0|8,0:0|0:0,0:0:0:0:
504,176,176391,1,0,0:0:0:0:
504,176,176502,2,0,P|512:228|500:268,1,90
312,304,176722,1,8,0:0:0:0:
412,308,176833,1,0,0:0:0:0:
501,262,176943,6,0,P|419:229|330:234,1,180,0|8,0:0|0:0,0:0:0:0:
236,264,177274,2,0,P|152:280|44:260,1,180
148,88,177604,1,8,0:0:0:0:
104,176,177715,1,0,0:0:0:0:
44,96,177825,2,0,L|12:40,2,45
104,176,178046,2,0,P|148:188|200:172,1,90,8|0,0:0|0:0,0:0:0:0:
148,88,178266,2,0,P|191:77|234:89,1,90
316,144,178487,5,8,0:0:0:0:
412,160,178597,1,0,0:0:0:0:
492,104,178707,2,0,P|500:56|488:8,2,90,0|0|8,0:0|0:0|0:0,0:0:0:0:
456,240,179038,1,0,0:0:0:0:
490,333,179148,1,0,0:0:0:0:
398,366,179259,1,0,0:0:0:0:
364,272,179369,2,0,P|312:264|248:272,1,90,8|0,0:0|0:0,0:0:0:0:
84,304,179589,6,0,P|162:263|194:181,1,180,8|0,0:0|0:0,0:0:0:0:
116,248,179920,6,0,P|203:236|260:168,1,180,8|0,0:0|0:0,0:0:0:0:
260,68,180251,5,8,0:0:0:0:
348,220,180361,1,0,0:0:0:0:
407,300,180472,6,0,P|456:227|432:143,1,180,0|8,0:0|0:0,0:0:0:0:
360,76,180802,1,0,0:0:0:0:
260,68,180913,2,0,L|136:92,1,90
23,181,181133,2,0,L|112:164,1,90,8|0,0:0|0:0,0:0:0:0:
204,204,181354,1,0,0:0:0:0:
292,160,181464,2,0,L|309:248,2,90,0|8|0,0:0|0:0|0:0,0:0:0:0:
259,67,181795,2,0,P|215:61|172:73,1,90
368,96,182015,2,0,P|412:102|455:90,1,90,8|0,0:0|0:0,0:0:0:0:
508,4,182236,6,0,L|480:208,1,180,0|8,0:0|0:0,0:0:0:0:
468,280,182567,1,0,0:0:0:0:
468,280,182677,2,0,P|412:304|364:296,1,90
344,212,182898,2,0,P|356:160|404:120,1,90,8|0,0:0|0:0,0:0:0:0:
326,375,183118,2,0,P|246:230|379:133,1,360,8|12,0:0|0:0,0:0:0:0:
468,280,183780,5,8,0:0:0:0:
468,280,183890,1,0,0:0:0:0:
468,280,184000,2,0,L|452:96,1,180,0|8,0:0|0:0,0:0:0:0:
328,32,184331,2,0,L|344:212,1,180
268,280,184662,1,8,0:0:0:0:
176,240,184772,1,0,0:0:0:0:
108,312,184883,6,0,P|24:284|48:184,1,180,0|8,0:0|0:0,0:0:0:0:
112,124,185213,1,0,0:0:0:0:
141,28,185323,1,0,0:0:0:0:
237,57,185434,1,0,0:0:0:0:
212,154,185544,2,0,P|200:224|296:316,1,180,8|4,0:0|0:0,0:0:0:0:
256,192,185875,12,0,187309,0:0:0:0:
56,284,187529,6,0,P|100:316|212:260,1,180
252,184,187860,1,0,0:0:0:0:
252,184,187970,2,0,B|264:156|264:156|256:96,1,90
352,124,188191,2,0,L|367:227,1,90
428,292,188411,5,0,0:0:0:0:
444,184,188522,1,0,0:0:0:0:
352,124,188632,2,0,P|328:76|336:28,1,90
160,124,188852,2,0,P|184:76|176:28,1,90
368,136,189073,2,0,P|344:88|352:40,1,90
144,136,189293,6,0,L|101:120,3,45
160,152,189514,1,0,0:0:0:0:
168,172,189569,1,0,0:0:0:0:
168,196,189624,1,0,0:0:0:0:
160,216,189679,1,0,0:0:0:0:
144,232,189735,2,0,B|156:304|156:300,3,45
144,296,189955,1,0,0:0:0:0:
128,312,190010,1,0,0:0:0:0:
104,316,190065,1,0,0:0:0:0:
80,316,190121,1,0,0:0:0:0:
60,304,190176,2,0,B|64:328|54:272,3,45
48,196,190396,2,0,B|52:220|42:164,3,45
28,88,190617,5,0,0:0:0:0:
42,90,190690,1,0,0:0:0:0:
57,92,190764,1,0,0:0:0:0:
72,95,190837,1,0,0:0:0:0:
87,97,190911,1,0,0:0:0:0:
102,99,190984,1,0,0:0:0:0:
117,101,191058,2,0,L|312:76,1,180
392,60,191389,5,0,0:0:0:0:
392,60,191499,2,0,P|408:128|388:176,1,90
264,296,191720,2,0,P|248:228|268:180,1,90
376,108,191940,2,0,P|367:177|332:215,1,90
175,285,192161,2,0,P|183:215|218:177,1,90
352,144,192381,2,0,P|320:206|274:230,1,90
102,241,192602,2,0,P|133:178|179:154,1,90
352,144,192822,6,0,P|284:148|236:132,1,90
136,32,193043,2,0,P|204:28|252:44,1,90
384,156,193263,2,0,P|316:160|268:144,1,90
168,44,193484,2,0,P|236:40|284:56,1,90
352,64,193704,5,0,0:0:0:0:
428,128,193815,1,0,0:0:0:0:
464,220,193925,1,0,0:0:0:0:
456,320,194035,1,0,0:0:0:0:
368,272,194146,2,0,L|168:320,1,180
100,348,194476,1,0,0:0:0:0:
112,248,194587,6,0,L|128:148,1,90
140,60,194807,2,0,L|96:56,2,45
232,100,195028,5,0,0:0:0:0:
272,92,195101,1,0,0:0:0:0:
312,72,195175,1,0,0:0:0:0:
336,40,195248,2,0,L|328:112,2,60
354,78,195469,1,0,0:0:0:0:
386,104,195542,1,0,0:0:0:0:
424,120,195616,1,0,0:0:0:0:
465,124,195689,6,0,L|519:94,2,60
490,158,195910,1,0,0:0:0:0:
495,199,195983,1,0,0:0:0:0:
479,238,196057,1,0,0:0:0:0:
447,265,196130,1,0,0:0:0:0:
405,271,196204,1,0,0:0:0:0:
365,256,196277,1,0,0:0:0:0:
334,227,196351,6,0,L|271:224,2,60
313,190,196572,1,0,0:0:0:0:
280,164,196646,1,0,0:0:0:0:
240,154,196719,1,0,0:0:0:0:
199,160,196793,1,0,0:0:0:0:
163,182,196866,1,0,0:0:0:0:
139,216,196940,1,0,0:0:0:0:
131,257,197013,2,0,L|154:335,2,60
100,148,197233,6,0,P|96:88|112:40,1,90
199,159,197454,2,0,P|217:200|247:234,1,90
332,284,197674,1,0,0:0:0:0:
428,256,197785,1,0,0:0:0:0:
479,171,197895,2,0,P|501:257|457:333,1,180
332,284,198226,5,0,0:0:0:0:
303,152,198336,2,0,P|343:130|387:129,1,90
332,284,198556,2,0,P|292:305|248:306,1,90
200,220,198777,1,0,0:0:0:0:
176,124,198887,1,0,0:0:0:0:
176,124,198998,2,0,L|140:248,1,90
336,260,199218,2,0,L|372:136,1,90
172,84,199439,2,0,L|136:208,1,90
340,300,199659,2,0,L|376:176,1,90
388,116,199880,6,0,P|356:72|296:64,1,90
256,132,200100,1,0,0:0:0:0:
256,132,200211,1,0,0:0:0:0:
172,84,200321,1,0,0:0:0:0:
72,68,200431,1,0,0:0:0:0:
20,156,200541,2,0,P|8:224|24:276,1,90
68,328,200762,6,0,P|136:340|188:324,1,90
236,208,200983,2,0,P|168:196|116:212,1,90
288,296,201203,1,0,0:0:0:0:
288,296,201313,1,0,0:0:0:0:
288,296,201424,1,0,0:0:0:0:
288,296,201534,1,0,0:0:0:0:
380,264,201644,6,0,L|484:232,1,90
288,296,201865,1,8,0:0:0:0:
308,192,201975,2,0,L|412:160,1,90
216,224,202196,1,0,0:0:0:0:
124,260,202306,2,0,L|37:286,1,90,8|0,0:0|0:0,0:0:0:0:
84,104,202526,6,0,L|64:192,1,90
4,100,202747,1,8,0:0:0:0:
104,16,202857,1,0,0:0:0:0:
156,136,202967,1,0,0:0:0:0:
156,136,203078,1,0,0:0:0:0:
156,136,203188,2,0,P|196:154|240:152,1,90,8|0,0:0|0:0,0:0:0:0:
324,100,203409,5,0,0:0:0:0:
376,184,203519,1,0,0:0:0:0:
368,284,203629,1,8,0:0:0:0:
248,336,203740,5,0,0:0:0:0:
196,252,203850,1,0,0:0:0:0:
204,152,203960,1,0,0:0:0:0:
348,120,204070,5,8,0:0:0:0:
400,204,204180,1,0,0:0:0:0:
392,304,204290,1,0,0:0:0:0:
272,356,204401,5,0,0:0:0:0:
220,272,204511,1,8,0:0:0:0:
228,172,204621,1,0,0:0:0:0:
368,136,204732,6,0,L|464:124,1,90
312,48,204952,2,0,L|222:59,1,90,8|0,0:0|0:0,0:0:0:0:
148,124,205173,5,0,0:0:0:0:
124,128,205246,1,0,0:0:0:0:
100,128,205320,1,0,0:0:0:0:
76,120,205393,1,8,0:0:0:0:
56,108,205467,1,0,0:0:0:0:
40,92,205540,1,0,0:0:0:0:
28,72,205614,2,0,L|42:13,2,60
22,193,205835,2,0,L|8:252,2,60,8|0|0,0:0|0:0|0:0,0:0:0:0:
100,260,206055,5,0,0:0:0:0:
112,240,206128,1,0,0:0:0:0:
120,216,206202,1,0,0:0:0:0:
124,192,206275,1,8,0:0:0:0:
120,168,206349,1,0,0:0:0:0:
112,144,206422,1,0,0:0:0:0:
100,124,206496,2,0,L|112:52,2,60
180,96,206717,2,0,L|192:24,2,60,8|0|0,0:0|0:0|0:0,0:0:0:0:
252,140,206937,5,0,0:0:0:0:
273,151,207011,1,0,0:0:0:0:
296,154,207084,1,0,0:0:0:0:
320,151,207158,1,8,0:0:0:0:
338,135,207231,1,0,0:0:0:0:
351,114,207305,1,0,0:0:0:0:
357,91,207378,2,0,L|366:20,2,60
432,144,207599,2,0,L|441:73,2,60,8|0|0,0:0|0:0|0:0,0:0:0:0:
496,208,207819,2,0,P|496:288|432:368,1,180,0|8,0:0|0:0,0:0:0:0:
244,252,208150,2,0,P|275:334|350:381,1,180,0|0,0:0|0:0,2:0:0:0:
300,176,208481,5,8,0:0:0:0:
300,176,208591,1,0,0:0:0:0:
356,96,208702,2,0,L|176:120,1,180,0|8,0:0|0:0,0:0:0:0:
80,144,209033,1,0,0:0:0:0:
80,144,209143,2,0,L|104:44,1,90
72,228,209363,1,8,0:0:0:0:
71,250,209418,1,0,0:0:0:0:
76,272,209473,1,0,0:0:0:0:
84,293,209528,1,0,0:0:0:0:
96,312,209584,2,0,L|220:324,1,90
272,220,209804,2,0,L|182:211,1,90,8|0,0:0|0:0,0:0:0:0:
312,348,210025,5,0,0:0:0:0:
408,364,210135,1,0,0:0:0:0:
392,176,210246,1,8,0:0:0:0:
372,272,210356,1,0,0:0:0:0:
464,240,210466,2,0,P|500:160|452:48,1,180,0|8,0:0|0:0,0:0:0:0:
355,48,210797,2,0,P|299:115|300:204,1,180
372,272,211128,1,8,0:0:0:0:
372,272,211238,1,0,0:0:0:0:
392,176,211348,2,0,P|284:112|224:128,1,180,0|8,0:0|0:0,0:0:0:0:
159,184,211679,2,0,P|115:260|119:349,1,180
196,288,212010,1,8,0:0:0:0:
196,288,212120,1,0,0:0:0:0:
280,336,212230,5,0,0:0:0:0:
364,280,212341,2,0,L|476:276,2,90,0|8|0,0:0|0:0|0:0,0:0:0:0:
264,304,212672,5,0,0:0:0:0:
228,208,212782,2,0,L|340:204,2,90,0|8|0,0:0|0:0|0:0,0:0:0:0:
256,280,213113,5,0,0:0:0:0:
169,332,213223,2,0,L|80:336,2,90,0|8|0,0:0|0:0|0:0,0:0:0:0:
345,356,213554,6,0,L|256:360,1,90
488,280,213774,2,0,L|398:283,1,90,8|0,0:0|0:0,0:0:0:0:
316,232,213995,6,0,P|297:191|298:146,1,90
368,84,214215,1,8,0:0:0:0:
368,84,214326,2,0,P|412:87|450:111,1,90
468,204,214546,1,0,0:0:0:0:
468,204,214657,2,0,P|442:240|403:261,1,90,8|0,0:0|0:0,0:0:0:0:
308,284,214877,2,0,P|248:280|204:304,1,90
136,340,215098,2,0,P|88:352|24:344,1,90,8|0,0:0|0:0,0:0:0:0:
192,240,215318,1,0,0:0:0:0:
164,128,215428,1,0,0:0:0:0:
164,268,215539,1,8,0:0:0:0:
280,344,215649,2,0,L|384:344,1,90,0|4,0:0|0:0,0:0:0:0:
380,352,216641,5,4,0:0:0:0:
392,364,217524,5,4,0:0:0:0:
464,216,218406,6,0,P|480:268|464:324,1,90
376,272,218626,2,0,P|360:220|376:164,1,90,2|0,0:0|0:0,0:0:0:0:
428,116,218847,1,0,0:0:0:0:
428,116,218902,1,0,0:0:0:0:
428,116,218957,1,0,0:0:0:0:
500,48,219067,6,0,L|304:76,1,180,2|0,0:0|0:0,0:0:0:0:
316,72,220170,5,4,0:0:0:0:
304,68,220832,6,0,L|320:132,2,45
208,40,221052,2,0,P|136:52|88:172,1,180,0|8,0:0|0:0,0:0:0:0:
92,236,221383,2,0,P|152:299|239:294,1,180
320,240,221714,1,8,0:0:0:0:
320,240,221769,1,0,0:0:0:0:
320,240,221824,1,0,0:0:0:0:
236,188,221935,5,0,0:0:0:0:
271,160,221990,1,0,0:0:0:0:
314,148,222045,1,0,0:0:0:0:
359,152,222100,1,0,0:0:0:0:
399,172,222155,2,0,L|492:152,1,90,8|0,0:0|0:0,0:0:0:0:
464,256,222376,2,0,L|484:348,1,90
372,304,222596,2,0,L|384:356,2,45,8|0|0,0:0|0:0|0:0,0:0:0:0:
280,352,222817,6,0,P|225:339|197:223,1,180
326,208,223148,2,0,L|260:276,1,90
256,93,223368,1,0,0:0:0:0:
465,172,223478,2,0,P|415:171|365:153,1,90
47,172,223699,6,0,P|91:171|134:159,1,90
256,93,223919,1,0,0:0:0:0:
310,217,224030,2,0,P|385:279|486:234,1,180
370,104,224361,2,0,L|258:132,1,90
150,307,224581,6,0,B|119:263|119:263|138:217|121:168|65:137,1,180
362,307,224912,2,0,B|393:263|393:263|374:217|391:168|447:137,1,180
469,230,225243,1,0,0:0:0:0:
457,49,225463,6,0,L|426:140,1,90
84,134,225684,2,0,L|55:49,1,90
358,240,225904,2,0,L|344:351,1,90
154,144,226125,2,0,L|142:54,1,90
412,54,226345,6,0,P|464:123|455:227,1,180
190,192,226676,2,0,P|290:192|290:114,1,180
208,287,227007,2,0,P|196:336|208:378,1,90
326,311,227228,5,0,0:0:0:0:
452,356,227338,1,0,0:0:0:0:
388,237,227448,2,0,L|395:136,2,90
375,372,227779,1,0,0:0:0:0:
215,289,227889,2,0,P|170:267|119:263,1,90
482,176,228110,1,0,0:0:0:0:
256,192,228165,12,0,229543,0:0:0:0:
104,78,229654,5,0,0:0:0:0:
109,99,229709,1,0,0:0:0:0:
115,121,229764,1,0,0:0:0:0:
121,143,229819,1,0,0:0:0:0:
127,164,229874,6,0,P|205:164|227:63,1,180
425,200,230205,2,0,B|388:217|351:196|351:196|325:213|325:213|290:208|260:242,1,180
422,323,230536,2,0,P|457:299|472:254,1,90
39,255,230756,6,0,L|236:284,1,180
418,347,231087,2,0,L|345:163,1,180
282,82,231418,1,0,0:0:0:0:
268,100,231473,1,0,0:0:0:0:
254,117,231528,1,0,0:0:0:0:
240,135,231583,1,0,0:0:0:0:
227,153,231639,6,0,P|196:117|187:65,1,90
433,183,231859,2,0,P|417:227|376:261,1,90
227,35,232080,2,0,P|273:26|323:44,1,90
124,256,232300,2,0,P|93:225|79:183,1,90
363,323,232521,6,0,L|470:353,1,90
149,229,232741,2,0,L|48:277,1,90
363,135,232962,2,0,L|453:199,1,90
149,41,233182,2,0,L|71:120,1,90
25,173,233348,1,0,0:0:0:0:
25,173,233403,6,0,P|81:209|161:122,1,180
486,173,233734,2,0,P|410:208|350:147,1,180
237,58,234065,1,0,0:0:0:0:
215,200,234175,1,0,0:0:0:0:
328,289,234285,6,0,P|366:264|395:219,1,90
120,228,234506,2,0,P|146:264|184:289,1,90
292,145,234726,1,0,0:0:0:0:
221,88,234837,1,0,0:0:0:0:
136,120,234947,1,0,0:0:0:0:
122,209,235057,1,0,0:0:0:0:
192,267,235167,6,0,B|208:267|220:256|220:256|231:265|246:267|246:267|279:252|304:267|304:267|328:252|373:271,1,180
476,71,235498,2,0,B|460:71|448:60|448:60|436:69|421:71|421:71|388:56|364:71|364:71|340:56|294:75,1,180
86,128,235829,2,0,B|63:207|63:207|119:298,1,180
397,290,236160,2,0,B|449:207|449:207|426:128,1,180
251,176,236491,5,0,0:0:0:0:
415,320,236601,1,0,0:0:0:0:
367,107,236711,1,0,0:0:0:0:
281,307,236822,1,0,0:0:0:0:
469,196,236932,6,0,L|479:91,1,90
34,106,237152,2,0,L|43:196,1,90
347,284,237373,2,0,L|446:290,1,90
75,94,237593,2,0,L|165:100,1,90
428,167,237814,6,0,P|445:215|445:256,1,90
66,253,238035,2,0,P|68:208|84:167,1,90
320,295,238255,2,0,L|268:374,1,90
192,89,238476,2,0,L|244:10,1,90
402,170,238696,6,0,P|438:142|460:104,1,90
110,170,238917,2,0,P|74:142|52:104,1,90
333,244,239137,2,0,L|347:353,1,90
167,333,239358,2,0,L|179:244,1,90
307,118,239578,6,0,P|396:119|425:219,1,180
288,250,239909,1,0,0:0:0:0:
288,250,239964,1,0,0:0:0:0:
288,250,240019,2,0,L|350:185,1,90
172,44,240240,2,0,P|179:87|205:125,1,90
405,228,240461,6,0,L|438:136,1,90
107,156,240681,2,0,L|74:248,1,90
408,201,240902,2,0,L|425:105,1,90
103,182,241122,2,0,L|86:278,1,90
408,174,241343,2,0,L|407:77,1,90
103,209,241563,2,0,L|104:306,1,90
403,148,241784,2,0,L|385:52,1,90
108,235,242004,2,0,L|126:331,1,90
386,323,242225,6,0,L|403:235,1,90
161,116,242445,2,0,P|182:158|235:185,1,90
353,299,242666,2,0,P|378:259|375:200,1,90
416,42,242887,2,0,P|369:39|319:71,1,90
159,320,243107,5,0,0:0:0:0:
102,325,243180,1,0,0:0:0:0:
77,275,243254,1,0,0:0:0:0:
115,234,243327,1,0,0:0:0:0:
167,255,243401,1,0,0:0:0:0:
218,284,243474,1,0,0:0:0:0:
273,265,243548,1,0,0:0:0:0:
295,211,243621,1,0,0:0:0:0:
268,160,243695,5,0,0:0:0:0:
279,232,243768,5,0,0:0:0:0:
334,282,243842,5,0,0:0:0:0:
407,287,243915,5,0,0:0:0:0:
468,245,243989,5,0,0:0:0:0:
385,84,244100,1,0,0:0:0:0:
372,218,244210,1,0,0:0:0:0:
387,39,244320,1,0,0:0:0:0:
43,245,244651,5,0,0:0:0:0:
127,84,244762,1,0,0:0:0:0:
140,218,244872,1,0,0:0:0:0:
125,39,244982,1,0,0:0:0:0:
162,306,245313,5,0,0:0:0:0:
350,306,245423,1,0,0:0:0:0:
97,187,245533,1,0,0:0:0:0:
415,187,245643,1,0,0:0:0:0:
256,192,245699,12,0,246526,0:0:0:0:
256,192,246636,5,0,0:0:0:0:
256,192,246691,1,0,0:0:0:0:
256,192,246746,1,0,0:0:0:0:
