osu file format v14

[General]
AudioFilename: S.S.H. - Fighting of the Spirit.mp3
AudioLeadIn: 0
PreviewTime: 50360
Countdown: 0
SampleSet: Normal
StackLeniency: 0.7
Mode: 0
LetterboxInBreaks: 1
WidescreenStoryboard: 0

[Editor]
Bookmarks: 15341,25347,50360,70370,110391,130401,150412,170422,190433,209192,220448
DistanceSpacing: 1.1
BeatDivisor: 4
GridSize: 8
TimelineZoom: 1.6

[Metadata]
Title:Fighting of the Spirit
TitleUnicode:Fighting of the Spirit
Artist:S.S.H.
ArtistUnicode:S.S.H.
Creator:Kyomaku
Version:Expert
Source:Tales of Phantasia
Tags:Tales of Symphonia Kratos Aurion NAMCO
BeatmapID:1211147
BeatmapSetID:51975

[Difficulty]
HPDrainRate:7
CircleSize:4
OverallDifficulty:9
ApproachRate:9
SliderMultiplier:1.8
SliderTickRate:1

[Events]
//Background and Video events
0,0,"Konachan.com - 36496 kratos_aurion tales_of_symphonia.jpg",0,0
//Break Periods
2,110583,119788
2,190625,199830
2,210635,212024
2,213293,214525
2,215794,217026
//Storyboard Layer 0 (Background)
//Storyboard Layer 1 (Fail)
//Storyboard Layer 2 (Pass)
//Storyboard Layer 3 (Foreground)
//Storyboard Sound Samples

[TimingPoints]
326,312.662845231892,4,1,1,80,1,0
15333,-200,4,1,1,80,0,0
22837,-133.333333333333,4,1,1,80,0,0
25339,-100,4,1,1,80,0,0
170414,-100,4,1,1,80,0,1
190425,-100,4,1,1,80,0,0
200430,-200,4,1,1,80,0,0
209184,-100,4,1,1,80,0,0
220440,-100,4,1,1,80,0,1
245297,-100,4,1,1,80,0,0

[Colours]
Combo1 : 255,128,0
Combo2 : 255,0,0
Combo3 : 170,170,255
Combo4 : 82,175,58

[HitObjects]
112,304,15333,6,0,B|168:248|152:136|77:131|64:48|64:48,1,270
120,152,16584,1,0,0:0:0:0:
256,64,17053,1,0,0:0:0:0:
392,152,17522,1,0,0:0:0:0:
400,304,17835,6,0,B|344:248|360:136|435:131|448:48|448:48,1,270
368,32,18929,1,0,0:0:0:0:
344,24,19007,1,0,0:0:0:0:
320,24,19085,1,0,0:0:0:0:
224,48,19242,1,0,0:0:0:0:
136,104,19554,2,0,B|104:144|64:160,1,90
256,192,20023,1,0,0:0:0:0:
376,280,20336,6,0,B|425:206|512:240|464:80,1,225,4|0,0:0|0:0,0:0:0:0:
384,56,21274,1,0,0:0:0:0:
256,96,21587,1,0,0:0:0:0:
104,40,22056,1,0,0:0:0:0:
448,200,22368,1,0,0:0:0:0:
448,200,22446,1,0,0:0:0:0:
448,200,22525,1,0,0:0:0:0:
360,336,22837,6,0,B|328:312|328:312|288:304,1,67.5000025749208,4|0,0:0|0:0,0:0:0:0:
224,296,23150,1,8,0:0:0:0:
168,232,23306,2,0,B|240:224|244:186|296:176,1,134.999995976687
296,88,23775,1,8,0:0:0:0:
208,32,23932,1,0,0:0:0:0:
96,48,24088,5,4,0:0:0:0:
32,192,24244,1,0,0:0:0:0:
112,312,24401,1,8,0:0:0:0:
256,360,24557,1,0,0:0:0:0:
400,312,24713,1,0,0:0:0:0:
480,192,24870,1,0,0:0:0:0:
400,48,25026,1,8,0:0:0:0:
400,48,25104,1,0,0:0:0:0:
400,48,25182,1,0,0:0:0:0:
296,64,25339,6,0,B|256:96|256:136|256:136|232:144,1,90,4|0,0:0|0:0,0:0:0:0:
264,248,25651,1,8,0:0:0:0:
264,248,25808,2,0,B|202:246|202:246|200:200|96:176,1,180
56,48,26277,1,8,0:0:0:0:
56,48,26433,2,0,B|118:50|118:50|120:96|224:120,1,180
288,88,26902,6,0,B|340:92|380:144,1,90,8|0,0:0|0:0,0:0:0:0:
408,224,27215,1,4,0:0:0:0:
472,144,27371,1,0,0:0:0:0:
368,128,27527,1,8,0:0:0:0:
408,224,27683,1,0,0:0:0:0:
368,328,27840,6,0,B|319:318|309:281|309:281|280:280,1,90,4|0,0:0|0:0,0:0:0:0:
192,288,28152,1,8,0:0:0:0:
96,232,28309,2,0,B|72:176|72:176|80:120|80:120|56:56,1,180
184,136,28778,1,8,0:0:0:0:
184,136,28934,2,0,B|230:94|230:94|250:41|250:41|297:3,1,180
432,56,29403,6,0,B|448:88|438:105|438:105|456:152,1,90,8|0,0:0|0:0,0:0:0:0:
440,248,29716,1,4,0:0:0:0:
384,344,29872,1,0,0:0:0:0:
328,248,30028,1,8,0:0:0:0:
48,336,30341,6,0,B|72:296|72:240,1,90,4|0,0:0|0:0,0:0:0:0:
96,144,30653,1,8,0:0:0:0:
160,56,30810,2,0,B|224:40|224:40|280:48|280:48|344:32,1,180
384,136,31279,1,8,0:0:0:0:
280,160,31435,2,0,B|296:224|296:224|288:280|288:280|304:344,1,180
392,272,31904,5,8,0:0:0:0:
472,200,32061,2,0,B|488:144|456:96,1,90,0|4,0:0|0:0,0:0:0:0:
384,40,32373,1,0,0:0:0:0:
280,40,32529,1,8,0:0:0:0:
176,64,32685,1,0,0:0:0:0:
96,136,32842,6,0,B|72:176|72:176|72:200|56:216,1,90,4|0,0:0|0:0,0:0:0:0:
96,320,33154,1,8,0:0:0:0:
192,264,33311,2,0,B|240:232|240:232|304:232|304:232|360:192,1,180
432,144,33780,1,8,0:0:0:0:
480,312,33937,6,0,B|429:299|439:260|400:240,1,90,0|4,0:0|0:0,0:0:0:0:
448,40,34249,2,0,B|498:52|489:92|528:112,1,90,0|4,0:0|0:0,0:0:0:0:
320,144,34562,2,0,B|269:131|279:92|240:72,1,90,0|4,0:0|0:0,0:0:0:0:
152,48,34874,1,0,0:0:0:0:
104,64,34953,1,0,0:0:0:0:
64,104,35030,1,8,0:0:0:0:
40,152,35109,1,0,0:0:0:0:
40,208,35186,1,0,0:0:0:0:
64,248,35266,1,0,0:0:0:0:
112,280,35344,5,4,0:0:0:0:
200,328,35500,1,0,0:0:0:0:
296,328,35656,2,0,L|384:312,1,90
456,248,35969,1,0,0:0:0:0:
456,248,36047,1,0,0:0:0:0:
456,248,36125,1,0,0:0:0:0:
416,160,36282,1,8,0:0:0:0:
472,80,36438,1,4,0:0:0:0:
288,88,36751,6,0,B|304:40|376:24,2,90,0|8|0,0:0|0:0|0:0,0:0:0:0:
200,128,37220,1,4,0:0:0:0:
200,128,37298,1,0,0:0:0:0:
200,128,37376,1,0,0:0:0:0:
152,216,37532,1,8,0:0:0:0:
152,216,37611,1,0,0:0:0:0:
152,216,37689,1,0,0:0:0:0:
152,216,37767,1,0,0:0:0:0:
152,216,37845,5,4,0:0:0:0:
256,336,38001,2,0,B|304:312|320:264,1,90,0|8,0:0|0:0,0:0:0:0:
336,40,38314,2,0,B|240:64|216:176,1,180
408,304,38783,2,0,B|440:272|448:256|448:256|456:216,1,90,8|0,0:0|0:0,0:0:0:0:
424,72,39096,6,0,B|384:48,3,45,4|0|0|0,0:0|0:0|0:0|0:0,0:0:0:0:
400,96,39408,2,0,B|456:136,3,45,8|0|0|0,0:0|0:0|0:0|0:0,0:0:0:0:
384,128,39721,2,0,B|336:88,3,45
360,152,40034,2,0,B|416:192,3,45,8|0|0|0,0:0|0:0|0:0|0:0,0:0:0:0:
344,184,40346,5,4,0:0:0:0:
288,264,40503,1,0,0:0:0:0:
232,184,40659,1,8,0:0:0:0:
288,104,40815,2,0,B|184:104|176:51|176:51|120:8,1,180
56,16,41284,1,8,0:0:0:0:
56,16,41441,2,0,B|48:88|72:117|72:117|80:192,1,180
56,312,41910,6,0,B|152:336,1,90,8|0,0:0|0:0,0:0:0:0:
424,296,42222,2,0,B|312:312,1,90,4|0,0:0|0:0,0:0:0:0:
32,216,42535,2,0,B|128:240,1,90,8|0,0:0|0:0,0:0:0:0:
208,280,42848,5,4,0:0:0:0:
296,232,43004,1,0,0:0:0:0:
384,184,43160,1,8,0:0:0:0:
384,184,43317,2,0,B|408:120|443:117|443:117|440:72|440:72|480:32,1,180
368,72,43786,1,0,0:0:0:0:
272,40,43942,1,0,0:0:0:0:
256,200,44098,5,4,0:0:0:0:
256,248,44176,1,0,0:0:0:0:
256,296,44255,1,0,0:0:0:0:
168,344,44411,1,8,0:0:0:0:
144,248,44567,1,4,0:0:0:0:
128,200,44645,1,0,0:0:0:0:
112,152,44724,1,0,0:0:0:0:
184,88,44880,1,8,0:0:0:0:
272,128,45036,1,0,0:0:0:0:
312,160,45114,1,0,0:0:0:0:
352,192,45193,1,0,0:0:0:0:
392,224,45271,1,0,0:0:0:0:
432,256,45349,5,4,0:0:0:0:
80,72,45974,1,0,0:0:0:0:
456,184,46600,1,0,0:0:0:0:
80,304,47225,1,0,0:0:0:0:
456,192,47850,5,8,0:0:0:0:
368,240,48007,1,0,0:0:0:0:
368,240,48085,1,0,0:0:0:0:
368,240,48163,1,0,0:0:0:0:
280,192,48319,1,8,0:0:0:0:
192,144,48476,1,0,0:0:0:0:
192,144,48554,1,0,0:0:0:0:
192,144,48632,1,0,0:0:0:0:
104,192,48788,1,8,0:0:0:0:
64,280,48945,1,0,0:0:0:0:
64,104,49101,5,0,0:0:0:0:
152,64,49257,2,0,B|248:16,1,90,0|8,0:0|0:0,0:0:0:0:
296,96,49570,1,0,0:0:0:0:
304,192,49726,2,0,B|384:272,1,90,4|0,0:0|0:0,0:0:0:0:
48,312,50039,1,8,0:0:0:0:
48,312,50117,1,0,0:0:0:0:
48,312,50195,1,0,0:0:0:0:
48,312,50273,1,0,0:0:0:0:
48,312,50352,6,0,B|136:368|216:312,1,180,4|8,0:0|0:0,0:0:0:0:
464,328,50821,2,0,B|408:328|408:328|352:360|352:360|288:360,1,180,0|0,0:0|0:0,0:0:0:0:
160,224,51290,1,8,0:0:0:0:
232,176,51446,2,0,B|232:120|232:120|200:64|200:64|200:0,1,180,0|0,0:0|0:0,0:0:0:0:
120,48,51914,5,8,0:0:0:0:
144,136,52071,1,0,0:0:0:0:
304,120,52228,2,0,B|400:104,1,90
512,160,52540,2,0,B|416:176,1,90,8|0,0:0|0:0,0:0:0:0:
295,311,52853,6,0,B|376:368|464:312,1,180,4|8,0:0|0:0,0:0:0:0:
219,360,53322,2,0,B|160:360|160:360|104:328|104:328|48:328,1,180,0|0,0:0|0:0,0:0:0:0:
16,248,53791,1,8,0:0:0:0:
8,216,53869,1,0,0:0:0:0:
16,184,53947,1,0,0:0:0:0:
64,104,54104,5,0,0:0:0:0:
128,168,54260,1,0,0:0:0:0:
152,256,54416,2,0,B|216:288|256:224|328:256,1,180
408,296,54885,1,8,0:0:0:0:
416,328,54963,1,0,0:0:0:0:
408,360,55041,1,0,0:0:0:0:
216,136,55354,5,0,0:0:0:0:
272,64,55510,1,0,0:0:0:0:
360,40,55667,1,8,0:0:0:0:
440,80,55823,1,0,0:0:0:0:
488,160,55979,1,0,0:0:0:0:
400,176,56136,2,0,B|359:140|315:172,1,90,0|8,0:0|0:0,0:0:0:0:
176,248,56448,2,0,B|256:320|344:256,1,180,0|0,0:0|0:0,0:0:0:0:
496,328,56917,6,0,B|436:328|436:328|380:360|380:360|324:360,2,180
112,64,57855,5,0,0:0:0:0:
168,136,58012,1,0,0:0:0:0:
88,176,58168,1,8,0:0:0:0:
120,256,58324,2,0,B|200:328|288:264,1,180,0|0,0:0|0:0,0:0:0:0:
352,320,58793,5,8,0:0:0:0:
376,336,58872,1,0,0:0:0:0:
400,352,58950,2,0,B|504:352,1,90
504,264,59262,1,0,0:0:0:0:
408,144,59419,2,0,B|348:144|348:144|292:176|292:176|236:176,1,180
208,160,59810,1,0,0:0:0:0:
192,136,59888,1,0,0:0:0:0:
208,48,60044,1,8,0:0:0:0:
288,16,60200,1,0,0:0:0:0:
400,232,60357,5,0,0:0:0:0:
328,288,60513,1,0,0:0:0:0:
256,240,60669,1,8,0:0:0:0:
184,296,60826,2,0,B|112:368|8:328,1,180
40,208,61295,1,8,0:0:0:0:
24,184,61373,1,0,0:0:0:0:
8,152,61451,2,0,B|80:80|184:120,1,180
240,56,61920,5,8,0:0:0:0:
288,136,62076,1,0,0:0:0:0:
216,192,62233,2,0,B|176:232|192:288,1,90
296,368,62545,2,0,B|341:346|336:280,1,90,8|0,0:0|0:0,0:0:0:0:
120,184,62858,6,0,B|63:263|101:354,1,180,0|8,0:0|0:0,0:0:0:0:
288,224,63327,1,0,0:0:0:0:
368,184,63483,1,0,0:0:0:0:
448,224,63640,1,0,0:0:0:0:
512,160,63796,1,8,0:0:0:0:
496,136,63874,1,0,0:0:0:0:
472,112,63952,2,0,B|412:112|412:112|356:80|356:80|300:80,1,180
120,32,64421,6,0,B|224:32,1,90,8|0,0:0|0:0,0:0:0:0:
96,128,64734,1,0,0:0:0:0:
64,120,64812,1,0,0:0:0:0:
32,128,64890,2,0,B|56:216,1,90,0|8,0:0|0:0,0:0:0:0:
88,296,65203,1,0,0:0:0:0:
168,256,65359,6,0,B|264:264|320:368,1,180,0|8,0:0|0:0,0:0:0:0:
400,384,65828,1,0,0:0:0:0:
472,328,65985,1,0,0:0:0:0:
464,240,66141,1,0,0:0:0:0:
392,184,66297,5,8,0:0:0:0:
360,192,66376,1,0,0:0:0:0:
328,184,66454,2,0,B|280:168|232:184,1,90
160,232,66766,1,0,0:0:0:0:
80,192,66923,2,0,B|80:132|80:132|112:76|112:76|112:20,2,180
24,272,67704,6,0,B|56:312|112:296,1,90
280,248,68017,2,0,B|248:208|192:224,1,90,0|0,0:0|0:0,0:0:0:0:
240,352,68330,1,0,0:0:0:0:
384,272,68486,2,0,B|408:224|368:160,1,90
304,144,68799,1,8,0:0:0:0:
304,144,68877,1,0,0:0:0:0:
304,144,68955,1,0,0:0:0:0:
240,208,69111,5,0,0:0:0:0:
226,237,69189,1,0,0:0:0:0:
201,258,69268,1,0,0:0:0:0:
171,270,69346,1,0,0:0:0:0:
139,274,69424,1,8,0:0:0:0:
108,268,69502,1,0,0:0:0:0:
82,251,69580,1,0,0:0:0:0:
61,228,69658,1,0,0:0:0:0:
45,201,69737,1,0,0:0:0:0:
40,170,69815,1,0,0:0:0:0:
42,139,69893,1,0,0:0:0:0:
51,109,69971,1,0,0:0:0:0:
68,84,70049,1,8,0:0:0:0:
92,65,70127,1,0,0:0:0:0:
121,54,70206,1,0,0:0:0:0:
152,52,70284,1,0,0:0:0:0:
184,64,70362,2,0,B|176:168,1,90
328,384,70675,5,8,0:0:0:0:
248,352,70831,1,0,0:0:0:0:
160,328,70987,2,0,B|126:365|48:360,1,90
248,240,71300,2,0,B|282:203|360:208,1,90
329,207,71613,1,0,0:0:0:0:
408,152,71769,1,0,0:0:0:0:
328,96,71925,2,0,B|280:100|246:63,1,90
64,72,72238,2,0,B|112:56|152:69,1,90
120,256,72551,5,8,0:0:0:0:
200,312,72707,1,0,0:0:0:0:
296,328,72863,2,8,B|376:280|433:282|433:282|456:248,1,180,0|8,0:0|0:0,0:0:0:0:
360,208,73332,1,0,0:0:0:0:
256,200,73489,2,8,B|152:184|88:88,1,180,0|8,0:0|0:0,0:0:0:0:
256,80,73958,1,0,0:0:0:0:
256,200,74114,2,8,B|360:184|424:88,1,180,0|8,0:0|0:0,0:0:0:0:
256,80,74583,1,0,0:0:0:0:
120,144,74739,1,0,0:0:0:0:
96,296,74896,1,0,0:0:0:0:
96,296,74974,1,0,0:0:0:0:
96,296,75052,1,8,0:0:0:0:
288,376,75365,6,0,B|376:336|400:232,1,180,0|8,0:0|0:0,0:0:0:0:
456,152,75834,1,0,0:0:0:0:
416,48,75990,2,0,B|376:64|352:112,1,90
296,200,76303,2,0,B|264:112,1,90,8|0,0:0|0:0,0:0:0:0:
168,80,76615,2,0,B|87:130|95:234,3,180,0|8|0|8,0:0|0:0|0:0|0:0,0:0:0:0:
184,296,77710,1,0,0:0:0:0:
360,320,77866,6,0,B|396:302|392:280|424:256,1,90
424,72,78179,1,8,0:0:0:0:
240,56,78336,2,0,B|160:112|176:136|112:184,1,180
120,288,78804,1,8,0:0:0:0:
208,352,78961,2,0,B|288:280|232:192,1,180
256,96,79429,1,8,0:0:0:0:
344,48,79586,1,0,0:0:0:0:
344,48,79664,1,0,0:0:0:0:
344,48,79742,1,0,0:0:0:0:
432,96,79898,2,0,B|472:120|481:170,1,90,0|8,0:0|0:0,0:0:0:0:
464,264,80211,1,0,0:0:0:0:
392,336,80367,6,0,B|320:344|272:320|272:320|208:312,1,180,0|8,0:0|0:0,0:0:0:0:
224,216,80836,2,0,B|208:168|152:152,1,90
128,64,81149,2,0,B|88:88|72:160,1,90,0|8,0:0|0:0,0:0:0:0:
80,240,81462,2,0,B|112:336|224:352,1,180
296,296,81930,1,8,0:0:0:0:
376,352,82087,2,0,B|424:336|440:272,2,90
296,296,82556,2,0,B|239:279|232:248|168:232|168:232|144:200,1,180,8|0,0:0|0:0,0:0:0:0:
176,112,83025,5,0,0:0:0:0:
256,48,83181,1,8,0:0:0:0:
352,48,83337,2,0,B|429:96|386:112|412:141|453:192,1,180
432,288,83806,1,8,0:0:0:0:
452,192,83962,2,0,B|376:208|352:237|352:237|268:248,1,180
184,240,84432,1,8,0:0:0:0:
96,200,84588,2,0,B|112:152|88:96,1,90
168,48,84901,1,0,0:0:0:0:
168,48,84979,1,0,0:0:0:0:
168,48,85057,1,8,0:0:0:0:
256,96,85213,5,0,0:0:0:0:
256,96,85370,2,0,B|328:92|328:92|360:64|448:32,1,180,0|8,0:0|0:0,0:0:0:0:
456,136,85839,1,0,0:0:0:0:
472,232,85995,2,0,B|456:280|400:296,1,90
360,208,86308,1,8,0:0:0:0:
344,112,86464,2,0,B|256:133|216:229,1,180
288,296,86932,5,8,0:0:0:0:
216,229,87089,1,0,0:0:0:0:
216,229,87246,2,0,B|240:133|176:45,1,180,0|8,0:3|0:3,0:3:0:0:
88,48,87715,1,0,0:0:0:0:
56,144,87871,2,0,B|50:215|104:264|104:264|112:320,1,180,0|8,0:0|0:0,0:0:0:0:
208,336,88340,1,0,0:0:0:0:
272,264,88496,2,0,B|296:216|344:192,1,90
408,136,88809,5,8,0:0:0:0:
480,200,88965,1,0,0:0:0:0:
472,288,89122,2,0,B|416:368|312:344,1,180,0|8,0:0|0:0,0:0:0:0:
216,328,89591,1,0,0:0:0:0:
120,296,89747,1,0,0:0:0:0:
120,296,89825,1,0,0:0:0:0:
120,296,89903,1,0,0:0:0:0:
64,216,90060,1,8,0:0:0:0:
80,120,90216,1,0,0:0:0:0:
152,64,90372,6,0,B|240:16|336:48,1,180,0|8,0:0|0:0,0:0:0:0:
344,136,90841,1,0,0:0:0:0:
392,216,90998,2,0,B|440:232|496:200,2,90,0|0|8,0:0|0:0|0:0,0:0:0:0:
304,208,91467,2,0,B|216:184|189:215|189:215|128:200,1,180
72,280,91936,1,8,0:0:0:0:
48,184,92092,1,0,0:0:0:0:
80,88,92248,2,0,B|128:56|152:16,1,90
320,96,92561,2,0,B|288:136|272:184,1,90,8|0,0:0|0:0,0:0:0:0:
128,200,92874,2,0,B|192:168|224:112|232:48,1,180,0|8,0:0|0:0,0:0:0:0:
440,120,93343,2,0,B|376:152|344:208|336:272,1,180,0|8,0:0|0:0,0:0:0:0:
240,272,93811,5,8,0:0:0:0:
144,296,93968,1,0,0:0:0:0:
56,248,94124,2,0,B|24:208|24:160,1,90
72,80,94437,1,8,0:0:0:0:
168,112,94593,1,0,0:0:0:0:
168,112,94750,2,0,B|200:144|208:200,1,90
296,248,95062,1,8,0:0:0:0:
360,336,95219,6,0,B|392:296|440:264,1,90
416,168,95531,1,0,0:0:0:0:
352,80,95687,2,0,B|376:32|432:16,2,90,8|0|0,0:0|0:0|0:0,0:0:0:0:
272,128,96157,1,0,0:0:0:0:
216,200,96313,2,0,B|200:248|128:264,2,90,8|0|0,0:0|0:0|0:0,0:0:0:0:
176,120,96782,1,0,0:0:0:0:
104,72,96938,2,0,B|56:96|48:152,1,90,8|0,0:0|0:0,0:0:0:0:
48,232,97251,1,0,0:0:0:0:
88,312,97407,1,0,0:0:0:0:
176,336,97564,2,0,B|224:344|272:304,1,90,8|0,0:0|0:0,0:0:0:0:
352,312,97876,6,0,B|392:280|448:288,1,90
376,216,98189,2,0,B|456:168|488:64,1,180,8|0,0:0|0:0,0:0:0:0:
392,112,98658,1,0,0:0:0:0:
376,216,98814,2,0,B|348:124|268:76,1,180,8|0,0:0|0:0,0:0:0:0:
152,112,99283,1,0,0:0:0:0:
40,256,99440,6,0,B|56:304|112:320,1,90,8|0,0:0|0:0,0:0:0:0:
264,232,99752,2,0,B|240:192|192:184,1,90,4|0,0:0|0:0,0:0:0:0:
128,48,100065,2,0,B|76:41|44:73,1,90,8|0,0:0|0:0,0:0:0:0:
191,183,100378,2,0,B|295:167|335:63,1,180,0|8,0:0|0:0,0:0:0:0:
408,152,100847,1,0,0:0:0:0:
344,240,101003,2,0,B|296:264|240:248,1,90
328,328,101316,2,0,B|234:314|154:362,1,180,8|0,0:0|0:0,0:0:0:0:
416,64,101785,5,0,0:0:0:0:
472,136,101941,1,8,0:0:0:0:
472,224,102097,1,0,0:0:0:0:
408,288,102254,2,0,B|376:328|304:320,1,90
240,328,102566,2,0,B|192:304|168:248,1,90,8|0,0:0|0:0,0:0:0:0:
96,304,102879,2,0,B|112:200|48:120,1,180,0|8,0:0|0:0,0:0:0:0:
152,120,103348,1,0,0:0:0:0:
232,152,103504,2,0,B|256:200|328:192,1,90
392,176,103817,5,8,0:0:0:0:
464,128,103973,1,0,0:0:0:0:
464,128,104130,2,0,B|480:80|456:24,2,90,0|0|8,0:0|0:0|0:0,0:0:0:0:
464,216,104599,1,0,0:0:0:0:
408,288,104755,1,0,0:0:0:0:
320,296,104911,1,0,0:0:0:0:
240,256,105068,2,0,B|208:216|152:208,2,90,8|0|0,0:0|0:0|0:0,0:0:0:0:
296,184,105537,1,0,0:0:0:0:
360,128,105693,2,0,B|416:128|440:72,2,90,8|0|0,0:0|0:0|0:0,0:0:0:0:
272,104,106162,5,0,0:0:0:0:
192,64,106318,2,0,B|152:32|96:48,1,90,8|0,0:0|0:0,0:0:0:0:
112,136,106631,2,0,B|40:200|48:320,1,180,0|8,0:0|0:0,0:0:0:0:
128,336,107100,1,0,0:0:0:0:
216,336,107256,2,0,B|248:296|312:288,1,90
360,344,107569,2,0,B|456:320|464:208,1,180,8|0,0:0|0:0,0:0:0:0:
472,120,108038,1,0,0:0:0:0:
416,56,108194,2,0,B|320:64|296:184,1,180,8|0,0:0|0:0,0:0:0:0:
248,248,108663,1,0,0:0:0:0:
160,264,108820,1,8,0:0:0:0:
80,224,108976,1,0,0:0:0:0:
256,192,109132,12,0,110383,0:0:0:0:
392,328,120388,6,0,B|448:304|464:248,1,90
424,168,120701,1,8,0:0:0:0:
336,224,120857,2,0,B|288:144|240:128|240:128|224:80,1,180
200,192,121326,1,8,0:0:0:0:
120,192,121482,2,0,B|136:272|160:280|200:264|208:304|232:344,1,180
256,224,121951,1,8,0:0:0:0:
304,128,122108,1,0,0:0:0:0:
408,104,122264,1,0,0:0:0:0:
464,200,122420,1,0,0:0:0:0:
464,200,122499,1,0,0:0:0:0:
464,200,122577,2,0,B|408:272|384:288|384:288|360:344,1,180,8|0,0:0|0:0,0:0:0:0:
288,264,123046,5,0,0:0:0:0:
288,160,123202,1,8,0:0:0:0:
192,120,123358,2,0,B|135:75|144:24|32:40,1,180
32,144,123827,1,8,0:0:0:0:
32,256,123984,2,0,B|73:311|48:352|48:352|136:352,1,180
224,312,124453,1,8,0:0:0:0:
328,328,124609,1,0,0:0:0:0:
432,296,124765,1,0,0:0:0:0:
352,224,124922,1,0,0:0:0:0:
352,224,125000,1,0,0:0:0:0:
353,223,125078,2,0,B|280:152|283:101|283:101|264:64,1,180,8|0,0:0|0:0,0:0:0:0:
200,152,125547,5,0,0:0:0:0:
152,56,125703,1,8,0:0:0:0:
88,144,125860,2,0,B|80:192|48:240,1,90
136,280,126172,1,0,0:0:0:0:
136,280,126329,1,8,0:0:0:0:
200,152,126485,2,0,B|190:214|220:244|220:244|240:328,1,180
344,344,126954,2,0,B|393:345|393:345|393:328|456:352,2,90,8|0|0,0:0|0:0|0:0,0:0:0:0:
296,248,127423,1,0,0:0:0:0:
272,200,127501,1,0,0:0:0:0:
256,152,127579,2,0,B|215:98|215:98|208:48|136:24,1,180,8|0,0:0|0:0,0:0:0:0:
64,264,128048,1,0,0:0:0:0:
152,328,128205,1,8,0:0:0:0:
256,344,128361,2,0,B|297:278|297:278|339:270|392:224,1,180
344,128,128830,1,8,0:0:0:0:
256,64,128986,1,0,0:0:0:0:
256,192,129143,12,0,130081,0:0:0:0:
144,232,130393,6,0,B|72:48,1,180
176,104,130862,2,0,B|280:144,1,90
368,120,131175,1,0,0:0:0:0:
368,120,131331,2,0,B|425:177|415:219|415:219|456:296,1,180
336,256,131800,1,0,0:0:0:0:
280,344,131957,2,0,B|212:308|204:275|204:275|112:264,1,180
64,192,132426,1,0,0:0:0:0:
192,40,132582,1,0,0:0:0:0:
392,40,132738,1,0,0:0:0:0:
392,40,132895,2,0,B|425:74|448:72|448:72|480:96,2,90
304,80,133364,1,0,0:0:0:0:
216,128,133520,2,0,B|128:104,1,90
80,192,133833,1,0,0:0:0:0:
129,104,133989,2,0,B|64:40,2,90
160,200,134458,1,0,0:0:0:0:
232,272,134614,5,0,0:0:0:0:
328,304,134771,1,0,0:0:0:0:
424,304,134927,2,0,B|475:291|463:274|459:273|504:240,2,90
368,224,135396,2,0,B|480:80,1,180
144,224,135865,2,0,B|32:80,1,180
256,40,136333,1,0,0:0:0:0:
256,136,136490,1,0,0:0:0:0:
176,192,136647,2,0,P|256:232|336:192,2,180
256,128,137428,1,0,0:0:0:0:
256,128,137584,2,0,B|256:192|256:192|241:213|272:216|256:224|256:224|256:312,1,180
352,272,138053,1,0,0:0:0:0:
400,184,138210,2,0,B|456:112,1,90
360,80,138522,2,0,B|264:32,2,90
304,160,138991,1,0,0:0:0:0:
256,192,139148,12,0,140086,0:0:0:0:
160,152,140398,5,0,0:0:0:0:
256,192,140555,5,0,0:0:0:0:
280,200,140633,1,0,0:0:0:0:
304,192,140711,1,0,0:0:0:0:
328,192,140789,1,0,0:0:0:0:
344,192,140867,1,0,0:0:0:0:
368,184,140946,1,0,0:0:0:0:
392,176,141024,2,0,B|432:136,3,45
456,144,141336,1,0,0:0:0:0:
472,216,141493,1,0,0:0:0:0:
424,272,141649,1,0,0:0:0:0:
360,304,141805,1,0,0:0:0:0:
264,296,141962,1,0,0:0:0:0:
216,280,142040,1,0,0:0:0:0:
176,256,142118,1,0,0:0:0:0:
136,232,142196,1,0,0:0:0:0:
104,200,142274,1,0,0:0:0:0:
96,168,142353,1,0,0:0:0:0:
112,152,142431,1,0,0:0:0:0:
136,160,142509,1,0,0:0:0:0:
152,176,142587,1,0,0:0:0:0:
168,192,142665,1,0,0:0:0:0:
176,216,142743,1,0,0:0:0:0:
176,240,142822,1,0,0:0:0:0:
168,264,142900,2,0,B|160:320,3,45
208,264,143212,2,0,B|232:304,3,45
232,224,143525,2,0,B|288:240,3,45
216,176,143838,2,0,B|264:160,3,45
208,152,144150,1,0,0:0:0:0:
256,192,144229,12,0,145088,0:0:0:0:
392,312,145245,5,0,0:0:0:0:
296,344,145401,2,0,B|231:290|231:290|182:293|120:264,1,180
96,192,145870,1,0,0:0:0:0:
104,176,145948,1,0,0:0:0:0:
120,168,146026,1,0,0:0:0:0:
144,152,146105,1,0,0:0:0:0:
152,144,146183,1,0,0:0:0:0:
176,136,146261,1,0,0:0:0:0:
200,128,146339,1,0,0:0:0:0:
232,136,146417,1,0,0:0:0:0:
248,144,146495,1,0,0:0:0:0:
280,160,146574,1,0,0:0:0:0:
296,176,146652,2,0,B|328:232,3,45
312,144,146964,2,0,B|368:160,3,45
312,104,147277,2,0,B|352:80,3,45
280,72,147590,2,0,B|288:24,3,45
240,24,147902,5,0,0:0:0:0:
208,32,147981,1,0,0:0:0:0:
184,40,148059,1,0,0:0:0:0:
168,56,148137,1,0,0:0:0:0:
160,80,148215,1,0,0:0:0:0:
152,104,148293,1,0,0:0:0:0:
152,128,148371,1,0,0:0:0:0:
160,152,148450,1,0,0:0:0:0:
168,176,148528,1,0,0:0:0:0:
184,192,148606,1,0,0:0:0:0:
200,208,148684,1,0,0:0:0:0:
216,224,148762,1,0,0:0:0:0:
232,240,148840,1,0,0:0:0:0:
240,264,148919,1,0,0:0:0:0:
240,288,148997,1,0,0:0:0:0:
224,320,149075,1,0,0:0:0:0:
200,344,149153,2,0,B|112:352|48:288,2,120
344,344,149778,2,0,B|432:352|496:288,2,120
256,248,150404,6,0,B|230:155|196:139|196:139|184:72,1,180
272,32,150873,1,0,0:0:0:0:
186,87,151029,2,0,B|90:71,1,90
152,160,151342,2,0,B|232:232,1,90
248,144,151654,2,0,B|408:232,1,180
320,280,152123,2,0,B|384:344,1,90
405,230,152436,1,0,0:0:0:0:
352,144,152592,6,0,B|496:24,1,180
256,104,153061,1,0,0:0:0:0:
160,144,153218,2,0,B|16:24,1,180
256,104,153687,2,0,B|256:208,1,90
272,288,153999,1,0,0:0:0:0:
256,194,154156,2,0,B|192:258|199:268|199:268|128:320,1,180
128,216,154625,1,0,0:0:0:0:
136,120,154781,2,0,B|219:93|221:60|221:60|288:24,1,180
352,96,155250,1,0,0:0:0:0:
392,184,155406,1,0,0:0:0:0:
360,280,155563,1,0,0:0:0:0:
288,344,155719,6,0,B|225:309|225:309|224:277|140:250,1,180
64,184,156188,1,0,0:0:0:0:
140,250,156344,2,0,B|178:208|178:208|193:207|196:170,1,90
128,104,156657,2,0,B|248:248,1,180
344,264,157126,1,0,0:0:0:0:
424,208,157282,2,0,B|404:115|376:96|376:96|368:32,1,180
272,40,157751,1,0,0:0:0:0:
176,64,157908,1,0,0:0:0:0:
88,112,158064,6,0,B|64:200,1,90
104,288,158377,1,0,0:0:0:0:
64,198,158533,1,0,0:0:0:0:
160,160,158689,2,0,B|184:72,1,90
280,112,159002,1,0,0:0:0:0:
368,160,159158,2,0,B|392:104,3,45
392,184,159471,2,0,B|448:208,3,45
376,224,159784,2,0,B|432:248,3,45
352,256,160096,1,0,0:0:0:0:
312,280,160174,1,0,0:0:0:0:
264,296,160253,1,0,0:0:0:0:
216,304,160331,1,0,0:0:0:0:
168,304,160409,1,0,0:0:0:0:
128,280,160487,1,0,0:0:0:0:
104,240,160565,6,0,B|72:144,1,90
351,57,160878,2,0,B|248:64|224:80|224:80|176:56,1,180
80,72,161346,1,0,0:0:0:0:
398,263,161503,2,0,B|264:144,1,180
168,144,161972,1,0,0:0:0:0:
216,232,162129,2,0,B|112:232,1,90
168,144,162441,2,0,B|112:24,1,90
224,40,162754,1,0,0:0:0:0:
256,136,162910,2,0,B|448:112,1,180
80,264,163379,1,0,0:0:0:0:
176,296,163536,1,0,0:0:0:0:
272,264,163692,1,0,0:0:0:0:
368,296,163848,1,0,0:0:0:0:
176,184,164005,6,0,B|98:122|98:122|105:84|48:40,1,180
256,72,164473,2,0,B|472:48,1,180
400,144,164942,1,0,0:0:0:0:
440,232,165099,1,0,0:0:0:0:
392,320,165255,2,0,B|312:360,1,90
224,320,165568,1,0,0:0:0:0:
136,280,165724,2,0,B|40:112,1,180
96,40,166193,1,0,0:0:0:0:
192,48,166349,1,0,0:0:0:0:
192,48,166506,6,0,B|287:62|317:31|317:31|376:48,1,180
448,216,166975,6,0,B|352:201|322:232|322:232|264:216,1,180
176,216,167444,1,0,0:0:0:0:
88,168,167600,1,0,0:0:0:0:
80,72,167756,1,0,0:0:0:0:
176,48,167913,6,0,B|247:109|270:97|270:97|352:160,1,180
392,216,168382,1,0,0:0:0:0:
325,140,168538,2,0,B|304:248,1,90
352,312,168851,2,0,B|416:304|416:304|448:296,1,90
440,297,169163,5,0,0:0:0:0:
464,200,169320,1,0,0:0:0:0:
464,200,169397,1,0,0:0:0:0:
464,200,169475,1,0,0:0:0:0:
368,160,169632,1,0,0:0:0:0:
272,152,169788,1,0,0:0:0:0:
232,176,169866,1,0,0:0:0:0:
192,200,169944,1,0,0:0:0:0:
104,160,170101,1,0,0:0:0:0:
40,88,170258,1,0,0:0:0:0:
360,184,170414,6,0,B|440:16,1,180
208,64,170883,2,0,B|64:216,1,180
128,280,171352,1,0,0:0:0:0:
216,328,171508,1,0,0:0:0:0:
312,304,171665,2,0,B|352:216,1,90
352,120,171977,1,0,0:0:0:0:
352,216,172134,1,0,0:0:0:0:
352,120,172290,2,0,B|320:24,1,90
88,136,172603,2,0,B|104:256,1,90
336,80,172915,6,0,B|152:96,1,180
359,264,173384,2,0,B|184:224,1,180
96,280,173853,1,0,0:0:0:0:
184,328,174010,1,0,0:0:0:0:
280,320,174166,1,0,0:0:0:0:
344,248,174322,1,0,0:0:0:0:
352,152,174479,2,0,B|304:93|264:80|264:80|232:16,1,180
208,120,174948,6,0,B|192:208,1,90
144,296,175260,1,0,0:0:0:0:
64,240,175417,1,0,0:0:0:0:
64,144,175573,1,0,0:0:0:0:
120,64,175729,1,0,0:0:0:0:
120,64,175886,2,0,B|170:42|184:56|184:56|216:56,1,90
160,144,176198,2,0,B|344:144,1,180
296,232,176667,1,0,0:0:0:0:
456,24,176824,2,0,B|416:92|416:92|434:146|416:200,1,180
376,280,177292,1,0,0:0:0:0:
288,328,177449,1,0,0:0:0:0:
200,280,177605,2,0,B|153:255|153:255|145:270|96:240,2,90
280,224,178074,1,0,0:0:0:0:
200,280,178231,1,0,0:0:0:0:
200,184,178387,1,0,0:0:0:0:
144,104,178543,2,0,B|137:62|88:60|88:16,2,90
200,184,179012,1,0,0:0:0:0:
128,256,179169,5,0,0:0:0:0:
168,280,179247,1,0,0:0:0:0:
216,296,179325,1,0,0:0:0:0:
264,304,179403,1,0,0:0:0:0:
312,288,179481,1,0,0:0:0:0:
352,256,179559,1,0,0:0:0:0:
384,224,179638,1,0,0:0:0:0:
392,176,179716,1,0,0:0:0:0:
384,128,179794,1,0,0:0:0:0:
360,88,179872,1,0,0:0:0:0:
320,56,179950,1,0,0:0:0:0:
272,56,180028,1,0,0:0:0:0:
224,72,180107,1,0,0:0:0:0:
160,152,180263,1,0,0:0:0:0:
64,176,180420,2,0,B|87:241|62:271|62:271|93:352,1,180
256,192,180889,2,0,B|330:209|349:189|349:189|448:208,1,180
456,112,181357,1,0,0:0:0:0:
416,80,181435,1,0,0:0:0:0:
368,72,181514,1,0,0:0:0:0:
80,120,181670,1,0,0:0:0:0:
120,208,181826,1,0,0:0:0:0:
192,280,181983,1,0,0:0:0:0:
288,296,182139,1,0,0:0:0:0:
384,264,182295,2,0,B|456:200,1,90
464,104,182608,2,0,B|384:144,1,90
64,160,182921,2,0,B|135:186|160:232|160:232|200:288,1,180
392,232,183390,6,0,B|350:182|296:160|296:160|260:110,1,180
160,96,183859,1,0,0:0:0:0:
160,96,183937,1,0,0:0:0:0:
160,96,184015,1,0,0:0:0:0:
240,40,184172,1,0,0:0:0:0:
336,72,184328,1,0,0:0:0:0:
408,136,184484,2,0,B|425:230|457:242|457:242|464:328,1,180
368,328,184953,1,0,0:0:0:0:
320,344,185031,1,0,0:0:0:0:
272,328,185109,1,0,0:0:0:0:
192,272,185266,1,0,0:0:0:0:
120,208,185422,5,0,0:0:0:0:
104,120,185578,1,0,0:0:0:0:
200,144,185735,1,0,0:0:0:0:
192,48,185891,1,0,0:0:0:0:
120,208,186047,1,0,0:0:0:0:
176,288,186204,2,0,B|256:336,1,90
288,240,186516,2,0,B|472:192,1,180
462,194,186985,1,0,0:0:0:0:
480,96,187142,1,0,0:0:0:0:
480,96,187298,1,0,0:0:0:0:
400,40,187454,1,0,0:0:0:0:
400,40,187611,2,0,B|348:19|341:42|341:42|304:16,2,90
344,120,188080,1,0,0:0:0:0:
248,112,188236,2,0,B|179:58|141:68|141:68|80:32,1,180
64,136,188705,1,0,0:0:0:0:
144,192,188861,2,0,B|119:253|119:253|86:286|86:359,1,180
256,192,189330,12,0,190425,0:0:0:0:
48,312,200430,6,0,B|115:292|180:332|223:313|223:313|328:312,1,270,4|0,0:0|0:0,0:0:0:0:
376,192,201681,1,0,0:0:0:0:
256,104,202150,1,0,0:0:0:0:
112,72,202619,1,0,0:0:0:0:
256,104,202932,6,0,B|288:168|320:168|320:168|328:224|328:224|368:248|353:273|353:273|392:336,1,270,4|0,0:0|0:0,0:0:0:0:
288,328,204026,1,0,0:0:0:0:
288,328,204104,1,0,0:0:0:0:
288,328,204182,1,0,0:0:0:0:
192,280,204339,1,0,0:0:0:0:
96,192,204651,2,0,B|81:145|70:134|70:134|80:96,1,90
152,72,205120,1,0,0:0:0:0:
280,40,205433,6,0,B|320:112|376:120|376:120|456:184,1,225,4|0,0:0|0:0,0:0:0:0:
440,272,206371,1,0,0:0:0:0:
288,328,206684,1,0,0:0:0:0:
288,96,207152,1,0,0:0:0:0:
192,80,207464,1,0,0:0:0:0:
192,80,207542,1,0,0:0:0:0:
192,80,207621,1,0,0:0:0:0:
64,144,207934,2,0,B|144:208|219:196|219:196|256:344,1,315
256,192,209184,12,0,210435,0:0:0:0:
208,168,212624,5,0,0:0:0:0:
208,168,212936,1,0,0:0:0:0:
208,168,213093,1,0,0:0:0:0:
216,160,215125,5,0,0:0:0:0:
216,160,215438,1,0,0:0:0:0:
216,160,215594,1,0,0:0:0:0:
224,171,217626,5,0,0:0:0:0:
40,232,217939,2,0,B|72:208|72:208|80:184|96:152,1,90
176,112,218252,1,0,0:0:0:0:
216,200,218408,1,0,0:0:0:0:
296,256,218564,2,0,B|339:249|349:275|349:275|384:280,2,90
216,200,219033,1,0,0:0:0:0:
176,112,219189,1,0,0:0:0:0:
160,104,219268,1,0,0:0:0:0:
152,88,219346,1,0,0:0:0:0:
152,72,219424,1,0,0:0:0:0:
160,56,219502,1,0,0:0:0:0:
176,48,219580,1,0,0:0:0:0:
192,48,219658,1,0,0:0:0:0:
208,48,219737,1,0,0:0:0:0:
224,48,219815,1,0,0:0:0:0:
240,48,219893,1,0,0:0:0:0:
256,56,219971,1,0,0:0:0:0:
272,64,220049,1,0,0:0:0:0:
288,72,220127,1,0,0:0:0:0:
304,80,220206,1,0,0:0:0:0:
320,88,220284,1,0,0:0:0:0:
336,104,220362,1,0,0:0:0:0:
344,120,220440,1,0,0:0:0:0:
376,232,220596,5,0,0:0:0:0:
304,304,220753,1,0,0:0:0:0:
272,312,220831,1,0,0:0:0:0:
240,320,220909,1,0,0:0:0:0:
208,320,220987,1,0,0:0:0:0:
176,328,221065,1,0,0:0:0:0:
152,304,221144,1,0,0:0:0:0:
120,296,221222,1,0,0:0:0:0:
104,264,221300,1,0,0:0:0:0:
72,240,221378,1,0,0:0:0:0:
64,208,221456,1,0,0:0:0:0:
56,176,221534,1,0,0:0:0:0:
64,144,221613,1,0,0:0:0:0:
96,120,221691,2,0,B|112:72,3,45
152,96,222003,2,0,B|168:40,3,45
208,80,222316,2,0,B|224:24,3,45
264,64,222629,1,0,0:0:0:0:
384,136,222785,5,0,0:0:0:0:
392,248,222941,1,0,0:0:0:0:
272,288,223098,1,0,0:0:0:0:
272,288,223176,1,0,0:0:0:0:
272,288,223254,1,0,0:0:0:0:
120,256,223410,1,0,0:0:0:0:
160,144,223567,1,0,0:0:0:0:
48,104,223723,1,0,0:0:0:0:
48,104,223801,1,0,0:0:0:0:
48,104,223879,1,0,0:0:0:0:
32,200,224036,1,0,0:0:0:0:
32,200,224114,1,0,0:0:0:0:
32,200,224192,2,0,B|24:256,3,45
80,232,224505,2,0,B|72:288,3,45
128,224,224817,2,0,B|120:168,3,45
176,184,225130,6,0,B|168:128,3,45
216,208,225443,1,0,0:0:0:0:
248,216,225521,1,0,0:0:0:0:
280,224,225599,1,0,0:0:0:0:
312,224,225677,1,0,0:0:0:0:
344,216,225755,1,0,0:0:0:0:
376,200,225834,1,0,0:0:0:0:
400,176,225912,1,0,0:0:0:0:
400,144,225990,1,0,0:0:0:0:
384,112,226068,1,0,0:0:0:0:
360,80,226146,1,0,0:0:0:0:
328,72,226224,1,0,0:0:0:0:
288,72,226303,1,0,0:0:0:0:
256,88,226381,1,0,0:0:0:0:
232,112,226459,1,0,0:0:0:0:
216,144,226537,1,0,0:0:0:0:
200,176,226615,1,0,0:0:0:0:
176,200,226693,2,0,B|112:216,3,45
152,240,227006,2,0,B|88:256,3,45
136,272,227319,2,0,B|200:288,3,45
160,312,227631,2,0,B|152:360,2,45
232,328,227944,5,0,0:0:0:0:
312,304,228100,2,0,B|304:352,2,45
368,128,228413,2,0,B|360:80,2,45
448,312,228726,2,0,B|456:360,5,45
432,288,229195,1,0,0:0:0:0:
400,256,229273,1,0,0:0:0:0:
368,224,229351,1,0,0:0:0:0:
328,200,229429,1,0,0:0:0:0:
280,192,229507,1,0,0:0:0:0:
240,208,229586,1,0,0:0:0:0:
200,232,229664,1,0,0:0:0:0:
160,248,229742,1,0,0:0:0:0:
112,256,229820,1,0,0:0:0:0:
72,240,229898,1,0,0:0:0:0:
48,200,229976,1,0,0:0:0:0:
40,160,230055,1,0,0:0:0:0:
40,112,230133,1,0,0:0:0:0:
64,72,230211,1,0,0:0:0:0:
104,48,230289,1,0,0:0:0:0:
152,40,230367,1,0,0:0:0:0:
192,48,230445,6,0,B|256:48,3,45
256,80,230758,2,0,B|320:80,3,45
224,112,231071,2,0,B|160:112,3,45
272,160,231384,2,0,B|336:160,3,45
248,184,231696,1,0,0:0:0:0:
224,256,231852,1,0,0:0:0:0:
296,320,232009,1,0,0:0:0:0:
168,360,232165,1,0,0:0:0:0:
48,296,232321,1,0,0:0:0:0:
72,200,232478,1,0,0:0:0:0:
136,128,232634,1,0,0:0:0:0:
344,216,232790,1,0,0:0:0:0:
464,256,232947,2,0,B|472:160,1,90
320,112,233259,1,0,0:0:0:0:
200,136,233416,2,0,B|184:320,1,180
296,336,233885,2,0,B|304:240,1,90
408,96,234197,2,0,B|400:192,1,90
208,344,234510,2,0,B|216:248,1,90
432,280,234822,2,0,B|424:376,1,90
320,280,235135,5,0,0:0:0:0:
144,136,235292,1,0,0:0:0:0:
144,136,235370,1,0,0:0:0:0:
144,136,235448,1,0,0:0:0:0:
224,136,235604,1,0,0:0:0:0:
280,208,235761,1,0,0:0:0:0:
280,208,235839,1,0,0:0:0:0:
280,208,235917,1,0,0:0:0:0:
352,144,236073,2,0,B|392:112,2,45
408,272,236386,2,0,B|368:240,3,45
328,304,236699,1,0,0:0:0:0:
296,312,236777,1,0,0:0:0:0:
264,320,236855,1,0,0:0:0:0:
232,328,236933,1,0,0:0:0:0:
200,328,237011,1,0,0:0:0:0:
168,320,237089,1,0,0:0:0:0:
136,312,237168,1,0,0:0:0:0:
104,288,237246,1,0,0:0:0:0:
80,264,237324,1,0,0:0:0:0:
64,232,237402,1,0,0:0:0:0:
56,200,237480,1,0,0:0:0:0:
64,168,237558,1,0,0:0:0:0:
80,136,237637,1,0,0:0:0:0:
104,112,237715,1,0,0:0:0:0:
128,88,237793,1,0,0:0:0:0:
160,72,237871,1,0,0:0:0:0:
192,64,237949,6,0,B|256:128,1,90
432,184,238262,2,0,B|368:120,1,90
192,192,238575,1,0,0:0:0:0:
192,192,238653,1,0,0:0:0:0:
192,192,238731,1,0,0:0:0:0:
256,272,238887,1,0,0:0:0:0:
320,216,239044,1,0,0:0:0:0:
256,192,239122,12,0,240451,0:0:0:0:
264,200,241076,5,0,0:0:0:0:
264,200,241701,1,0,0:0:0:0:
264,200,242327,1,0,0:0:0:0:
208,328,242952,2,0,B|88:288,1,90
176,216,243265,1,0,0:0:0:0:
336,240,243421,2,0,B|232:256,1,90
200,168,243734,1,0,0:0:0:0:
104,152,243890,2,0,B|208:168,1,90
256,72,244203,1,0,0:0:0:0:
288,80,244281,1,0,0:0:0:0:
320,88,244359,1,0,0:0:0:0:
352,104,244437,1,0,0:0:0:0:
376,128,244515,1,0,0:0:0:0:
400,152,244593,1,0,0:0:0:0:
416,184,244672,1,0,0:0:0:0:
432,216,244750,1,0,0:0:0:0:
440,248,244828,1,0,0:0:0:0:
424,280,244906,1,0,0:0:0:0:
400,304,244984,1,0,0:0:0:0:
368,320,245062,1,0,0:0:0:0:
328,320,245141,1,0,0:0:0:0:
296,312,245219,1,0,0:0:0:0:
264,296,245297,1,0,0:0:0:0:
256,192,245375,12,0,246547,0:0:0:0:
264,192,246704,5,0,0:0:0:0:
264,192,246782,1,0,0:0:0:0:
264,192,246860,1,0,0:0:0:0:
