osu file format v14

[General]
AudioFilename: Fierce Fight-Remix-.mp3
AudioLeadIn: 2000
PreviewTime: 41059
Countdown: 0
SampleSet: Normal
StackLeniency: 0.4
Mode: 0
LetterboxInBreaks: 0
WidescreenStoryboard: 0

[Editor]
DistanceSpacing: 1
BeatDivisor: 2
GridSize: 4
TimelineZoom: 1.3

[Metadata]
Title:Fierce Fight-Remix
TitleUnicode:Fierce Fight-Remix
Artist:S.S.H.
ArtistUnicode:S.S.H.
Creator:Snow Note
Version:Exceed
Source:eXceed3rd-JADE PENETRATE-BLACK PACKAGE
Tags:inaba-tan tennen sozai danmaku game original sound track ost saitama saisyu heiki ssh Stage 4 boss iriasu reginreibu Dakkychan ExGon 7odoa
BeatmapID:405059
BeatmapSetID:40480

[Difficulty]
HPDrainRate:4
CircleSize:4
OverallDifficulty:7.5
ApproachRate:9.4
SliderMultiplier:2.1
SliderTickRate:1

[Events]
//Background and Video events
0,0,"Exceed.jpg",0,0
//Break Periods
//Storyboard Layer 0 (Background)
//Storyboard Layer 1 (Fail)
//Storyboard Layer 2 (Pass)
//Storyboard Layer 3 (Foreground)
//Storyboard Sound Samples

[TimingPoints]
130.734046219971,214.285714285714,4,1,1,55,1,0
13845,-100,4,1,1,55,0,1
13898,-100,4,1,1,55,0,0
82416,-100,4,1,1,55,0,1
82470,-100,4,1,1,55,0,0
96130,-100,4,1,1,55,0,1
96184,-100,4,1,1,55,0,0
109845,-100,4,1,1,55,0,1
116702,-100,4,1,1,55,0,0
123559,-100,4,1,1,55,0,1
123612,-100,4,1,1,55,0,0
137273,-100,4,1,1,55,0,1
137327,-100,4,1,1,55,0,0

[Colours]
Combo1 : 255,255,0
Combo2 : 255,0,0
Combo3 : 255,128,0

[HitObjects]
256,192,130,5,4,0:0:0:0:
160,76,1630,6,0,B|255:0|351:75,1,210,4|4,0:0|0:0,0:0:0:0:
256,364,2916,6,0,B|160:324,1,105
64,280,3130,1,4,0:0:0:0:
256,56,3345,1,4,0:0:0:0:
448,280,3559,1,4,0:0:0:0:
256,192,5059,5,4,0:0:0:0:
256,360,5273,1,4,0:0:0:0:
32,48,5595,1,4,0:0:0:0:
480,48,5916,1,4,0:0:0:0:
120,178,6130,6,0,B|132:124|188:104,1,105
305,265,6345,2,0,B|256:299|207:266,1,105
324,104,6559,2,0,B|380:124|391:178,2,105,4|0|4,0:0|0:0|0:0,0:0:0:0:
256,184,6880,1,0,0:0:0:0:
188,104,6987,1,4,0:0:0:0:
352,76,8487,6,0,B|257:0|161:75,1,210,4|4,0:0|0:0,0:0:0:0:
416,68,9773,6,0,B|368:32,2,52.5
508,124,9987,1,4,0:0:0:0:
256,340,10202,1,4,0:0:0:0:
4,124,10416,1,4,0:0:0:0:
256,192,10470,12,0,11273,0:0:0:0:
96,68,11487,6,0,B|144:32,2,52.5
4,124,11702,1,4,0:0:0:0:
256,340,11916,1,4,0:0:0:0:
508,124,12130,5,4,0:0:0:0:
372,284,12345,2,0,B|460:360,1,105,0|0,0:0|0:0,0:0:0:0:
140,284,12666,2,0,B|52:360,1,105,0|4,0:0|0:0,0:0:0:0:
182,16,12987,6,0,B|150:68|96:68,1,105
0,244,13202,2,0,B|32:192|96:192,1,105
160,332,13416,5,2,0:0:0:0:
256,208,13523,1,2,0:0:0:0:
352,332,13630,1,2,0:0:0:0:
428,192,13737,1,2,0:0:0:0:
316,28,13845,6,0,B|252:128|116:128,1,210,6|8,0:0|0:0,0:0:0:0:
32,312,14166,2,0,B|96:212|232:212,1,210
40,100,14487,1,10,0:0:0:0:
312,312,14702,6,0,B|340:344|340:344|412:344,1,105
200,312,14916,2,0,B|172:344|172:344|100:344,1,105,8|0,0:0|0:0,0:0:0:0:
384,264,15130,2,0,B|492:264,1,105
128,264,15345,2,0,B|20:264,1,105,8|0,0:0|0:0,0:0:0:0:
96,188,15559,6,0,B|184:188|184:188|192:256|256:276,1,210,2|8,0:0|0:0,0:0:0:0:
416,196,15880,2,0,B|328:196|328:196|320:128|256:100,1,210
384,104,16202,1,10,0:0:0:0:
436,340,16416,5,0,0:0:0:0:
256,164,16630,1,8,0:0:0:0:
76,340,16845,1,0,0:0:0:0:
256,88,17059,1,8,0:0:0:0:
52,44,17273,6,0,B|136:92|136:92|152:152|88:192,1,210,2|8,0:0|0:0,0:0:0:0:
211,81,17595,2,0,B|226:214|128:256,1,210
44,356,17916,2,0,B|70:306|47:255,1,105,10|0,0:0|0:0,0:0:0:0:
312,352,18130,6,0,B|204:352,1,105
256,260,18345,2,0,B|364:260,1,105,8|0,0:0|0:0,0:0:0:0:
416,172,18559,2,0,B|308:172,1,105
360,80,18774,2,0,B|468:80,1,105,8|0,0:0|0:0,0:0:0:0:
256,80,18987,5,2,0:0:0:0:
48,52,19202,2,0,B|108:64|140:120,1,105,8|0,0:0|0:0,0:0:0:0:
48,331,19523,2,0,B|108:320|133:275,1,105,0|10,0:0|0:0,0:0:0:0:
336,332,19845,6,0,B|304:380|228:384,1,105
376,256,20059,2,0,B|408:208|484:204,1,105,10|0,0:0|0:0,0:0:0:0:
320,52,20273,1,2,0:0:0:0:
48,380,20487,1,12,0:0:0:0:
136,56,20702,6,0,B|164:116|216:120|216:120|216:232,1,210,2|8,0:0|0:0,0:0:0:0:
376,328,21023,2,0,B|348:268|296:264|296:264|296:152,1,210
292,348,21345,1,10,0:0:0:0:
68,304,21559,6,0,B|124:328|124:384,1,105
148,244,21773,2,0,B|148:139,1,105,8|0,0:0|0:0,0:0:0:0:
124,0,21987,2,0,B|124:56|68:80,1,105
216,64,22202,2,0,B|324:64,1,105,8|0,0:0|0:0,0:0:0:0:
425,64,22416,6,0,B|504:64|504:64|504:148|504:148|464:188,1,210,2|8,0:0|0:0,0:0:0:0:
456,360,22737,2,0,B|377:360|377:360|377:276|377:276|417:236,1,210
344,160,23059,2,0,B|264:160|264:160|220:156|188:116|188:116|184:72,1,210,10|0,0:0|0:0,0:0:0:0:
256,368,23487,1,8,0:0:0:0:
364,72,23702,1,0,0:0:0:0:
108,256,23916,1,8,0:0:0:0:
404,256,24130,6,0,B|476:160|424:56,1,210,2|8,0:0|0:0,0:0:0:0:
356,136,24452,2,0,B|255:189|155:136,1,210
76,68,24773,1,10,0:0:0:0:
64,172,24880,1,0,0:0:0:0:
144,240,24987,6,0,B|184:340,1,105
336,376,25202,2,0,B|436:336,1,105,8|0,0:0|0:0,0:0:0:0:
488,192,25416,2,0,B|448:92,1,105
296,56,25631,2,0,B|196:96,1,105,8|0,0:0|0:0,0:0:0:0:
36,252,25845,6,0,B|80:356|224:376,1,210,2|8,0:0|0:0,0:0:0:0:
476,252,26166,2,0,B|432:356|288:376,1,210
256,224,26487,2,0,B|256:96,1,105,10|0,0:0|0:0,0:0:0:0:
32,44,26702,5,0,0:0:0:0:
136,64,26809,1,0,0:0:0:0:
32,76,26916,1,8,0:0:0:0:
136,96,27023,1,0,0:0:0:0:
32,108,27130,1,4,0:0:0:0:
256,332,27345,1,12,0:0:0:0:
480,108,27559,6,0,B|408:204|472:336,1,210,6|0,0:0|0:0,0:0:0:0:
364,352,27880,1,0,0:0:0:0:
352,248,27987,1,0,0:0:0:0:
352,248,28095,1,0,0:0:0:0:
352,248,28202,1,0,0:0:0:0:
352,248,28309,1,0,0:0:0:0:
352,248,28416,2,0,B|140:248,1,210,8|0,0:0|0:0,0:0:0:0:
72,168,28737,2,0,B|284:168,1,210,8|0,0:0|0:0,0:0:0:0:
212,88,29059,2,0,B|320:88,1,105,8|0,0:0|0:0,0:0:0:0:
408,36,29273,6,0,B|448:168|304:200,1,210,2|0,0:0|0:0,0:0:0:0:
368,288,29595,1,0,0:0:0:0:
268,288,29702,1,0,0:0:0:0:
268,288,29809,1,0,0:0:0:0:
268,288,29916,1,0,0:0:0:0:
268,288,30023,1,0,0:0:0:0:
268,288,30130,2,0,B|172:240|172:240|136:288|72:288,1,210,8|0,0:0|0:0,0:0:0:0:
268,96,30452,2,0,B|172:144|172:144|136:96|72:96,1,210,8|0,0:0|0:0,0:0:0:0:
84,192,30773,1,8,0:0:0:0:
400,360,30987,6,0,B|400:296|400:296|464:256|464:256|464:180,1,210,2|0,0:0|0:0,0:0:0:0:
464,85,31309,1,0,0:0:0:0:
376,140,31416,1,0,0:0:0:0:
376,140,31523,1,0,0:0:0:0:
376,140,31630,1,0,0:0:0:0:
376,140,31737,1,0,0:0:0:0:
376,140,31845,6,0,B|272:180|272:88|168:128,1,210,8|0,0:0|0:0,0:0:0:0:
40,332,32166,2,0,B|96:232|216:232,1,210,8|0,0:0|0:0,0:0:0:0:
316,252,32487,1,8,0:0:0:0:
40,52,32702,6,0,B|96:152|216:152,1,210,2|0,0:0|0:0,0:0:0:0:
184,52,33023,2,0,B|276:36|336:112|308:200,1,210,0|0,0:0|0:0,0:0:0:0:
244,252,33345,1,10,0:0:0:0:
492,360,33559,6,0,B|456:256,1,105
329,208,33773,2,0,B|364:308,1,105,0|0,0:0|0:0,0:0:0:0:
296,108,33987,1,2,0:0:0:0:
20,360,34202,1,4,0:0:0:0:
152,20,34416,6,0,B|96:108,1,105,2|0,0:0|0:0,0:0:0:0:
20,180,34630,1,0,0:0:0:0:
120,204,34737,1,0,0:0:0:0:
204,136,34845,1,0,0:0:0:0:
204,136,34952,1,0,0:0:0:0:
204,136,35059,1,0,0:0:0:0:
204,136,35166,1,0,0:0:0:0:
204,136,35273,6,0,B|320:136|396:24,1,210,8|0,0:0|0:0,0:0:0:0:
512,112,35595,2,0,B|396:112|320:224,1,210,8|0,0:0|0:0,0:0:0:0:
424,256,35916,2,0,B|452:200|512:204,1,105,8|0,0:0|0:0,0:0:0:0:
332,300,36130,6,0,B|304:356|244:352,1,105,2|0,0:0|0:0,0:0:0:0:
80,340,36345,2,0,B|108:284|168:288,1,105
256,192,36559,1,0,0:0:0:0:
256,192,36666,1,0,0:0:0:0:
256,192,36773,1,0,0:0:0:0:
256,192,36880,1,0,0:0:0:0:
168,125,36987,6,0,B|214:58|297:58|343:125,1,210,8|0,0:0|0:0,0:0:0:0:
343,258,37309,2,0,B|297:325|214:325|168:258,1,210,8|0,0:0|0:0,0:0:0:0:
88,192,37630,2,0,B|8:260,1,105,8|0,0:0|0:0,0:0:0:0:
72,88,37845,6,0,B|152:20,1,105,2|0,0:0|0:0,0:0:0:0:
359,19,38059,2,0,B|440:88,1,105
256,104,38273,1,0,0:0:0:0:
256,104,38380,1,0,0:0:0:0:
256,104,38487,1,0,0:0:0:0:
256,104,38595,1,0,0:0:0:0:
192,188,38702,6,0,B|152:252|152:252|72:260|48:336,1,210,8|0,0:0|0:0,0:0:0:0:
461,328,39023,2,0,B|440:260|360:252|360:252|320:188,1,210,8|0,0:0|0:0,0:0:0:0:
152,356,39345,1,10,0:0:0:0:
360,356,39452,1,0,0:0:0:0:
192,188,39559,6,0,B|220:136|192:84,1,105,2|0,0:0|0:0,0:0:0:0:
104,140,39773,1,0,0:0:0:0:
291,138,39880,2,0,B|322:188|381:190,1,105,2|0,0:0|0:0,0:0:0:0:
377,86,40094,1,0,0:0:0:0:
284,249,40202,2,0,B|225:251|194:301,1,105,2|0,0:0|0:0,0:0:0:0:
284,356,40416,6,0,B|336:384|392:356,2,105,0|2|0,0:0|0:0|0:0,0:0:0:0:
484,296,40737,1,0,0:0:0:0:
464,192,40845,2,0,B|448:68|304:28,1,210,2|2,0:0|0:0,0:0:0:0:
256,104,41166,1,2,0:0:0:0:
180,32,41273,6,0,B|76:88,1,105,4|0,0:0|0:0,0:0:0:0:
28,240,41487,2,0,B|132:184,1,105,8|0,0:0|0:0,0:0:0:0:
328,160,41702,2,0,B|224:216,1,105
176,368,41916,2,0,B|280:312,1,105,8|0,0:0|0:0,0:0:0:0:
480,360,42130,6,0,B|440:316|452:252,1,105
448,72,42345,2,0,B|488:116|476:180,1,105,8|0,0:0|0:0,0:0:0:0:
316,28,42559,1,0,0:0:0:0:
336,252,42666,2,0,B|296:208|308:144,2,105,0|8|0,0:0|0:0|0:0,0:0:0:0:
192,336,42987,6,0,B|236:364|236:364|300:364,1,105
72,236,43202,2,0,B|188:236,1,105,8|0,0:0|0:0,0:0:0:0:
23,136,43416,1,0,0:0:0:0:
232,136,43523,2,0,B|179:136|179:136|135:108,1,105,0|8,0:0|0:0,0:0:0:0:
280,248,43737,2,0,B|344:248|344:248|364:336|472:352,1,210
452,240,44059,1,8,0:0:0:0:
384,160,44166,2,0,B|432:124|500:140,1,105
288,128,44380,2,0,B|311:72|378:52,1,105,0|8,0:0|0:0,0:0:0:0:
192,156,44595,1,0,0:0:0:0:
88,152,44702,6,0,B|92:216|144:248,1,105
324,372,44916,2,0,B|320:308|268:276,1,105,8|0,0:0|0:0,0:0:0:0:
192,156,45130,2,0,B|212:95|270:77,1,105
460,4,45345,2,0,B|439:64|381:82,1,105,8|0,0:0|0:0,0:0:0:0:
404,288,45559,5,0,0:0:0:0:
308,328,45666,2,0,B|289:266|327:218,1,105,0|8,0:0|0:0,0:0:0:0:
98,272,45880,1,0,0:0:0:0:
112,169,45987,2,0,B|174:184|197:240,1,105
265,15,46202,1,8,0:0:0:0:
347,78,46309,2,0,B|303:125|243:116,1,105
160,72,46523,1,0,0:0:0:0:
256,192,46630,12,0,47702,0:0:0:0:
256,64,47916,5,0,0:0:0:0:
336,136,48023,1,0,0:0:0:0:
236,168,48130,2,0,B|168:156|140:100,1,105,4|0,0:0|0:0,0:0:0:0:
320,252,48345,1,8,0:0:0:0:
420,216,48452,2,0,B|488:228|516:284,1,105
424,332,48666,1,0,0:0:0:0:
320,356,48773,2,0,B|252:344|224:288,1,105,8|0,0:0|0:0,0:0:0:0:
24,324,48987,5,0,0:0:0:0:
177,228,49095,2,0,B|72:228,1,105,0|8,0:0|0:0,0:0:0:0:
256,144,49309,1,0,0:0:0:0:
204,44,49416,2,0,B|99:44,1,105
308,44,49630,2,0,B|413:44,1,105,8|0,0:0|0:0,0:0:0:0:
464,220,49845,6,0,B|400:216|360:160,1,105
456,112,50059,1,8,0:0:0:0:
264,232,50166,2,0,B|328:236|368:292,2,105
180,296,50487,1,8,0:0:0:0:
276,344,50595,1,0,0:0:0:0:
160,192,50702,6,0,B|160:124|92:108,1,105
12,60,50916,1,8,0:0:0:0:
256,160,51023,2,0,B|256:52,1,105
256,264,51237,1,0,0:0:0:0:
352,192,51345,2,0,B|352:124|420:108,1,105,8|0,0:0|0:0,0:0:0:0:
476,280,51559,6,0,B|476:228|476:228|440:188,2,105,0|0|8,0:0|0:0|0:0,0:0:0:0:
440,316,51827,1,0,0:0:0:0:
388,320,51880,1,0,0:0:0:0:
284,320,51987,2,0,B|233:320|233:320|185:352,1,105
32,284,52202,2,0,B|83:284|83:284|131:252,1,105,8|0,0:0|0:0,0:0:0:0:
228,120,52416,6,0,B|177:120|177:120|129:152,1,105
256,36,52630,2,0,B|307:36|307:36|355:68,1,105,8|0,0:0|0:0,0:0:0:0:
468,112,52845,1,0,0:0:0:0:
372,192,52952,1,0,0:0:0:0:
468,272,53059,1,8,0:0:0:0:
360,336,53166,1,0,0:0:0:0:
284,240,53273,6,0,B|240:200|240:200|180:200,1,105
89,200,53487,1,8,0:0:0:0:
67,7,53595,2,0,B|105:116|228:120,1,210
324,156,53916,1,8,0:0:0:0:
424,124,54023,1,0,0:0:0:0:
472,32,54130,6,0,B|420:12|420:12|368:32,2,105,4|0|0,0:0|0:0|0:0,0:0:0:0:
284,240,54452,2,0,B|336:260|336:260|388:240,2,105,4|0|0,0:0|0:0|0:0,0:0:0:0:
112,100,54773,1,4,0:0:0:0:
212,68,54880,1,0,0:0:0:0:
316,88,54987,6,0,B|416:140|436:252,1,210,4|0,0:0|0:0,0:0:0:0:
356,372,55309,2,0,B|254:324|153:372,1,210,2|0,0:0|0:0,0:0:0:0:
72,304,55630,1,0,0:0:0:0:
428,312,55845,6,0,B|428:248|428:248|480:188|480:188|480:116,1,210
380,152,56166,1,2,0:0:0:0:
132,152,56380,1,0,0:0:0:0:
32,121,56487,2,0,B|32:188|32:188|84:248|84:248|84:312,1,210
256,48,56916,5,2,0:0:0:0:
344,312,57130,2,0,B|311:355|257:366|257:366|202:355|170:312,1,210,0|2,0:0|0:0,0:0:0:0:
96,28,57559,6,0,B|8:96|16:236,1,210,0|2,0:0|0:0,0:0:0:0:
416,28,57987,2,0,B|504:96|496:236,1,210,0|2,0:0|0:0,0:0:0:0:
344,112,58309,1,2,0:0:0:0:
400,224,58416,6,0,B|348:252|344:328,1,105,4|0,0:0|0:0,0:0:0:0:
112,160,58630,2,0,B|164:132|168:56,1,105,8|0,0:0|0:0,0:0:0:0:
160,308,58845,2,0,B|32:308,1,105
352,76,59059,2,0,B|480:76,1,105,8|0,0:0|0:0,0:0:0:0:
220,48,59273,5,0,0:0:0:0:
116,52,59380,1,0,0:0:0:0:
24,107,59487,2,0,B|52:152|112:160,1,105,8|0,0:0|0:0,0:0:0:0:
196,332,59702,2,0,B|168:287|108:279,1,105
296,244,59916,2,0,B|323:288|383:296,1,105,8|0,0:0|0:0,0:0:0:0:
488,192,60130,6,0,B|372:192,1,105
416,92,60345,1,8,0:0:0:0:
24,192,60452,2,0,B|80:204|132:192|132:192|216:300,1,210
256,356,60773,1,8,0:0:0:0:
317,272,60880,1,0,0:0:0:0:
384,356,60987,5,0,0:0:0:0:
176,28,61202,2,0,B|132:136|-8:116,2,210,4|0|4,0:0|0:0|0:0,0:0:0:0:
256,96,61737,1,0,0:0:0:0:
336,28,61845,1,4,0:0:0:0:
68,348,62059,6,0,B|40:296|64:240,1,105,8|0,0:0|0:0,0:0:0:0:
68,36,62273,2,0,B|40:88|64:144,1,105
192,296,62487,1,8,0:0:0:0:
192,88,62595,1,0,0:0:0:0:
388,100,62702,6,0,B|328:100|328:100|292:56,1,105
464,192,62916,2,0,B|344:192,1,105,8|0,0:0|0:0,0:0:0:0:
388,284,63130,2,0,B|328:284|328:284|292:328,1,105
124,100,63345,2,0,B|184:100|184:100|220:56,1,105,8|0,0:0|0:0,0:0:0:0:
0,236,63559,6,0,B|56:232|96:160,1,105
512,148,63773,2,0,B|456:152|416:224,1,105,8|0,0:0|0:0,0:0:0:0:
144,52,63987,2,0,B|88:72|48:24,1,105
368,332,64202,2,0,B|424:312|464:360,1,105,8|0,0:0|0:0,0:0:0:0:
196,128,64416,5,0,0:0:0:0:
260,208,64523,1,0,0:0:0:0:
360,244,64630,2,0,B|413:267|461:239,1,105,8|0,0:0|0:0,0:0:0:0:
256,352,64845,2,0,B|202:375|154:347,1,105
12,200,65059,2,0,B|65:223|113:195,1,105,8|0,0:0|0:0,0:0:0:0:
56,104,65273,5,4,0:0:0:0:
140,40,65380,1,0,0:0:0:0:
244,60,65487,1,8,0:0:0:0:
164,128,65595,2,0,B|232:328,1,210
332,356,65916,1,8,0:0:0:0:
408,284,66023,1,0,0:0:0:0:
304,264,66130,5,4,0:0:0:0:
380,192,66237,1,0,0:0:0:0:
484,216,66345,1,8,0:0:0:0:
456,116,66452,2,0,B|256:48,1,210
184,124,66773,2,0,B|284:158,1,105,8|0,0:0|0:0,0:0:0:0:
380,192,66987,1,4,0:0:0:0:
256,360,67202,6,0,B|200:360|200:360|152:336,2,105
324,280,67523,1,4,0:0:0:0:
256,200,67630,2,0,B|200:200|200:200|156:180,1,105
324,120,67845,1,4,0:0:0:0:
480,360,68166,5,0,0:0:0:0:
480,150,68380,2,0,B|480:46,1,105,0|2,0:0|0:0,0:0:0:0:
8,40,68702,6,0,B|68:144|212:124,1,210,4|0,0:0|0:0,0:0:0:0:
252,44,69023,2,0,B|312:100|296:192|227:221,1,210
324,280,69345,1,2,0:0:0:0:
80,384,69559,6,0,B|80:272|80:272|4:208,1,210
68,124,69880,2,0,B|144:188|144:188|264:188,1,210
316,104,70202,1,2,0:0:0:0:
480,372,70416,6,0,B|448:304|448:304|396:252|320:280,1,210
228,324,70737,2,0,B|155:350|103:298|103:298|71:230,1,210
68,124,71059,1,2,0:0:0:0:
272,32,71273,6,0,B|400:48|424:188,1,210,0|2,0:0|0:0,0:0:0:0:
436,372,71702,2,0,B|408:320|328:312,1,105,0|0,0:0|0:0,0:0:0:0:
208,352,71916,1,2,0:0:0:0:
264,216,72023,1,2,0:0:0:0:
124,260,72130,6,0,B|36:248|12:156|80:104,1,210,0|2,0:0|0:0,0:0:0:0:
435,106,72559,2,0,B|500:156|476:248|388:260,1,210,0|2,0:0|0:0,0:0:0:0:
344,148,72880,1,0,0:0:0:0:
155,56,72987,6,0,B|256:4|356:56,1,210,0|2,0:0|0:0,0:0:0:0:
356,327,73416,2,0,B|256:379|155:327,1,210,0|2,0:0|0:0,0:0:0:0:
48,148,73845,6,0,B|144:148|144:148|204:116|204:36,1,210,2|0,0:0|0:0,0:0:0:0:
256,192,74166,1,0,0:0:0:0:
464,236,74273,2,0,B|368:236|368:236|308:268|308:348,1,210,2|0,0:0|0:0,0:0:0:0:
256,192,74595,1,0,0:0:0:0:
104,380,74702,6,2,B|39:330|63:238|151:226,1,210,2|0,0:0|0:0,0:0:0:0:
232,292,75023,1,0,0:0:0:0:
332,260,75130,2,2,B|389:347,1,105,2|0,0:0|0:0,0:0:0:0:
355,155,75345,2,2,B|298:68,1,105,2|0,0:0|0:0,0:0:0:0:
200,376,75559,6,2,B|284:256|148:188,1,210,6|0,0:0|0:0,0:0:0:0:
312,8,75880,2,0,B|228:128|364:196,1,210,0|0,0:0|0:0,0:0:0:0:
384,88,76202,1,2,0:0:0:0:
384,88,76309,1,0,0:0:0:0:
504,232,76416,6,2,B|480:300|480:300|440:360|344:360,1,210,2|0,0:0|0:0,0:0:0:0:
150,359,76737,2,0,B|72:360|32:300|32:300|8:232,1,210
80,32,77059,1,2,0:0:0:0:
80,32,77166,1,0,0:0:0:0:
300,140,77273,6,2,B|406:139|382:211|494:211,1,210,2|0,0:0|0:0,0:0:0:0:
212,244,77595,2,0,B|105:244|129:172|17:172,1,210
80,352,77916,1,2,0:0:0:0:
80,352,78023,1,0,0:0:0:0:
256,316,78130,5,2,0:0:0:0:
464,284,78345,2,0,B|416:284|416:284|372:248,1,105
47,100,78666,2,0,B|96:100|96:100|140:136,1,105,0|2,0:0|0:0,0:0:0:0:
52,192,78880,1,0,0:0:0:0:
47,284,78987,6,0,B|128:284|128:284|164:212|232:212,1,210,2|0,0:0|0:0,0:0:0:0:
392,80,79416,2,0,B|486:125,1,105
452,268,79630,1,2,0:0:0:0:
308,232,79737,1,0,0:0:0:0:
272,376,79845,6,2,B|216:360|216:360|144:312|64:352,1,210
32,252,80166,2,2,B|140:208|240:260,1,210,0|0,0:0|0:0,0:0:0:0:
256,156,80487,1,2,0:0:0:0:
84,32,80702,6,0,B|84:104|84:104|40:156|40:156|40:224,1,210,2|0,0:0|0:0,0:0:0:0:
40,225,81023,1,0,0:0:0:0:
196,364,81130,2,0,B|152:340|152:340|92:340,1,105
144,244,81345,2,0,B|188:220|188:220|248:220,1,105,2|0,0:0|0:0,0:0:0:0:
336,320,81559,6,0,B|364:364,2,52.5,8|0|0,0:0|0:0|0:0,0:0:0:0:
412,252,81773,1,0,0:0:0:0:
336,64,81880,2,0,B|364:20,2,52.5,8|0|0,0:0|0:0|0:0,0:0:0:0:
412,132,82095,1,0,0:0:0:0:
244,84,82202,6,0,B|208:40,1,52.5,8|0,0:0|0:0,0:0:0:0:
173,80,82309,2,0,B|125:56,1,52.5,0|0,0:0|0:0,0:0:0:0:
100,104,82416,6,0,B|72:148|72:148|96:196,1,105,4|0,0:0|0:0,0:0:0:0:
48,384,82630,2,0,B|76:340|76:340|52:292,1,105,8|0,0:0|0:0,0:0:0:0:
192,160,82845,2,0,B|192:264,1,105
320,384,83059,2,0,B|320:280,1,105,8|0,0:0|0:0,0:0:0:0:
471,168,83273,6,0,B|436:208|376:192,1,105
328,100,83487,2,0,B|268:104|236:148,1,105,8|0,0:0|0:0,0:0:0:0:
200,324,83702,2,0,B|168:276|196:220,2,105,0|0|8,0:0|0:0|0:0,0:0:0:0:
288,268,84023,1,0,0:0:0:0:
96,232,84130,6,0,B|96:296|96:296|68:328,2,105,0|0|8,0:0|0:0|0:0,0:0:0:0:
28,152,84452,1,0,0:0:0:0:
236,144,84559,2,0,B|176:152|132:108,1,105
208,260,84773,2,0,B|268:252|312:296,1,105,8|0,0:0|0:0,0:0:0:0:
456,296,84987,6,0,B|451:237|380:218,1,105
401,50,85202,2,0,B|342:54|323:125,1,105,8|0,0:0|0:0,0:0:0:0:
160,112,85416,2,0,B|164:170|235:189,1,105
215,358,85631,2,0,B|273:353|292:282,1,105,8|0,0:0|0:0,0:0:0:0:
68,360,85845,6,0,B|120:320|104:248,1,105
192,204,86059,1,8,0:0:0:0:
96,156,86166,2,0,B|56:208|-16:192,2,105
180,96,86487,2,0,B|220:120|282:100,1,105,8|0,0:0|0:0,0:0:0:0:
504,248,86702,6,0,B|468:232|436:256|400:240,1,105
236,352,86916,2,0,B|271:367|303:343|339:359,1,105,8|0,0:0|0:0,0:0:0:0:
272,168,87130,2,0,B|236:152|204:176|168:160,1,105
4,272,87344,2,0,B|39:287|71:263|107:279,1,105,8|0,0:0|0:0,0:0:0:0:
428,72,87559,6,0,B|376:52|320:72,1,105
224,104,87773,1,8,0:0:0:0:
500,148,87880,2,0,B|456:183|446:241,1,105
425,340,88094,1,0,0:0:0:0:
300,368,88202,2,0,B|309:314|352:279,1,105,8|0,0:0|0:0,0:0:0:0:
176,356,88416,6,0,B|120:360|84:312,1,105,2|0,0:0|0:0,0:0:0:0:
336,28,88630,2,0,B|392:24|428:72,1,105,8|2,0:0|0:0,0:0:0:0:
432,276,88845,6,0,B|474:243|474:183,1,105
80,108,89059,2,0,B|37:140|37:200,1,105,10|0,0:0|0:0,0:0:0:0:
508,320,89273,6,0,B|480:376|400:372,1,105,6|0,0:0|0:0,0:0:0:0:
244,352,89487,2,0,B|272:296|352:300,2,105,8|0|0,0:0|0:0|0:0,0:0:0:0:
132,380,89809,1,0,0:0:0:0:
32,324,89916,2,0,B|60:268|136:264,1,105,8|0,0:0|0:0,0:0:0:0:
408,96,90130,6,0,B|396:60|364:44|364:44|320:44,1,105
104,96,90345,2,0,B|116:60|148:44|148:44|192:44,1,105,8|0,0:0|0:0,0:0:0:0:
328,140,90559,1,0,0:0:0:0:
184,140,90666,2,0,B|144:188|80:184,1,105,0|8,0:0|0:0,0:0:0:0:
152,268,90880,1,0,0:0:0:0:
376,336,90987,6,0,B|411:378|471:370,1,105
456,264,91202,1,8,0:0:0:0:
264,268,91309,2,0,B|299:225|359:233,2,105
248,116,91630,2,0,B|212:158|152:150,1,105,8|0,0:0|0:0,0:0:0:0:
336,108,91845,6,0,B|432:148,1,105
176,276,92059,2,0,B|80:236,1,105,8|0,0:0|0:0,0:0:0:0:
368,228,92273,2,0,B|407:324,1,105
144,156,92487,2,0,B|104:59,1,105,8|0,0:0|0:0,0:0:0:0:
320,332,92702,6,0,B|292:368|292:368|220:368,1,105
128,368,92916,1,8,0:0:0:0:
76,276,93023,1,0,0:0:0:0:
144,188,93130,2,0,B|180:216|180:216|180:276,1,105
56,128,93345,2,0,B|20:100|20:100|20:40,1,105,8|0,0:0|0:0,0:0:0:0:
248,72,93559,6,0,B|285:96|285:96|345:96,1,105
503,160,93773,2,0,B|465:184|465:184|405:184,1,105,8|0,0:0|0:0,0:0:0:0:
201,247,93987,2,0,B|238:271|238:271|298:271,1,105
457,336,94201,2,0,B|419:360|419:360|359:360,1,105,8|0,0:0|0:0,0:0:0:0:
136,180,94416,6,0,B|136:124|136:124|100:76,1,105
256,132,94631,2,0,B|256:28,1,105,8|0,0:0|0:0,0:0:0:0:
376,180,94845,2,0,B|376:124|376:124|405:84,1,105
400,284,95059,1,8,0:0:0:0:
500,320,95166,1,0,0:0:0:0:
271,348,95273,6,0,B|216:328|160:348,1,105,2|0,0:0|0:0,0:0:0:0:
241,36,95487,2,0,B|296:56|352:36,1,105,8|2,0:0|0:0,0:0:0:0:
120,252,95702,6,0,B|65:232|9:252,1,105
392,132,95916,2,0,B|447:152|503:132,1,105,14|0,0:0|0:0,0:0:0:0:
64,168,96130,6,0,B|64:216|64:216|8:256,1,105,6|0,0:0|0:0,0:0:0:0:
108,364,96345,2,0,B|108:316|108:316|164:276,1,105,8|0,0:0|0:0,0:0:0:0:
244,340,96559,1,0,0:0:0:0:
340,384,96666,1,0,0:0:0:0:
372,284,96774,1,8,0:0:0:0:
468,328,96881,1,0,0:0:0:0:
488,228,96987,6,0,B|428:216|408:156,1,105
468,76,97202,1,8,0:0:0:0:
308,96,97309,2,0,B|320:36|380:16,1,105
264,204,97523,2,0,B|252:264|192:284,1,105,0|8,0:0|0:0,0:0:0:0:
164,184,97737,1,0,0:0:0:0:
200,84,97845,5,0,0:0:0:0:
55,192,97952,2,0,B|55:133|96:100,1,105,0|8,0:0|0:0,0:0:0:0:
116,276,98166,1,0,0:0:0:0:
176,360,98273,1,0,0:0:0:0:
256,296,98380,1,0,0:0:0:0:
336,360,98487,1,8,0:0:0:0:
396,276,98595,1,0,0:0:0:0:
500,268,98702,6,0,B|496:208|441:180,1,105
290,107,98916,2,0,B|294:167|344:192,1,105,8|0,0:0|0:0,0:0:0:0:
416,72,99130,1,0,0:0:0:0:
328,12,99237,1,0,0:0:0:0:
224,40,99345,1,8,0:0:0:0:
172,132,99452,1,0,0:0:0:0:
208,232,99559,6,0,B|112:274,1,105
300,372,99773,2,0,B|408:324,1,105,8|0,0:0|0:0,0:0:0:0:
496,144,99987,1,0,0:0:0:0:
416,72,100095,2,0,B|320:114,1,105,0|8,0:0|0:0,0:0:0:0:
320,220,100309,1,0,0:0:0:0:
172,132,100416,6,0,B|112:120|112:120|84:76,1,105,0|0,0:0|0:0,0:0:0:0:
208,232,100630,1,8,0:0:0:0:
28,216,100737,2,0,B|88:228|88:228|116:272,1,105,0|0,0:0|0:0,0:0:0:0:
20,320,100952,1,0,0:0:0:0:
108,376,101059,1,8,0:0:0:0:
204,340,101166,1,0,0:0:0:0:
300,296,101273,6,0,B|352:264|408:292,1,105
488,348,101487,1,8,0:0:0:0:
496,168,101595,2,0,B|444:200|388:172,1,105
340,88,101809,2,0,B|392:56|448:84,2,105,0|8|0,0:0|0:0|0:0,0:0:0:0:
236,92,102130,6,0,B|144:36,1,105,2|0,0:0|0:0,0:0:0:0:
12,204,102345,2,0,B|104:260,2,105,8|2|0,0:0|0:0|0:0,0:0:0:0:
220,184,102666,1,0,0:0:0:0:
68,328,102773,2,0,B|160:384,1,105,10|0,0:0|0:0,0:0:0:0:
354,382,102987,6,0,B|444:328,1,105,6|0,0:0|0:0,0:0:0:0:
500,240,103202,1,8,0:0:0:0:
228,332,103309,2,0,B|138:277,1,105
82,189,103524,1,0,0:0:0:0:
336,264,103630,2,0,B|425:209,1,105,8|0,0:0|0:0,0:0:0:0:
481,121,103845,1,0,0:0:0:0:
244,208,103952,2,0,B|154:153,1,105,0|8,0:0|0:0,0:0:0:0:
98,65,104167,1,0,0:0:0:0:
320,128,104273,2,0,B|368:120|368:120|408:80,1,105
288,16,104487,2,0,B|240:24|240:24|200:64,1,105,12|0,0:0|0:0,0:0:0:0:
98,65,104702,6,0,B|52:104|52:104|40:176,1,105,4|0,0:0|0:0,0:0:0:0:
64,252,104916,1,8,0:0:0:0:
196,384,105023,2,0,B|150:345|150:345|138:273,1,105
162,197,105237,1,0,0:0:0:0:
292,72,105345,2,0,B|246:111|246:111|234:183,1,105,8|0,0:0|0:0,0:0:0:0:
258,259,105559,1,0,0:0:0:0:
384,380,105666,2,0,B|338:341|338:341|326:269,1,105,0|8,0:0|0:0,0:0:0:0:
350,193,105880,1,0,0:0:0:0:
404,104,105987,2,0,B|492:28,1,105
504,200,106202,2,0,B|416:276,1,105,8|0,0:0|0:0,0:0:0:0:
264,372,106416,6,0,B|316:388|368:372,1,105,4|0,0:0|0:0,0:0:0:0:
464,332,106630,1,8,0:0:0:0:
248,280,106737,2,0,B|196:296|144:280,1,105
48,240,106951,1,0,0:0:0:0:
312,192,107059,2,0,B|364:208|416:192,1,105,8|0,0:0|0:0,0:0:0:0:
512,152,107273,1,0,0:0:0:0:
200,100,107380,2,0,B|148:116|96:100,1,105,0|8,0:0|0:0,0:0:0:0:
0,60,107594,1,0,0:0:0:0:
312,96,107702,2,0,B|364:80|416:96,1,105
200,192,107916,2,0,B|148:208|96:192,1,105,12|0,0:0|0:0,0:0:0:0:
312,288,108130,6,0,B|344:336|396:352,1,105,2|0,0:0|0:0,0:0:0:0:
256,368,108345,1,8,0:0:0:0:
200,288,108452,2,0,B|168:336|116:352,1,105,2|0,0:0|0:0,0:0:0:0:
24,304,108666,1,0,0:0:0:0:
28,200,108773,1,10,0:0:0:0:
201,84,108880,6,0,B|169:132|120:148,1,105,0|0,0:0|0:0,0:0:0:0:
256,172,109095,1,2,0:0:0:0:
312,84,109202,1,8,0:0:0:0:
408,128,109309,1,0,0:0:0:0:
352,216,109416,2,0,B|396:248|396:248|396:300,1,105,6|0,0:0|0:0,0:0:0:0:
116,298,109630,2,0,B|116:248|116:248|160:216,1,105,14|0,0:0|0:0,0:0:0:0:
256,172,109845,2,0,B|192:76|64:92,1,210,6|8,0:0|0:0,0:0:0:0:
437,90,110273,5,0,0:0:0:0:
492,228,110380,1,0,0:0:0:0:
352,176,110487,1,8,0:0:0:0:
412,312,110595,1,0,0:0:0:0:
268,268,110702,2,0,B|144:264|88:388,1,210,0|8,0:0|0:0,0:0:0:0:
32,36,111130,5,0,0:0:0:0:
116,152,111237,1,0,0:0:0:0:
256,200,111345,1,10,0:0:0:0:
396,152,111452,1,0,0:0:0:0:
480,36,111559,2,0,B|422:86|344:43|283:93,1,210,2|8,0:0|0:0,0:0:0:0:
484,356,111987,5,0,0:0:0:0:
340,320,112095,1,0,0:0:0:0:
256,200,112202,1,8,0:0:0:0:
172,64,112309,1,0,0:0:0:0:
28,28,112416,2,0,B|80:108|80:108|36:148|36:224,1,210,0|8,0:0|0:0,0:0:0:0:
404,136,112845,5,0,0:0:0:0:
368,280,112952,1,0,0:0:0:0:
256,200,113059,1,10,0:0:0:0:
144,104,113166,1,0,0:0:0:0:
108,248,113273,2,0,B|58:341|142:368|142:368|198:329,1,210,2|8,0:0|0:0,0:0:0:0:
28,28,113702,5,0,0:0:0:0:
96,156,113809,1,0,0:0:0:0:
199,52,113916,1,8,0:0:0:0:
267,180,114023,1,0,0:0:0:0:
370,76,114130,2,0,B|428:184|428:184|472:192|504:236,1,210,0|8,0:0|0:0,0:0:0:0:
24,384,114559,5,0,0:0:0:0:
144,296,114666,1,0,0:0:0:0:
96,156,114773,1,10,0:0:0:0:
216,68,114880,1,0,0:0:0:0:
348,132,114987,2,0,B|416:188|348:288|268:248,1,210,2|8,0:0|0:0,0:0:0:0:
512,352,115416,5,0,0:0:0:0:
368,320,115523,1,0,0:0:0:0:
304,188,115630,1,8,0:0:0:0:
372,56,115737,1,0,0:0:0:0:
468,152,115845,6,2,B|512:252,1,105,2|0,0:0|0:0,0:0:0:0:
212,376,116059,2,2,B|168:276,1,105,10|0,0:0|0:0,0:0:0:0:
300,8,116273,2,2,B|344:108,1,105,2|0,0:0|0:0,0:0:0:0:
44,232,116487,2,2,B|0:132,1,105,10|0,0:0|0:0,0:0:0:0:
336,208,116702,5,4,0:0:0:0:
444,248,116809,2,0,B|424:304|352:320,1,105,0|8,0:0|0:0,0:0:0:0:
256,276,117023,2,0,B|220:228|236:176|236:176|180:180|136:128,1,210
228,72,117344,1,8,0:0:0:0:
172,344,117559,6,0,B|128:312|128:312|68:312,1,105
20,224,117773,1,8,0:0:0:0:
124,228,117880,2,0,B|204:228|204:228|168:164|208:104,1,210
288,172,118202,1,8,0:0:0:0:
484,252,118416,6,0,B|432:272|416:336,1,105
508,344,118630,1,8,0:0:0:0:
459,163,118737,2,0,B|355:202|327:315,1,210,0|0,0:0|0:0,0:0:0:0:
256,240,119059,1,8,0:0:0:0:
184,316,119166,1,0,0:0:0:0:
96,256,119273,6,0,B|92:196|24:156,1,105
212,56,119487,1,8,0:0:0:0:
112,24,119595,2,0,B|96:112|156:176|244:156,1,210
316,104,119916,1,8,0:0:0:0:
324,208,120023,1,8,0:0:0:0:
416,156,120130,6,2,B|480:216|456:296|456:296|404:324,1,210,2|8,0:0|0:0,0:0:0:0:
315,378,120452,2,0,B|303:326|256:294|256:294|209:326|197:378,1,210,0|0,0:0|0:0,0:0:0:0:
105,322,120773,2,2,B|56:296|56:296|32:216|96:156,1,210,10|0,0:0|0:0,0:0:0:0:
436,32,121202,5,10,0:0:0:0:
468,324,121416,1,0,0:0:0:0:
256,120,121630,1,2,0:0:0:0:
104,372,121845,6,0,B|80:320|104:260,1,105,6|0,0:0|0:0,0:0:0:0:
192,320,122059,1,0,0:0:0:0:
432,292,122166,2,0,B|456:240|432:180,1,105,2|0,0:0|0:0,0:0:0:0:
344,240,122380,1,0,0:0:0:0:
60,204,122487,2,0,B|36:152|60:92,1,105,6|0,0:0|0:0,0:0:0:0:
148,152,122701,1,0,0:0:0:0:
476,124,122808,2,0,B|500:72|476:12,1,105,2|0,0:0|0:0,0:0:0:0:
388,72,123022,1,0,0:0:0:0:
24,28,123130,5,6,0:0:0:0:
256,364,123345,1,6,0:0:0:0:
488,28,123559,1,6,0:0:0:0:
256,192,123666,12,0,129559,0:0:0:0:
464,84,129773,6,0,B|496:44,2,52.5,0|0|0,0:0|0:0|0:0,0:0:0:0:
364,52,129987,1,2,0:0:0:0:
180,152,130202,1,2,0:0:0:0:
8,32,130416,5,4,0:0:0:0:
504,192,130737,1,4,0:0:0:0:
8,352,131059,1,4,0:0:0:0:
256,192,131166,12,0,132987,0:0:0:0:
48,84,133202,6,0,B|16:44,2,52.5
148,52,133416,1,2,0:0:0:0:
332,152,133631,1,2,0:0:0:0:
504,32,133845,1,6,0:0:0:0:
492,240,134059,5,8,0:0:0:0:
479,268,134112,1,0,0:0:0:0:
467,297,134166,1,0,0:0:0:0:
408,176,134273,1,0,0:0:0:0:
372,276,134380,1,8,0:0:0:0:
359,304,134433,1,0,0:0:0:0:
347,333,134487,1,0,0:0:0:0:
288,220,134595,1,0,0:0:0:0:
252,320,134702,1,8,0:0:0:0:
239,348,134755,1,0,0:0:0:0:
227,377,134809,1,0,0:0:0:0:
176,260,134916,1,0,0:0:0:0:
128,376,135023,1,8,0:0:0:0:
4,264,135130,5,4,0:0:0:0:
256,28,135345,1,4,0:0:0:0:
508,264,135559,5,4,0:0:0:0:
380,96,135773,2,0,B|432:96|432:96|472:40,1,105,0|0,0:0|0:0,0:0:0:0:
132,96,136095,2,0,B|80:96|80:96|40:40,1,105,0|4,0:0|0:0,0:0:0:0:
416,360,136415,6,0,B|384:308|320:308,1,105
96,360,136630,2,0,B|128:308|192:308,1,105
488,220,136845,5,2,0:0:0:0:
392,108,136952,1,2,0:0:0:0:
256,56,137059,1,2,0:0:0:0:
120,108,137166,1,2,0:0:0:0:
24,220,137273,1,4,0:0:0:0:
