osu file format v14

[General]
AudioFilename: Fierce Fight-Remix-.mp3
AudioLeadIn: 2000
PreviewTime: 41059
Countdown: 0
SampleSet: None
StackLeniency: 0.4
Mode: 3
LetterboxInBreaks: 0
SpecialStyle: 0
WidescreenStoryboard: 1

[Editor]
Bookmarks: 13845,54987
DistanceSpacing: 1
BeatDivisor: 4
GridSize: 4
TimelineZoom: 4.199998

[Metadata]
Title:Fierce Fight-Remix
TitleUnicode:Fierce Fight-Remix
Artist:S.S.H.
ArtistUnicode:S.S.H.
Creator:Snow Note
Version:Another
Source:eXceed3rd-JADE PENETRATE-BLACK PACKAGE
Tags:inaba-tan tennen sozai danmaku game original sound track ost saitama saisyu heiki ssh Stage 4 boss iriasu reginreibu Dakkychan ExGon 7odoa
BeatmapID:1677391
BeatmapSetID:40480

[Difficulty]
HPDrainRate:9.4
CircleSize:8
OverallDifficulty:7
ApproachRate:9.4
SliderMultiplier:2.1
SliderTickRate:1

[Events]
//Background and Video events
0,0,"Exceed.jpg",0,0
//Break Periods
//Storyboard Layer 0 (Background)
//Storyboard Layer 1 (Fail)
//Storyboard Layer 2 (Pass)
//Storyboard Layer 3 (Foreground)
//Storyboard Sound Samples

[TimingPoints]
130.734046219971,214.285714285714,4,1,2,5,1,0
109845,-100,4,1,2,5,0,1
116702,-100,4,1,2,5,0,0

[Colours]
Combo1 : 255,255,0
Combo2 : 255,0,0
Combo3 : 255,128,0

[HitObjects]
32,192,130,5,0,0:0:0:0:
96,192,130,1,0,0:0:0:0:
352,192,130,1,0,0:0:0:0:
224,192,130,1,0,0:0:0:0:
160,192,345,1,0,0:0:0:0:
288,192,345,1,0,0:0:0:0:
416,192,452,1,0,0:0:0:0:
160,192,559,1,0,0:0:0:0:
224,192,666,1,0,0:0:0:0:
352,192,773,1,0,0:0:0:0:
160,192,773,1,0,0:0:0:0:
160,192,987,1,0,0:0:0:0:
352,192,1095,1,0,0:0:0:0:
160,192,1202,1,0,0:0:0:0:
416,192,1202,1,0,0:0:0:0:
160,192,1416,1,0,0:0:0:0:
480,192,1416,1,0,0:0:0:0:
96,192,1630,1,0,0:0:0:0:
224,192,1630,1,0,0:0:0:0:
352,192,1630,1,0,0:0:0:0:
160,192,1630,1,0,0:0:0:0:
32,192,1845,1,0,0:0:0:0:
288,192,1845,1,0,0:0:0:0:
96,192,1845,1,0,0:0:0:0:
416,192,1845,1,0,0:0:0:0:
160,192,1845,1,0,0:0:0:0:
224,192,2059,1,0,0:0:0:0:
160,192,2059,1,0,0:0:0:0:
352,192,2166,1,0,0:0:0:0:
160,192,2273,1,0,0:0:0:0:
288,192,2380,1,0,0:0:0:0:
480,192,2487,1,0,0:0:0:0:
160,192,2487,1,0,0:0:0:0:
160,192,2702,1,0,0:0:0:0:
160,192,2916,1,0,0:0:0:0:
416,192,2916,1,0,0:0:0:0:
96,192,3023,1,0,0:0:0:0:
160,192,3077,1,0,0:0:0:0:
96,192,3130,1,0,0:0:0:0:
224,192,3130,1,0,0:0:0:0:
352,192,3130,1,0,0:0:0:0:
480,192,3237,1,0,0:0:0:0:
288,192,3237,1,0,0:0:0:0:
160,192,3345,1,0,0:0:0:0:
416,192,3345,1,0,0:0:0:0:
352,192,3345,1,0,0:0:0:0:
224,192,3345,1,0,0:0:0:0:
32,192,3559,1,0,0:0:0:0:
288,192,3559,1,0,0:0:0:0:
480,192,3559,1,0,0:0:0:0:
96,192,3559,1,0,0:0:0:0:
224,192,3559,1,0,0:0:0:0:
160,192,3773,1,0,0:0:0:0:
352,192,3773,1,0,0:0:0:0:
480,192,3880,1,0,0:0:0:0:
160,192,3987,1,0,0:0:0:0:
288,192,4095,1,0,0:0:0:0:
160,192,4202,1,0,0:0:0:0:
416,192,4202,1,0,0:0:0:0:
160,192,4416,1,0,0:0:0:0:
352,192,4416,1,0,0:0:0:0:
416,192,4523,1,0,0:0:0:0:
160,192,4630,1,0,0:0:0:0:
160,192,4845,1,0,0:0:0:0:
480,192,4845,1,0,0:0:0:0:
160,192,5059,1,0,0:0:0:0:
288,192,5059,1,0,0:0:0:0:
416,192,5059,1,0,0:0:0:0:
480,192,5059,1,0,0:0:0:0:
32,192,5273,1,0,0:0:0:0:
224,192,5273,1,0,0:0:0:0:
352,192,5273,1,0,0:0:0:0:
96,192,5273,1,0,0:0:0:0:
224,192,5595,1,0,0:0:0:0:
352,192,5595,1,0,0:0:0:0:
96,192,5595,1,0,0:0:0:0:
288,192,5916,1,0,0:0:0:0:
416,192,5916,1,0,0:0:0:0:
32,192,5916,1,0,0:0:0:0:
160,192,5916,1,0,0:0:0:0:
96,192,6130,1,0,0:0:0:0:
352,192,6237,1,0,0:0:0:0:
224,192,6237,1,0,0:0:0:0:
352,192,6345,1,0,0:0:0:0:
224,192,6345,1,0,0:0:0:0:
352,192,6452,1,0,0:0:0:0:
224,192,6452,1,0,0:0:0:0:
96,192,6559,1,0,0:0:0:0:
288,192,6559,1,0,0:0:0:0:
416,192,6559,1,0,0:0:0:0:
352,192,6666,1,0,0:0:0:0:
480,192,6666,1,0,0:0:0:0:
160,192,6666,1,0,0:0:0:0:
224,192,6773,1,0,0:0:0:0:
416,192,6773,1,0,0:0:0:0:
96,192,6773,1,0,0:0:0:0:
352,192,6880,1,0,0:0:0:0:
160,192,6880,1,0,0:0:0:0:
96,192,6987,1,0,0:0:0:0:
224,192,6987,1,0,0:0:0:0:
32,192,6987,1,0,0:0:0:0:
416,192,6987,1,0,0:0:0:0:
480,192,6987,1,0,0:0:0:0:
352,192,7202,1,0,0:0:0:0:
160,192,7202,1,0,0:0:0:0:
480,192,7309,1,0,0:0:0:0:
160,192,7416,1,0,0:0:0:0:
288,192,7523,1,0,0:0:0:0:
416,192,7630,1,0,0:0:0:0:
160,192,7630,1,0,0:0:0:0:
160,192,7845,1,0,0:0:0:0:
352,192,7952,1,0,0:0:0:0:
416,192,8059,1,0,0:0:0:0:
160,192,8059,1,0,0:0:0:0:
480,192,8273,1,0,0:0:0:0:
160,192,8273,1,0,0:0:0:0:
416,192,8487,1,0,0:0:0:0:
96,192,8487,1,0,0:0:0:0:
224,192,8487,1,0,0:0:0:0:
160,192,8487,1,0,0:0:0:0:
32,192,8702,1,0,0:0:0:0:
96,192,8702,1,0,0:0:0:0:
480,192,8702,1,0,0:0:0:0:
288,192,8702,1,0,0:0:0:0:
160,192,8702,1,0,0:0:0:0:
160,192,8916,1,0,0:0:0:0:
352,192,8916,1,0,0:0:0:0:
416,192,9023,1,0,0:0:0:0:
160,192,9130,1,0,0:0:0:0:
288,192,9237,1,0,0:0:0:0:
160,192,9345,1,0,0:0:0:0:
480,192,9345,1,0,0:0:0:0:
160,192,9559,1,0,0:0:0:0:
160,192,9773,1,0,0:0:0:0:
416,192,9773,1,0,0:0:0:0:
96,192,9880,1,0,0:0:0:0:
160,192,9934,1,0,0:0:0:0:
224,192,9987,1,0,0:0:0:0:
480,192,9987,1,0,0:0:0:0:
352,192,9987,1,0,0:0:0:0:
416,192,10041,1,0,0:0:0:0:
160,192,10041,1,0,0:0:0:0:
352,192,10095,1,0,0:0:0:0:
96,192,10095,1,0,0:0:0:0:
288,192,10148,1,0,0:0:0:0:
160,192,10202,1,0,0:0:0:0:
352,192,10202,1,0,0:0:0:0:
224,192,10255,1,0,0:0:0:0:
288,192,10309,1,0,0:0:0:0:
352,192,10362,1,0,0:0:0:0:
96,192,10416,1,0,0:0:0:0:
416,192,10416,1,0,0:0:0:0:
32,192,10416,1,0,0:0:0:0:
480,192,10416,1,0,0:0:0:0:
480,192,10845,1,0,0:0:0:0:
480,192,11273,1,0,0:0:0:0:
96,192,11380,1,0,0:0:0:0:
288,192,11380,1,0,0:0:0:0:
160,192,11487,1,0,0:0:0:0:
352,192,11487,1,0,0:0:0:0:
288,192,11541,1,0,0:0:0:0:
224,192,11595,1,0,0:0:0:0:
416,192,11595,1,0,0:0:0:0:
352,192,11648,1,0,0:0:0:0:
288,192,11702,1,0,0:0:0:0:
480,192,11702,1,0,0:0:0:0:
32,192,11702,1,0,0:0:0:0:
96,192,11809,1,0,0:0:0:0:
224,192,11809,1,0,0:0:0:0:
288,192,11916,1,0,0:0:0:0:
416,192,11916,1,0,0:0:0:0:
32,192,11916,1,0,0:0:0:0:
96,192,12023,1,0,0:0:0:0:
160,192,12023,1,0,0:0:0:0:
32,192,12130,1,0,0:0:0:0:
224,192,12130,1,0,0:0:0:0:
480,192,12130,1,0,0:0:0:0:
416,192,12130,1,0,0:0:0:0:
352,192,12237,1,0,0:0:0:0:
288,192,12345,1,0,0:0:0:0:
416,192,12452,1,0,0:0:0:0:
160,192,12452,1,0,0:0:0:0:
352,192,12452,1,0,0:0:0:0:
288,192,12559,1,0,0:0:0:0:
224,192,12666,1,0,0:0:0:0:
96,192,12773,1,0,0:0:0:0:
352,192,12773,1,0,0:0:0:0:
32,192,12773,1,0,0:0:0:0:
480,192,12773,1,0,0:0:0:0:
288,192,12880,1,0,0:0:0:0:
224,192,12987,1,0,0:0:0:0:
96,192,12987,1,0,0:0:0:0:
416,192,12987,1,0,0:0:0:0:
480,192,13095,1,0,0:0:0:0:
352,192,13095,1,0,0:0:0:0:
160,192,13095,1,0,0:0:0:0:
352,192,13202,1,0,0:0:0:0:
480,192,13202,1,0,0:0:0:0:
352,192,13309,1,0,0:0:0:0:
480,192,13309,1,0,0:0:0:0:
96,192,13416,1,0,0:0:0:0:
224,192,13416,1,0,0:0:0:0:
416,192,13416,1,0,0:0:0:0:
160,192,13523,1,0,0:0:0:0:
352,192,13523,1,0,0:0:0:0:
224,192,13577,1,0,0:0:0:0:
288,192,13630,1,0,0:0:0:0:
480,192,13630,1,0,0:0:0:0:
224,192,13737,1,0,0:0:0:0:
416,192,13737,1,0,0:0:0:0:
32,192,13845,1,0,0:0:0:0:
96,192,13845,1,0,0:0:0:0:
352,192,13845,1,0,0:0:0:0:
480,192,13845,1,0,0:0:0:0:
288,192,13952,1,0,0:0:0:0:
352,192,14059,1,0,0:0:0:0:
96,192,14059,1,0,0:0:0:0:
480,192,14059,1,0,0:0:0:0:
160,192,14059,1,0,0:0:0:0:
224,192,14166,1,0,0:0:0:0:
416,192,14166,1,0,0:0:0:0:
96,192,14273,1,0,0:0:0:0:
288,192,14380,1,0,0:0:0:0:
96,192,14487,1,0,0:0:0:0:
480,192,14487,1,0,0:0:0:0:
224,192,14487,1,0,0:0:0:0:
416,192,14487,1,0,0:0:0:0:
288,192,14595,1,0,0:0:0:0:
96,192,14702,1,0,0:0:0:0:
224,192,14809,1,0,0:0:0:0:
352,192,14809,1,0,0:0:0:0:
96,192,14916,1,0,0:0:0:0:
416,192,14916,1,0,0:0:0:0:
160,192,14916,1,0,0:0:0:0:
288,192,14916,1,0,0:0:0:0:
224,192,15023,1,0,0:0:0:0:
96,192,15130,1,0,0:0:0:0:
480,192,15130,1,0,0:0:0:0:
288,192,15237,1,0,0:0:0:0:
96,192,15345,1,0,0:0:0:0:
480,192,15345,1,0,0:0:0:0:
224,192,15345,1,0,0:0:0:0:
352,192,15345,1,0,0:0:0:0:
160,192,15452,1,0,0:0:0:0:
96,192,15559,1,0,0:0:0:0:
480,192,15559,1,0,0:0:0:0:
224,192,15666,1,0,0:0:0:0:
96,192,15773,1,0,0:0:0:0:
288,192,15773,1,0,0:0:0:0:
352,192,15773,1,0,0:0:0:0:
160,192,15880,1,0,0:0:0:0:
416,192,15880,1,0,0:0:0:0:
96,192,15987,1,0,0:0:0:0:
224,192,16095,1,0,0:0:0:0:
96,192,16202,1,0,0:0:0:0:
160,192,16202,1,0,0:0:0:0:
352,192,16202,1,0,0:0:0:0:
480,192,16202,1,0,0:0:0:0:
288,192,16309,1,0,0:0:0:0:
96,192,16416,1,0,0:0:0:0:
224,192,16523,1,0,0:0:0:0:
480,192,16630,1,0,0:0:0:0:
96,192,16630,1,0,0:0:0:0:
352,192,16630,1,0,0:0:0:0:
160,192,16630,1,0,0:0:0:0:
288,192,16737,1,0,0:0:0:0:
96,192,16845,1,0,0:0:0:0:
416,192,16845,1,0,0:0:0:0:
224,192,16952,1,0,0:0:0:0:
96,192,17059,1,0,0:0:0:0:
352,192,17059,1,0,0:0:0:0:
160,192,17059,1,0,0:0:0:0:
288,192,17059,1,0,0:0:0:0:
224,192,17166,1,0,0:0:0:0:
96,192,17273,1,0,0:0:0:0:
480,192,17273,1,0,0:0:0:0:
352,192,17273,1,0,0:0:0:0:
288,192,17380,1,0,0:0:0:0:
96,192,17487,1,0,0:0:0:0:
416,192,17487,1,0,0:0:0:0:
224,192,17487,1,0,0:0:0:0:
288,192,17595,1,0,0:0:0:0:
480,192,17595,1,0,0:0:0:0:
96,192,17702,1,0,0:0:0:0:
224,192,17809,1,0,0:0:0:0:
96,192,17916,1,0,0:0:0:0:
288,192,17916,1,0,0:0:0:0:
416,192,17916,1,0,0:0:0:0:
160,192,17916,1,0,0:0:0:0:
224,192,18023,1,0,0:0:0:0:
96,192,18130,1,0,0:0:0:0:
160,192,18237,1,0,0:0:0:0:
352,192,18237,1,0,0:0:0:0:
96,192,18345,1,0,0:0:0:0:
288,192,18345,1,0,0:0:0:0:
224,192,18345,1,0,0:0:0:0:
416,192,18345,1,0,0:0:0:0:
352,192,18452,1,0,0:0:0:0:
96,192,18559,1,0,0:0:0:0:
480,192,18559,1,0,0:0:0:0:
288,192,18666,1,0,0:0:0:0:
96,192,18773,1,0,0:0:0:0:
352,192,18773,1,0,0:0:0:0:
416,192,18773,1,0,0:0:0:0:
224,192,18773,1,0,0:0:0:0:
160,192,18880,1,0,0:0:0:0:
96,192,18987,1,0,0:0:0:0:
480,192,18987,1,0,0:0:0:0:
288,192,19095,1,0,0:0:0:0:
96,192,19202,1,0,0:0:0:0:
352,192,19202,1,0,0:0:0:0:
224,192,19202,1,0,0:0:0:0:
480,192,19202,1,0,0:0:0:0:
160,192,19309,1,0,0:0:0:0:
416,192,19309,1,0,0:0:0:0:
96,192,19416,1,0,0:0:0:0:
224,192,19523,1,0,0:0:0:0:
96,192,19630,1,0,0:0:0:0:
480,192,19630,1,0,0:0:0:0:
288,192,19630,1,0,0:0:0:0:
352,192,19630,1,0,0:0:0:0:
160,192,19737,1,0,0:0:0:0:
96,192,19845,1,0,0:0:0:0:
288,192,19952,1,0,0:0:0:0:
416,192,19952,1,0,0:0:0:0:
96,192,20059,1,0,0:0:0:0:
416,192,20059,1,0,0:0:0:0:
224,192,20059,1,0,0:0:0:0:
352,192,20059,1,0,0:0:0:0:
288,192,20166,1,0,0:0:0:0:
416,192,20166,1,0,0:0:0:0:
96,192,20273,1,0,0:0:0:0:
480,192,20273,1,0,0:0:0:0:
352,192,20273,1,0,0:0:0:0:
224,192,20380,1,0,0:0:0:0:
96,192,20487,1,0,0:0:0:0:
32,192,20487,1,0,0:0:0:0:
416,192,20487,1,0,0:0:0:0:
288,192,20487,1,0,0:0:0:0:
480,192,20487,1,0,0:0:0:0:
160,192,20595,1,0,0:0:0:0:
96,192,20702,1,0,0:0:0:0:
480,192,20702,1,0,0:0:0:0:
352,192,20702,1,0,0:0:0:0:
224,192,20809,1,0,0:0:0:0:
160,192,20916,1,0,0:0:0:0:
288,192,20916,1,0,0:0:0:0:
416,192,20916,1,0,0:0:0:0:
352,192,21023,1,0,0:0:0:0:
480,192,21023,1,0,0:0:0:0:
96,192,21130,1,0,0:0:0:0:
224,192,21237,1,0,0:0:0:0:
160,192,21345,1,0,0:0:0:0:
480,192,21345,1,0,0:0:0:0:
288,192,21345,1,0,0:0:0:0:
352,192,21345,1,0,0:0:0:0:
224,192,21452,1,0,0:0:0:0:
96,192,21559,1,0,0:0:0:0:
224,192,21666,1,0,0:0:0:0:
352,192,21666,1,0,0:0:0:0:
160,192,21773,1,0,0:0:0:0:
480,192,21773,1,0,0:0:0:0:
288,192,21773,1,0,0:0:0:0:
416,192,21773,1,0,0:0:0:0:
224,192,21880,1,0,0:0:0:0:
96,192,21987,1,0,0:0:0:0:
480,192,21987,1,0,0:0:0:0:
288,192,22095,1,0,0:0:0:0:
224,192,22202,1,0,0:0:0:0:
416,192,22202,1,0,0:0:0:0:
96,192,22202,1,0,0:0:0:0:
352,192,22202,1,0,0:0:0:0:
160,192,22309,1,0,0:0:0:0:
96,192,22416,1,0,0:0:0:0:
480,192,22416,1,0,0:0:0:0:
352,192,22523,1,0,0:0:0:0:
160,192,22630,1,0,0:0:0:0:
288,192,22630,1,0,0:0:0:0:
416,192,22630,1,0,0:0:0:0:
224,192,22737,1,0,0:0:0:0:
480,192,22737,1,0,0:0:0:0:
96,192,22845,1,0,0:0:0:0:
288,192,22952,1,0,0:0:0:0:
224,192,23059,1,0,0:0:0:0:
480,192,23059,1,0,0:0:0:0:
160,192,23059,1,0,0:0:0:0:
352,192,23059,1,0,0:0:0:0:
416,192,23166,1,0,0:0:0:0:
96,192,23273,1,0,0:0:0:0:
288,192,23380,1,0,0:0:0:0:
96,192,23487,1,0,0:0:0:0:
480,192,23487,1,0,0:0:0:0:
224,192,23487,1,0,0:0:0:0:
352,192,23487,1,0,0:0:0:0:
160,192,23595,1,0,0:0:0:0:
96,192,23702,1,0,0:0:0:0:
416,192,23702,1,0,0:0:0:0:
224,192,23809,1,0,0:0:0:0:
96,192,23916,1,0,0:0:0:0:
352,192,23916,1,0,0:0:0:0:
160,192,23916,1,0,0:0:0:0:
288,192,23916,1,0,0:0:0:0:
416,192,24023,1,0,0:0:0:0:
96,192,24130,1,0,0:0:0:0:
480,192,24130,1,0,0:0:0:0:
224,192,24130,1,0,0:0:0:0:
352,192,24237,1,0,0:0:0:0:
96,192,24345,1,0,0:0:0:0:
160,192,24345,1,0,0:0:0:0:
416,192,24345,1,0,0:0:0:0:
288,192,24345,1,0,0:0:0:0:
480,192,24452,1,0,0:0:0:0:
352,192,24452,1,0,0:0:0:0:
160,192,24559,1,0,0:0:0:0:
288,192,24666,1,0,0:0:0:0:
96,192,24773,1,0,0:0:0:0:
416,192,24773,1,0,0:0:0:0:
224,192,24773,1,0,0:0:0:0:
352,192,24773,1,0,0:0:0:0:
160,192,24880,1,0,0:0:0:0:
96,192,24987,1,0,0:0:0:0:
416,192,25095,1,0,0:0:0:0:
288,192,25095,1,0,0:0:0:0:
96,192,25202,1,0,0:0:0:0:
480,192,25202,1,0,0:0:0:0:
224,192,25202,1,0,0:0:0:0:
352,192,25202,1,0,0:0:0:0:
160,192,25309,1,0,0:0:0:0:
96,192,25416,1,0,0:0:0:0:
480,192,25416,1,0,0:0:0:0:
352,192,25523,1,0,0:0:0:0:
96,192,25630,1,0,0:0:0:0:
416,192,25630,1,0,0:0:0:0:
160,192,25630,1,0,0:0:0:0:
288,192,25630,1,0,0:0:0:0:
224,192,25737,1,0,0:0:0:0:
96,192,25845,1,0,0:0:0:0:
480,192,25845,1,0,0:0:0:0:
288,192,25952,1,0,0:0:0:0:
96,192,26059,1,0,0:0:0:0:
480,192,26059,1,0,0:0:0:0:
352,192,26059,1,0,0:0:0:0:
160,192,26059,1,0,0:0:0:0:
224,192,26166,1,0,0:0:0:0:
416,192,26166,1,0,0:0:0:0:
96,192,26273,1,0,0:0:0:0:
288,192,26380,1,0,0:0:0:0:
96,192,26487,1,0,0:0:0:0:
352,192,26487,1,0,0:0:0:0:
160,192,26487,1,0,0:0:0:0:
480,192,26487,1,0,0:0:0:0:
224,192,26595,1,0,0:0:0:0:
96,192,26702,1,0,0:0:0:0:
288,192,26809,1,0,0:0:0:0:
416,192,26809,1,0,0:0:0:0:
416,192,26916,1,0,0:0:0:0:
160,192,26916,1,0,0:0:0:0:
96,192,26916,1,0,0:0:0:0:
480,192,26916,1,0,0:0:0:0:
288,192,27023,1,0,0:0:0:0:
416,192,27023,1,0,0:0:0:0:
352,192,27130,1,0,0:0:0:0:
32,192,27130,1,0,0:0:0:0:
224,192,27130,1,0,0:0:0:0:
96,192,27130,1,0,0:0:0:0:
160,192,27237,1,0,0:0:0:0:
416,192,27345,1,0,0:0:0:0:
32,192,27345,1,0,0:0:0:0:
288,192,27345,1,0,0:0:0:0:
96,192,27345,1,0,0:0:0:0:
224,192,27452,1,0,0:0:0:0:
480,192,27559,1,0,0:0:0:0:
32,192,27559,1,0,0:0:0:0:
96,192,27559,1,0,0:0:0:0:
352,192,27559,1,0,0:0:0:0:
288,192,27773,1,0,0:0:0:0:
160,192,27773,1,0,0:0:0:0:
416,192,27773,1,0,0:0:0:0:
96,192,27880,1,0,0:0:0:0:
352,192,27987,1,0,0:0:0:0:
96,192,28095,1,0,0:0:0:0:
352,192,28095,1,0,0:0:0:0:
160,192,28202,1,0,0:0:0:0:
352,192,28202,1,0,0:0:0:0:
480,192,28202,1,0,0:0:0:0:
352,192,28309,1,0,0:0:0:0:
416,192,28416,1,0,0:0:0:0:
96,192,28416,1,0,0:0:0:0:
96,192,28523,1,0,0:0:0:0:
288,192,28523,1,0,0:0:0:0:
160,192,28630,1,0,0:0:0:0:
352,192,28630,1,0,0:0:0:0:
224,192,28630,1,0,0:0:0:0:
480,192,28737,1,0,0:0:0:0:
96,192,28845,1,0,0:0:0:0:
96,192,28952,1,0,0:0:0:0:
288,192,29059,1,0,0:0:0:0:
160,192,29059,1,0,0:0:0:0:
352,192,29059,1,0,0:0:0:0:
480,192,29273,1,0,0:0:0:0:
96,192,29273,1,0,0:0:0:0:
416,192,29487,1,0,0:0:0:0:
160,192,29487,1,0,0:0:0:0:
288,192,29487,1,0,0:0:0:0:
96,192,29595,1,0,0:0:0:0:
352,192,29702,1,0,0:0:0:0:
96,192,29809,1,0,0:0:0:0:
352,192,29809,1,0,0:0:0:0:
160,192,29916,1,0,0:0:0:0:
352,192,29916,1,0,0:0:0:0:
288,192,29916,1,0,0:0:0:0:
352,192,30023,1,0,0:0:0:0:
480,192,30130,1,0,0:0:0:0:
96,192,30130,1,0,0:0:0:0:
96,192,30237,1,0,0:0:0:0:
416,192,30237,1,0,0:0:0:0:
160,192,30345,1,0,0:0:0:0:
288,192,30345,1,0,0:0:0:0:
352,192,30345,1,0,0:0:0:0:
480,192,30452,1,0,0:0:0:0:
96,192,30452,1,0,0:0:0:0:
96,192,30666,1,0,0:0:0:0:
288,192,30773,1,0,0:0:0:0:
160,192,30773,1,0,0:0:0:0:
416,192,30773,1,0,0:0:0:0:
480,192,30987,1,0,0:0:0:0:
96,192,30987,1,0,0:0:0:0:
416,192,31202,1,0,0:0:0:0:
160,192,31202,1,0,0:0:0:0:
224,192,31202,1,0,0:0:0:0:
96,192,31309,1,0,0:0:0:0:
352,192,31416,1,0,0:0:0:0:
96,192,31523,1,0,0:0:0:0:
352,192,31523,1,0,0:0:0:0:
160,192,31630,1,0,0:0:0:0:
352,192,31630,1,0,0:0:0:0:
288,192,31630,1,0,0:0:0:0:
352,192,31737,1,0,0:0:0:0:
480,192,31845,1,0,0:0:0:0:
96,192,31845,1,0,0:0:0:0:
96,192,31952,1,0,0:0:0:0:
288,192,31952,1,0,0:0:0:0:
160,192,32059,1,0,0:0:0:0:
416,192,32059,1,0,0:0:0:0:
224,192,32059,1,0,0:0:0:0:
480,192,32166,1,0,0:0:0:0:
96,192,32273,1,0,0:0:0:0:
96,192,32380,1,0,0:0:0:0:
288,192,32487,1,0,0:0:0:0:
160,192,32487,1,0,0:0:0:0:
224,192,32487,1,0,0:0:0:0:
480,192,32702,1,0,0:0:0:0:
96,192,32702,1,0,0:0:0:0:
352,192,32702,1,0,0:0:0:0:
160,192,32916,1,0,0:0:0:0:
224,192,32916,1,0,0:0:0:0:
416,192,33023,1,0,0:0:0:0:
96,192,33023,1,0,0:0:0:0:
288,192,33023,1,0,0:0:0:0:
96,192,33237,1,0,0:0:0:0:
224,192,33345,1,0,0:0:0:0:
480,192,33345,1,0,0:0:0:0:
352,192,33345,1,0,0:0:0:0:
96,192,33559,1,0,0:0:0:0:
288,192,33666,1,0,0:0:0:0:
96,192,33666,1,0,0:0:0:0:
160,192,33773,1,0,0:0:0:0:
288,192,33773,1,0,0:0:0:0:
416,192,33773,1,0,0:0:0:0:
96,192,33880,1,0,0:0:0:0:
288,192,33880,1,0,0:0:0:0:
480,192,33987,1,0,0:0:0:0:
352,192,33987,1,0,0:0:0:0:
96,192,34095,1,0,0:0:0:0:
160,192,34202,1,0,0:0:0:0:
32,192,34202,1,0,0:0:0:0:
288,192,34202,1,0,0:0:0:0:
480,192,34416,1,0,0:0:0:0:
96,192,34416,1,0,0:0:0:0:
480,192,34630,1,0,0:0:0:0:
160,192,34630,1,0,0:0:0:0:
288,192,34630,1,0,0:0:0:0:
96,192,34737,1,0,0:0:0:0:
352,192,34845,1,0,0:0:0:0:
96,192,34952,1,0,0:0:0:0:
352,192,34952,1,0,0:0:0:0:
160,192,35059,1,0,0:0:0:0:
352,192,35059,1,0,0:0:0:0:
288,192,35059,1,0,0:0:0:0:
352,192,35166,1,0,0:0:0:0:
480,192,35273,1,0,0:0:0:0:
96,192,35273,1,0,0:0:0:0:
96,192,35380,1,0,0:0:0:0:
288,192,35380,1,0,0:0:0:0:
160,192,35487,1,0,0:0:0:0:
224,192,35487,1,0,0:0:0:0:
416,192,35487,1,0,0:0:0:0:
480,192,35595,1,0,0:0:0:0:
96,192,35702,1,0,0:0:0:0:
96,192,35809,1,0,0:0:0:0:
416,192,35916,1,0,0:0:0:0:
160,192,35916,1,0,0:0:0:0:
224,192,35916,1,0,0:0:0:0:
480,192,36130,1,0,0:0:0:0:
96,192,36130,1,0,0:0:0:0:
160,192,36345,1,0,0:0:0:0:
416,192,36345,1,0,0:0:0:0:
288,192,36345,1,0,0:0:0:0:
96,192,36452,1,0,0:0:0:0:
352,192,36559,1,0,0:0:0:0:
96,192,36666,1,0,0:0:0:0:
352,192,36666,1,0,0:0:0:0:
160,192,36773,1,0,0:0:0:0:
352,192,36773,1,0,0:0:0:0:
288,192,36773,1,0,0:0:0:0:
352,192,36880,1,0,0:0:0:0:
480,192,36987,1,0,0:0:0:0:
96,192,36987,1,0,0:0:0:0:
96,192,37095,1,0,0:0:0:0:
288,192,37095,1,0,0:0:0:0:
160,192,37202,1,0,0:0:0:0:
224,192,37202,1,0,0:0:0:0:
416,192,37202,1,0,0:0:0:0:
480,192,37309,1,0,0:0:0:0:
96,192,37309,1,0,0:0:0:0:
96,192,37523,1,0,0:0:0:0:
416,192,37630,1,0,0:0:0:0:
160,192,37630,1,0,0:0:0:0:
224,192,37630,1,0,0:0:0:0:
480,192,37845,1,0,0:0:0:0:
96,192,37845,1,0,0:0:0:0:
288,192,38059,1,0,0:0:0:0:
160,192,38059,1,0,0:0:0:0:
416,192,38059,1,0,0:0:0:0:
96,192,38166,1,0,0:0:0:0:
352,192,38273,1,0,0:0:0:0:
96,192,38380,1,0,0:0:0:0:
352,192,38380,1,0,0:0:0:0:
160,192,38487,1,0,0:0:0:0:
352,192,38487,1,0,0:0:0:0:
416,192,38487,1,0,0:0:0:0:
352,192,38595,1,0,0:0:0:0:
96,192,38702,1,0,0:0:0:0:
480,192,38702,1,0,0:0:0:0:
96,192,38809,1,0,0:0:0:0:
416,192,38809,1,0,0:0:0:0:
224,192,38916,1,0,0:0:0:0:
352,192,38916,1,0,0:0:0:0:
480,192,39023,1,0,0:0:0:0:
96,192,39130,1,0,0:0:0:0:
96,192,39237,1,0,0:0:0:0:
224,192,39345,1,0,0:0:0:0:
480,192,39345,1,0,0:0:0:0:
352,192,39345,1,0,0:0:0:0:
32,192,39345,1,0,0:0:0:0:
160,192,39559,1,0,0:0:0:0:
32,192,39559,1,0,0:0:0:0:
480,192,39559,1,0,0:0:0:0:
224,192,39666,1,0,0:0:0:0:
224,192,39773,1,0,0:0:0:0:
96,192,39880,1,0,0:0:0:0:
416,192,39880,1,0,0:0:0:0:
224,192,39987,1,0,0:0:0:0:
224,192,40095,1,0,0:0:0:0:
480,192,40202,1,0,0:0:0:0:
288,192,40202,1,0,0:0:0:0:
32,192,40202,1,0,0:0:0:0:
96,192,40309,1,0,0:0:0:0:
96,192,40416,1,0,0:0:0:0:
224,192,40523,1,0,0:0:0:0:
416,192,40523,1,0,0:0:0:0:
96,192,40630,1,0,0:0:0:0:
416,192,40630,1,0,0:0:0:0:
96,192,40737,1,0,0:0:0:0:
416,192,40737,1,0,0:0:0:0:
160,192,40845,1,0,0:0:0:0:
32,192,40845,1,0,0:0:0:0:
288,192,40845,1,0,0:0:0:0:
480,192,40845,1,0,0:0:0:0:
224,192,41059,1,0,0:0:0:0:
32,192,41059,1,0,0:0:0:0:
352,192,41059,1,0,0:0:0:0:
96,192,41059,1,0,0:0:0:0:
160,192,41166,1,0,0:0:0:0:
416,192,41166,1,0,0:0:0:0:
32,192,41273,1,0,0:0:0:0:
96,192,41273,1,0,0:0:0:0:
480,192,41273,1,0,0:0:0:0:
352,192,41273,1,0,0:0:0:0:
224,192,41380,1,0,0:0:0:0:
160,192,41487,1,0,0:0:0:0:
416,192,41487,1,0,0:0:0:0:
480,192,41487,1,0,0:0:0:0:
96,192,41595,1,0,0:0:0:0:
224,192,41595,1,0,0:0:0:0:
352,192,41595,1,0,0:0:0:0:
480,192,41702,1,0,0:0:0:0:
288,192,41702,1,0,0:0:0:0:
96,192,41809,1,0,0:0:0:0:
416,192,41809,1,0,0:0:0:0:
224,192,41809,1,0,0:0:0:0:
160,192,41916,1,0,0:0:0:0:
480,192,41916,1,0,0:0:0:0:
352,192,41916,1,0,0:0:0:0:
416,192,42023,1,0,0:0:0:0:
288,192,42023,1,0,0:0:0:0:
96,192,42130,1,0,0:0:0:0:
352,192,42130,1,0,0:0:0:0:
224,192,42130,1,0,0:0:0:0:
96,192,42237,1,0,0:0:0:0:
416,192,42237,1,0,0:0:0:0:
288,192,42237,1,0,0:0:0:0:
160,192,42345,1,0,0:0:0:0:
352,192,42345,1,0,0:0:0:0:
224,192,42345,1,0,0:0:0:0:
416,192,42452,1,0,0:0:0:0:
288,192,42452,1,0,0:0:0:0:
96,192,42559,1,0,0:0:0:0:
480,192,42559,1,0,0:0:0:0:
352,192,42559,1,0,0:0:0:0:
96,192,42666,1,0,0:0:0:0:
416,192,42666,1,0,0:0:0:0:
288,192,42666,1,0,0:0:0:0:
480,192,42773,1,0,0:0:0:0:
352,192,42773,1,0,0:0:0:0:
224,192,42773,1,0,0:0:0:0:
288,192,42880,1,0,0:0:0:0:
160,192,42880,1,0,0:0:0:0:
96,192,42987,1,0,0:0:0:0:
352,192,42987,1,0,0:0:0:0:
480,192,42987,1,0,0:0:0:0:
288,192,43095,1,0,0:0:0:0:
160,192,43095,1,0,0:0:0:0:
416,192,43202,1,0,0:0:0:0:
352,192,43202,1,0,0:0:0:0:
224,192,43202,1,0,0:0:0:0:
96,192,43309,1,0,0:0:0:0:
160,192,43309,1,0,0:0:0:0:
288,192,43309,1,0,0:0:0:0:
480,192,43416,1,0,0:0:0:0:
352,192,43416,1,0,0:0:0:0:
96,192,43523,1,0,0:0:0:0:
288,192,43523,1,0,0:0:0:0:
160,192,43523,1,0,0:0:0:0:
224,192,43630,1,0,0:0:0:0:
480,192,43630,1,0,0:0:0:0:
352,192,43630,1,0,0:0:0:0:
416,192,43737,1,0,0:0:0:0:
288,192,43737,1,0,0:0:0:0:
96,192,43845,1,0,0:0:0:0:
224,192,43845,1,0,0:0:0:0:
480,192,43952,1,0,0:0:0:0:
96,192,43952,1,0,0:0:0:0:
352,192,43952,1,0,0:0:0:0:
160,192,44059,1,0,0:0:0:0:
416,192,44059,1,0,0:0:0:0:
288,192,44059,1,0,0:0:0:0:
96,192,44166,1,0,0:0:0:0:
480,192,44166,1,0,0:0:0:0:
224,192,44166,1,0,0:0:0:0:
416,192,44273,1,0,0:0:0:0:
352,192,44273,1,0,0:0:0:0:
96,192,44380,1,0,0:0:0:0:
288,192,44380,1,0,0:0:0:0:
160,192,44380,1,0,0:0:0:0:
352,192,44487,1,0,0:0:0:0:
416,192,44487,1,0,0:0:0:0:
224,192,44487,1,0,0:0:0:0:
160,192,44595,1,0,0:0:0:0:
480,192,44595,1,0,0:0:0:0:
96,192,44702,1,0,0:0:0:0:
352,192,44702,1,0,0:0:0:0:
480,192,44702,1,0,0:0:0:0:
416,192,44809,1,0,0:0:0:0:
224,192,44809,1,0,0:0:0:0:
160,192,44916,1,0,0:0:0:0:
480,192,44916,1,0,0:0:0:0:
288,192,44916,1,0,0:0:0:0:
96,192,45023,1,0,0:0:0:0:
352,192,45023,1,0,0:0:0:0:
224,192,45023,1,0,0:0:0:0:
288,192,45130,1,0,0:0:0:0:
160,192,45130,1,0,0:0:0:0:
96,192,45237,1,0,0:0:0:0:
416,192,45237,1,0,0:0:0:0:
224,192,45237,1,0,0:0:0:0:
160,192,45345,1,0,0:0:0:0:
480,192,45345,1,0,0:0:0:0:
288,192,45345,1,0,0:0:0:0:
224,192,45452,1,0,0:0:0:0:
416,192,45452,1,0,0:0:0:0:
96,192,45559,1,0,0:0:0:0:
352,192,45559,1,0,0:0:0:0:
160,192,45559,1,0,0:0:0:0:
96,192,45666,1,0,0:0:0:0:
416,192,45666,1,0,0:0:0:0:
224,192,45666,1,0,0:0:0:0:
160,192,45773,1,0,0:0:0:0:
480,192,45773,1,0,0:0:0:0:
288,192,45773,1,0,0:0:0:0:
352,192,45880,1,0,0:0:0:0:
224,192,45880,1,0,0:0:0:0:
96,192,45987,1,0,0:0:0:0:
416,192,45987,1,0,0:0:0:0:
288,192,45987,1,0,0:0:0:0:
96,192,46095,1,0,0:0:0:0:
480,192,46095,1,0,0:0:0:0:
224,192,46095,1,0,0:0:0:0:
160,192,46202,1,0,0:0:0:0:
352,192,46202,1,0,0:0:0:0:
288,192,46202,1,0,0:0:0:0:
416,192,46309,1,0,0:0:0:0:
224,192,46309,1,0,0:0:0:0:
96,192,46416,1,0,0:0:0:0:
480,192,46416,1,0,0:0:0:0:
352,192,46416,1,0,0:0:0:0:
416,192,46523,1,0,0:0:0:0:
288,192,46523,1,0,0:0:0:0:
160,192,46630,1,0,0:0:0:0:
352,192,46630,1,0,0:0:0:0:
96,192,46737,1,0,0:0:0:0:
224,192,46737,1,0,0:0:0:0:
352,192,46845,1,0,0:0:0:0:
96,192,46952,1,0,0:0:0:0:
224,192,46952,1,0,0:0:0:0:
160,192,47059,1,0,0:0:0:0:
352,192,47059,1,0,0:0:0:0:
224,192,47166,1,0,0:0:0:0:
96,192,47273,1,0,0:0:0:0:
352,192,47273,1,0,0:0:0:0:
224,192,47380,1,0,0:0:0:0:
160,192,47380,1,0,0:0:0:0:
96,192,47487,1,0,0:0:0:0:
352,192,47487,1,0,0:0:0:0:
96,192,47595,1,0,0:0:0:0:
224,192,47595,1,0,0:0:0:0:
160,192,47702,1,0,0:0:0:0:
288,192,47702,1,0,0:0:0:0:
96,192,47809,1,0,0:0:0:0:
32,192,47809,1,0,0:0:0:0:
352,192,47916,1,0,0:0:0:0:
160,192,48023,1,0,0:0:0:0:
416,192,48023,1,0,0:0:0:0:
96,192,48130,1,0,0:0:0:0:
32,192,48130,1,0,0:0:0:0:
352,192,48130,1,0,0:0:0:0:
480,192,48130,1,0,0:0:0:0:
224,192,48237,1,0,0:0:0:0:
160,192,48345,1,0,0:0:0:0:
416,192,48345,1,0,0:0:0:0:
288,192,48345,1,0,0:0:0:0:
96,192,48452,1,0,0:0:0:0:
480,192,48452,1,0,0:0:0:0:
224,192,48452,1,0,0:0:0:0:
352,192,48559,1,0,0:0:0:0:
160,192,48559,1,0,0:0:0:0:
96,192,48666,1,0,0:0:0:0:
416,192,48666,1,0,0:0:0:0:
288,192,48666,1,0,0:0:0:0:
160,192,48773,1,0,0:0:0:0:
480,192,48773,1,0,0:0:0:0:
224,192,48773,1,0,0:0:0:0:
352,192,48880,1,0,0:0:0:0:
288,192,48880,1,0,0:0:0:0:
96,192,48987,1,0,0:0:0:0:
416,192,48987,1,0,0:0:0:0:
160,192,48987,1,0,0:0:0:0:
96,192,49095,1,0,0:0:0:0:
480,192,49095,1,0,0:0:0:0:
288,192,49095,1,0,0:0:0:0:
160,192,49202,1,0,0:0:0:0:
352,192,49202,1,0,0:0:0:0:
224,192,49202,1,0,0:0:0:0:
416,192,49309,1,0,0:0:0:0:
288,192,49309,1,0,0:0:0:0:
96,192,49416,1,0,0:0:0:0:
480,192,49416,1,0,0:0:0:0:
352,192,49416,1,0,0:0:0:0:
96,192,49523,1,0,0:0:0:0:
288,192,49523,1,0,0:0:0:0:
224,192,49523,1,0,0:0:0:0:
160,192,49630,1,0,0:0:0:0:
480,192,49630,1,0,0:0:0:0:
416,192,49630,1,0,0:0:0:0:
352,192,49737,1,0,0:0:0:0:
288,192,49737,1,0,0:0:0:0:
96,192,49845,1,0,0:0:0:0:
480,192,49845,1,0,0:0:0:0:
224,192,49845,1,0,0:0:0:0:
416,192,49898,1,0,0:0:0:0:
352,192,49952,1,0,0:0:0:0:
160,192,49952,1,0,0:0:0:0:
224,192,50059,1,0,0:0:0:0:
416,192,50059,1,0,0:0:0:0:
480,192,50059,1,0,0:0:0:0:
96,192,50166,1,0,0:0:0:0:
352,192,50166,1,0,0:0:0:0:
288,192,50166,1,0,0:0:0:0:
480,192,50273,1,0,0:0:0:0:
224,192,50273,1,0,0:0:0:0:
96,192,50380,1,0,0:0:0:0:
416,192,50380,1,0,0:0:0:0:
160,192,50380,1,0,0:0:0:0:
224,192,50487,1,0,0:0:0:0:
480,192,50487,1,0,0:0:0:0:
352,192,50487,1,0,0:0:0:0:
288,192,50595,1,0,0:0:0:0:
160,192,50595,1,0,0:0:0:0:
96,192,50702,1,0,0:0:0:0:
224,192,50702,1,0,0:0:0:0:
352,192,50702,1,0,0:0:0:0:
96,192,50809,1,0,0:0:0:0:
416,192,50809,1,0,0:0:0:0:
288,192,50809,1,0,0:0:0:0:
160,192,50916,1,0,0:0:0:0:
480,192,50916,1,0,0:0:0:0:
352,192,50916,1,0,0:0:0:0:
96,192,51023,1,0,0:0:0:0:
352,192,51023,1,0,0:0:0:0:
224,192,51023,1,0,0:0:0:0:
416,192,51130,1,0,0:0:0:0:
288,192,51130,1,0,0:0:0:0:
96,192,51237,1,0,0:0:0:0:
480,192,51237,1,0,0:0:0:0:
352,192,51237,1,0,0:0:0:0:
160,192,51345,1,0,0:0:0:0:
416,192,51345,1,0,0:0:0:0:
224,192,51345,1,0,0:0:0:0:
480,192,51452,1,0,0:0:0:0:
288,192,51452,1,0,0:0:0:0:
96,192,51559,1,0,0:0:0:0:
352,192,51559,1,0,0:0:0:0:
224,192,51559,1,0,0:0:0:0:
416,192,51666,1,0,0:0:0:0:
288,192,51666,1,0,0:0:0:0:
480,192,51773,1,0,0:0:0:0:
352,192,51773,1,0,0:0:0:0:
224,192,51773,1,0,0:0:0:0:
160,192,51827,1,0,0:0:0:0:
96,192,51880,1,0,0:0:0:0:
416,192,51880,1,0,0:0:0:0:
288,192,51880,1,0,0:0:0:0:
352,192,51987,1,0,0:0:0:0:
160,192,51987,1,0,0:0:0:0:
96,192,52095,1,0,0:0:0:0:
480,192,52095,1,0,0:0:0:0:
288,192,52095,1,0,0:0:0:0:
160,192,52202,1,0,0:0:0:0:
416,192,52202,1,0,0:0:0:0:
224,192,52202,1,0,0:0:0:0:
352,192,52309,1,0,0:0:0:0:
160,192,52309,1,0,0:0:0:0:
96,192,52416,1,0,0:0:0:0:
416,192,52416,1,0,0:0:0:0:
288,192,52416,1,0,0:0:0:0:
96,192,52523,1,0,0:0:0:0:
352,192,52523,1,0,0:0:0:0:
224,192,52523,1,0,0:0:0:0:
160,192,52630,1,0,0:0:0:0:
480,192,52630,1,0,0:0:0:0:
288,192,52630,1,0,0:0:0:0:
352,192,52737,1,0,0:0:0:0:
224,192,52737,1,0,0:0:0:0:
160,192,52791,1,0,0:0:0:0:
96,192,52845,1,0,0:0:0:0:
416,192,52845,1,0,0:0:0:0:
288,192,52845,1,0,0:0:0:0:
96,192,52952,1,0,0:0:0:0:
480,192,52952,1,0,0:0:0:0:
352,192,52952,1,0,0:0:0:0:
160,192,53059,1,0,0:0:0:0:
416,192,53059,1,0,0:0:0:0:
288,192,53059,1,0,0:0:0:0:
352,192,53166,1,0,0:0:0:0:
224,192,53166,1,0,0:0:0:0:
96,192,53273,1,0,0:0:0:0:
480,192,53273,1,0,0:0:0:0:
288,192,53273,1,0,0:0:0:0:
224,192,53380,1,0,0:0:0:0:
416,192,53380,1,0,0:0:0:0:
160,192,53487,1,0,0:0:0:0:
352,192,53487,1,0,0:0:0:0:
288,192,53487,1,0,0:0:0:0:
96,192,53595,1,0,0:0:0:0:
480,192,53595,1,0,0:0:0:0:
416,192,53595,1,0,0:0:0:0:
224,192,53702,1,0,0:0:0:0:
96,192,53809,1,0,0:0:0:0:
352,192,53809,1,0,0:0:0:0:
160,192,53916,1,0,0:0:0:0:
224,192,53916,1,0,0:0:0:0:
352,192,54023,1,0,0:0:0:0:
288,192,54130,1,0,0:0:0:0:
480,192,54130,1,0,0:0:0:0:
416,192,54130,1,0,0:0:0:0:
32,192,54130,1,0,0:0:0:0:
96,192,54237,1,0,0:0:0:0:
96,192,54345,1,0,0:0:0:0:
224,192,54452,1,0,0:0:0:0:
416,192,54452,1,0,0:0:0:0:
352,192,54452,1,0,0:0:0:0:
32,192,54452,1,0,0:0:0:0:
96,192,54559,1,0,0:0:0:0:
96,192,54666,1,0,0:0:0:0:
160,192,54773,1,0,0:0:0:0:
352,192,54773,1,0,0:0:0:0:
480,192,54773,1,0,0:0:0:0:
224,192,54827,1,0,0:0:0:0:
288,192,54880,1,0,0:0:0:0:
416,192,54880,1,0,0:0:0:0:
96,192,54987,1,0,0:0:0:0:
352,192,54987,1,0,0:0:0:0:
224,192,54987,1,0,0:0:0:0:
32,192,54987,1,0,0:0:0:0:
160,192,55202,1,0,0:0:0:0:
480,192,55309,1,0,0:0:0:0:
96,192,55416,1,0,0:0:0:0:
96,192,55523,1,0,0:0:0:0:
160,192,55630,1,0,0:0:0:0:
416,192,55630,1,0,0:0:0:0:
96,192,55845,1,0,0:0:0:0:
224,192,55845,1,0,0:0:0:0:
96,192,55952,1,0,0:0:0:0:
160,192,56059,1,0,0:0:0:0:
288,192,56166,1,0,0:0:0:0:
96,192,56273,1,0,0:0:0:0:
96,192,56380,1,0,0:0:0:0:
160,192,56487,1,0,0:0:0:0:
352,192,56487,1,0,0:0:0:0:
96,192,56702,1,0,0:0:0:0:
288,192,56702,1,0,0:0:0:0:
160,192,56916,1,0,0:0:0:0:
96,192,57130,1,0,0:0:0:0:
96,192,57237,1,0,0:0:0:0:
160,192,57345,1,0,0:0:0:0:
96,192,57559,1,0,0:0:0:0:
352,192,57559,1,0,0:0:0:0:
96,192,57666,1,0,0:0:0:0:
160,192,57773,1,0,0:0:0:0:
96,192,57880,1,0,0:0:0:0:
96,192,58095,1,0,0:0:0:0:
160,192,58202,1,0,0:0:0:0:
288,192,58202,1,0,0:0:0:0:
352,192,58309,1,0,0:0:0:0:
96,192,58416,1,0,0:0:0:0:
480,192,58416,1,0,0:0:0:0:
224,192,58416,1,0,0:0:0:0:
32,192,58416,1,0,0:0:0:0:
160,192,58630,1,0,0:0:0:0:
416,192,58630,1,0,0:0:0:0:
288,192,58630,1,0,0:0:0:0:
352,192,58737,1,0,0:0:0:0:
96,192,58845,1,0,0:0:0:0:
224,192,58845,1,0,0:0:0:0:
96,192,58952,1,0,0:0:0:0:
352,192,58952,1,0,0:0:0:0:
160,192,59059,1,0,0:0:0:0:
480,192,59059,1,0,0:0:0:0:
288,192,59059,1,0,0:0:0:0:
96,192,59273,1,0,0:0:0:0:
352,192,59273,1,0,0:0:0:0:
96,192,59380,1,0,0:0:0:0:
224,192,59380,1,0,0:0:0:0:
160,192,59487,1,0,0:0:0:0:
480,192,59487,1,0,0:0:0:0:
352,192,59487,1,0,0:0:0:0:
96,192,59702,1,0,0:0:0:0:
416,192,59702,1,0,0:0:0:0:
288,192,59702,1,0,0:0:0:0:
96,192,59809,1,0,0:0:0:0:
160,192,59916,1,0,0:0:0:0:
352,192,59916,1,0,0:0:0:0:
224,192,59916,1,0,0:0:0:0:
96,192,60130,1,0,0:0:0:0:
416,192,60130,1,0,0:0:0:0:
288,192,60130,1,0,0:0:0:0:
480,192,60237,1,0,0:0:0:0:
352,192,60237,1,0,0:0:0:0:
160,192,60345,1,0,0:0:0:0:
352,192,60345,1,0,0:0:0:0:
224,192,60345,1,0,0:0:0:0:
416,192,60452,1,0,0:0:0:0:
480,192,60452,1,0,0:0:0:0:
96,192,60559,1,0,0:0:0:0:
352,192,60559,1,0,0:0:0:0:
96,192,60666,1,0,0:0:0:0:
416,192,60666,1,0,0:0:0:0:
224,192,60666,1,0,0:0:0:0:
160,192,60773,1,0,0:0:0:0:
352,192,60773,1,0,0:0:0:0:
288,192,60773,1,0,0:0:0:0:
480,192,60773,1,0,0:0:0:0:
224,192,60880,1,0,0:0:0:0:
96,192,60987,1,0,0:0:0:0:
96,192,61095,1,0,0:0:0:0:
288,192,61095,1,0,0:0:0:0:
160,192,61202,1,0,0:0:0:0:
32,192,61202,1,0,0:0:0:0:
96,192,61309,1,0,0:0:0:0:
352,192,61309,1,0,0:0:0:0:
96,192,61523,1,0,0:0:0:0:
416,192,61523,1,0,0:0:0:0:
160,192,61630,1,0,0:0:0:0:
32,192,61630,1,0,0:0:0:0:
288,192,61630,1,0,0:0:0:0:
480,192,61737,1,0,0:0:0:0:
96,192,61845,1,0,0:0:0:0:
32,192,61845,1,0,0:0:0:0:
416,192,61845,1,0,0:0:0:0:
224,192,61845,1,0,0:0:0:0:
288,192,61845,1,0,0:0:0:0:
160,192,62059,1,0,0:0:0:0:
480,192,62059,1,0,0:0:0:0:
352,192,62059,1,0,0:0:0:0:
224,192,62166,1,0,0:0:0:0:
288,192,62166,1,0,0:0:0:0:
96,192,62273,1,0,0:0:0:0:
480,192,62273,1,0,0:0:0:0:
352,192,62273,1,0,0:0:0:0:
96,192,62380,1,0,0:0:0:0:
224,192,62380,1,0,0:0:0:0:
416,192,62380,1,0,0:0:0:0:
160,192,62487,1,0,0:0:0:0:
288,192,62487,1,0,0:0:0:0:
352,192,62487,1,0,0:0:0:0:
480,192,62595,1,0,0:0:0:0:
224,192,62595,1,0,0:0:0:0:
96,192,62702,1,0,0:0:0:0:
416,192,62702,1,0,0:0:0:0:
288,192,62702,1,0,0:0:0:0:
160,192,62702,1,0,0:0:0:0:
96,192,62809,1,0,0:0:0:0:
352,192,62809,1,0,0:0:0:0:
224,192,62809,1,0,0:0:0:0:
160,192,62916,1,0,0:0:0:0:
480,192,62916,1,0,0:0:0:0:
352,192,62916,1,0,0:0:0:0:
416,192,63023,1,0,0:0:0:0:
288,192,63023,1,0,0:0:0:0:
96,192,63130,1,0,0:0:0:0:
352,192,63130,1,0,0:0:0:0:
224,192,63130,1,0,0:0:0:0:
160,192,63130,1,0,0:0:0:0:
96,192,63237,1,0,0:0:0:0:
480,192,63237,1,0,0:0:0:0:
288,192,63237,1,0,0:0:0:0:
160,192,63345,1,0,0:0:0:0:
416,192,63345,1,0,0:0:0:0:
224,192,63345,1,0,0:0:0:0:
352,192,63452,1,0,0:0:0:0:
160,192,63452,1,0,0:0:0:0:
96,192,63559,1,0,0:0:0:0:
416,192,63559,1,0,0:0:0:0:
224,192,63559,1,0,0:0:0:0:
288,192,63559,1,0,0:0:0:0:
480,192,63666,1,0,0:0:0:0:
352,192,63666,1,0,0:0:0:0:
160,192,63773,1,0,0:0:0:0:
288,192,63773,1,0,0:0:0:0:
224,192,63773,1,0,0:0:0:0:
480,192,63880,1,0,0:0:0:0:
352,192,63880,1,0,0:0:0:0:
96,192,63987,1,0,0:0:0:0:
224,192,63987,1,0,0:0:0:0:
416,192,63987,1,0,0:0:0:0:
96,192,64095,1,0,0:0:0:0:
480,192,64095,1,0,0:0:0:0:
352,192,64095,1,0,0:0:0:0:
160,192,64202,1,0,0:0:0:0:
416,192,64202,1,0,0:0:0:0:
288,192,64202,1,0,0:0:0:0:
480,192,64309,1,0,0:0:0:0:
352,192,64309,1,0,0:0:0:0:
96,192,64416,1,0,0:0:0:0:
416,192,64416,1,0,0:0:0:0:
288,192,64416,1,0,0:0:0:0:
160,192,64416,1,0,0:0:0:0:
96,192,64523,1,0,0:0:0:0:
352,192,64523,1,0,0:0:0:0:
224,192,64523,1,0,0:0:0:0:
160,192,64630,1,0,0:0:0:0:
480,192,64630,1,0,0:0:0:0:
288,192,64630,1,0,0:0:0:0:
96,192,64737,1,0,0:0:0:0:
416,192,64737,1,0,0:0:0:0:
224,192,64737,1,0,0:0:0:0:
480,192,64845,1,0,0:0:0:0:
288,192,64845,1,0,0:0:0:0:
160,192,64845,1,0,0:0:0:0:
96,192,64952,1,0,0:0:0:0:
416,192,64952,1,0,0:0:0:0:
480,192,65059,1,0,0:0:0:0:
352,192,65059,1,0,0:0:0:0:
224,192,65059,1,0,0:0:0:0:
160,192,65166,1,0,0:0:0:0:
288,192,65166,1,0,0:0:0:0:
96,192,65273,1,0,0:0:0:0:
480,192,65273,1,0,0:0:0:0:
224,192,65273,1,0,0:0:0:0:
352,192,65273,1,0,0:0:0:0:
32,192,65273,1,0,0:0:0:0:
416,192,65380,1,0,0:0:0:0:
160,192,65487,1,0,0:0:0:0:
352,192,65487,1,0,0:0:0:0:
480,192,65487,1,0,0:0:0:0:
288,192,65595,1,0,0:0:0:0:
224,192,65595,1,0,0:0:0:0:
96,192,65702,1,0,0:0:0:0:
96,192,65809,1,0,0:0:0:0:
288,192,65809,1,0,0:0:0:0:
160,192,65809,1,0,0:0:0:0:
224,192,65916,1,0,0:0:0:0:
480,192,65916,1,0,0:0:0:0:
352,192,65916,1,0,0:0:0:0:
416,192,66023,1,0,0:0:0:0:
288,192,66023,1,0,0:0:0:0:
32,192,66130,1,0,0:0:0:0:
96,192,66130,1,0,0:0:0:0:
480,192,66130,1,0,0:0:0:0:
352,192,66130,1,0,0:0:0:0:
96,192,66237,1,0,0:0:0:0:
416,192,66237,1,0,0:0:0:0:
160,192,66345,1,0,0:0:0:0:
352,192,66345,1,0,0:0:0:0:
288,192,66345,1,0,0:0:0:0:
480,192,66452,1,0,0:0:0:0:
224,192,66452,1,0,0:0:0:0:
96,192,66559,1,0,0:0:0:0:
96,192,66666,1,0,0:0:0:0:
352,192,66666,1,0,0:0:0:0:
224,192,66666,1,0,0:0:0:0:
160,192,66773,1,0,0:0:0:0:
416,192,66773,1,0,0:0:0:0:
288,192,66773,1,0,0:0:0:0:
480,192,66880,1,0,0:0:0:0:
352,192,66880,1,0,0:0:0:0:
96,192,66987,1,0,0:0:0:0:
416,192,66987,1,0,0:0:0:0:
288,192,66987,1,0,0:0:0:0:
224,192,66987,1,0,0:0:0:0:
32,192,66987,1,0,0:0:0:0:
160,192,67202,1,0,0:0:0:0:
352,192,67202,1,0,0:0:0:0:
288,192,67309,1,0,0:0:0:0:
96,192,67416,1,0,0:0:0:0:
416,192,67416,1,0,0:0:0:0:
160,192,67523,1,0,0:0:0:0:
32,192,67523,1,0,0:0:0:0:
352,192,67630,1,0,0:0:0:0:
96,192,67737,1,0,0:0:0:0:
352,192,67845,1,0,0:0:0:0:
32,192,67845,1,0,0:0:0:0:
480,192,67845,1,0,0:0:0:0:
224,192,67952,1,0,0:0:0:0:
224,192,68166,1,0,0:0:0:0:
224,192,68380,1,0,0:0:0:0:
352,192,68487,1,0,0:0:0:0:
96,192,68702,1,0,0:0:0:0:
352,192,68702,1,0,0:0:0:0:
224,192,68702,1,0,0:0:0:0:
32,192,68702,1,0,0:0:0:0:
288,192,68702,1,0,0:0:0:0:
224,192,68916,1,0,0:0:0:0:
352,192,69023,1,0,0:0:0:0:
96,192,69130,1,0,0:0:0:0:
96,192,69237,1,0,0:0:0:0:
224,192,69345,1,0,0:0:0:0:
480,192,69345,1,0,0:0:0:0:
96,192,69559,1,0,0:0:0:0:
416,192,69559,1,0,0:0:0:0:
224,192,69773,1,0,0:0:0:0:
96,192,69880,1,0,0:0:0:0:
288,192,69880,1,0,0:0:0:0:
96,192,70095,1,0,0:0:0:0:
224,192,70202,1,0,0:0:0:0:
416,192,70202,1,0,0:0:0:0:
96,192,70416,1,0,0:0:0:0:
480,192,70416,1,0,0:0:0:0:
352,192,70416,1,0,0:0:0:0:
224,192,70630,1,0,0:0:0:0:
416,192,70737,1,0,0:0:0:0:
96,192,70845,1,0,0:0:0:0:
96,192,70952,1,0,0:0:0:0:
224,192,71059,1,0,0:0:0:0:
480,192,71059,1,0,0:0:0:0:
96,192,71273,1,0,0:0:0:0:
352,192,71273,1,0,0:0:0:0:
96,192,71380,1,0,0:0:0:0:
224,192,71487,1,0,0:0:0:0:
96,192,71702,1,0,0:0:0:0:
96,192,71809,1,0,0:0:0:0:
160,192,71916,1,0,0:0:0:0:
288,192,71916,1,0,0:0:0:0:
352,192,72023,1,0,0:0:0:0:
96,192,72130,1,0,0:0:0:0:
416,192,72130,1,0,0:0:0:0:
224,192,72130,1,0,0:0:0:0:
160,192,72345,1,0,0:0:0:0:
96,192,72559,1,0,0:0:0:0:
96,192,72666,1,0,0:0:0:0:
224,192,72773,1,0,0:0:0:0:
96,192,72987,1,0,0:0:0:0:
224,192,73202,1,0,0:0:0:0:
352,192,73202,1,0,0:0:0:0:
96,192,73309,1,0,0:0:0:0:
96,192,73523,1,0,0:0:0:0:
224,192,73630,1,0,0:0:0:0:
480,192,73630,1,0,0:0:0:0:
96,192,73845,1,0,0:0:0:0:
416,192,73845,1,0,0:0:0:0:
288,192,73845,1,0,0:0:0:0:
224,192,74059,1,0,0:0:0:0:
352,192,74273,1,0,0:0:0:0:
96,192,74273,1,0,0:0:0:0:
480,192,74273,1,0,0:0:0:0:
96,192,74380,1,0,0:0:0:0:
224,192,74487,1,0,0:0:0:0:
96,192,74702,1,0,0:0:0:0:
480,192,74702,1,0,0:0:0:0:
416,192,74702,1,0,0:0:0:0:
96,192,74809,1,0,0:0:0:0:
224,192,74916,1,0,0:0:0:0:
96,192,75130,1,0,0:0:0:0:
352,192,75130,1,0,0:0:0:0:
288,192,75130,1,0,0:0:0:0:
96,192,75237,1,0,0:0:0:0:
224,192,75345,1,0,0:0:0:0:
96,192,75559,1,0,0:0:0:0:
480,192,75559,1,0,0:0:0:0:
32,192,75559,1,0,0:0:0:0:
352,192,75559,1,0,0:0:0:0:
224,192,75773,1,0,0:0:0:0:
416,192,75880,1,0,0:0:0:0:
288,192,75880,1,0,0:0:0:0:
96,192,75987,1,0,0:0:0:0:
96,192,76095,1,0,0:0:0:0:
224,192,76202,1,0,0:0:0:0:
480,192,76202,1,0,0:0:0:0:
96,192,76416,1,0,0:0:0:0:
480,192,76416,1,0,0:0:0:0:
352,192,76416,1,0,0:0:0:0:
224,192,76630,1,0,0:0:0:0:
96,192,76737,1,0,0:0:0:0:
416,192,76737,1,0,0:0:0:0:
288,192,76737,1,0,0:0:0:0:
96,192,76952,1,0,0:0:0:0:
224,192,77059,1,0,0:0:0:0:
480,192,77059,1,0,0:0:0:0:
96,192,77273,1,0,0:0:0:0:
480,192,77273,1,0,0:0:0:0:
352,192,77273,1,0,0:0:0:0:
224,192,77487,1,0,0:0:0:0:
416,192,77595,1,0,0:0:0:0:
288,192,77595,1,0,0:0:0:0:
96,192,77702,1,0,0:0:0:0:
96,192,77809,1,0,0:0:0:0:
224,192,77916,1,0,0:0:0:0:
352,192,77916,1,0,0:0:0:0:
96,192,78130,1,0,0:0:0:0:
480,192,78130,1,0,0:0:0:0:
288,192,78130,1,0,0:0:0:0:
96,192,78237,1,0,0:0:0:0:
224,192,78345,1,0,0:0:0:0:
96,192,78559,1,0,0:0:0:0:
96,192,78666,1,0,0:0:0:0:
224,192,78773,1,0,0:0:0:0:
480,192,78773,1,0,0:0:0:0:
416,192,78880,1,0,0:0:0:0:
96,192,78987,1,0,0:0:0:0:
352,192,78987,1,0,0:0:0:0:
160,192,78987,1,0,0:0:0:0:
224,192,79202,1,0,0:0:0:0:
96,192,79416,1,0,0:0:0:0:
96,192,79523,1,0,0:0:0:0:
224,192,79630,1,0,0:0:0:0:
416,192,79630,1,0,0:0:0:0:
352,192,79737,1,0,0:0:0:0:
96,192,79845,1,0,0:0:0:0:
416,192,79845,1,0,0:0:0:0:
288,192,79845,1,0,0:0:0:0:
160,192,80059,1,0,0:0:0:0:
96,192,80166,1,0,0:0:0:0:
352,192,80166,1,0,0:0:0:0:
224,192,80166,1,0,0:0:0:0:
96,192,80380,1,0,0:0:0:0:
160,192,80487,1,0,0:0:0:0:
288,192,80487,1,0,0:0:0:0:
96,192,80702,1,0,0:0:0:0:
352,192,80702,1,0,0:0:0:0:
224,192,80702,1,0,0:0:0:0:
224,192,80916,1,0,0:0:0:0:
96,192,81130,1,0,0:0:0:0:
96,192,81237,1,0,0:0:0:0:
224,192,81345,1,0,0:0:0:0:
96,192,81452,1,0,0:0:0:0:
160,192,81505,1,0,0:0:0:0:
224,192,81559,1,0,0:0:0:0:
480,192,81559,1,0,0:0:0:0:
352,192,81559,1,0,0:0:0:0:
32,192,81559,1,0,0:0:0:0:
96,192,81666,1,0,0:0:0:0:
96,192,81773,1,0,0:0:0:0:
224,192,81880,1,0,0:0:0:0:
480,192,81880,1,0,0:0:0:0:
352,192,81880,1,0,0:0:0:0:
32,192,81880,1,0,0:0:0:0:
96,192,81987,1,0,0:0:0:0:
96,192,82095,1,0,0:0:0:0:
352,192,82202,1,0,0:0:0:0:
288,192,82255,1,0,0:0:0:0:
224,192,82309,1,0,0:0:0:0:
160,192,82362,1,0,0:0:0:0:
96,192,82416,1,0,0:0:0:0:
32,192,82416,1,0,0:0:0:0:
416,192,82416,1,0,0:0:0:0:
288,192,82416,1,0,0:0:0:0:
352,192,82523,1,0,0:0:0:0:
160,192,82630,1,0,0:0:0:0:
480,192,82630,1,0,0:0:0:0:
288,192,82630,1,0,0:0:0:0:
96,192,82737,1,0,0:0:0:0:
352,192,82737,1,0,0:0:0:0:
416,192,82845,1,0,0:0:0:0:
96,192,82952,1,0,0:0:0:0:
288,192,82952,1,0,0:0:0:0:
480,192,83059,1,0,0:0:0:0:
160,192,83059,1,0,0:0:0:0:
352,192,83059,1,0,0:0:0:0:
224,192,83166,1,0,0:0:0:0:
96,192,83273,1,0,0:0:0:0:
416,192,83273,1,0,0:0:0:0:
480,192,83273,1,0,0:0:0:0:
96,192,83380,1,0,0:0:0:0:
288,192,83380,1,0,0:0:0:0:
160,192,83487,1,0,0:0:0:0:
480,192,83487,1,0,0:0:0:0:
352,192,83487,1,0,0:0:0:0:
224,192,83487,1,0,0:0:0:0:
416,192,83595,1,0,0:0:0:0:
96,192,83702,1,0,0:0:0:0:
352,192,83702,1,0,0:0:0:0:
96,192,83809,1,0,0:0:0:0:
288,192,83809,1,0,0:0:0:0:
352,192,83916,1,0,0:0:0:0:
160,192,83916,1,0,0:0:0:0:
480,192,83916,1,0,0:0:0:0:
288,192,84023,1,0,0:0:0:0:
96,192,84130,1,0,0:0:0:0:
416,192,84130,1,0,0:0:0:0:
352,192,84130,1,0,0:0:0:0:
224,192,84130,1,0,0:0:0:0:
288,192,84237,1,0,0:0:0:0:
160,192,84345,1,0,0:0:0:0:
480,192,84345,1,0,0:0:0:0:
416,192,84345,1,0,0:0:0:0:
96,192,84452,1,0,0:0:0:0:
352,192,84452,1,0,0:0:0:0:
416,192,84559,1,0,0:0:0:0:
96,192,84666,1,0,0:0:0:0:
288,192,84666,1,0,0:0:0:0:
160,192,84773,1,0,0:0:0:0:
352,192,84773,1,0,0:0:0:0:
480,192,84773,1,0,0:0:0:0:
224,192,84880,1,0,0:0:0:0:
96,192,84987,1,0,0:0:0:0:
416,192,84987,1,0,0:0:0:0:
352,192,84987,1,0,0:0:0:0:
160,192,84987,1,0,0:0:0:0:
96,192,85095,1,0,0:0:0:0:
288,192,85095,1,0,0:0:0:0:
160,192,85202,1,0,0:0:0:0:
480,192,85202,1,0,0:0:0:0:
352,192,85202,1,0,0:0:0:0:
96,192,85309,1,0,0:0:0:0:
416,192,85309,1,0,0:0:0:0:
352,192,85416,1,0,0:0:0:0:
96,192,85523,1,0,0:0:0:0:
288,192,85523,1,0,0:0:0:0:
160,192,85630,1,0,0:0:0:0:
352,192,85630,1,0,0:0:0:0:
480,192,85630,1,0,0:0:0:0:
288,192,85737,1,0,0:0:0:0:
96,192,85845,1,0,0:0:0:0:
416,192,85845,1,0,0:0:0:0:
352,192,85845,1,0,0:0:0:0:
224,192,85845,1,0,0:0:0:0:
288,192,85952,1,0,0:0:0:0:
160,192,86059,1,0,0:0:0:0:
480,192,86059,1,0,0:0:0:0:
416,192,86059,1,0,0:0:0:0:
96,192,86166,1,0,0:0:0:0:
352,192,86166,1,0,0:0:0:0:
416,192,86273,1,0,0:0:0:0:
96,192,86380,1,0,0:0:0:0:
288,192,86380,1,0,0:0:0:0:
160,192,86487,1,0,0:0:0:0:
352,192,86487,1,0,0:0:0:0:
480,192,86487,1,0,0:0:0:0:
224,192,86595,1,0,0:0:0:0:
96,192,86702,1,0,0:0:0:0:
480,192,86702,1,0,0:0:0:0:
352,192,86702,1,0,0:0:0:0:
160,192,86702,1,0,0:0:0:0:
96,192,86809,1,0,0:0:0:0:
288,192,86809,1,0,0:0:0:0:
160,192,86916,1,0,0:0:0:0:
480,192,86916,1,0,0:0:0:0:
352,192,86916,1,0,0:0:0:0:
416,192,87023,1,0,0:0:0:0:
96,192,87130,1,0,0:0:0:0:
352,192,87130,1,0,0:0:0:0:
96,192,87237,1,0,0:0:0:0:
288,192,87237,1,0,0:0:0:0:
160,192,87345,1,0,0:0:0:0:
352,192,87345,1,0,0:0:0:0:
480,192,87345,1,0,0:0:0:0:
288,192,87452,1,0,0:0:0:0:
96,192,87559,1,0,0:0:0:0:
352,192,87559,1,0,0:0:0:0:
480,192,87559,1,0,0:0:0:0:
224,192,87559,1,0,0:0:0:0:
288,192,87666,1,0,0:0:0:0:
160,192,87773,1,0,0:0:0:0:
480,192,87773,1,0,0:0:0:0:
416,192,87773,1,0,0:0:0:0:
96,192,87880,1,0,0:0:0:0:
352,192,87880,1,0,0:0:0:0:
224,192,87987,1,0,0:0:0:0:
96,192,88095,1,0,0:0:0:0:
480,192,88095,1,0,0:0:0:0:
160,192,88202,1,0,0:0:0:0:
416,192,88202,1,0,0:0:0:0:
288,192,88202,1,0,0:0:0:0:
224,192,88309,1,0,0:0:0:0:
96,192,88416,1,0,0:0:0:0:
352,192,88416,1,0,0:0:0:0:
480,192,88416,1,0,0:0:0:0:
288,192,88416,1,0,0:0:0:0:
96,192,88523,1,0,0:0:0:0:
224,192,88523,1,0,0:0:0:0:
416,192,88523,1,0,0:0:0:0:
160,192,88630,1,0,0:0:0:0:
480,192,88630,1,0,0:0:0:0:
288,192,88630,1,0,0:0:0:0:
96,192,88737,1,0,0:0:0:0:
224,192,88737,1,0,0:0:0:0:
352,192,88737,1,0,0:0:0:0:
480,192,88845,1,0,0:0:0:0:
160,192,88845,1,0,0:0:0:0:
96,192,88952,1,0,0:0:0:0:
224,192,88952,1,0,0:0:0:0:
416,192,88952,1,0,0:0:0:0:
160,192,89059,1,0,0:0:0:0:
288,192,89059,1,0,0:0:0:0:
352,192,89059,1,0,0:0:0:0:
32,192,89059,1,0,0:0:0:0:
416,192,89166,1,0,0:0:0:0:
224,192,89166,1,0,0:0:0:0:
96,192,89273,1,0,0:0:0:0:
352,192,89273,1,0,0:0:0:0:
480,192,89273,1,0,0:0:0:0:
160,192,89273,1,0,0:0:0:0:
288,192,89380,1,0,0:0:0:0:
160,192,89487,1,0,0:0:0:0:
480,192,89487,1,0,0:0:0:0:
352,192,89487,1,0,0:0:0:0:
96,192,89595,1,0,0:0:0:0:
416,192,89595,1,0,0:0:0:0:
352,192,89702,1,0,0:0:0:0:
96,192,89809,1,0,0:0:0:0:
288,192,89809,1,0,0:0:0:0:
160,192,89916,1,0,0:0:0:0:
352,192,89916,1,0,0:0:0:0:
480,192,89916,1,0,0:0:0:0:
288,192,90023,1,0,0:0:0:0:
96,192,90130,1,0,0:0:0:0:
352,192,90130,1,0,0:0:0:0:
480,192,90130,1,0,0:0:0:0:
224,192,90130,1,0,0:0:0:0:
96,192,90237,1,0,0:0:0:0:
288,192,90237,1,0,0:0:0:0:
160,192,90345,1,0,0:0:0:0:
480,192,90345,1,0,0:0:0:0:
224,192,90345,1,0,0:0:0:0:
352,192,90452,1,0,0:0:0:0:
96,192,90559,1,0,0:0:0:0:
416,192,90559,1,0,0:0:0:0:
96,192,90666,1,0,0:0:0:0:
288,192,90666,1,0,0:0:0:0:
160,192,90773,1,0,0:0:0:0:
352,192,90773,1,0,0:0:0:0:
480,192,90773,1,0,0:0:0:0:
224,192,90880,1,0,0:0:0:0:
96,192,90987,1,0,0:0:0:0:
480,192,90987,1,0,0:0:0:0:
416,192,90987,1,0,0:0:0:0:
288,192,90987,1,0,0:0:0:0:
352,192,91095,1,0,0:0:0:0:
160,192,91202,1,0,0:0:0:0:
480,192,91202,1,0,0:0:0:0:
224,192,91202,1,0,0:0:0:0:
96,192,91309,1,0,0:0:0:0:
416,192,91309,1,0,0:0:0:0:
352,192,91416,1,0,0:0:0:0:
96,192,91523,1,0,0:0:0:0:
288,192,91523,1,0,0:0:0:0:
160,192,91630,1,0,0:0:0:0:
352,192,91630,1,0,0:0:0:0:
480,192,91630,1,0,0:0:0:0:
288,192,91737,1,0,0:0:0:0:
96,192,91845,1,0,0:0:0:0:
352,192,91845,1,0,0:0:0:0:
480,192,91845,1,0,0:0:0:0:
224,192,91845,1,0,0:0:0:0:
96,192,91952,1,0,0:0:0:0:
288,192,91952,1,0,0:0:0:0:
160,192,92059,1,0,0:0:0:0:
480,192,92059,1,0,0:0:0:0:
224,192,92059,1,0,0:0:0:0:
96,192,92166,1,0,0:0:0:0:
352,192,92166,1,0,0:0:0:0:
416,192,92273,1,0,0:0:0:0:
96,192,92380,1,0,0:0:0:0:
288,192,92380,1,0,0:0:0:0:
160,192,92487,1,0,0:0:0:0:
352,192,92487,1,0,0:0:0:0:
480,192,92487,1,0,0:0:0:0:
224,192,92595,1,0,0:0:0:0:
96,192,92702,1,0,0:0:0:0:
352,192,92702,1,0,0:0:0:0:
480,192,92702,1,0,0:0:0:0:
288,192,92702,1,0,0:0:0:0:
224,192,92809,1,0,0:0:0:0:
160,192,92916,1,0,0:0:0:0:
480,192,92916,1,0,0:0:0:0:
288,192,92916,1,0,0:0:0:0:
96,192,93023,1,0,0:0:0:0:
416,192,93023,1,0,0:0:0:0:
352,192,93130,1,0,0:0:0:0:
96,192,93237,1,0,0:0:0:0:
288,192,93237,1,0,0:0:0:0:
160,192,93345,1,0,0:0:0:0:
352,192,93345,1,0,0:0:0:0:
480,192,93345,1,0,0:0:0:0:
288,192,93452,1,0,0:0:0:0:
96,192,93559,1,0,0:0:0:0:
352,192,93559,1,0,0:0:0:0:
480,192,93559,1,0,0:0:0:0:
224,192,93559,1,0,0:0:0:0:
96,192,93666,1,0,0:0:0:0:
288,192,93666,1,0,0:0:0:0:
160,192,93773,1,0,0:0:0:0:
480,192,93773,1,0,0:0:0:0:
224,192,93773,1,0,0:0:0:0:
352,192,93880,1,0,0:0:0:0:
96,192,93987,1,0,0:0:0:0:
416,192,93987,1,0,0:0:0:0:
96,192,94095,1,0,0:0:0:0:
288,192,94095,1,0,0:0:0:0:
160,192,94202,1,0,0:0:0:0:
352,192,94202,1,0,0:0:0:0:
480,192,94202,1,0,0:0:0:0:
224,192,94309,1,0,0:0:0:0:
96,192,94416,1,0,0:0:0:0:
416,192,94416,1,0,0:0:0:0:
160,192,94416,1,0,0:0:0:0:
288,192,94416,1,0,0:0:0:0:
224,192,94523,1,0,0:0:0:0:
160,192,94630,1,0,0:0:0:0:
480,192,94630,1,0,0:0:0:0:
416,192,94630,1,0,0:0:0:0:
96,192,94737,1,0,0:0:0:0:
352,192,94737,1,0,0:0:0:0:
224,192,94845,1,0,0:0:0:0:
96,192,94952,1,0,0:0:0:0:
416,192,94952,1,0,0:0:0:0:
160,192,95059,1,0,0:0:0:0:
288,192,95059,1,0,0:0:0:0:
480,192,95059,1,0,0:0:0:0:
416,192,95166,1,0,0:0:0:0:
96,192,95273,1,0,0:0:0:0:
352,192,95273,1,0,0:0:0:0:
480,192,95273,1,0,0:0:0:0:
224,192,95273,1,0,0:0:0:0:
96,192,95380,1,0,0:0:0:0:
416,192,95380,1,0,0:0:0:0:
288,192,95380,1,0,0:0:0:0:
160,192,95487,1,0,0:0:0:0:
352,192,95487,1,0,0:0:0:0:
224,192,95487,1,0,0:0:0:0:
96,192,95595,1,0,0:0:0:0:
416,192,95595,1,0,0:0:0:0:
288,192,95595,1,0,0:0:0:0:
224,192,95702,1,0,0:0:0:0:
480,192,95702,1,0,0:0:0:0:
352,192,95702,1,0,0:0:0:0:
160,192,95702,1,0,0:0:0:0:
32,192,95702,1,0,0:0:0:0:
288,192,95809,1,0,0:0:0:0:
416,192,95809,1,0,0:0:0:0:
224,192,95916,1,0,0:0:0:0:
96,192,95916,1,0,0:0:0:0:
480,192,95916,1,0,0:0:0:0:
352,192,95916,1,0,0:0:0:0:
32,192,95916,1,0,0:0:0:0:
288,192,96023,1,0,0:0:0:0:
160,192,96023,1,0,0:0:0:0:
352,192,96130,1,0,0:0:0:0:
96,192,96130,1,0,0:0:0:0:
480,192,96130,1,0,0:0:0:0:
224,192,96130,1,0,0:0:0:0:
32,192,96130,1,0,0:0:0:0:
288,192,96237,1,0,0:0:0:0:
160,192,96345,1,0,0:0:0:0:
480,192,96345,1,0,0:0:0:0:
352,192,96345,1,0,0:0:0:0:
96,192,96452,1,0,0:0:0:0:
416,192,96452,1,0,0:0:0:0:
288,192,96559,1,0,0:0:0:0:
96,192,96666,1,0,0:0:0:0:
416,192,96666,1,0,0:0:0:0:
160,192,96773,1,0,0:0:0:0:
352,192,96773,1,0,0:0:0:0:
480,192,96773,1,0,0:0:0:0:
288,192,96880,1,0,0:0:0:0:
96,192,96987,1,0,0:0:0:0:
416,192,96987,1,0,0:0:0:0:
480,192,96987,1,0,0:0:0:0:
224,192,96987,1,0,0:0:0:0:
96,192,97095,1,0,0:0:0:0:
352,192,97095,1,0,0:0:0:0:
160,192,97202,1,0,0:0:0:0:
480,192,97202,1,0,0:0:0:0:
288,192,97202,1,0,0:0:0:0:
416,192,97309,1,0,0:0:0:0:
96,192,97416,1,0,0:0:0:0:
224,192,97416,1,0,0:0:0:0:
96,192,97523,1,0,0:0:0:0:
480,192,97523,1,0,0:0:0:0:
160,192,97630,1,0,0:0:0:0:
416,192,97630,1,0,0:0:0:0:
288,192,97630,1,0,0:0:0:0:
352,192,97737,1,0,0:0:0:0:
96,192,97845,1,0,0:0:0:0:
480,192,97845,1,0,0:0:0:0:
288,192,97845,1,0,0:0:0:0:
224,192,97845,1,0,0:0:0:0:
352,192,97952,1,0,0:0:0:0:
160,192,98059,1,0,0:0:0:0:
480,192,98059,1,0,0:0:0:0:
288,192,98059,1,0,0:0:0:0:
96,192,98166,1,0,0:0:0:0:
416,192,98166,1,0,0:0:0:0:
288,192,98273,1,0,0:0:0:0:
96,192,98380,1,0,0:0:0:0:
416,192,98380,1,0,0:0:0:0:
160,192,98487,1,0,0:0:0:0:
352,192,98487,1,0,0:0:0:0:
480,192,98487,1,0,0:0:0:0:
288,192,98595,1,0,0:0:0:0:
96,192,98702,1,0,0:0:0:0:
416,192,98702,1,0,0:0:0:0:
480,192,98702,1,0,0:0:0:0:
224,192,98702,1,0,0:0:0:0:
96,192,98809,1,0,0:0:0:0:
288,192,98809,1,0,0:0:0:0:
352,192,98809,1,0,0:0:0:0:
160,192,98916,1,0,0:0:0:0:
480,192,98916,1,0,0:0:0:0:
224,192,98916,1,0,0:0:0:0:
96,192,99023,1,0,0:0:0:0:
416,192,99023,1,0,0:0:0:0:
288,192,99130,1,0,0:0:0:0:
96,192,99237,1,0,0:0:0:0:
480,192,99237,1,0,0:0:0:0:
160,192,99345,1,0,0:0:0:0:
416,192,99345,1,0,0:0:0:0:
352,192,99452,1,0,0:0:0:0:
96,192,99559,1,0,0:0:0:0:
480,192,99559,1,0,0:0:0:0:
224,192,99559,1,0,0:0:0:0:
416,192,99559,1,0,0:0:0:0:
288,192,99666,1,0,0:0:0:0:
160,192,99773,1,0,0:0:0:0:
480,192,99773,1,0,0:0:0:0:
352,192,99773,1,0,0:0:0:0:
96,192,99880,1,0,0:0:0:0:
416,192,99880,1,0,0:0:0:0:
288,192,99987,1,0,0:0:0:0:
96,192,100095,1,0,0:0:0:0:
416,192,100095,1,0,0:0:0:0:
160,192,100202,1,0,0:0:0:0:
352,192,100202,1,0,0:0:0:0:
480,192,100202,1,0,0:0:0:0:
288,192,100309,1,0,0:0:0:0:
96,192,100416,1,0,0:0:0:0:
416,192,100416,1,0,0:0:0:0:
480,192,100416,1,0,0:0:0:0:
224,192,100416,1,0,0:0:0:0:
96,192,100523,1,0,0:0:0:0:
352,192,100523,1,0,0:0:0:0:
160,192,100630,1,0,0:0:0:0:
480,192,100630,1,0,0:0:0:0:
288,192,100630,1,0,0:0:0:0:
416,192,100737,1,0,0:0:0:0:
96,192,100845,1,0,0:0:0:0:
224,192,100845,1,0,0:0:0:0:
96,192,100952,1,0,0:0:0:0:
416,192,100952,1,0,0:0:0:0:
160,192,101059,1,0,0:0:0:0:
352,192,101059,1,0,0:0:0:0:
480,192,101059,1,0,0:0:0:0:
288,192,101166,1,0,0:0:0:0:
96,192,101273,1,0,0:0:0:0:
480,192,101273,1,0,0:0:0:0:
416,192,101273,1,0,0:0:0:0:
224,192,101273,1,0,0:0:0:0:
288,192,101380,1,0,0:0:0:0:
160,192,101487,1,0,0:0:0:0:
480,192,101487,1,0,0:0:0:0:
352,192,101487,1,0,0:0:0:0:
96,192,101595,1,0,0:0:0:0:
416,192,101595,1,0,0:0:0:0:
288,192,101702,1,0,0:0:0:0:
96,192,101809,1,0,0:0:0:0:
352,192,101809,1,0,0:0:0:0:
160,192,101916,1,0,0:0:0:0:
416,192,101916,1,0,0:0:0:0:
480,192,101916,1,0,0:0:0:0:
288,192,102023,1,0,0:0:0:0:
96,192,102130,1,0,0:0:0:0:
224,192,102130,1,0,0:0:0:0:
352,192,102130,1,0,0:0:0:0:
96,192,102237,1,0,0:0:0:0:
416,192,102237,1,0,0:0:0:0:
288,192,102237,1,0,0:0:0:0:
160,192,102345,1,0,0:0:0:0:
352,192,102345,1,0,0:0:0:0:
480,192,102345,1,0,0:0:0:0:
224,192,102345,1,0,0:0:0:0:
96,192,102452,1,0,0:0:0:0:
416,192,102452,1,0,0:0:0:0:
288,192,102452,1,0,0:0:0:0:
480,192,102559,1,0,0:0:0:0:
224,192,102559,1,0,0:0:0:0:
96,192,102666,1,0,0:0:0:0:
416,192,102666,1,0,0:0:0:0:
288,192,102666,1,0,0:0:0:0:
160,192,102773,1,0,0:0:0:0:
352,192,102773,1,0,0:0:0:0:
32,192,102773,1,0,0:0:0:0:
224,192,102773,1,0,0:0:0:0:
416,192,102880,1,0,0:0:0:0:
288,192,102880,1,0,0:0:0:0:
96,192,102987,1,0,0:0:0:0:
480,192,102987,1,0,0:0:0:0:
352,192,102987,1,0,0:0:0:0:
224,192,103095,1,0,0:0:0:0:
160,192,103202,1,0,0:0:0:0:
352,192,103202,1,0,0:0:0:0:
480,192,103202,1,0,0:0:0:0:
96,192,103309,1,0,0:0:0:0:
288,192,103309,1,0,0:0:0:0:
416,192,103309,1,0,0:0:0:0:
224,192,103416,1,0,0:0:0:0:
96,192,103523,1,0,0:0:0:0:
288,192,103523,1,0,0:0:0:0:
416,192,103523,1,0,0:0:0:0:
160,192,103630,1,0,0:0:0:0:
352,192,103630,1,0,0:0:0:0:
480,192,103630,1,0,0:0:0:0:
224,192,103737,1,0,0:0:0:0:
96,192,103845,1,0,0:0:0:0:
352,192,103845,1,0,0:0:0:0:
480,192,103845,1,0,0:0:0:0:
96,192,103952,1,0,0:0:0:0:
416,192,103952,1,0,0:0:0:0:
288,192,103952,1,0,0:0:0:0:
160,192,104059,1,0,0:0:0:0:
224,192,104059,1,0,0:0:0:0:
480,192,104059,1,0,0:0:0:0:
416,192,104166,1,0,0:0:0:0:
288,192,104166,1,0,0:0:0:0:
96,192,104273,1,0,0:0:0:0:
480,192,104273,1,0,0:0:0:0:
352,192,104273,1,0,0:0:0:0:
96,192,104380,1,0,0:0:0:0:
224,192,104380,1,0,0:0:0:0:
160,192,104487,1,0,0:0:0:0:
416,192,104487,1,0,0:0:0:0:
288,192,104487,1,0,0:0:0:0:
224,192,104595,1,0,0:0:0:0:
96,192,104702,1,0,0:0:0:0:
416,192,104702,1,0,0:0:0:0:
480,192,104702,1,0,0:0:0:0:
288,192,104809,1,0,0:0:0:0:
160,192,104916,1,0,0:0:0:0:
416,192,104916,1,0,0:0:0:0:
480,192,104916,1,0,0:0:0:0:
224,192,104916,1,0,0:0:0:0:
96,192,105023,1,0,0:0:0:0:
352,192,105023,1,0,0:0:0:0:
288,192,105023,1,0,0:0:0:0:
480,192,105130,1,0,0:0:0:0:
96,192,105237,1,0,0:0:0:0:
352,192,105237,1,0,0:0:0:0:
288,192,105237,1,0,0:0:0:0:
160,192,105345,1,0,0:0:0:0:
416,192,105345,1,0,0:0:0:0:
480,192,105345,1,0,0:0:0:0:
224,192,105345,1,0,0:0:0:0:
288,192,105452,1,0,0:0:0:0:
224,192,105559,1,0,0:0:0:0:
352,192,105559,1,0,0:0:0:0:
480,192,105559,1,0,0:0:0:0:
160,192,105666,1,0,0:0:0:0:
416,192,105666,1,0,0:0:0:0:
288,192,105666,1,0,0:0:0:0:
96,192,105773,1,0,0:0:0:0:
480,192,105773,1,0,0:0:0:0:
224,192,105773,1,0,0:0:0:0:
352,192,105773,1,0,0:0:0:0:
160,192,105880,1,0,0:0:0:0:
416,192,105880,1,0,0:0:0:0:
288,192,105880,1,0,0:0:0:0:
480,192,105987,1,0,0:0:0:0:
352,192,105987,1,0,0:0:0:0:
96,192,106095,1,0,0:0:0:0:
224,192,106095,1,0,0:0:0:0:
160,192,106202,1,0,0:0:0:0:
480,192,106202,1,0,0:0:0:0:
352,192,106202,1,0,0:0:0:0:
288,192,106202,1,0,0:0:0:0:
224,192,106309,1,0,0:0:0:0:
96,192,106416,1,0,0:0:0:0:
480,192,106416,1,0,0:0:0:0:
288,192,106416,1,0,0:0:0:0:
416,192,106523,1,0,0:0:0:0:
160,192,106630,1,0,0:0:0:0:
288,192,106630,1,0,0:0:0:0:
480,192,106630,1,0,0:0:0:0:
352,192,106630,1,0,0:0:0:0:
96,192,106737,1,0,0:0:0:0:
416,192,106737,1,0,0:0:0:0:
224,192,106737,1,0,0:0:0:0:
288,192,106845,1,0,0:0:0:0:
96,192,106952,1,0,0:0:0:0:
224,192,106952,1,0,0:0:0:0:
416,192,106952,1,0,0:0:0:0:
160,192,107059,1,0,0:0:0:0:
288,192,107059,1,0,0:0:0:0:
480,192,107059,1,0,0:0:0:0:
352,192,107059,1,0,0:0:0:0:
224,192,107166,1,0,0:0:0:0:
96,192,107273,1,0,0:0:0:0:
288,192,107273,1,0,0:0:0:0:
480,192,107273,1,0,0:0:0:0:
96,192,107380,1,0,0:0:0:0:
416,192,107380,1,0,0:0:0:0:
224,192,107380,1,0,0:0:0:0:
160,192,107487,1,0,0:0:0:0:
352,192,107487,1,0,0:0:0:0:
288,192,107487,1,0,0:0:0:0:
480,192,107487,1,0,0:0:0:0:
416,192,107595,1,0,0:0:0:0:
224,192,107595,1,0,0:0:0:0:
96,192,107702,1,0,0:0:0:0:
480,192,107702,1,0,0:0:0:0:
352,192,107702,1,0,0:0:0:0:
96,192,107809,1,0,0:0:0:0:
224,192,107809,1,0,0:0:0:0:
160,192,107916,1,0,0:0:0:0:
416,192,107916,1,0,0:0:0:0:
288,192,107916,1,0,0:0:0:0:
480,192,107916,1,0,0:0:0:0:
224,192,108023,1,0,0:0:0:0:
96,192,108130,1,0,0:0:0:0:
288,192,108130,1,0,0:0:0:0:
352,192,108237,1,0,0:0:0:0:
160,192,108345,1,0,0:0:0:0:
416,192,108345,1,0,0:0:0:0:
480,192,108345,1,0,0:0:0:0:
224,192,108345,1,0,0:0:0:0:
96,192,108452,1,0,0:0:0:0:
288,192,108452,1,0,0:0:0:0:
352,192,108559,1,0,0:0:0:0:
96,192,108666,1,0,0:0:0:0:
416,192,108666,1,0,0:0:0:0:
160,192,108773,1,0,0:0:0:0:
224,192,108773,1,0,0:0:0:0:
480,192,108773,1,0,0:0:0:0:
352,192,108773,1,0,0:0:0:0:
416,192,108880,1,0,0:0:0:0:
96,192,108987,1,0,0:0:0:0:
352,192,108987,1,0,0:0:0:0:
224,192,108987,1,0,0:0:0:0:
160,192,109095,1,0,0:0:0:0:
416,192,109095,1,0,0:0:0:0:
288,192,109095,1,0,0:0:0:0:
96,192,109202,1,0,0:0:0:0:
480,192,109202,1,0,0:0:0:0:
352,192,109202,1,0,0:0:0:0:
224,192,109202,1,0,0:0:0:0:
288,192,109309,1,0,0:0:0:0:
416,192,109309,1,0,0:0:0:0:
32,192,109416,1,0,0:0:0:0:
96,192,109416,1,0,0:0:0:0:
352,192,109416,1,0,0:0:0:0:
224,192,109416,1,0,0:0:0:0:
160,192,109523,1,0,0:0:0:0:
416,192,109523,1,0,0:0:0:0:
288,192,109523,1,0,0:0:0:0:
96,192,109630,1,0,0:0:0:0:
480,192,109630,1,0,0:0:0:0:
32,192,109630,1,0,0:0:0:0:
352,192,109630,1,0,0:0:0:0:
160,192,109737,1,0,0:0:0:0:
416,192,109737,1,0,0:0:0:0:
288,192,109737,1,0,0:0:0:0:
96,192,109845,1,0,0:0:0:0:
352,192,109845,1,0,0:0:0:0:
32,192,109845,1,0,0:0:0:0:
224,192,109845,1,0,0:0:0:0:
288,192,109952,1,0,0:0:0:0:
160,192,110059,1,0,0:0:0:0:
416,192,110059,1,0,0:0:0:0:
480,192,110059,1,0,0:0:0:0:
96,192,110166,1,0,0:0:0:0:
224,192,110166,1,0,0:0:0:0:
352,192,110273,1,0,0:0:0:0:
160,192,110273,1,0,0:0:0:0:
96,192,110380,1,0,0:0:0:0:
416,192,110380,1,0,0:0:0:0:
224,192,110380,1,0,0:0:0:0:
160,192,110487,1,0,0:0:0:0:
480,192,110487,1,0,0:0:0:0:
288,192,110487,1,0,0:0:0:0:
416,192,110487,1,0,0:0:0:0:
352,192,110595,1,0,0:0:0:0:
224,192,110595,1,0,0:0:0:0:
96,192,110702,1,0,0:0:0:0:
480,192,110702,1,0,0:0:0:0:
288,192,110702,1,0,0:0:0:0:
96,192,110809,1,0,0:0:0:0:
352,192,110809,1,0,0:0:0:0:
160,192,110916,1,0,0:0:0:0:
416,192,110916,1,0,0:0:0:0:
224,192,110916,1,0,0:0:0:0:
288,192,111023,1,0,0:0:0:0:
96,192,111130,1,0,0:0:0:0:
352,192,111130,1,0,0:0:0:0:
224,192,111130,1,0,0:0:0:0:
96,192,111237,1,0,0:0:0:0:
416,192,111237,1,0,0:0:0:0:
288,192,111237,1,0,0:0:0:0:
160,192,111345,1,0,0:0:0:0:
480,192,111345,1,0,0:0:0:0:
352,192,111345,1,0,0:0:0:0:
224,192,111345,1,0,0:0:0:0:
416,192,111452,1,0,0:0:0:0:
288,192,111452,1,0,0:0:0:0:
96,192,111559,1,0,0:0:0:0:
480,192,111559,1,0,0:0:0:0:
352,192,111559,1,0,0:0:0:0:
224,192,111559,1,0,0:0:0:0:
288,192,111666,1,0,0:0:0:0:
160,192,111773,1,0,0:0:0:0:
352,192,111773,1,0,0:0:0:0:
480,192,111773,1,0,0:0:0:0:
96,192,111880,1,0,0:0:0:0:
224,192,111880,1,0,0:0:0:0:
288,192,111987,1,0,0:0:0:0:
160,192,111987,1,0,0:0:0:0:
96,192,112095,1,0,0:0:0:0:
416,192,112095,1,0,0:0:0:0:
352,192,112095,1,0,0:0:0:0:
160,192,112202,1,0,0:0:0:0:
416,192,112202,1,0,0:0:0:0:
288,192,112202,1,0,0:0:0:0:
480,192,112202,1,0,0:0:0:0:
224,192,112309,1,0,0:0:0:0:
352,192,112309,1,0,0:0:0:0:
96,192,112416,1,0,0:0:0:0:
288,192,112416,1,0,0:0:0:0:
416,192,112416,1,0,0:0:0:0:
96,192,112523,1,0,0:0:0:0:
352,192,112523,1,0,0:0:0:0:
160,192,112630,1,0,0:0:0:0:
416,192,112630,1,0,0:0:0:0:
480,192,112630,1,0,0:0:0:0:
96,192,112737,1,0,0:0:0:0:
288,192,112737,1,0,0:0:0:0:
352,192,112845,1,0,0:0:0:0:
224,192,112845,1,0,0:0:0:0:
96,192,112952,1,0,0:0:0:0:
416,192,112952,1,0,0:0:0:0:
288,192,112952,1,0,0:0:0:0:
160,192,113059,1,0,0:0:0:0:
480,192,113059,1,0,0:0:0:0:
416,192,113059,1,0,0:0:0:0:
352,192,113166,1,0,0:0:0:0:
288,192,113166,1,0,0:0:0:0:
96,192,113273,1,0,0:0:0:0:
480,192,113273,1,0,0:0:0:0:
288,192,113273,1,0,0:0:0:0:
224,192,113273,1,0,0:0:0:0:
352,192,113380,1,0,0:0:0:0:
160,192,113487,1,0,0:0:0:0:
416,192,113487,1,0,0:0:0:0:
288,192,113487,1,0,0:0:0:0:
352,192,113595,1,0,0:0:0:0:
96,192,113702,1,0,0:0:0:0:
416,192,113702,1,0,0:0:0:0:
224,192,113702,1,0,0:0:0:0:
96,192,113809,1,0,0:0:0:0:
480,192,113809,1,0,0:0:0:0:
288,192,113809,1,0,0:0:0:0:
160,192,113916,1,0,0:0:0:0:
352,192,113916,1,0,0:0:0:0:
480,192,113916,1,0,0:0:0:0:
224,192,113916,1,0,0:0:0:0:
416,192,114023,1,0,0:0:0:0:
224,192,114023,1,0,0:0:0:0:
96,192,114130,1,0,0:0:0:0:
480,192,114130,1,0,0:0:0:0:
288,192,114130,1,0,0:0:0:0:
96,192,114237,1,0,0:0:0:0:
352,192,114237,1,0,0:0:0:0:
160,192,114345,1,0,0:0:0:0:
416,192,114345,1,0,0:0:0:0:
288,192,114452,1,0,0:0:0:0:
96,192,114559,1,0,0:0:0:0:
352,192,114559,1,0,0:0:0:0:
224,192,114559,1,0,0:0:0:0:
96,192,114666,1,0,0:0:0:0:
416,192,114666,1,0,0:0:0:0:
288,192,114666,1,0,0:0:0:0:
160,192,114773,1,0,0:0:0:0:
480,192,114773,1,0,0:0:0:0:
416,192,114773,1,0,0:0:0:0:
352,192,114773,1,0,0:0:0:0:
288,192,114880,1,0,0:0:0:0:
224,192,114880,1,0,0:0:0:0:
96,192,114987,1,0,0:0:0:0:
160,192,114987,1,0,0:0:0:0:
352,192,114987,1,0,0:0:0:0:
416,192,114987,1,0,0:0:0:0:
288,192,115095,1,0,0:0:0:0:
160,192,115202,1,0,0:0:0:0:
352,192,115202,1,0,0:0:0:0:
480,192,115202,1,0,0:0:0:0:
96,192,115309,1,0,0:0:0:0:
224,192,115309,1,0,0:0:0:0:
352,192,115416,1,0,0:0:0:0:
288,192,115416,1,0,0:0:0:0:
96,192,115523,1,0,0:0:0:0:
416,192,115523,1,0,0:0:0:0:
352,192,115523,1,0,0:0:0:0:
160,192,115630,1,0,0:0:0:0:
480,192,115630,1,0,0:0:0:0:
288,192,115630,1,0,0:0:0:0:
416,192,115737,1,0,0:0:0:0:
224,192,115737,1,0,0:0:0:0:
480,192,115845,1,0,0:0:0:0:
352,192,115845,1,0,0:0:0:0:
96,192,115845,1,0,0:0:0:0:
224,192,115952,1,0,0:0:0:0:
416,192,115952,1,0,0:0:0:0:
288,192,115952,1,0,0:0:0:0:
96,192,116059,1,0,0:0:0:0:
160,192,116059,1,0,0:0:0:0:
352,192,116059,1,0,0:0:0:0:
480,192,116059,1,0,0:0:0:0:
224,192,116166,1,0,0:0:0:0:
288,192,116166,1,0,0:0:0:0:
416,192,116166,1,0,0:0:0:0:
480,192,116273,1,0,0:0:0:0:
352,192,116273,1,0,0:0:0:0:
160,192,116273,1,0,0:0:0:0:
96,192,116380,1,0,0:0:0:0:
416,192,116380,1,0,0:0:0:0:
224,192,116380,1,0,0:0:0:0:
160,192,116487,1,0,0:0:0:0:
480,192,116487,1,0,0:0:0:0:
352,192,116487,1,0,0:0:0:0:
32,192,116487,1,0,0:0:0:0:
288,192,116487,1,0,0:0:0:0:
416,192,116595,1,0,0:0:0:0:
224,192,116595,1,0,0:0:0:0:
96,192,116702,1,0,0:0:0:0:
480,192,116702,1,0,0:0:0:0:
352,192,116702,1,0,0:0:0:0:
288,192,116702,1,0,0:0:0:0:
416,192,116809,1,0,0:0:0:0:
160,192,116916,1,0,0:0:0:0:
352,192,116916,1,0,0:0:0:0:
224,192,116916,1,0,0:0:0:0:
96,192,117023,1,0,0:0:0:0:
480,192,117023,1,0,0:0:0:0:
288,192,117023,1,0,0:0:0:0:
96,192,117237,1,0,0:0:0:0:
160,192,117345,1,0,0:0:0:0:
352,192,117345,1,0,0:0:0:0:
96,192,117559,1,0,0:0:0:0:
480,192,117559,1,0,0:0:0:0:
288,192,117559,1,0,0:0:0:0:
96,192,117666,1,0,0:0:0:0:
416,192,117666,1,0,0:0:0:0:
160,192,117773,1,0,0:0:0:0:
352,192,117773,1,0,0:0:0:0:
224,192,117773,1,0,0:0:0:0:
288,192,117880,1,0,0:0:0:0:
416,192,117880,1,0,0:0:0:0:
96,192,117987,1,0,0:0:0:0:
96,192,118095,1,0,0:0:0:0:
160,192,118202,1,0,0:0:0:0:
96,192,118416,1,0,0:0:0:0:
480,192,118416,1,0,0:0:0:0:
288,192,118416,1,0,0:0:0:0:
352,192,118523,1,0,0:0:0:0:
160,192,118630,1,0,0:0:0:0:
480,192,118630,1,0,0:0:0:0:
224,192,118630,1,0,0:0:0:0:
96,192,118737,1,0,0:0:0:0:
416,192,118737,1,0,0:0:0:0:
288,192,118737,1,0,0:0:0:0:
96,192,118952,1,0,0:0:0:0:
160,192,119059,1,0,0:0:0:0:
352,192,119059,1,0,0:0:0:0:
96,192,119273,1,0,0:0:0:0:
480,192,119273,1,0,0:0:0:0:
288,192,119273,1,0,0:0:0:0:
96,192,119380,1,0,0:0:0:0:
352,192,119380,1,0,0:0:0:0:
288,192,119487,1,0,0:0:0:0:
416,192,119487,1,0,0:0:0:0:
160,192,119487,1,0,0:0:0:0:
96,192,119595,1,0,0:0:0:0:
480,192,119595,1,0,0:0:0:0:
352,192,119595,1,0,0:0:0:0:
96,192,119809,1,0,0:0:0:0:
160,192,119916,1,0,0:0:0:0:
480,192,119916,1,0,0:0:0:0:
352,192,119916,1,0,0:0:0:0:
224,192,119916,1,0,0:0:0:0:
416,192,120023,1,0,0:0:0:0:
288,192,120023,1,0,0:0:0:0:
96,192,120130,1,0,0:0:0:0:
480,192,120130,1,0,0:0:0:0:
352,192,120130,1,0,0:0:0:0:
288,192,120130,1,0,0:0:0:0:
160,192,120345,1,0,0:0:0:0:
96,192,120452,1,0,0:0:0:0:
288,192,120452,1,0,0:0:0:0:
416,192,120452,1,0,0:0:0:0:
96,192,120666,1,0,0:0:0:0:
160,192,120773,1,0,0:0:0:0:
416,192,120773,1,0,0:0:0:0:
480,192,120773,1,0,0:0:0:0:
352,192,120773,1,0,0:0:0:0:
96,192,120987,1,0,0:0:0:0:
96,192,121095,1,0,0:0:0:0:
160,192,121202,1,0,0:0:0:0:
352,192,121202,1,0,0:0:0:0:
416,192,121202,1,0,0:0:0:0:
224,192,121202,1,0,0:0:0:0:
96,192,121416,1,0,0:0:0:0:
352,192,121416,1,0,0:0:0:0:
480,192,121416,1,0,0:0:0:0:
224,192,121416,1,0,0:0:0:0:
96,192,121523,1,0,0:0:0:0:
160,192,121630,1,0,0:0:0:0:
352,192,121630,1,0,0:0:0:0:
416,192,121630,1,0,0:0:0:0:
288,192,121630,1,0,0:0:0:0:
96,192,121737,1,0,0:0:0:0:
160,192,121845,1,0,0:0:0:0:
352,192,121845,1,0,0:0:0:0:
480,192,121845,1,0,0:0:0:0:
288,192,121845,1,0,0:0:0:0:
32,192,121845,1,0,0:0:0:0:
96,192,121952,1,0,0:0:0:0:
96,192,122059,1,0,0:0:0:0:
416,192,122166,1,0,0:0:0:0:
352,192,122166,1,0,0:0:0:0:
160,192,122166,1,0,0:0:0:0:
224,192,122166,1,0,0:0:0:0:
96,192,122273,1,0,0:0:0:0:
96,192,122380,1,0,0:0:0:0:
160,192,122487,1,0,0:0:0:0:
416,192,122487,1,0,0:0:0:0:
480,192,122487,1,0,0:0:0:0:
288,192,122487,1,0,0:0:0:0:
32,192,122487,1,0,0:0:0:0:
96,192,122595,1,0,0:0:0:0:
96,192,122702,1,0,0:0:0:0:
352,192,122809,1,0,0:0:0:0:
160,192,122809,1,0,0:0:0:0:
480,192,122809,1,0,0:0:0:0:
224,192,122809,1,0,0:0:0:0:
96,192,122916,1,0,0:0:0:0:
416,192,123023,1,0,0:0:0:0:
160,192,123130,1,0,0:0:0:0:
96,192,123130,1,0,0:0:0:0:
352,192,123130,1,0,0:0:0:0:
288,192,123130,1,0,0:0:0:0:
32,192,123130,1,0,0:0:0:0:
160,192,123345,1,0,0:0:0:0:
224,192,123345,1,0,0:0:0:0:
416,192,123345,1,0,0:0:0:0:
352,192,123345,1,0,0:0:0:0:
32,192,123559,1,0,0:0:0:0:
352,192,123559,1,0,0:0:0:0:
480,192,123559,1,0,0:0:0:0:
224,192,123559,1,0,0:0:0:0:
96,192,123559,1,0,0:0:0:0:
160,192,123987,1,0,0:0:0:0:
160,192,124845,1,0,0:0:0:0:
160,192,125702,1,0,0:0:0:0:
160,192,126559,1,0,0:0:0:0:
160,192,127416,1,0,0:0:0:0:
160,192,128273,1,0,0:0:0:0:
160,192,129130,1,0,0:0:0:0:
96,192,129666,1,0,0:0:0:0:
224,192,129720,1,0,0:0:0:0:
352,192,129773,1,0,0:0:0:0:
480,192,129773,1,0,0:0:0:0:
416,192,129827,1,0,0:0:0:0:
288,192,129827,1,0,0:0:0:0:
352,192,129880,1,0,0:0:0:0:
224,192,129880,1,0,0:0:0:0:
288,192,129934,1,0,0:0:0:0:
160,192,129934,1,0,0:0:0:0:
224,192,129987,1,0,0:0:0:0:
96,192,129987,1,0,0:0:0:0:
32,192,129987,1,0,0:0:0:0:
480,192,129987,1,0,0:0:0:0:
416,192,129987,1,0,0:0:0:0:
160,192,130202,1,0,0:0:0:0:
352,192,130202,1,0,0:0:0:0:
32,192,130202,1,0,0:0:0:0:
416,192,130202,1,0,0:0:0:0:
96,192,130416,1,0,0:0:0:0:
288,192,130416,1,0,0:0:0:0:
32,192,130416,1,0,0:0:0:0:
352,192,130416,1,0,0:0:0:0:
224,192,130416,1,0,0:0:0:0:
32,192,130737,1,0,0:0:0:0:
416,192,130737,1,0,0:0:0:0:
480,192,130737,1,0,0:0:0:0:
224,192,130737,1,0,0:0:0:0:
352,192,130737,1,0,0:0:0:0:
32,192,131059,1,0,0:0:0:0:
160,192,131059,1,0,0:0:0:0:
288,192,131059,1,0,0:0:0:0:
416,192,131059,1,0,0:0:0:0:
96,192,131059,1,0,0:0:0:0:
480,192,131702,1,0,0:0:0:0:
480,192,132559,1,0,0:0:0:0:
224,192,133309,1,0,0:0:0:0:
160,192,133362,1,0,0:0:0:0:
480,192,133416,1,0,0:0:0:0:
96,192,133416,1,0,0:0:0:0:
288,192,133416,1,0,0:0:0:0:
32,192,133416,1,0,0:0:0:0:
416,192,133523,1,0,0:0:0:0:
224,192,133523,1,0,0:0:0:0:
32,192,133630,1,0,0:0:0:0:
160,192,133630,1,0,0:0:0:0:
352,192,133630,1,0,0:0:0:0:
480,192,133630,1,0,0:0:0:0:
288,192,133737,1,0,0:0:0:0:
416,192,133737,1,0,0:0:0:0:
32,192,133845,1,0,0:0:0:0:
96,192,133845,1,0,0:0:0:0:
352,192,133845,1,0,0:0:0:0:
480,192,133845,1,0,0:0:0:0:
224,192,133845,1,0,0:0:0:0:
160,192,133952,1,0,0:0:0:0:
288,192,134005,1,0,0:0:0:0:
480,192,134059,1,0,0:0:0:0:
224,192,134059,1,0,0:0:0:0:
160,192,134112,1,0,0:0:0:0:
416,192,134112,1,0,0:0:0:0:
352,192,134166,1,0,0:0:0:0:
96,192,134166,1,0,0:0:0:0:
160,192,134273,1,0,0:0:0:0:
288,192,134327,1,0,0:0:0:0:
224,192,134380,1,0,0:0:0:0:
480,192,134380,1,0,0:0:0:0:
160,192,134434,1,0,0:0:0:0:
416,192,134434,1,0,0:0:0:0:
96,192,134487,1,0,0:0:0:0:
352,192,134487,1,0,0:0:0:0:
160,192,134595,1,0,0:0:0:0:
288,192,134648,1,0,0:0:0:0:
224,192,134702,1,0,0:0:0:0:
480,192,134702,1,0,0:0:0:0:
160,192,134755,1,0,0:0:0:0:
416,192,134755,1,0,0:0:0:0:
96,192,134809,1,0,0:0:0:0:
352,192,134809,1,0,0:0:0:0:
160,192,134916,1,0,0:0:0:0:
288,192,134970,1,0,0:0:0:0:
224,192,135023,1,0,0:0:0:0:
480,192,135023,1,0,0:0:0:0:
416,192,135023,1,0,0:0:0:0:
96,192,135130,1,0,0:0:0:0:
352,192,135130,1,0,0:0:0:0:
160,192,135130,1,0,0:0:0:0:
288,192,135130,1,0,0:0:0:0:
224,192,135237,1,0,0:0:0:0:
416,192,135237,1,0,0:0:0:0:
160,192,135291,1,0,0:0:0:0:
352,192,135291,1,0,0:0:0:0:
288,192,135345,1,0,0:0:0:0:
416,192,135345,1,0,0:0:0:0:
480,192,135345,1,0,0:0:0:0:
224,192,135398,1,0,0:0:0:0:
160,192,135452,1,0,0:0:0:0:
96,192,135505,1,0,0:0:0:0:
352,192,135559,1,0,0:0:0:0:
480,192,135559,1,0,0:0:0:0:
32,192,135559,1,0,0:0:0:0:
224,192,135559,1,0,0:0:0:0:
160,192,135666,1,0,0:0:0:0:
288,192,135666,1,0,0:0:0:0:
96,192,135773,1,0,0:0:0:0:
224,192,135773,1,0,0:0:0:0:
288,192,135880,1,0,0:0:0:0:
480,192,135880,1,0,0:0:0:0:
416,192,135880,1,0,0:0:0:0:
160,192,135987,1,0,0:0:0:0:
352,192,135987,1,0,0:0:0:0:
96,192,136095,1,0,0:0:0:0:
288,192,136095,1,0,0:0:0:0:
352,192,136202,1,0,0:0:0:0:
480,192,136202,1,0,0:0:0:0:
32,192,136202,1,0,0:0:0:0:
96,192,136309,1,0,0:0:0:0:
288,192,136309,1,0,0:0:0:0:
352,192,136416,1,0,0:0:0:0:
480,192,136416,1,0,0:0:0:0:
224,192,136416,1,0,0:0:0:0:
160,192,136470,1,0,0:0:0:0:
416,192,136523,1,0,0:0:0:0:
288,192,136523,1,0,0:0:0:0:
416,192,136630,1,0,0:0:0:0:
288,192,136630,1,0,0:0:0:0:
96,192,136630,1,0,0:0:0:0:
224,192,136684,1,0,0:0:0:0:
416,192,136737,1,0,0:0:0:0:
288,192,136737,1,0,0:0:0:0:
96,192,136737,1,0,0:0:0:0:
96,192,136845,1,0,0:0:0:0:
352,192,136845,1,0,0:0:0:0:
224,192,136952,1,0,0:0:0:0:
416,192,136952,1,0,0:0:0:0:
288,192,137005,1,0,0:0:0:0:
352,192,137059,1,0,0:0:0:0:
480,192,137059,1,0,0:0:0:0:
288,192,137166,1,0,0:0:0:0:
416,192,137166,1,0,0:0:0:0:
96,192,137166,1,0,0:0:0:0:
32,192,137273,1,0,0:0:0:0:
96,192,137273,1,0,0:0:0:0:
224,192,137273,1,0,0:0:0:0:
352,192,137273,1,0,0:0:0:0:
