osu file format v14

[General]
AudioFilename: 03. Big Blue [F Zero].mp3
AudioLeadIn: 0
PreviewTime: 59729
Countdown: 0
SampleSet: Soft
StackLeniency: 0.4
Mode: 0
LetterboxInBreaks: 0
WidescreenStoryboard: 0

[Editor]
Bookmarks: 51838,112880,205495
DistanceSpacing: 0.5
BeatDivisor: 4
GridSize: 4
TimelineZoom: 1

[Metadata]
Title:F-zero ~ Big Blue
TitleUnicode:F-zero~Big Blue
Artist:S.S.H.
ArtistUnicode:S.S.H.
Creator:Saten
Version:Big Blue
Source:F-Zero
Tags:saten-san 冥土陰埼玉~made in saitama saisyu heiki 埼玉最終兵器 ssh 石田 尚人 ishida naoto
BeatmapID:379973
BeatmapSetID:154798

[Difficulty]
HPDrainRate:5
CircleSize:4
OverallDifficulty:8
ApproachRate:9.5
SliderMultiplier:2
SliderTickRate:2

[Events]
//Background and Video events
0,0,"bb.jpg",0,0
//Break Periods
2,85716,93411
//Storyboard Layer 0 (Background)
//Storyboard Layer 1 (Fail)
//Storyboard Layer 2 (Pass)
//Storyboard Layer 3 (Foreground)
//Storyboard Sound Samples

[TimingPoints]
18160,263.111734783371,4,2,1,60,1,0
18160,-117.647058823529,4,2,1,60,0,0
18554,-117.647058823529,4,2,2,60,0,0
18686,-117.647058823529,4,2,1,60,0,0
18817,-117.647058823529,4,2,2,60,0,0
18949,-117.647058823529,4,2,1,60,0,0
19212,-117.647058823529,4,2,2,60,0,0
19344,-117.647058823529,4,2,1,60,0,0
23422,-117.647058823529,4,2,2,60,0,0
23553,-117.647058823529,4,2,1,60,0,0
26579,-111.111111111111,4,2,1,60,0,0
27632,-111.111111111111,4,2,2,60,0,0
27763,-111.111111111111,4,2,1,60,0,0
34999,-100,4,2,1,60,0,0
41050,-100,4,2,2,60,0,0
41138,-100,4,2,1,60,0,0
42497,-100,4,2,1,50,0,0
43418,-90.9090909090909,4,2,1,60,0,0
44076,-90.9090909090909,4,2,2,60,0,0
44208,-90.9090909090909,4,2,1,60,0,0
56574,-90.9090909090909,4,2,2,60,0,0
56705,-90.9090909090909,4,2,1,60,0,0
57626,-90.9090909090909,4,2,2,60,0,0
57758,-90.9090909090909,4,2,1,60,0,0
59731,-87.719298245614,4,2,1,60,0,0
59907,-86.2068965517241,4,2,1,60,0,0
60082,-84.7457627118644,4,2,1,60,0,0
60257,-83.3333333333333,4,2,1,70,0,1
79728,-83.3333333333333,4,2,2,70,0,1
79859,-83.3333333333333,4,2,1,70,0,1
85516,-100,4,2,1,60,0,0
104460,-90.9090909090909,4,2,1,60,0,0
109854,-90.9090909090909,4,2,2,60,0,0
109985,-90.9090909090909,4,2,1,60,0,0
110249,-90.9090909090909,4,2,2,60,0,0
110380,-90.9090909090909,4,2,1,60,0,0
120773,-87.719298245614,4,2,1,60,0,0
120948,-86.2068965517241,4,2,1,60,0,0
121036,-85.4700854700855,4,2,1,60,0,0
121124,-84.7457627118644,4,2,1,60,0,0
121212,-84.0336134453781,4,2,1,60,0,0
121299,-83.3333333333333,4,2,1,70,0,1
146558,-100,4,2,1,60,0,0
170238,-100,4,2,1,50,0,0
170501,-100,4,2,1,70,0,0
170534,-100,4,2,1,40,0,0
171027,-95.2380952380952,4,2,1,50,0,0
171291,-90.9090909090909,4,2,1,60,0,0
171554,-86.9565217391304,4,2,1,70,0,0
171817,-83.3333333333333,4,2,1,70,0,1
197075,-90.9090909090909,4,2,1,70,0,0
213388,-86.9565217391304,4,2,1,70,0,0
213564,-83.3333333333333,4,2,1,70,0,0
213739,-80,4,2,1,70,0,0
213915,-76.9230769230769,4,2,1,70,0,1
240226,-100,4,2,1,70,0,0

[Colours]
Combo1 : 255,81,81
Combo2 : 64,150,255
Combo3 : 255,255,64
Combo4 : 100,205,255
Combo5 : 255,164,72

[HitObjects]
452,268,17896,5,8,0:0:0:0:
452,268,18028,1,8,0:0:0:0:
452,268,18160,2,0,P|420:296|380:312,1,85.0000016212464,6|8,0:0|0:0,0:0:0:0:
308,268,18423,2,0,P|340:192|308:116,2,170.000003242493,2|0|8,0:0|0:0|0:0,0:0:0:0:
244,212,19080,2,0,P|164:229|128:304,1,170.000003242493,2|0,0:0|0:0,0:0:0:0:
212,300,19475,5,0,0:0:0:0:
164,228,19607,1,2,0:0:0:0:
88,192,19738,2,0,P|80:148|88:108,1,85.0000016212464,8|2,0:0|0:0,0:0:0:0:
212,140,20001,2,0,P|220:96|212:56,1,85.0000016212464,8|2,0:0|0:0,0:0:0:0:
92,104,20264,6,0,P|44:84|24:60,2,85.0000016212464,8|2|0,0:0|0:0|0:0,0:0:0:0:
172,72,20659,1,0,0:0:0:0:
256,84,20791,2,0,L|308:152,1,85.0000016212464,2|2,0:0|0:0,0:0:0:0:
392,148,21054,2,0,L|392:63,1,85.0000016212464,8|8,0:0|0:0,0:0:0:0:
392,59,21448,5,8,0:0:0:0:
472,88,21580,1,0,0:0:0:0:
484,172,21711,1,2,0:0:0:0:
416,224,21843,2,0,L|332:208,1,85.0000016212464,0|2,0:0|0:0,0:0:0:0:
172,152,22106,2,0,L|256:136,1,85.0000016212464,8|8,0:0|0:0,0:0:0:0:
320,192,22369,21,6,0:0:0:0:
304,276,22501,2,0,P|329:312|360:338,2,85.0000016212464,8|2|2,0:0|0:0|0:0,0:0:0:0:
208,276,22895,2,0,P|182:312|151:338,2,85.0000016212464,0|2|8,0:0|0:0|0:0,0:0:0:0:
256,192,23290,2,0,L|256:20,1,170.000003242493,2|0,0:0|0:0,0:0:0:0:
172,28,23685,2,0,P|148:68|148:108,1,85.0000016212464,0|2,0:0|0:0,0:0:0:0:
340,188,23948,2,0,P|364:148|364:108,1,85.0000016212464,8|8,0:0|0:0,0:0:0:0:
352,188,24342,6,0,P|376:148|376:108,1,85.0000016212464,8|10,0:0|0:0,0:0:0:0:
160,188,24605,2,0,P|136:148|136:108,1,85.0000016212464,8|8,0:0|0:0,0:0:0:0:
172,32,24869,1,2,0:0:0:0:
256,24,25000,1,0,0:0:0:0:
256,24,25066,1,0,0:0:0:0:
256,24,25132,2,0,L|256:109,1,85.0000016212464,2|8,0:0|0:0,0:0:0:0:
256,280,25395,2,0,L|256:195,1,85.0000016212464,2|8,0:0|0:0,0:0:0:0:
324,144,25658,1,8,0:0:0:0:
408,152,25789,2,0,P|436:188|448:228,1,85.0000016212464,0|8,0:0|0:0,0:0:0:0:
336,308,26053,2,0,P|355:270|359:228,1,85.0000016212464,8|0,0:0|0:0,0:0:0:0:
280,200,26316,5,8,0:0:0:0:
236,208,26403,1,8,0:0:0:0:
192,216,26491,1,8,0:0:0:0:
148,224,26579,2,0,P|104:196|88:164,1,89.9999972534181,4|8,0:0|0:0,0:0:0:0:
140,88,26842,2,0,L|216:40,1,89.9999972534181,2|2,0:0|0:0,0:0:0:0:
372,140,27105,2,0,L|296:92,1,89.9999972534181,0|2,0:0|0:0,0:0:0:0:
212,128,27368,1,8,0:0:0:0:
192,216,27500,2,0,P|251:283|336:308,1,179.999994506836,2|0,0:0|0:0,0:0:0:0:
420,280,27895,2,0,L|436:192,1,89.9999972534181,0|2,0:0|0:0,0:0:0:0:
356,52,28158,2,0,L|372:140,1,89.9999972534181,8|2,0:0|0:0,0:0:0:0:
292,280,28421,2,0,L|308:192,1,89.9999972534181,8|2,0:0|0:0,0:0:0:0:
256,116,28684,5,8,0:0:0:0:
168,100,28816,1,2,0:0:0:0:
92,148,28947,2,0,L|72:236,1,89.9999972534181
172,268,29210,2,0,L|192:180,1,89.9999972534181,2|2,0:0|0:0,0:0:0:0:
256,116,29473,1,8,0:0:0:0:
340,84,29605,2,0,P|384:104|416:132,2,89.9999972534181,8|2|8,0:0|0:0|0:0,0:0:0:0:
172,84,30000,2,0,P|128:104|96:132,2,89.9999972534181,0|2|0,0:0|0:0|0:0,0:0:0:0:
256,116,30394,1,2,0:0:0:0:
256,268,30526,1,8,0:0:0:0:
256,116,30657,1,8,0:0:0:0:
256,268,30789,22,0,P|300:284|344:280,1,89.9999972534181,6|8,0:0|0:0,0:0:0:0:
256,268,31052,2,0,P|212:284|168:280,1,89.9999972534181,2|2,0:0|0:0,0:0:0:0:
152,168,31315,2,0,P|152:124|172:84,1,89.9999972534181,0|2,0:0|0:0,0:0:0:0:
360,168,31578,2,0,P|360:124|340:84,1,89.9999972534181,8|2,0:0|0:0,0:0:0:0:
256,116,31841,2,0,L|256:208,1,89.9999972534181,2|0,0:0|0:0,0:0:0:0:
256,358,32104,2,0,L|256:268,1,89.9999972534181,0|2,0:0|0:0,0:0:0:0:
360,168,32368,1,8,0:0:0:0:
152,168,32499,1,8,0:0:0:0:
152,164,32762,1,8,0:0:0:0:
360,164,32894,6,0,L|408:88,1,89.9999972534181,2|8,0:0|0:0,0:0:0:0:
152,164,33157,2,0,L|104:88,1,89.9999972534181,8|2,0:0|0:0,0:0:0:0:
152,12,33420,1,0,0:0:0:0:
152,12,33486,1,0,0:0:0:0:
152,12,33552,2,0,L|240:32,1,89.9999972534181,2|8,0:0|0:0,0:0:0:0:
392,84,33815,6,0,L|304:104,1,89.9999972534181,2|8,0:0|0:0,0:0:0:0:
207,280,34078,1,8,0:0:0:0:
356,189,34209,1,2,0:0:0:0:
155,194,34341,1,8,0:0:0:0:
308,277,34472,1,8,0:0:0:0:
207,103,34604,1,2,0:0:0:0:
256,192,34736,5,8,0:0:0:0:
292,160,34823,1,8,0:0:0:0:
308,116,34911,1,8,0:0:0:0:
300,68,34999,2,0,P|224:8|132:40,2,200,6|8|2,0:0|0:0|0:0,0:0:0:0:
155,194,35656,1,2,0:0:0:0:
300,316,35788,1,8,0:0:0:0:
155,194,35920,2,0,P|213:115|308:116,1,200,2|2,0:0|0:0,0:0:0:0:
357,194,36314,2,0,P|299:115|204:116,1,200,8|0,0:0|0:0,0:0:0:0:
256,256,36709,1,2,0:0:0:0:
256,104,36840,1,8,0:0:0:0:
256,100,37104,22,0,P|340:48|432:76,1,200,2|8,0:0|0:0,0:0:0:0:
328,360,37630,1,2,0:0:0:0:
228,348,37761,1,2,0:0:0:0:
180,260,37893,1,8,0:0:0:0:
228,348,38024,2,0,P|287:265|256:180,1,200,2|2,0:0|0:0,0:0:0:0:
68,244,38419,1,8,0:0:0:0:
256,180,38551,1,2,0:0:0:0:
256,176,38814,1,2,0:0:0:0:
444,240,38945,1,8,0:0:0:0:
256,176,39077,1,0,0:0:0:0:
444,240,39208,6,0,P|480:144|436:64,2,200,2|8|2,0:0|0:0|0:0,0:0:0:0:
344,240,39866,1,2,0:0:0:0:
256,284,39998,2,0,P|225:324|216:372,1,100,8|2,0:0|0:0,0:0:0:0:
220,376,40392,1,2,0:0:0:0:
120,364,40524,1,8,0:0:0:0:
72,276,40656,1,2,0:0:0:0:
128,192,40787,2,0,B|172:180|196:192|220:204|260:192,2,133.333333333333,8|8|8,0:0|0:0|0:0,0:0:0:0:
120,196,41313,6,0,P|112:136|124:100,1,100,6|0,0:0|0:0,0:0:0:0:
224,116,41576,2,0,P|328:104|376:28,1,200,8|2,0:0|0:0,0:0:0:0:
476,36,41971,1,2,0:0:0:0:
488,136,42103,1,8,0:0:0:0:
424,212,42234,1,4,0:0:0:0:
188,36,42497,5,8,0:0:0:0:
324,84,42629,1,8,0:0:0:0:
188,132,42760,1,8,0:0:0:0:
324,180,42892,1,8,0:0:0:0:
188,228,43024,1,8,0:0:0:0:
256,352,43155,21,8,0:0:0:0:
284,356,43221,1,8,0:0:0:0:
312,352,43287,1,8,0:0:0:0:
340,340,43352,1,8,0:0:0:0:
360,316,43418,2,0,P|346:211|256:152,1,220.000006713867,6|8,0:0|0:0,0:0:0:0:
256,264,43813,1,0,0:0:0:0:
152,316,43944,2,0,P|166:211|256:152,1,220.000006713867,2|8,0:0|0:0,0:0:0:0:
256,264,44339,1,0,0:0:0:0:
352,212,44471,2,0,P|357:152|338:107,1,110.000003356934,2|2,0:0|0:0,0:0:0:0:
160,212,44734,2,0,P|154:152|173:107,1,110.000003356934,8|0,0:0|0:0,0:0:0:0:
336,104,44997,5,2,0:0:0:0:
176,104,45128,1,2,0:0:0:0:
256,244,45260,2,0,L|364:264,1,110.000003356934,8|0,0:0|0:0,0:0:0:0:
336,104,45523,2,0,L|299:0,1,110.000003356934,2|0,0:0|0:0,0:0:0:0:
176,104,45786,2,0,L|104:187,1,110.000003356934,8|0,0:0|0:0,0:0:0:0:
176,324,46049,1,2,0:0:0:0:
256,192,46181,1,2,0:0:0:0:
336,324,46312,1,8,0:0:0:0:
256,192,46444,1,2,0:0:0:0:
176,324,46576,6,0,P|152:272|152:220,1,110.000003356934,0|2,0:0|0:0,0:0:0:0:
336,324,46839,2,0,P|360:272|360:220,1,110.000003356934,8|0,0:0|0:0,0:0:0:0:
256,82,47102,1,0,0:0:0:0:
256,302,47233,1,2,0:0:0:0:
256,302,47299,1,2,0:0:0:0:
256,302,47365,2,0,L|256:80,1,220.000006713867,8|6,0:0|0:0,0:0:0:0:
256,76,47891,5,8,0:0:0:0:
256,69,48154,1,2,0:0:0:0:
360,36,48286,1,2,0:0:0:0:
444,108,48417,2,0,P|440:168|412:208,1,110.000003356934,8|0,0:0|0:0,0:0:0:0:
328,136,48680,2,0,P|282:157|256:208,2,110.000003356934,2|2|8,0:0|0:0|0:0,0:0:0:0:
184,136,49075,2,0,P|230:157|256:208,2,110.000003356934,0|2|2,0:0|0:0|0:0,0:0:0:0:
88,192,49470,1,8,0:0:0:0:
256,60,49601,1,0,0:0:0:0:
424,192,49733,22,0,L|372:288,1,110.000003356934,2|0,0:0|0:0,0:0:0:0:
256,24,49996,2,0,L|352:76,1,110.000003356934,8|0,0:0|0:0,0:0:0:0:
88,192,50259,2,0,L|140:96,1,110.000003356934,2|2,0:0|0:0,0:0:0:0:
256,360,50522,2,0,L|160:308,1,110.000003356934,8|2,0:0|0:0,0:0:0:0:
256,192,50785,2,0,L|300:296,1,110.000003356934,0|2,0:0|0:0,0:0:0:0:
256,192,51048,2,0,L|300:88,1,110.000003356934,8|2,0:0|0:0,0:0:0:0:
298,90,51246,1,2,0:0:0:0:
298,90,51312,1,0,0:0:0:0:
424,192,51443,2,0,L|480:192,2,55.0000016784668,2|2|8,0:0|0:0|0:0,0:0:0:0:
424,192,51838,5,6,0:0:0:0:
432,236,51926,1,0,0:0:0:0:
416,276,52013,1,0,0:0:0:0:
380,300,52101,2,0,P|320:276|292:240,1,110.000003356934,8|0,0:0|0:0,0:0:0:0:
132,300,52364,2,0,P|192:276|220:240,1,110.000003356934,2|8,0:0|0:0,0:0:0:0:
256,136,52627,1,2,0:0:0:0:
256,136,52759,2,0,L|256:356,1,220.000006713867,8|2,0:0|0:0,0:0:0:0:
256,356,53088,1,2,0:0:0:0:
256,356,53153,1,8,0:0:0:0:
132,300,53285,2,0,L|152:248,2,55.0000016784668,2|2|0,0:0|0:0|0:0,0:0:0:0:
380,300,53548,2,0,L|360:248,2,55.0000016784668,2|2|8,0:0|0:0|0:0,0:0:0:0:
256,136,53943,5,6,0:0:0:0:
280,100,54030,1,0,0:0:0:0:
320,84,54118,1,0,0:0:0:0:
364,88,54206,2,0,P|376:140|356:192,1,110.000003356934,8|0,0:0|0:0,0:0:0:0:
147,88,54469,2,0,P|136:140|156:192,1,110.000003356934,10|8,0:0|0:0,0:0:0:0:
256,136,54732,1,2,0:0:0:0:
256,136,54864,2,0,L|256:356,1,220.000006713867,8|2,0:0|0:0,0:0:0:0:
256,356,55192,1,2,0:0:0:0:
256,356,55258,1,8,0:0:0:0:
380,300,55390,2,0,L|408:252,2,55.0000016784668,2|2|8,0:0|0:0|0:0,0:0:0:0:
132,300,55653,2,0,L|104:252,2,55.0000016784668,2|2|8,0:0|0:0|0:0,0:0:0:0:
164,292,55850,1,8,0:0:0:0:
184,268,55916,1,10,0:0:0:0:
184,236,55982,1,8,0:0:0:0:
172,204,56048,6,0,P|69:229|36:328,1,220.000006713867,6|8,0:0|0:0,0:0:0:0:
340,204,56442,2,0,P|443:229|476:328,1,220.000006713867,0|2,0:0|0:0,0:0:0:0:
132,300,56837,1,8,0:0:0:0:
380,300,56968,1,0,0:0:0:0:
256,192,57100,22,0,P|304:116|424:124,1,220.000006713867,6|8,0:0|0:0,0:0:0:0:
256,192,57495,2,0,P|208:116|88:124,1,220.000006713867,0|2,0:0|0:0,0:0:0:0:
148,216,57889,1,8,0:0:0:0:
256,76,58021,1,0,0:0:0:0:
364,216,58152,6,0,L|432:304,1,110.000003356934,6|0,0:0|0:0,0:0:0:0:
148,168,58416,2,0,L|80:80,1,110.000003356934,8|0,0:0|0:0,0:0:0:0:
349,132,58679,2,0,L|459:146,1,110.000003356934,2|2,0:0|0:0,0:0:0:0:
162,251,58942,2,0,L|52:237,1,110.000003356934,8|2,0:0|0:0,0:0:0:0:
256,192,59205,5,12,0:0:0:0:
256,192,59336,1,12,0:0:0:0:
256,196,59731,5,2,0:0:0:0:
308,248,59907,1,2,0:0:0:0:
380,256,60082,1,2,0:0:0:0:
440,216,60257,22,0,P|456:160|432:104,1,119.999996337891,4|0,0:0|0:0,0:0:0:0:
332,40,60520,2,0,P|309:94|325:150,1,119.999996337891,8|0,0:0|0:0,0:0:0:0:
380,256,60784,1,2,0:0:0:0:
304,348,60915,1,2,0:0:0:0:
184,336,61047,2,0,P|96:255|120:147,2,239.999992675781,8|2|8,0:0|0:0|0:0,0:0:0:0:
328,336,61704,2,0,P|415:255|391:147,1,239.999992675781,2|2,0:0|0:0,0:0:0:0:
256,20,62099,2,0,L|256:260,1,239.999992675781,8|2,0:0|0:0,0:0:0:0:
140,228,62494,5,0,0:0:0:0:
372,156,62625,1,8,0:0:0:0:
140,84,62757,2,0,B|84:56|84:56|84:52|84:52|32:32,1,119.999996337891,0|2,0:0|0:0,0:0:0:0:
372,156,63020,2,0,B|428:128|428:128|428:124|428:124|480:104,1,119.999996337891,2|8,0:0|0:0,0:0:0:0:
256,360,63415,5,0,0:0:0:0:
256,360,63480,1,0,0:0:0:0:
256,360,63546,2,0,L|256:240,1,119.999996337891,2|8,0:0|0:0,0:0:0:0:
256,24,63809,2,0,L|256:144,1,119.999996337891
64,252,64072,1,2,0:0:0:0:
64,252,64138,1,2,0:0:0:0:
64,252,64204,2,0,P|24:144|92:52,1,239.999992675781,8|6,0:0|0:0,0:0:0:0:
140,164,64599,5,0,0:0:0:0:
256,24,64730,1,8,0:0:0:0:
372,164,64862,1,0,0:0:0:0:
419,51,64993,2,0,P|488:144|448:252,2,239.999992675781,2|8|2,0:0|0:0|0:0,0:0:0:0:
416,48,65783,1,8,0:0:0:0:
96,48,65914,1,0,0:0:0:0:
96,44,66177,1,2,0:0:0:0:
416,44,66309,1,8,0:0:0:0:
256,336,66572,21,2,0:0:0:0:
304,156,66704,1,0,0:0:0:0:
208,228,66835,1,8,0:0:0:0:
256,48,66967,2,0,P|196:48|144:76,2,119.999996337891,0|2|2,0:0|0:0|0:0,0:0:0:0:
256,336,67361,2,0,P|316:336|368:308,2,119.999996337891,8|0|2,0:0|0:0|0:0,0:0:0:0:
152,276,67756,1,2,0:0:0:0:
124,160,67888,2,0,P|152:104|200:72,1,119.999996337891,8|2,0:0|0:0,0:0:0:0:
256,192,68151,2,0,P|284:248|332:280,1,119.999996337891,0|2,0:0|0:0,0:0:0:0:
330,279,68348,1,2,0:0:0:0:
330,279,68414,2,0,L|332:40,1,239.999992675781,8|6,0:0|0:0,0:0:0:0:
332,39,68809,5,0,0:0:0:0:
236,112,68940,1,8,0:0:0:0:
236,112,69072,1,0,0:0:0:0:
120,80,69203,1,2,0:0:0:0:
120,80,69335,1,2,0:0:0:0:
24,152,69466,1,8,0:0:0:0:
24,152,69598,1,0,0:0:0:0:
8,272,69729,6,0,P|72:276|120:248,1,119.999996337891,2|0,0:0|0:0,0:0:0:0:
256,192,69993,2,0,P|192:196|144:168,1,119.999996337891,8|2,0:0|0:0,0:0:0:0:
188,56,70256,1,0,0:0:0:0:
304,24,70387,1,2,0:0:0:0:
412,76,70519,2,0,L|412:316,1,239.999992675781,8|6,0:0|0:0,0:0:0:0:
412,316,70913,5,0,0:0:0:0:
200,248,71045,1,8,0:0:0:0:
200,248,71177,1,0,0:0:0:0:
312,248,71308,1,2,0:0:0:0:
312,248,71440,1,2,0:0:0:0:
100,316,71571,1,8,0:0:0:0:
100,316,71703,1,2,0:0:0:0:
256,140,71834,2,0,P|216:96|160:80,1,119.999996337891,0|2,0:0|0:0,0:0:0:0:
256,140,72097,2,0,P|296:96|352:80,1,119.999996337891,8|2,0:0|0:0,0:0:0:0:
400,192,72361,1,0,0:0:0:0:
183,316,72492,1,2,0:0:0:0:
184,67,72624,1,8,0:0:0:0:
256,192,72755,1,0,0:0:0:0:
256,192,72887,22,0,P|294:141|306:87,2,119.999996337891,6|0|8,0:0|0:0|0:0,0:0:0:0:
256,192,73281,2,0,P|193:183|141:200,2,119.999996337891,0|2|2,0:0|0:0|0:0,0:0:0:0:
256,192,73676,2,0,P|281:251|321:288,2,119.999996337891,8|0|2,0:0|0:0|0:0,0:0:0:0:
307,87,74071,1,0,0:0:0:0:
321,288,74202,1,8,0:0:0:0:
141,200,74334,1,2,0:0:0:0:
256,192,74465,1,0,0:0:0:0:
256,192,74729,1,8,0:0:0:0:
307,87,74992,6,0,P|245:69|192:86,2,119.999996337891,6|0|8,0:0|0:0|0:0,0:0:0:0:
321,288,75386,2,0,P|367:245|379:189,2,119.999996337891,0|2|2,0:0|0:0|0:0,0:0:0:0:
141,200,75781,2,0,P|155:262|197:300,2,119.999996337891,8|0|2,0:0|0:0|0:0,0:0:0:0:
256,192,76176,1,2,0:0:0:0:
320,288,76307,1,8,0:0:0:0:
219,338,76439,1,2,3:2:0:0:
190,344,76505,1,2,3:2:0:0:
161,334,76570,1,8,3:2:0:0:
143,311,76636,1,8,3:2:0:0:
137,283,76702,1,2,3:2:0:0:
143,255,76768,1,2,3:2:0:0:
164,236,76833,2,0,L|224:236,3,59.9999981689454,8|8|8|8,0:0|0:0|0:0|0:0,0:0:0:0:
256,228,77097,5,6,0:0:0:0:
284,200,77184,1,0,0:0:0:0:
300,164,77272,1,0,0:0:0:0:
292,124,77360,1,8,0:0:0:0:
260,100,77447,1,0,0:0:0:0:
220,96,77535,1,0,0:0:0:0:
184,116,77623,1,2,0:0:0:0:
152,140,77710,1,0,0:0:0:0:
112,136,77798,1,0,0:0:0:0:
80,112,77886,1,8,0:0:0:0:
68,72,77974,1,0,0:0:0:0:
76,32,78061,1,0,0:0:0:0:
112,16,78149,1,2,0:0:0:0:
152,8,78237,1,0,0:0:0:0:
188,24,78324,1,0,0:0:0:0:
204,60,78412,1,8,0:0:0:0:
220,96,78500,1,0,0:0:0:0:
256,112,78587,1,0,0:0:0:0:
292,96,78675,1,2,0:0:0:0:
308,60,78763,1,0,0:0:0:0:
324,24,78851,1,0,0:0:0:0:
360,8,78938,1,8,0:0:0:0:
400,16,79026,1,0,0:0:0:0:
436,32,79114,1,0,0:0:0:0:
443,72,79201,6,0,P|377:160|256:160,1,239.999992675781,2|8,0:0|0:0,0:0:0:0:
68,72,79596,2,0,P|135:160|256:160,1,239.999992675781,0|2,0:0|0:0,0:0:0:0:
256,40,79991,1,8,0:0:0:0:
256,272,80122,1,0,0:0:0:0:
256,40,80254,22,0,L|256:160,1,119.999996337891,2|2,0:0|0:0,0:0:0:0:
255,271,80517,2,0,P|363:230|384:118,1,239.999992675781,8|2,0:0|0:0,0:0:0:0:
256,140,80912,1,2,0:0:0:0:
255,272,81043,2,0,P|147:230|127:118,1,239.999992675781,8|2,0:0|0:0,0:0:0:0:
256,140,81438,1,0,0:0:0:0:
256,140,81569,2,0,L|256:380,1,239.999992675781,8|2,0:0|0:0,0:0:0:0:
344,300,81964,1,2,0:0:0:0:
168,228,82096,1,8,0:0:0:0:
344,156,82227,1,0,0:0:0:0:
168,84,82359,6,0,L|64:24,1,119.999996337891,2|2,0:0|0:0,0:0:0:0:
344,300,82622,2,0,L|448:360,1,119.999996337891,8|0,0:0|0:0,0:0:0:0:
125,142,82885,2,0,L|5:142,1,119.999996337891,2|2,0:0|0:0,0:0:0:0:
386,241,83148,2,0,L|506:241,1,119.999996337891,8|0,0:0|0:0,0:0:0:0:
256,192,83411,5,2,0:0:0:0:
168,56,83543,1,2,0:0:0:0:
344,56,83674,1,8,0:0:0:0:
256,192,83806,1,2,0:0:0:0:
256,192,83872,1,2,0:0:0:0:
256,192,83937,2,0,B|232:140|280:88|256:36,2,159.999995117188,8|2|2,0:0|0:0|0:0,0:0:0:0:
372,304,84464,6,0,P|416:256|428:204,2,119.999996337891,8|2|2,0:0|0:0|0:0,0:0:0:0:
140,304,84858,2,0,P|96:256|84:204,2,119.999996337891,8|0|2,0:0|0:0|0:0,0:0:0:0:
256,192,85253,1,8,0:0:0:0:
256,196,85516,1,6,0:0:0:0:
256,292,93936,22,0,L|256:92,1,200,6|8,0:0|0:0,0:0:0:0:
184,24,94330,1,0,0:0:0:0:
88,48,94462,2,0,P|72:96|84:144,2,100,0|2|8,0:0|0:0|0:0,0:0:0:0:
168,108,94857,2,0,P|256:148|344:108,1,200,2|2,0:0|0:0,0:0:0:0:
424,48,95251,2,0,P|440:96|428:144,2,100,8|0|2,0:0|0:0|0:0,0:0:0:0:
328,24,95646,1,0,0:0:0:0:
256,92,95777,2,0,L|256:192,1,100,8|0,0:0|0:0,0:0:0:0:
340,248,96041,6,0,L|340:148,1,100,2|2,0:0|0:0,0:0:0:0:
172,148,96304,2,0,L|172:348,1,200,8|0,0:0|0:0,0:0:0:0:
76,376,96698,1,2,0:0:0:0:
16,296,96830,2,0,P|32:244|60:208,2,100,8|2|0,0:0|0:0|0:0,0:0:0:0:
132,316,97225,1,2,0:0:0:0:
216,236,97356,2,0,P|200:184|172:148,2,100,8|0|0,0:0|0:0|0:0,0:0:0:0:
116,276,97751,1,2,0:0:0:0:
256,92,97882,1,8,0:0:0:0:
396,276,98014,1,0,0:0:0:0:
256,92,98145,6,0,L|256:292,1,200,2|8,0:0|0:0,0:0:0:0:
336,352,98540,1,0,0:0:0:0:
432,332,98672,1,2,0:0:0:0:
432,332,98737,1,2,0:0:0:0:
432,332,98803,2,0,P|464:288|468:244,1,100,0|8,0:0|0:0,0:0:0:0:
380,196,99066,2,0,P|348:148|340:108,1,100,2|0,0:0|0:0,0:0:0:0:
424,52,99329,1,2,0:0:0:0:
456,144,99461,2,0,P|384:208|288:192,1,200,8|10,0:0|0:0,0:0:0:0:
256,132,99900,1,8,0:0:0:0:
268,64,100075,1,8,0:0:0:0:
336,48,100250,6,0,P|368:88|376:136,1,100,6|2,0:0|0:0,0:0:0:0:
256,332,100513,2,0,L|256:132,1,200,8|2,0:0|0:0,0:0:0:0:
176,48,100908,2,0,P|144:88|136:136,1,100,8|2,0:0|0:0,0:0:0:0:
256,192,101171,21,8,3:2:0:0:
279,185,101237,1,0,3:2:0:0:
299,170,101303,1,0,3:2:0:0:
315,149,101369,1,0,3:2:0:0:
321,124,101434,1,2,3:2:0:0:
314,101,101500,1,2,3:2:0:0:
300,81,101566,1,0,3:2:0:0:
278,65,101632,1,0,3:2:0:0:
255,63,101697,1,2,3:2:0:0:
232,70,101763,1,2,3:2:0:0:
212,84,101829,1,0,3:2:0:0:
199,103,101895,1,0,3:2:0:0:
194,128,101961,1,2,3:2:0:0:
181,148,102026,1,2,3:2:0:0:
161,162,102092,1,8,3:2:0:0:
136,165,102158,1,0,3:2:0:0:
115,158,102224,1,2,3:2:0:0:
97,140,102289,1,2,3:2:0:0:
92,116,102355,1,8,3:2:0:0:
148,32,102487,6,0,L|196:16,2,50,2|2|8,0:0|0:0|0:0,0:0:0:0:
364,32,102750,2,0,L|316:16,2,50,2|2|8,0:0|0:0|0:0,0:0:0:0:
148,156,103013,2,0,L|120:200,2,50,2|2|8,0:0|0:0|0:0,0:0:0:0:
364,156,103276,2,0,L|392:200,2,50,2|2|8,0:0|0:0|0:0,0:0:0:0:
256,264,103539,1,6,0:0:0:0:
256,272,103802,1,6,0:0:0:0:
256,280,104065,5,8,0:0:0:0:
276,292,104131,1,8,0:0:0:0:
300,292,104197,1,8,0:0:0:0:
324,284,104263,1,0,0:0:0:0:
348,272,104329,1,8,0:0:0:0:
372,268,104394,1,0,0:0:0:0:
400,272,104460,2,0,P|424:216|420:168,1,110.000003356934,14|2,0:0|0:0,0:0:0:0:
284,88,104723,2,0,P|308:144|304:192,1,110.000003356934,8|0,0:0|0:0,0:0:0:0:
208,248,104986,1,2,0:0:0:0:
108,204,105118,1,2,0:0:0:0:
84,96,105249,1,8,0:0:0:0:
108,204,105381,2,0,P|100:260|60:296,2,110.000003356934,0|2|2,0:0|0:0|0:0,0:0:0:0:
84,96,105776,6,0,P|185:53|284:88,1,220.000006713867,8|2,0:0|0:0,0:0:0:0:
320,192,106170,1,2,0:0:0:0:
228,252,106302,2,0,P|170:238|132:204,1,110.000003356934,8|0,0:0|0:0,0:0:0:0:
284,296,106565,2,0,P|341:282|380:248,1,110.000003356934,2|0,0:0|0:0,0:0:0:0:
228,160,106828,2,0,P|175:256|228:340,1,220.000006713867,8|2,0:0|0:0,0:0:0:0:
336,360,107223,1,2,0:0:0:0:
432,304,107354,2,0,L|444:192,1,110.000003356934,8|2,0:0|0:0,0:0:0:0:
340,236,107617,2,0,L|328:124,1,110.000003356934,0|2,0:0|0:0,0:0:0:0:
432,168,107881,2,0,L|444:56,1,110.000003356934,8|0,0:0|0:0,0:0:0:0:
340,100,108144,21,0,0:0:0:0:
312,124,108231,1,0,0:0:0:0:
276,132,108319,1,0,0:0:0:0:
240,128,108407,1,8,0:0:0:0:
212,108,108495,1,0,0:0:0:0:
176,100,108582,1,0,0:0:0:0:
140,107,108670,2,0,P|113:155|111:209,1,110.000003356934,6|0,0:0|0:0,0:0:0:0:
212,252,108933,2,0,P|115:209|27:268,1,220.000006713867,8|2,0:0|0:0,0:0:0:0:
64,372,109328,2,0,P|105:335|120:284,1,110.000003356934,2|8,0:0|0:0,0:0:0:0:
28,116,109591,5,0,0:0:0:0:
28,116,109722,2,0,P|116:175|213:133,1,220.000006713867,2|8,0:0|0:0,0:0:0:0:
484,116,110117,2,0,P|396:175|300:133,1,220.000006713867,0|2,0:0|0:0,0:0:0:0:
256,32,110512,1,8,0:0:0:0:
360,68,110643,1,0,0:0:0:0:
396,172,110775,2,0,L|336:264,1,110.000003356934,2|0,0:0|0:0,0:0:0:0:
176,264,111038,2,0,L|116:172,1,110.000003356934,8|0,0:0|0:0,0:0:0:0:
380,125,111301,2,0,L|355:232,1,110.000003356934,2|2,0:0|0:0,0:0:0:0:
156,232,111564,2,0,L|131:125,1,110.000003356934,8|2,0:0|0:0,0:0:0:0:
350,86,111827,2,0,L|363:195,1,110.000003356934,0|2,0:0|0:0,0:0:0:0:
148,195,112090,2,0,L|161:86,1,110.000003356934,8|2,0:0|0:0,0:0:0:0:
256,28,112354,5,8,0:0:0:0:
256,64,112441,1,8,0:0:0:0:
256,100,112529,1,8,0:0:0:0:
256,136,112617,1,0,0:0:0:0:
256,172,112704,1,0,0:0:0:0:
256,208,112792,1,0,0:0:0:0:
256,244,112880,6,0,P|288:276|316:288,2,73.3333355712891,6|0|0,0:0|0:0|0:0,0:0:0:0:
164,304,113143,2,0,P|132:336|104:348,2,73.3333355712891,6|0|0,0:0|0:0|0:0,0:0:0:0:
96,216,113406,2,0,P|72:160|80:112,2,110.000003356934,8|8|0,0:0|0:0|0:0,0:0:0:0:
184,152,113801,1,6,0:0:0:0:
184,148,114064,1,2,0:0:0:0:
184,144,114195,2,0,P|288:104|380:152,1,220.000006713867,2|8,0:0|0:0,0:0:0:0:
364,260,114590,21,2,0:0:0:0:
364,260,114656,1,0,0:0:0:0:
364,260,114722,2,0,P|277:213|284:104,1,220.000006713867,8|6,0:0|0:0,0:0:0:0:
316,84,115072,1,0,0:0:0:0:
352,84,115160,1,0,0:0:0:0:
384,104,115248,2,0,P|372:156|360:176,2,73.3333355712891,6|0|0,0:0|0:0|0:0,0:0:0:0:
464,28,115511,2,0,P|492:72|492:128,2,110.000003356934,8|8|0,0:0|0:0|0:0,0:0:0:0:
384,104,115906,5,6,0:0:0:0:
384,108,116169,1,2,0:0:0:0:
256,192,116300,1,2,0:0:0:0:
128,108,116432,1,2,0:0:0:0:
384,108,116563,2,0,L|428:144,2,55.0000016784668,8|0|0,0:0|0:0|0:0,0:0:0:0:
128,108,116826,2,0,L|70:154,2,73.3333355712891,8|0|8,0:0|0:0|0:0,0:0:0:0:
256,192,117090,6,0,P|152:220|71:154,1,220.000006713867,6|8,0:0|0:0,0:0:0:0:
256,192,117484,2,0,P|300:224|324:276,2,110.000003356934,0|2|2,0:0|0:0|0:0,0:0:0:0:
152,220,117879,1,8,0:0:0:0:
360,164,118010,1,0,0:0:0:0:
152,220,118142,6,0,P|179:118|280:88,1,220.000006713867,6|8,0:0|0:0,0:0:0:0:
152,220,118537,2,0,P|96:204|60:168,2,110.000003356934,0|2|2,0:0|0:0|0:0,0:0:0:0:
360,164,118931,2,0,P|416:180|452:216,2,110.000003356934,8|0|6,0:0|0:0|0:0,0:0:0:0:
228,296,119326,21,0,0:0:0:0:
283,87,119458,1,8,0:0:0:0:
333,269,119589,1,0,0:0:0:0:
180,116,119721,1,2,0:0:0:0:
360,164,119852,1,2,0:0:0:0:
152,220,119984,1,8,0:0:0:0:
283,87,120115,1,2,0:0:0:0:
256,192,120247,5,6,0:0:0:0:
256,192,120378,1,6,0:0:0:0:
256,196,120773,5,2,0:0:0:0:
304,244,120948,1,2,0:0:0:0:
336,260,121036,1,2,0:0:0:0:
372,252,121124,1,2,0:0:0:0:
400,228,121212,1,2,0:0:0:0:
412,192,121299,6,0,L|412:72,1,119.999996337891,12|2,0:0|0:0,0:0:0:0:
256,72,121562,2,0,L|256:192,1,119.999996337891,8|0,0:0|0:0,0:0:0:0:
100,192,121826,2,0,L|100:72,1,119.999996337891,2|2,0:0|0:0,0:0:0:0:
412,68,122089,1,8,0:0:0:0:
100,68,122220,1,0,0:0:0:0:
256,196,122352,2,0,L|256:316,1,119.999996337891,2|0,0:0|0:0,0:0:0:0:
256,316,122549,1,0,0:0:0:0:
256,316,122615,2,0,P|167:249|192:136,1,239.999992675781,8|0,0:0|0:0,0:0:0:0:
384,192,123010,1,2,0:0:0:0:
192,248,123141,22,0,P|99:186|100:68,1,239.999992675781,8|2,0:0|0:0,0:0:0:0:
256,148,123536,1,0,0:0:0:0:
412,68,123667,1,8,0:0:0:0:
256,148,123799,1,0,0:0:0:0:
100,68,123930,1,2,0:0:0:0:
256,148,124062,5,2,0:0:0:0:
256,156,124128,1,0,0:0:0:0:
256,160,124194,2,0,P|240:219|192:248,1,119.999996337891,8|0,0:0|0:0,0:0:0:0:
84,192,124457,2,0,L|144:88,1,119.999996337891,2|2,0:0|0:0,0:0:0:0:
428,192,124720,2,0,L|368:88,1,119.999996337891,8|2,0:0|0:0,0:0:0:0:
256,160,124983,1,0,0:0:0:0:
256,292,125114,5,2,0:0:0:0:
256,292,125180,1,2,0:0:0:0:
256,292,125246,2,0,P|362:238|392:128,1,239.999992675781,8|6,0:0|0:0,0:0:0:0:
296,56,125641,1,0,0:0:0:0:
184,96,125772,2,0,P|152:148|148:208,1,119.999996337891,8|0,0:0|0:0,0:0:0:0:
362,215,126035,2,0,P|363:155|336:102,1,119.999996337891,2|2,0:0|0:0,0:0:0:0:
168,109,126298,2,0,P|146:165|151:224,1,119.999996337891,8|0,0:0|0:0,0:0:0:0:
357,233,126562,2,0,P|367:174|350:117,1,119.999996337891,2|0,0:0|0:0,0:0:0:0:
155,126,126825,2,0,P|143:184|158:241,1,119.999996337891,8|2,0:0|0:0,0:0:0:0:
256,168,127088,22,0,B|256:60|256:60|248:52,1,119.999996337891,0|2,0:0|0:0,0:0:0:0:
172,84,127263,2,0,B|152:140|100:152|100:152|84:148,1,119.999996337891,0|8,0:0|0:0,0:0:0:0:
8,104,127439,2,0,B|76:20|76:20|88:20,1,119.999996337891
172,20,127614,6,0,L|172:140,1,119.999996337891,2|0,0:0|0:0,0:0:0:0:
340,260,127877,2,0,L|340:20,1,239.999992675781,8|2,0:0|0:0,0:0:0:0:
460,28,128272,1,2,0:0:0:0:
500,140,128403,1,8,0:0:0:0:
428,236,128535,2,0,P|370:208|340:164,1,119.999996337891,0|2,0:0|0:0,0:0:0:0:
84,236,128798,2,0,P|142:208|172:164,1,119.999996337891,2|8,0:0|0:0,0:0:0:0:
256,72,129061,2,0,L|256:312,1,239.999992675781,2|2,0:0|0:0,0:0:0:0:
256,312,129390,1,2,0:0:0:0:
256,312,129456,1,8,0:0:0:0:
372,340,129587,5,0,0:0:0:0:
372,340,129653,1,0,0:0:0:0:
372,340,129719,2,0,P|389:305|392:265,2,79.9999975585938,6|0|0,0:0|0:0|0:0,0:0:0:0:
152,276,129982,2,0,P|134:240|131:200,2,79.9999975585938,8|0|0,0:0|0:0|0:0,0:0:0:0:
347,212,130245,2,0,P|364:176|367:136,2,79.9999975585938,2|0|0,0:0|0:0|0:0,0:0:0:0:
177,148,130508,2,0,P|159:112|156:72,2,79.9999975585938,8|0|0,0:0|0:0|0:0,0:0:0:0:
256,72,130771,5,6,0:0:0:0:
256,112,130859,1,0,0:0:0:0:
256,152,130947,1,0,0:0:0:0:
256,192,131034,1,8,0:0:0:0:
256,232,131122,1,0,0:0:0:0:
256,272,131210,1,0,0:0:0:0:
256,312,131298,2,0,L|144:268,1,119.999996337891,0|2,0:0|0:0,0:0:0:0:
256,192,131561,2,0,L|368:148,1,119.999996337891,8|0,0:0|0:0,0:0:0:0:
480,192,131824,5,6,0:0:0:0:
452,308,131955,2,0,P|388:320|336:304,1,119.999996337891,0|8,0:0|0:0,0:0:0:0:
256,192,132218,1,0,0:0:0:0:
60,308,132350,2,0,P|124:320|176:304,1,119.999996337891,2|2,0:0|0:0,0:0:0:0:
256,192,132613,2,0,P|213:143|162:121,1,119.999996337891,8|2,0:0|0:0,0:0:0:0:
256,192,132876,2,0,P|298:143|349:121,1,119.999996337891,4|2,0:0|0:0,0:0:0:0:
348,121,133074,1,0,0:0:0:0:
348,121,133139,1,8,0:0:0:0:
376,252,133271,2,0,L|396:308,2,59.9999981689454,2|0|0,0:0|0:0|0:0,0:0:0:0:
136,252,133534,2,0,L|116:308,2,59.9999981689454,2|2|8,0:0|0:0|0:0,0:0:0:0:
256,192,133797,1,0,0:0:0:0:
256,192,133929,22,0,P|300:236|312:292,2,119.999996337891,6|0|8,0:0|0:0|0:0,0:0:0:0:
256,192,134323,1,0,0:0:0:0:
256,192,134455,2,0,P|212:148|200:92,2,119.999996337891,2|2|8,0:0|0:0|0:0,0:0:0:0:
256,192,134850,1,0,0:0:0:0:
356,124,134981,2,0,L|456:56,1,119.999996337891,2|0,0:0|0:0,0:0:0:0:
156,260,135244,2,0,L|56:328,1,119.999996337891,8|2,0:0|0:0,0:0:0:0:
24,212,135507,1,0,0:0:0:0:
131,81,135639,1,2,0:0:0:0:
256,192,135770,1,8,0:0:0:0:
381,81,135902,1,0,0:0:0:0:
488,212,136034,6,0,P|452:262|402:292,1,119.999996337891,6|0,0:0|0:0,0:0:0:0:
256,192,136297,1,8,0:0:0:0:
24,212,136428,2,0,P|60:262|110:292,1,119.999996337891,0|2,0:0|0:0,0:0:0:0:
256,192,136691,1,2,0:0:0:0:
152,132,136823,2,0,L|48:72,1,119.999996337891,8|0,0:0|0:0,0:0:0:0:
360,252,137086,2,0,L|464:312,1,119.999996337891,2|2,0:0|0:0,0:0:0:0:
256,192,137349,1,8,0:0:0:0:
256,192,137481,5,2,0:0:0:0:
252,164,137546,1,2,0:0:0:0:
260,136,137612,1,0,3:2:0:0:
280,112,137678,1,0,3:2:0:0:
308,100,137744,1,2,0:0:0:0:
340,100,137810,1,2,0:0:0:0:
368,112,137875,2,0,L|396:164,3,59.9999981689454,8|8|8|8,0:0|0:0|0:0|0:0,0:0:0:0:
424,180,138138,5,6,0:0:0:0:
464,176,138226,1,0,0:0:0:0:
492,148,138314,1,0,0:0:0:0:
495,107,138402,2,0,P|479:72|449:45,2,79.9999975585938,8|0|0,0:0|0:0|0:0,0:0:0:0:
320,172,138665,21,2,0:0:0:0:
280,164,138752,1,0,0:0:0:0:
244,144,138840,1,0,0:0:0:0:
219,110,138928,2,0,P|186:88|147:82,2,79.9999975585938,8|0|0,0:0|0:0|0:0,0:0:0:0:
112,232,139191,5,2,0:0:0:0:
72,243,139279,1,0,0:0:0:0:
35,234,139366,1,0,0:0:0:0:
7,205,139454,2,0,P|1:167|15:130,2,79.9999975585938,8|0|0,0:0|0:0|0:0,0:0:0:0:
164,168,139717,5,2,0:0:0:0:
192,196,139805,1,0,0:0:0:0:
200,236,139893,1,0,0:0:0:0:
188,276,139980,2,0,P|203:312|229:342,2,79.9999975585938,8|0|0,0:0|0:0|0:0,0:0:0:0:
324,192,140243,6,0,P|416:262|408:376,1,239.999992675781,2|8,0:0|0:0,0:0:0:0:
412,255,140638,2,0,P|452:214|508:192,2,119.999996337891,0|2|2,0:0|0:0|0:0,0:0:0:0:
316,328,141033,1,8,0:0:0:0:
200,300,141164,1,0,0:0:0:0:
148,192,141296,2,0,P|144:128|172:80,1,119.999996337891,2|2,0:0|0:0,0:0:0:0:
256,164,141559,22,0,P|212:272|100:292,1,239.999992675781,8|2,0:0|0:0,0:0:0:0:
36,192,141954,1,2,0:0:0:0:
112,100,142085,2,0,P|167:195|100:292,1,239.999992675781,8|2,0:0|0:0,0:0:0:0:
36,192,142480,1,0,0:0:0:0:
112,100,142611,2,0,L|228:68,1,119.999996337891,8|0,0:0|0:0,0:0:0:0:
400,144,142874,2,0,L|284:112,1,119.999996337891,2|2,0:0|0:0,0:0:0:0:
112,188,143138,2,0,L|228:156,1,119.999996337891,8|0,0:0|0:0,0:0:0:0:
228,272,143401,6,0,P|184:314|127:324,1,119.999996337891,2|2,0:0|0:0,0:0:0:0:
284,112,143664,2,0,P|327:69|384:59,1,119.999996337891,8|0,0:0|0:0,0:0:0:0:
176,221,143927,2,0,P|116:215|71:178,1,119.999996337891,2|2,0:0|0:0,0:0:0:0:
335,162,144190,2,0,P|395:168|440:205,1,119.999996337891,8|0,0:0|0:0,0:0:0:0:
344,280,144453,5,2,0:0:0:0:
168,104,144585,1,2,0:0:0:0:
255,192,144716,2,0,P|232:246|182:278,1,119.999996337891,8|2,0:0|0:0,0:0:0:0:
182,278,144914,1,2,0:0:0:0:
182,278,144979,2,0,B|120:248|82:294|24:268,2,159.999995117188,8|2|2,0:0|0:0|0:0,0:0:0:0:
312,124,145506,6,0,P|256:106|200:124,2,119.999996337891,8|2|2,0:0|0:0|0:0,0:0:0:0:
256,256,145900,2,0,L|256:16,1,239.999992675781,8|2,0:0|0:0,0:0:0:0:
256,16,146229,1,2,0:0:0:0:
256,16,146295,1,8,0:0:0:0:
264,24,146558,22,0,L|264:124,1,100,6|8,0:0|0:0,0:0:0:0:
376,168,146821,2,0,L|376:68,1,100,2|2,0:0|0:0,0:0:0:0:
136,68,147084,2,0,L|136:168,1,100,0|2,0:0|0:0,0:0:0:0:
208,240,147347,1,8,0:0:0:0:
304,208,147479,2,0,P|344:236|360:284,2,100,2|2|0,0:0|0:0|0:0,0:0:0:0:
208,208,147874,2,0,P|168:236|152:284,2,100,0|2|8,0:0|0:0|0:0,0:0:0:0:
256,296,148268,1,2,0:0:0:0:
256,88,148400,1,8,0:0:0:0:
256,192,148531,1,2,0:0:0:0:
332,264,148663,6,0,P|384:272|428:256,1,100,8|2,0:0|0:0,0:0:0:0:
427,127,148926,2,0,P|380:111|332:120,1,100,0|0,0:0|0:0,0:0:0:0:
256,192,149189,1,2,0:0:0:0:
176,252,149321,1,2,0:0:0:0:
96,192,149452,2,0,L|76:92,1,100,8|8,0:0|0:0,0:0:0:0:
77,94,149847,6,0,L|168:136,1,100,8|8,0:0|0:0,0:0:0:0:
256,56,150110,1,2,0:0:0:0:
435,94,150242,2,0,L|344:136,1,100,8|2,0:0|0:0,0:0:0:0:
344,135,150439,1,2,0:0:0:0:
344,135,150505,2,0,L|372:232,1,100,8|8,0:0|0:0,0:0:0:0:
140,232,150768,6,0,L|167:135,1,100,6|8,0:0|0:0,0:0:0:0:
256,56,151031,2,0,L|256:156,1,100,2|2,0:0|0:0,0:0:0:0:
256,328,151294,2,0,L|256:228,1,100,0|2,0:0|0:0,0:0:0:0:
176,168,151557,1,8,0:0:0:0:
80,192,151689,2,0,P|32:164|8:128,1,100,2|2,0:0|0:0,0:0:0:0:
176,168,151952,2,0,P|224:140|248:104,1,100
336,56,152215,1,2,0:0:0:0:
364,152,152346,2,0,P|360:204|336:244,1,100,8|8,0:0|0:0,0:0:0:0:
372,156,152741,22,0,P|368:208|344:248,1,100,8|2,0:0|0:0,0:0:0:0:
140,228,153004,2,0,P|144:176|168:136,1,100,8|8,0:0|0:0,0:0:0:0:
256,88,153267,1,2,0:0:0:0:
168,40,153399,1,0,0:0:0:0:
168,40,153465,1,0,0:0:0:0:
168,40,153530,2,0,P|120:56|84:92,1,100,2|8,0:0|0:0,0:0:0:0:
344,40,153794,2,0,P|391:55|426:89,1,100,2|8,0:0|0:0,0:0:0:0:
436,192,154057,5,2,3:2:0:0:
423,214,154122,1,2,3:2:0:0:
401,231,154188,1,0,3:2:0:0:
374,240,154254,1,0,3:2:0:0:
348,240,154320,1,2,3:2:0:0:
322,236,154386,1,0,3:2:0:0:
300,222,154451,1,0,3:2:0:0:
282,200,154517,1,0,3:2:0:0:
260,187,154583,1,2,3:2:0:0:
234,178,154649,1,2,3:2:0:0:
207,183,154714,1,8,3:2:0:0:
132,248,154846,1,0,0:0:0:0:
164,344,154978,6,0,P|206:369|256:372,1,100,6|8,0:0|0:0,0:0:0:0:
336,272,155241,2,0,L|236:272,1,100,2|2,0:0|0:0,0:0:0:0:
164,204,155504,1,0,0:0:0:0:
164,104,155635,1,2,0:0:0:0:
256,64,155767,1,8,0:0:0:0:
348,104,155898,6,0,P|344:152|312:192,2,100,2|2|0,0:0|0:0|0:0,0:0:0:0:
164,104,156293,2,0,P|168:152|200:192,2,100,0|2|8,0:0|0:0|0:0,0:0:0:0:
348,280,156688,1,2,0:0:0:0:
256,64,156819,1,8,0:0:0:0:
256,320,156951,1,2,0:0:0:0:
256,192,157082,22,0,P|288:152|332:132,1,100,8|2,0:0|0:0,0:0:0:0:
256,192,157346,2,0,P|224:152|180:132,1,100,0|0,0:0|0:0,0:0:0:0:
120,212,157609,2,0,L|160:304,1,100,2|2,0:0|0:0,0:0:0:0:
352,304,157872,2,0,L|392:212,1,100,8|8,0:0|0:0,0:0:0:0:
392,208,158266,5,8,0:0:0:0:
120,208,158398,1,8,0:0:0:0:
120,204,158661,1,8,0:0:0:0:
120,200,158924,1,8,0:0:0:0:
392,200,159056,1,8,0:0:0:0:
256,56,159187,6,0,L|256:156,1,100,6|8,0:0|0:0,0:0:0:0:
256,328,159451,2,0,L|256:228,1,100,2|2,0:0|0:0,0:0:0:0:
328,156,159714,1,0,0:0:0:0:
184,156,159845,1,2,0:0:0:0:
324,256,159977,1,8,0:0:0:0:
188,256,160108,2,0,P|140:284|96:288,1,100,2|2,0:0|0:0,0:0:0:0:
324,256,160371,2,0,P|372:284|416:288,1,100
448,192,160635,1,2,0:0:0:0:
396,108,160766,1,8,0:0:0:0:
396,108,160898,1,8,0:0:0:0:
116,108,161161,5,8,0:0:0:0:
116,108,161292,2,0,P|83:144|68:192,1,100,2|8,0:0|0:0,0:0:0:0:
187,292,161555,2,0,P|191:243|168:200,1,100,8|2,0:0|0:0,0:0:0:0:
68,192,161819,2,0,L|28:224,2,50,0|0|2,3:0|3:0|3:2,0:0:0:0:
167,199,162082,1,8,0:0:0:0:
256,156,162213,1,2,0:0:0:0:
256,56,162345,21,8,0:0:0:0:
276,40,162411,1,8,0:0:0:0:
300,36,162476,1,8,0:0:0:0:
324,40,162542,1,8,0:0:0:0:
344,52,162608,1,0,3:0:0:0:
360,72,162674,1,0,3:0:0:0:
360,96,162739,1,0,3:0:0:0:
352,120,162805,1,0,3:0:0:0:
336,140,162871,2,0,L|288:160,3,50,0|0|0|0,3:0|3:0|3:0|3:0,0:0:0:0:
272,176,163134,1,0,3:0:0:0:
268,200,163200,1,0,3:0:0:0:
276,224,163266,1,0,3:0:0:0:
292,244,163331,1,0,3:0:0:0:
316,252,163397,6,0,P|368:244|400:212,1,100,6|8,0:0|0:0,0:0:0:0:
500,216,163660,2,0,P|492:268|460:300,1,100,2|2,0:0|0:0,0:0:0:0:
364,328,163923,1,0,0:0:0:0:
264,312,164055,1,2,0:0:0:0:
208,228,164187,2,0,P|223:182|256:144,2,100,8|2|2,0:0|0:0|0:0,0:0:0:0:
180,324,164581,1,0,0:0:0:0:
80,332,164713,2,0,P|44:292|36:248,1,100,0|2,0:0|0:0,0:0:0:0:
124,152,164976,6,0,L|124:252,1,100,8|2,0:0|0:0,0:0:0:0:
256,192,165239,2,0,L|256:92,1,100,8|2,0:0|0:0,0:0:0:0:
388,152,165502,2,0,L|388:252,1,100,8|2,0:0|0:0,0:0:0:0:
316,320,165765,1,0,0:0:0:0:
124,152,165897,1,0,0:0:0:0:
388,152,166028,1,2,0:0:0:0:
196,320,166160,1,2,0:0:0:0:
260,192,166291,2,0,L|260:92,1,100,8|8,0:0|0:0,0:0:0:0:
252,192,166686,6,0,L|252:92,1,100,8|8,0:0|0:0,0:0:0:0:
180,32,166949,1,2,0:0:0:0:
88,72,167081,1,8,0:0:0:0:
60,168,167212,1,2,0:0:0:0:
60,168,167278,1,2,0:0:0:0:
60,168,167344,2,0,P|120:180|156:168,1,100,8|8,0:0|0:0,0:0:0:0:
256,192,167607,22,0,P|252:240|224:284,1,100,6|8,0:0|0:0,0:0:0:0:
128,308,167870,1,2,0:0:0:0:
60,168,168002,1,2,0:0:0:0:
215,177,168133,1,0,0:0:0:0:
128,308,168265,2,0,P|72:300|40:272,1,100,2|8,0:0|0:0,0:0:0:0:
136,148,168528,2,0,L|196:68,1,100,2|2,0:0|0:0,0:0:0:0:
376,148,168791,2,0,L|316:68,1,100
256,192,169054,1,2,0:0:0:0:
316,316,169186,1,8,0:0:0:0:
196,68,169317,1,8,0:0:0:0:
200,65,169580,5,8,0:0:0:0:
296,96,169712,1,10,0:0:0:0:
216,288,169843,1,8,0:0:0:0:
352,152,169975,1,8,0:0:0:0:
159,231,170106,1,2,0:0:0:0:
351,232,170238,38,0,L|305:212,1,50,2|2,3:0|3:0,0:0:0:0:
160,152,170370,2,0,L|206:171,1,50,0|2,3:2|3:0,0:0:0:0:
256,192,170501,38,0,L|256:168,39,25,8|0|0|0|0|0|0|0|0|0|0|0|0|0|0|0|0|0|0|0|0|0|0|0|8|0|0|0|0|0|0|0|8|0|8|0|8|0|8|0,3:2|3:2|3:2|3:2|3:2|3:2|3:2|3:2|3:2|3:2|3:2|3:2|3:2|3:2|3:2|3:2|3:2|3:2|3:2|3:2|3:2|3:2|3:2|3:2|3:2|3:2|3:2|3:2|3:2|3:2|3:2|3:2|3:2|3:2|3:2|3:2|3:2|3:2|3:2|3:2,0:0:0:0:
307,194,171817,6,0,P|352:153|361:95,2,119.999996337891,6|0|8,0:0|0:0|0:0,0:0:0:0:
204,189,172211,2,0,P|159:230|150:288,2,119.999996337891,0|2|2,0:0|0:0|0:0,0:0:0:0:
256,285,172606,2,0,P|315:293|371:274,2,119.999996337891,8|0|2,0:0|0:0|0:0,0:0:0:0:
255,98,173000,2,0,P|196:90|140:109,2,119.999996337891,0|8|6,0:0|0:0|0:0,0:0:0:0:
256,192,173527,21,2,0:0:0:0:
244,212,173593,1,0,0:0:0:0:
224,224,173659,1,8,0:0:0:0:
200,228,173724,1,0,0:0:0:0:
176,224,173790,1,0,0:0:0:0:
156,212,173856,1,0,0:0:0:0:
144,192,173922,2,0,P|132:128|116:76,1,119.999996337891,2|0,0:0|0:0,0:0:0:0:
368,192,174185,2,0,P|380:256|396:308,1,119.999996337891,8|0,0:0|0:0,0:0:0:0:
176,271,174448,2,0,P|123:234|74:208,1,119.999996337891,2|2,0:0|0:0,0:0:0:0:
335,112,174711,2,0,P|388:149|437:175,1,119.999996337891,8|0,0:0|0:0,0:0:0:0:
256,304,174974,2,0,P|192:316|140:332,1,119.999996337891,2|2,0:0|0:0,0:0:0:0:
256,80,175237,2,0,P|320:67|372:51,1,119.999996337891,8|2,0:0|0:0,0:0:0:0:
335,271,175500,2,0,P|298:324|272:373,1,119.999996337891,0|2,0:0|0:0,0:0:0:0:
176,112,175763,2,0,P|213:59|239:10,1,119.999996337891,8|0,0:0|0:0,0:0:0:0:
187,214,176027,6,0,L|72:251,1,119.999996337891,6|0,0:0|0:0,0:0:0:0:
256,192,176290,1,8,0:0:0:0:
213,133,176421,2,0,L|142:35,1,119.999996337891,0|2,0:0|0:0,0:0:0:0:
256,192,176684,1,2,0:0:0:0:
298,133,176816,2,0,L|369:36,1,119.999996337891,8|0,0:0|0:0,0:0:0:0:
256,192,177079,1,2,0:0:0:0:
324,214,177211,2,0,L|439:251,1,119.999996337891,0|8,0:0|0:0,0:0:0:0:
256,192,177474,1,6,0:0:0:0:
255,264,177737,6,0,L|255:384,1,119.999996337891,2|8,0:0|0:0,0:0:0:0:
136,372,178000,1,0,0:0:0:0:
56,284,178131,2,0,P|40:224|52:168,1,119.999996337891,6|0,0:0|0:0,0:0:0:0:
197,112,178395,2,0,P|197:171|164:220,1,119.999996337891,8|0,0:0|0:0,0:0:0:0:
51,168,178658,1,2,0:0:0:0:
256,44,178789,1,2,0:0:0:0:
460,168,178921,2,0,P|471:226|456:284,1,119.999996337891,8|0,0:0|0:0,0:0:0:0:
336,288,179184,5,6,0:0:0:0:
308,276,179250,1,0,0:0:0:0:
280,264,179315,1,8,0:0:0:0:
252,252,179381,1,8,0:0:0:0:
224,240,179447,1,8,0:0:0:0:
252,228,179513,1,0,0:0:0:0:
280,216,179578,1,2,0:0:0:0:
308,204,179644,1,0,0:0:0:0:
336,192,179710,1,0,0:0:0:0:
308,180,179776,1,0,0:0:0:0:
280,168,179841,1,2,0:0:0:0:
252,156,179907,1,0,0:0:0:0:
224,144,179973,1,8,0:0:0:0:
252,132,180039,1,0,0:0:0:0:
280,120,180104,1,0,0:0:0:0:
308,108,180170,1,0,0:0:0:0:
336,96,180236,22,0,P|305:41|256:16,1,119.999996337891,6|0,0:0|0:0,0:0:0:0:
136,28,180499,1,8,0:0:0:0:
24,212,180631,2,0,P|55:157|104:132,1,119.999996337891,0|2,0:0|0:0,0:0:0:0:
224,144,180894,1,2,0:0:0:0:
336,328,181026,2,0,P|305:273|256:248,1,119.999996337891,8|0,0:0|0:0,0:0:0:0:
136,260,181289,6,0,P|120:200|132:144,1,119.999996337891,2|0,0:0|0:0,0:0:0:0:
376,260,181552,2,0,P|392:200|380:144,1,119.999996337891,8|2,0:0|0:0,0:0:0:0:
168,200,181815,2,0,P|124:156|112:100,1,119.999996337891,0|2,0:0|0:0,0:0:0:0:
344,200,182078,2,0,P|388:156|400:100,1,119.999996337891,8|0,0:0|0:0,0:0:0:0:
308,24,182341,5,6,0:0:0:0:
204,52,182473,1,0,0:0:0:0:
308,88,182604,1,8,0:0:0:0:
204,116,182736,1,0,0:0:0:0:
308,152,182867,1,2,0:0:0:0:
204,180,182999,1,2,0:0:0:0:
308,216,183131,1,8,0:0:0:0:
204,244,183262,1,2,0:0:0:0:
308,280,183394,1,0,0:0:0:0:
204,308,183525,6,0,L|160:348,2,59.9999981689454,2|0|8,0:0|0:0|0:0,0:0:0:0:
308,344,183788,2,0,L|352:384,2,59.9999981689454,2|0|0,0:0|0:0|0:0,0:0:0:0:
256,228,184051,1,2,0:0:0:0:
256,228,184117,1,2,0:0:0:0:
256,228,184183,2,0,P|292:176|344:156,1,119.999996337891,8|0,0:0|0:0,0:0:0:0:
436,232,184446,21,6,0:0:0:0:
256,72,184578,1,0,0:0:0:0:
496,56,184709,1,8,0:0:0:0:
288,176,184841,2,0,P|224:168|184:132,1,119.999996337891,0|2,0:0|0:0,0:0:0:0:
52,48,185104,2,0,L|52:168,1,119.999996337891,2|8,0:0|0:0,0:0:0:0:
140,320,185367,2,0,P|171:270|164:212,1,119.999996337891,0|2,0:0|0:0,0:0:0:0:
52,168,185630,1,0,0:0:0:0:
144,88,185762,2,0,P|206:89|256:116,1,119.999996337891,8|2,0:0|0:0,0:0:0:0:
368,224,186025,2,0,P|306:225|256:252,1,119.999996337891,0|2,0:0|0:0,0:0:0:0:
288,368,186288,5,8,0:0:0:0:
408,380,186419,1,0,0:0:0:0:
480,284,186551,2,0,P|480:224|448:176,1,119.999996337891,2|0,0:0|0:0,0:0:0:0:
320,48,186814,2,0,P|378:36|434:55,1,119.999996337891,8|0,0:0|0:0,0:0:0:0:
448,176,187077,1,2,0:0:0:0:
360,260,187209,1,2,0:0:0:0:
360,260,187275,1,0,0:0:0:0:
360,260,187340,2,0,P|304:228|280:180,1,119.999996337891,8|0,0:0|0:0,0:0:0:0:
152,260,187603,6,0,P|208:228|232:180,1,119.999996337891,2|0,0:0|0:0,0:0:0:0:
232,179,187801,1,8,0:0:0:0:
232,179,187867,1,8,0:0:0:0:
256,64,187998,1,2,0:0:0:0:
144,20,188130,2,0,P|130:77|152:132,1,119.999996337891,0|2,0:0|0:0,0:0:0:0:
368,20,188393,2,0,P|382:77|360:132,1,119.999996337891,8|0,0:0|0:0,0:0:0:0:
256,192,188656,5,6,0:0:0:0:
152,132,188787,1,0,0:0:0:0:
152,252,188919,1,8,0:0:0:0:
256,192,189051,21,0,0:0:0:0:
360,132,189182,1,2,0:0:0:0:
360,252,189314,1,2,0:0:0:0:
256,192,189445,5,8,0:0:0:0:
152,252,189577,1,0,0:0:0:0:
256,312,189708,1,2,0:0:0:0:
256,192,189840,5,2,0:0:0:0:
360,252,189971,1,8,0:0:0:0:
256,312,190103,1,0,0:0:0:0:
256,192,190235,5,6,0:0:0:0:
256,72,190366,1,2,0:0:0:0:
256,72,190432,1,0,0:0:0:0:
256,72,190498,2,0,P|308:36|364:28,1,119.999996337891,8|0,0:0|0:0,0:0:0:0:
472,172,190761,1,2,0:0:0:0:
360,132,190892,1,0,0:0:0:0:
504,24,191024,1,8,0:0:0:0:
472,172,191155,2,0,P|428:216|372:224,1,119.999996337891,0|2,0:0|0:0,0:0:0:0:
256,72,191419,1,2,0:0:0:0:
40,172,191550,2,0,P|84:210|143:220,1,119.999996337891,8|0,0:0|0:0,0:0:0:0:
376,104,191813,21,2,0:0:0:0:
136,104,191945,1,2,0:0:0:0:
256,312,192076,2,0,P|320:292|352:252,1,119.999996337891,8|0,0:0|0:0,0:0:0:0:
248,192,192339,2,0,P|184:172|152:132,1,119.999996337891,2|2,0:0|0:0,0:0:0:0:
256,72,192603,2,0,L|376:72,1,119.999996337891,8|0,0:0|0:0,0:0:0:0:
376,72,192800,1,0,0:0:0:0:
376,72,192866,6,0,P|396:127|376:182,1,119.999996337891,6|0,0:0|0:0,0:0:0:0:
256,192,193129,1,8,0:0:0:0:
135,72,193260,2,0,P|115:127|135:182,1,119.999996337891,0|2,0:0|0:0,0:0:0:0:
256,192,193523,1,2,0:0:0:0:
388,64,193655,2,0,P|408:119|388:174,1,119.999996337891,8|0,0:0|0:0,0:0:0:0:
256,192,193918,1,2,0:0:0:0:
124,64,194050,2,0,P|103:119|123:174,1,119.999996337891,2|8,0:0|0:0,0:0:0:0:
256,192,194313,1,0,0:0:0:0:
256,312,194444,5,2,0:0:0:0:
148,364,194576,1,2,0:0:0:0:
148,364,194642,1,0,0:0:0:0:
148,364,194707,2,0,P|88:336|64:288,1,119.999996337891,8|0,0:0|0:0,0:0:0:0:
160,148,194971,2,0,L|160:268,1,119.999996337891,2|2,0:0|0:0,0:0:0:0:
352,236,195234,2,0,L|352:116,1,119.999996337891,8|2,0:0|0:0,0:0:0:0:
352,116,195431,1,2,0:0:0:0:
352,116,195497,2,0,B|301:97|275:115|245:135|194:112,2,159.999995117188,8|2|2,0:0|0:0|0:0,0:0:0:0:
256,244,196023,6,0,L|152:304,1,119.999996337891,8|2,0:0|0:0,0:0:0:0:
152,184,196286,1,2,0:0:0:0:
256,244,196418,2,0,L|360:304,1,119.999996337891,8|2,0:0|0:0,0:0:0:0:
360,184,196681,1,2,0:0:0:0:
342,156,196747,1,8,0:0:0:0:
324,128,196813,1,8,0:0:0:0:
308,101,196878,1,8,0:0:0:0:
291,74,196944,1,8,0:0:0:0:
273,46,197010,1,8,0:0:0:0:
256,20,197075,22,0,L|256:240,1,220.000006713867,4|8,0:0|0:0,0:0:0:0:
176,316,197470,1,0,0:0:0:0:
67,291,197602,2,0,P|38:246|31:192,2,110.000003356934,2|2|8,0:0|0:0|0:0,0:0:0:0:
140,208,197996,2,0,P|169:162|176:108,2,110.000003356934,0|2|2,0:0|0:0|0:0,0:0:0:0:
68,124,198391,1,8,0:0:0:0:
68,120,198654,5,2,0:0:0:0:
144,40,198786,1,2,0:0:0:0:
252,24,198917,2,0,L|352:68,1,110.000003356934,8|0,0:0|0:0,0:0:0:0:
356,180,199180,2,0,B|256:134|256:134|156:180,1,220.000006713867,2|8,0:0|0:0,0:0:0:0:
364,292,199575,1,0,0:0:0:0:
148,292,199707,1,2,0:0:0:0:
356,180,199838,1,2,0:0:0:0:
156,180,199970,1,8,0:0:0:0:
256,52,200101,2,0,L|256:272,1,220.000006713867,2|2,0:0|0:0,0:0:0:0:
156,180,200496,2,0,P|256:141|356:180,1,220.000006713867,8|0,0:0|0:0,0:0:0:0:
256,272,200891,5,2,0:0:0:0:
256,272,200956,1,2,0:0:0:0:
256,272,201022,2,0,L|256:160,1,110.000003356934,8|0,0:0|0:0,0:0:0:0:
352,68,201285,2,0,P|434:136|436:242,1,220.000006713867,6|8,0:0|0:0,0:0:0:0:
340,296,201680,1,0,0:0:0:0:
328,188,201811,1,2,0:0:0:0:
420,324,201943,1,2,0:0:0:0:
256,192,202075,1,8,0:0:0:0:
92,324,202206,5,0,0:0:0:0:
184,188,202338,1,2,0:0:0:0:
172,296,202469,1,2,0:0:0:0:
75,242,202601,2,0,P|77:136|160:67,1,220.000006713867,8|2,0:0|0:0,0:0:0:0:
352,68,202995,1,2,0:0:0:0:
159,68,203127,1,8,0:0:0:0:
164,72,203390,22,0,L|184:179,1,110.000003356934,2|0,0:0|0:0,0:0:0:0:
348,312,203653,2,0,L|327:204,1,110.000003356934,8|0,0:0|0:0,0:0:0:0:
196,234,203916,1,2,0:0:0:0:
315,149,204048,1,2,0:0:0:0:
243,264,204179,1,8,0:0:0:0:
268,120,204311,1,2,0:0:0:0:
298,251,204443,6,0,L|368:336,1,110.000003356934,0|2,0:0|0:0,0:0:0:0:
213,132,204706,2,0,L|144:48,1,110.000003356934,8|2,0:0|0:0,0:0:0:0:
256,192,204969,2,0,L|192:228,5,73.3333355712891,8|8|8|0|0|0,0:0|0:0|0:0|3:0|3:0|3:0,0:0:0:0:
256,192,205495,38,0,L|276:120,1,73.3333355712891,4|0,0:0|0:0,0:0:0:0:
256,192,205670,2,0,L|321:155,1,73.3333355712891,0|6,0:0|0:0,0:0:0:0:
256,192,205846,2,0,L|328:212,1,73.3333355712891
256,192,206021,54,0,L|310:287,1,110.000003356934,8|8,0:0|0:0,0:0:0:0:
244,376,206284,1,0,0:0:0:0:
140,340,206416,1,2,0:0:0:0:
140,336,206679,1,2,0:0:0:0:
104,232,206811,2,0,P|112:176|140:132,1,110.000003356934,2|0,0:0|0:0,0:0:0:0:
408,232,207074,2,0,P|400:176|372:132,1,110.000003356934,8|2,0:0|0:0,0:0:0:0:
256,232,207337,2,0,L|256:158,2,73.3333355712891,2|0|0,0:0|0:0|0:0,0:0:0:0:
256,268,207600,6,0,L|192:304,1,73.3333355712891,6|0,0:0|0:0,0:0:0:0:
256,268,207775,2,0,L|320:304,1,73.3333355712891,0|6,0:0|0:0,0:0:0:0:
256,268,207951,2,0,L|256:344,1,73.3333355712891
256,268,208126,6,0,L|256:156,1,110.000003356934,8|8,0:0|0:0,0:0:0:0:
320,68,208389,1,0,0:0:0:0:
428,48,208521,1,2,0:0:0:0:
428,52,208784,1,0,0:0:0:0:
500,136,208916,2,0,P|504:192|484:240,1,110.000003356934,2|2,0:0|0:0,0:0:0:0:
483,240,209113,1,0,0:0:0:0:
483,240,209179,1,8,0:0:0:0:
376,264,209310,1,0,0:0:0:0:
292,192,209442,5,8,0:0:0:0:
256,180,209529,1,8,0:0:0:0:
220,188,209617,1,8,0:0:0:0:
196,216,209705,2,0,P|156:248|100:244,2,110.000003356934,6|0|8,0:0|0:0|0:0,0:0:0:0:
256,124,210100,1,0,0:0:0:0:
256,124,210231,1,2,0:0:0:0:
256,124,210363,2,0,P|306:129|343:172,2,110.000003356934,2|8|0,0:0|0:0|0:0,0:0:0:0:
148,146,210757,6,0,L|40:176,1,110.000003356934,6|0,0:0|0:0,0:0:0:0:
364,238,211020,2,0,L|472:208,1,110.000003356934,8|0,0:0|0:0,0:0:0:0:
460,76,211284,2,0,L|352:106,1,110.000003356934,2|2,0:0|0:0,0:0:0:0:
52,308,211547,2,0,L|160:278,1,110.000003356934,8|0,0:0|0:0,0:0:0:0:
256,192,211810,6,0,P|264:136|248:84,1,110.000003356934,6|0,0:0|0:0,0:0:0:0:
140,68,212073,1,8,0:0:0:0:
372,316,212204,1,0,0:0:0:0:
87,187,212336,1,2,0:0:0:0:
426,198,212467,1,2,0:0:0:0:
132,308,212599,1,8,0:0:0:0:
380,76,212730,1,0,0:0:0:0:
380,76,212796,1,0,0:0:0:0:
380,76,212862,2,0,L|356:184,1,110.000003356934,12|8,0:0|0:0,0:0:0:0:
356,188,213388,21,2,0:0:0:0:
210,281,213564,1,2,0:0:0:0:
203,108,213739,1,2,0:0:0:0:
256,191,213915,6,0,P|193:208|131:191,1,129.999994049073,12|2,0:0|0:0,0:0:0:0:
116,20,214178,2,0,P|171:52|203:109,1,129.999994049073,8|0,0:0|0:0,0:0:0:0:
92,176,214441,1,2,0:0:0:0:
20,68,214572,1,2,0:0:0:0:
152,68,214704,2,0,L|284:68,1,129.999994049073,8|0,0:0|0:0,0:0:0:0:
352,176,214967,2,0,L|92:176,1,259.999988098145,2|8,0:0|0:0,0:0:0:0:
52,300,215362,2,0,P|176:289|224:176,1,259.999988098145,2|2,0:0|0:0,0:0:0:0:
224,172,215691,1,0,0:0:0:0:
224,168,215756,2,0,P|263:117|324:100,1,129.999994049073,8|0,0:0|0:0,0:0:0:0:
428,180,216020,5,2,0:0:0:0:
308,228,216151,1,0,0:0:0:0:
324,100,216283,2,0,P|376:56|428:24,1,129.999994049073,8|0,0:0|0:0,0:0:0:0:
188,100,216546,2,0,P|136:56|84:24,1,129.999994049073,2|2,0:0|0:0,0:0:0:0:
0,124,216809,5,8,0:0:0:0:
84,224,216940,1,0,0:0:0:0:
8,328,217072,2,0,L|0:196,1,129.999994049073,2|2,0:0|0:0,0:0:0:0:
0,198,217269,1,0,0:0:0:0:
0,198,217335,2,0,P|60:164|88:112,1,129.999994049073,8|2,0:0|0:0,0:0:0:0:
180,204,217598,1,0,0:0:0:0:
84,108,217730,1,2,0:0:0:0:
80,104,217796,1,2,0:0:0:0:
76,100,217861,2,0,P|188:56|304:120,1,259.999988098145,8|6,0:0|0:0,0:0:0:0:
180,204,218256,21,0,0:0:0:0:
192,76,218388,1,8,0:0:0:0:
312,28,218519,2,0,P|363:77|376:132,2,129.999994049073,0|2|2,0:0|0:0|0:0,0:0:0:0:
256,144,218914,2,0,P|120:136|56:40,1,259.999988098145,8|2,0:0|0:0,0:0:0:0:
56,36,219440,2,0,P|123:19|179:35,1,129.999994049073,8|2,0:0|0:0,0:0:0:0:
56,32,219835,6,0,P|123:15|179:31,1,129.999994049073,2|8,0:0|0:0,0:0:0:0:
256,136,220098,1,0,0:0:0:0:
172,236,220229,1,2,0:0:0:0:
132,248,220317,1,0,0:0:0:0:
88,240,220405,1,0,0:0:0:0:
56,208,220492,1,8,0:0:0:0:
44,168,220580,1,0,0:0:0:0:
60,128,220668,1,0,0:0:0:0:
96,104,220756,6,0,L|172:144,2,86.6666626993817,2|0|0,0:0|0:0|0:0,0:0:0:0:
104,60,221019,1,8,0:0:0:0:
144,44,221106,1,0,0:0:0:0:
188,44,221194,1,0,0:0:0:0:
228,64,221282,6,0,L|304:24,2,86.6666626993817,2|0|0,0:0|0:0|0:0,0:0:0:0:
252,100,221545,2,0,P|312:128|376:124,1,129.999994049073,8|2,0:0|0:0,0:0:0:0:
464,220,221808,2,0,P|399:216|341:244,1,129.999994049073,0|2,0:0|0:0,0:0:0:0:
341,244,222005,1,2,0:0:0:0:
341,243,222071,2,0,P|304:300|248:320,1,129.999994049073,8|0,0:0|0:0,0:0:0:0:
152,232,222334,21,6,0:0:0:0:
152,232,222466,1,0,0:0:0:0:
360,152,222597,1,8,0:0:0:0:
360,152,222729,1,0,0:0:0:0:
216,88,222860,1,2,0:0:0:0:
216,88,222992,1,2,0:0:0:0:
295,296,223123,1,8,0:0:0:0:
295,296,223255,1,0,0:0:0:0:
256,192,223387,6,0,P|320:200|368:244,1,129.999994049073,2|0,0:0|0:0,0:0:0:0:
256,192,223650,2,0,P|264:128|308:80,1,129.999994049073,8|2,0:0|0:0,0:0:0:0:
256,192,223913,2,0,P|192:184|144:140,1,129.999994049073,0|2,0:0|0:0,0:0:0:0:
256,192,224176,2,0,P|248:256|204:304,1,129.999994049073,8|0,0:0|0:0,0:0:0:0:
108,216,224439,6,0,L|36:108,1,129.999994049073,6|0,0:0|0:0,0:0:0:0:
168,100,224702,1,8,0:0:0:0:
108,216,224834,2,0,L|16:308,1,129.999994049073,0|2,0:0|0:0,0:0:0:0:
144,340,225097,1,2,0:0:0:0:
108,216,225228,1,8,0:0:0:0:
404,216,225360,1,6,0:0:0:0:
404,212,225623,5,2,0:0:0:0:
384,188,225689,1,0,0:0:0:0:
352,180,225755,1,8,0:0:0:0:
320,184,225820,1,0,0:0:0:0:
296,208,225886,1,2,0:0:0:0:
256,332,226018,2,0,P|197:305|168:249,1,129.999994049073,0|2,0:0|0:0,0:0:0:0:
168,249,226215,1,2,0:0:0:0:
168,249,226281,1,8,0:0:0:0:
236,136,226412,1,0,0:0:0:0:
352,76,226544,22,0,L|384:156,2,86.6666626993817,6|0|0,0:0|0:0|0:0,0:0:0:0:
160,76,226807,2,0,L|128:156,2,86.6666626993817,8|0|0,0:0|0:0|0:0,0:0:0:0:
352,76,227070,2,0,L|419:130,2,86.6666626993817,2|0|0,0:0|0:0|0:0,0:0:0:0:
160,76,227333,2,0,L|92:130,2,86.6666626993817,8|0|0,0:0|0:0|0:0,0:0:0:0:
352,76,227596,2,0,L|437:89,2,86.6666626993817,2|0|0,0:0|0:0|0:0,0:0:0:0:
160,76,227860,2,0,L|74:89,2,86.6666626993817,8|0|0,0:0|0:0|0:0,0:0:0:0:
352,76,228123,2,0,L|432:44,2,86.6666626993817,2|0|0,0:0|0:0|0:0,0:0:0:0:
160,76,228386,2,0,L|80:44,2,86.6666626993817,8|0|0,0:0|0:0|0:0,0:0:0:0:
336,180,228649,6,0,L|420:160,2,86.6666626993817,6|0|0,0:0|0:0|0:0,0:0:0:0:
176,204,228912,2,0,L|92:224,2,86.6666626993817,8|0|0,0:0|0:0|0:0,0:0:0:0:
321,240,229175,2,0,L|394:285,2,86.6666626993817,2|0|0,0:0|0:0|0:0,0:0:0:0:
190,143,229438,2,0,L|117:98,2,86.6666626993817,8|0|0,0:0|0:0|0:0,0:0:0:0:
256,192,229701,6,0,P|284:132|284:68,1,129.999994049073,6|2,0:0|0:0,0:0:0:0:
160,28,229964,1,8,0:0:0:0:
48,92,230096,1,2,0:0:0:0:
32,120,230162,1,2,0:0:0:0:
28,152,230228,1,0,0:0:0:0:
40,180,230293,1,0,0:0:0:0:
68,200,230359,1,2,0:0:0:0:
100,204,230425,1,2,0:0:0:0:
132,192,230491,2,0,L|156:132,3,64.9999970245363,8|8|8|10,0:0|0:0|0:0|0:0,0:0:0:0:
180,108,230754,5,6,0:0:0:0:
220,96,230841,1,0,0:0:0:0:
264,104,230929,1,0,0:0:0:0:
296,132,231017,1,8,0:0:0:0:
312,172,231105,1,0,0:0:0:0:
312,216,231192,1,0,0:0:0:0:
288,252,231280,1,2,0:0:0:0:
252,276,231368,1,0,0:0:0:0:
208,280,231455,1,0,0:0:0:0:
168,260,231543,1,8,0:0:0:0:
152,220,231631,1,0,0:0:0:0:
160,176,231719,1,0,0:0:0:0:
192,148,231806,1,2,0:0:0:0:
236,140,231894,1,0,0:0:0:0:
272,164,231982,1,0,0:0:0:0:
276,208,232069,1,8,0:0:0:0:
244,236,232157,1,0,0:0:0:0:
200,236,232245,1,0,0:0:0:0:
180,200,232332,1,2,0:0:0:0:
184,156,232420,1,0,0:0:0:0:
216,124,232508,1,0,0:0:0:0:
260,116,232596,1,8,0:0:0:0:
300,132,232683,1,0,0:0:0:0:
320,172,232771,1,0,0:0:0:0:
323,216,232859,22,0,P|230:294|128:229,1,259.999988098145,2|12,0:0|0:0,0:0:0:0:
112,100,233253,2,0,P|40:116|8:160,2,129.999994049073,0|2|2,0:0|0:0|0:0,0:0:0:0:
224,164,233648,1,8,0:0:0:0:
112,228,233780,1,0,0:0:0:0:
112,100,233911,2,0,P|159:55|220:40,1,129.999994049073,2|2,0:0|0:0,0:0:0:0:
396,196,234174,2,0,P|351:149|336:88,1,129.999994049073,8|0,0:0|0:0,0:0:0:0:
448,20,234437,5,2,0:0:0:0:
256,120,234569,1,2,0:0:0:0:
452,116,234700,2,0,P|492:176|488:232,1,129.999994049073,8|0,0:0|0:0,0:0:0:0:
372,292,234964,1,2,0:0:0:0:
140,292,235095,1,0,0:0:0:0:
256,236,235227,1,12,0:0:0:0:
23,231,235358,2,0,P|22:167|60:116,1,129.999994049073,0|2,0:0|0:0,0:0:0:0:
176,56,235621,1,2,0:0:0:0:
256,160,235753,2,0,P|312:200|372:204,1,129.999994049073,8|0,0:0|0:0,0:0:0:0:
453,27,236016,6,0,P|389:35|340:76,1,129.999994049073,2|2,0:0|0:0,0:0:0:0:
372,204,236279,1,8,0:0:0:0:
492,256,236411,1,0,0:0:0:0:
476,128,236542,2,0,L|416:104,2,64.9999970245363,2|0|2,0:0|0:0|0:0,0:0:0:0:
492,256,236805,1,8,0:0:0:0:
384,328,236937,1,0,0:0:0:0:
264,276,237068,6,0,P|208:232|196:176,1,129.999994049073,2|2,0:0|0:0,0:0:0:0:
300,48,237332,2,0,L|300:178,1,129.999994049073,12|2,0:0|0:0,0:0:0:0:
300,178,237529,1,2,0:0:0:0:
300,178,237595,1,8,0:0:0:0:
268,240,237770,1,2,0:0:0:0:
200,256,237946,1,2,0:0:0:0:
140,220,238121,22,0,P|111:165|116:100,1,129.999994049073,8|2,0:0|0:0,0:0:0:0:
116,99,238318,1,2,0:0:0:0:
116,99,238384,1,2,0:0:0:0:
256,52,238516,2,0,L|256:184,1,129.999994049073,8|0,0:0|0:0,0:0:0:0:
371,220,238779,1,2,0:0:0:0:
371,220,238844,1,2,0:0:0:0:
371,220,238910,2,0,P|401:162|395:99,1,129.999994049073,8|0,0:0|0:0,0:0:0:0:
256,48,239173,5,8,3:2:0:0:
256,72,239239,1,0,3:2:0:0:
256,96,239305,1,2,0:0:0:0:
256,120,239371,1,2,0:0:0:0:
256,144,239436,1,0,3:2:0:0:
256,168,239502,1,0,3:2:0:0:
256,192,239568,1,2,0:0:0:0:
256,216,239634,1,2,0:0:0:0:
256,240,239700,1,0,3:2:0:0:
256,264,239765,1,0,3:2:0:0:
256,288,239831,1,2,0:0:0:0:
256,312,239897,1,2,0:0:0:0:
256,336,239963,1,8,3:2:0:0:
256,340,240226,6,0,L|176:280,1,100,2|8,0:0|0:0,0:0:0:0:
127,118,240489,2,0,L|219:78,1,100,8|8,0:0|0:0,0:0:0:0:
384,118,240752,2,0,L|372:217,1,100,8|8,0:0|0:0,0:0:0:0:
256,192,241147,5,6,0:0:0:0:
256,192,241212,12,10,242068,0:0:0:0:
