osu file format v14

[General]
AudioFilename: S.S.H. - Dead Alus.mp3
AudioLeadIn: 0
PreviewTime: 71813
Countdown: 0
SampleSet: Normal
StackLeniency: 0.7
Mode: 1
LetterboxInBreaks: 0
WidescreenStoryboard: 0

[Editor]
DistanceSpacing: 0.6
BeatDivisor: 4
GridSize: 32
TimelineZoom: 2.599999

[Metadata]
Title:Daedalus
TitleUnicode:Daedalus
Artist:S.S.H.
ArtistUnicode:S.S.H.
Creator:DarkVortex
Version:Muzukashii
Source:デジタル・デビル物語 女神転生
Tags:ssh Saitama Saisyu Heiki Digital Devil Story Megami Tensei
BeatmapID:793430
BeatmapSetID:358799

[Difficulty]
HPDrainRate:6
CircleSize:2
OverallDifficulty:5
ApproachRate:5
SliderMultiplier:1.4
SliderTickRate:1

[Events]
//Background and Video events
0,0,"tiger_fractal_cats_____e_1366x768.jpg",0,0
//Break Periods
//Storyboard Layer 0 (Background)
//Storyboard Layer 1 (Fail)
//Storyboard Layer 2 (Pass)
//Storyboard Layer 3 (Foreground)
//Storyboard Sound Samples

[TimingPoints]
684,277.842093077101,4,1,0,10,1,0
7352,-100,4,1,0,35,0,0
8463,-100,4,1,0,40,0,0
9158,-100,4,1,0,55,0,0
9574,-100,4,1,0,65,0,0
18465,-100,4,1,0,75,0,0
91816,-100,4,1,0,75,0,1
127379,-100,4,1,0,60,0,0
135159,304.568527918782,4,1,0,60,1,0
135159,-90.9090909090909,4,1,0,60,0,0
135615,342.857142857143,4,1,0,60,1,8
135615,-81.0372771474878,4,1,0,60,0,0
135957,375,4,1,0,60,1,8
135957,-74.0740740740741,4,1,0,60,0,0
136144,422.535211267606,4,1,0,60,1,8
136144,-65.7894736842105,4,1,0,60,0,0
136355,535.714285714286,4,1,0,60,1,8
136355,-51.8134715025907,4,1,0,60,0,0
136622,600,4,1,0,60,1,0
136622,-46.2962962962963,4,1,0,60,0,0
136772,-46.2962962962963,4,1,0,30,0,0

[HitObjects]
256,192,7352,12,0,8880,0:0:0:0:
256,192,9158,5,0,0:0:0:0:
256,192,9227,1,0,0:0:0:0:
256,192,9297,1,0,0:0:0:0:
256,192,9436,1,0,0:0:0:0:
256,192,9574,1,12,0:0:0:0:
256,192,9991,1,8,0:0:0:0:
256,192,10686,1,8,0:0:0:0:
256,192,11103,1,8,0:0:0:0:
256,192,11797,1,4,0:0:0:0:
256,192,12214,1,8,0:0:0:0:
256,192,12909,1,8,0:0:0:0:
256,192,13325,1,8,0:0:0:0:
256,192,14020,1,4,0:0:0:0:
256,192,14437,1,8,0:0:0:0:
256,192,15131,1,0,0:0:0:0:
256,192,15409,1,8,0:0:0:0:
256,192,15687,1,8,0:0:0:0:
256,192,15965,1,8,0:0:0:0:
256,192,16104,1,8,0:0:0:0:
256,192,16243,1,0,0:0:0:0:
256,192,16659,1,8,0:0:0:0:
256,192,17076,1,0,0:0:0:0:
256,192,17354,1,8,0:0:0:0:
256,192,17632,1,0,0:0:0:0:
256,192,17771,1,8,0:0:0:0:
256,192,18049,1,8,0:0:0:0:
256,192,18188,1,0,0:0:0:0:
256,192,18257,1,0,0:0:0:0:
256,192,18326,1,0,0:0:0:0:
256,192,18465,1,12,0:0:0:0:
256,192,18743,1,0,0:0:0:0:
256,192,18882,1,8,0:0:0:0:
256,192,19160,1,0,0:0:0:0:
256,192,19299,1,0,0:0:0:0:
256,192,19577,1,8,0:0:0:0:
256,192,19855,1,0,0:0:0:0:
256,192,19994,1,8,0:0:0:0:
256,192,20271,1,0,0:0:0:0:
256,192,20410,1,0,0:0:0:0:
256,192,20688,1,0,0:0:0:0:
256,192,20966,1,0,0:0:0:0:
256,192,21105,1,8,0:0:0:0:
256,192,21383,1,0,0:0:0:0:
256,192,21522,1,0,0:0:0:0:
256,192,21799,1,8,0:0:0:0:
256,192,22077,1,0,0:0:0:0:
256,192,22216,1,8,0:0:0:0:
256,192,22494,1,0,0:0:0:0:
256,192,22633,1,0,0:0:0:0:
256,192,22911,1,0,0:0:0:0:
256,192,23189,1,0,0:0:0:0:
256,192,23328,1,8,0:0:0:0:
256,192,23605,1,0,0:0:0:0:
256,192,23744,1,0,0:0:0:0:
256,192,24022,1,8,0:0:0:0:
256,192,24300,1,0,0:0:0:0:
256,192,24439,1,8,0:0:0:0:
256,192,24717,1,0,0:0:0:0:
256,192,24856,1,0,0:0:0:0:
256,192,25134,1,8,0:0:0:0:
256,192,25273,1,0,0:0:0:0:
256,192,25550,1,8,0:0:0:0:
256,192,25828,1,0,0:0:0:0:
256,192,25967,1,0,0:0:0:0:
256,192,26245,1,8,0:0:0:0:
256,192,26384,1,8,0:0:0:0:
256,192,26523,1,0,0:0:0:0:
256,192,26662,1,8,0:0:0:0:
256,192,26940,1,8,0:0:0:0:
256,192,27078,1,8,0:0:0:0:
256,192,27217,1,0,0:0:0:0:
256,192,27287,1,0,0:0:0:0:
256,192,27356,1,0,0:0:0:0:
256,192,27634,1,0,0:0:0:0:
256,192,27773,1,8,0:0:0:0:
256,192,28051,1,0,0:0:0:0:
256,192,28190,1,0,0:0:0:0:
256,192,28468,1,0,0:0:0:0:
256,192,28746,1,8,0:0:0:0:
256,192,28884,1,0,0:0:0:0:
256,192,29023,1,8,0:0:0:0:
256,192,29579,1,8,0:0:0:0:
256,192,29857,1,0,0:0:0:0:
256,192,29996,1,8,0:0:0:0:
256,192,30274,1,8,0:0:0:0:
256,192,30413,1,0,0:0:0:0:
256,192,30690,1,0,0:0:0:0:
256,192,30968,1,8,0:0:0:0:
256,192,31107,1,0,0:0:0:0:
256,192,31246,1,8,0:0:0:0:
256,192,31802,1,0,0:0:0:0:
256,192,32080,1,0,0:0:0:0:
256,192,32219,1,8,0:0:0:0:
256,192,32496,1,0,0:0:0:0:
256,192,32635,1,0,0:0:0:0:
256,192,32913,1,0,0:0:0:0:
256,192,33191,1,8,0:0:0:0:
256,192,33330,1,0,0:0:0:0:
256,192,33469,1,8,0:0:0:0:
256,192,34025,1,8,0:0:0:0:
256,192,34163,1,8,0:0:0:0:
256,192,34302,1,0,0:0:0:0:
256,192,34441,1,8,0:0:0:0:
256,192,34719,1,8,0:0:0:0:
256,192,34858,1,0,0:0:0:0:
256,192,35136,1,8,0:0:0:0:
256,192,35414,1,0,0:0:0:0:
256,192,35553,1,8,0:0:0:0:
256,192,35831,1,0,0:0:0:0:
256,192,35969,1,8,0:0:0:0:
256,192,36108,1,8,0:0:0:0:
256,192,36247,1,4,0:0:0:0:
256,192,36664,1,0,0:0:0:0:
256,192,37081,1,0,0:0:0:0:
256,192,37498,1,0,0:0:0:0:
256,192,37914,1,8,0:0:0:0:
256,192,38470,1,8,0:0:0:0:
256,192,38609,1,8,0:0:0:0:
256,192,38748,1,0,0:0:0:0:
256,192,38887,1,0,0:0:0:0:
256,192,39026,1,8,0:0:0:0:
256,192,39304,1,0,0:0:0:0:
256,192,39442,1,8,0:0:0:0:
256,192,39581,1,0,0:0:0:0:
256,192,39859,1,8,0:0:0:0:
256,192,39998,1,8,0:0:0:0:
256,192,40137,1,0,0:0:0:0:
256,192,40276,1,0,0:0:0:0:
256,192,40415,1,8,0:0:0:0:
256,192,40693,1,0,0:0:0:0:
256,192,40971,1,8,0:0:0:0:
256,192,41110,1,0,0:0:0:0:
256,192,41248,1,0,0:0:0:0:
256,192,41526,1,8,0:0:0:0:
256,192,41665,1,0,0:0:0:0:
256,192,41804,1,8,0:0:0:0:
256,192,42082,1,8,0:0:0:0:
256,192,42221,1,8,0:0:0:0:
256,192,42360,1,0,0:0:0:0:
256,192,42638,1,8,0:0:0:0:
256,192,42777,1,8,0:0:0:0:
256,192,42915,1,8,0:0:0:0:
256,192,43193,1,8,0:0:0:0:
256,192,43332,1,8,0:0:0:0:
256,192,43471,1,0,0:0:0:0:
256,192,43749,1,8,0:0:0:0:
256,192,43888,1,0,0:0:0:0:
256,192,44027,1,8,0:0:0:0:
256,192,44305,1,0,0:0:0:0:
256,192,44444,1,0,0:0:0:0:
256,192,44583,1,8,0:0:0:0:
256,192,44721,1,8,0:0:0:0:
256,192,44860,1,0,0:0:0:0:
256,192,45138,1,0,0:0:0:0:
256,192,45694,1,0,0:0:0:0:
256,192,45972,1,8,0:0:0:0:
256,192,46111,1,0,0:0:0:0:
256,192,46250,1,8,0:0:0:0:
256,192,46527,1,8,0:0:0:0:
256,192,46666,1,8,0:0:0:0:
256,192,46805,1,0,0:0:0:0:
256,192,47083,1,8,0:0:0:0:
256,192,47222,1,8,0:0:0:0:
256,192,47361,1,8,0:0:0:0:
256,192,47639,1,8,0:0:0:0:
256,192,47778,1,8,0:0:0:0:
256,192,47917,1,0,0:0:0:0:
256,192,48472,1,8,0:0:0:0:
256,192,48611,1,8,0:0:0:0:
256,192,48750,1,8,0:0:0:0:
256,192,49028,1,8,0:0:0:0:
256,192,49167,1,8,0:0:0:0:
256,192,49306,1,0,0:0:0:0:
256,192,49445,1,0,0:0:0:0:
256,192,49584,1,8,0:0:0:0:
256,192,49862,1,0,0:0:0:0:
256,192,50000,1,8,0:0:0:0:
256,192,50417,1,8,0:0:0:0:
256,192,50695,1,0,0:0:0:0:
256,192,50834,1,8,0:0:0:0:
256,192,51251,1,8,0:0:0:0:
256,192,51529,1,8,0:0:0:0:
256,192,51806,1,8,0:0:0:0:
256,192,51945,1,0,0:0:0:0:
256,192,52223,1,8,0:0:0:0:
256,192,52362,1,0,0:0:0:0:
256,192,52640,1,8,0:0:0:0:
256,192,52779,1,8,0:0:0:0:
256,192,52918,1,0,0:0:0:0:
256,192,53335,1,0,0:0:0:0:
256,192,53473,1,8,0:0:0:0:
256,192,53751,1,0,0:0:0:0:
256,192,53890,1,8,0:0:0:0:
256,192,54029,1,0,0:0:0:0:
256,192,54307,1,8,0:0:0:0:
256,192,54446,1,0,0:0:0:0:
256,192,54585,1,8,0:0:0:0:
256,192,54724,1,8,0:0:0:0:
256,192,54863,1,0,0:0:0:0:
256,192,55002,1,8,0:0:0:0:
256,192,55141,1,0,0:0:0:0:
256,192,55418,1,8,0:0:0:0:
256,192,55557,1,0,0:0:0:0:
256,192,55696,1,8,0:0:0:0:
256,192,55835,1,8,0:0:0:0:
256,192,55974,1,0,0:0:0:0:
256,192,56252,1,0,0:0:0:0:
256,192,56530,1,0,0:0:0:0:
256,192,56669,1,0,0:0:0:0:
256,192,56808,1,8,0:0:0:0:
256,192,57085,1,8,0:0:0:0:
256,192,57224,1,8,0:0:0:0:
256,192,57363,1,8,0:0:0:0:
256,192,57641,1,8,0:0:0:0:
256,192,57919,1,0,0:0:0:0:
256,192,58475,1,0,0:0:0:0:
256,192,58752,1,0,0:0:0:0:
256,192,58891,1,0,0:0:0:0:
256,192,59030,1,8,0:0:0:0:
256,192,59308,1,0,0:0:0:0:
256,192,59586,1,8,0:0:0:0:
256,192,59725,1,8,0:0:0:0:
256,192,59794,1,8,0:0:0:0:
256,192,59864,1,8,0:0:0:0:
256,192,60003,1,0,0:0:0:0:
256,192,60142,1,8,0:0:0:0:
256,192,60420,1,8,0:0:0:0:
256,192,60697,1,8,0:0:0:0:
256,192,60836,1,0,0:0:0:0:
256,192,60975,1,8,0:0:0:0:
256,192,61114,1,0,0:0:0:0:
256,192,61253,1,8,0:0:0:0:
256,192,61392,1,8,0:0:0:0:
256,192,61531,1,0,0:0:0:0:
256,192,61670,1,8,0:0:0:0:
256,192,61809,1,0,0:0:0:0:
256,192,62087,1,0,0:0:0:0:
256,192,62226,1,0,0:0:0:0:
256,192,62364,1,8,0:0:0:0:
256,192,62920,1,0,0:0:0:0:
256,192,63059,1,0,0:0:0:0:
256,192,63198,1,8,0:0:0:0:
256,192,63476,1,0,0:0:0:0:
256,192,63615,1,0,0:0:0:0:
256,192,63754,1,8,0:0:0:0:
256,192,64031,1,0,0:0:0:0:
256,192,64170,1,0,0:0:0:0:
256,192,64309,1,8,0:0:0:0:
256,192,64587,1,0,0:0:0:0:
256,192,64726,1,8,0:0:0:0:
256,192,64865,1,8,0:0:0:0:
256,192,65004,1,0,0:0:0:0:
256,192,65143,1,8,0:0:0:0:
256,192,65282,1,8,0:0:0:0:
256,192,65421,1,0,0:0:0:0:
256,192,65560,1,8,0:0:0:0:
256,192,65629,1,8,0:0:0:0:
256,192,65699,1,8,0:0:0:0:
256,192,65837,1,0,0:0:0:0:
256,192,65976,1,8,0:0:0:0:
256,192,66254,1,0,0:0:0:0:
256,192,66393,1,0,0:0:0:0:
256,192,66532,1,8,0:0:0:0:
256,192,66671,1,8,0:0:0:0:
256,192,66740,1,8,0:0:0:0:
256,192,66810,1,8,0:0:0:0:
256,192,66949,1,8,0:0:0:0:
256,192,67088,1,0,0:0:0:0:
256,192,67227,1,0,0:0:0:0:
256,192,67366,1,8,0:0:0:0:
256,192,67643,1,8,0:0:0:0:
256,192,67782,1,8,0:0:0:0:
256,192,67921,1,0,0:0:0:0:
256,192,68060,1,0,0:0:0:0:
256,192,68199,1,0,0:0:0:0:
256,192,68338,1,8,0:0:0:0:
256,192,68477,1,0,0:0:0:0:
256,192,68755,1,0,0:0:0:0:
256,192,68894,1,0,0:0:0:0:
256,192,69033,1,8,0:0:0:0:
256,192,69172,1,0,0:0:0:0:
256,192,69310,1,8,0:0:0:0:
256,192,69449,1,8,0:0:0:0:
256,192,69588,1,0,0:0:0:0:
256,192,69866,1,8,0:0:0:0:
256,192,70005,1,0,0:0:0:0:
256,192,70144,1,8,0:0:0:0:
256,192,70283,1,0,0:0:0:0:
256,192,70422,1,8,0:0:0:0:
256,192,70561,1,0,0:0:0:0:
256,192,70700,1,8,0:0:0:0:
256,192,71811,1,12,0:0:0:0:
256,192,72089,1,0,0:0:0:0:
256,192,72228,1,0,0:0:0:0:
256,192,72367,1,8,0:0:0:0:
256,192,72506,1,8,0:0:0:0:
256,192,72645,1,0,0:0:0:0:
256,192,72922,1,8,0:0:0:0:
256,192,73200,1,0,0:0:0:0:
256,192,73339,1,0,0:0:0:0:
256,192,73478,1,8,0:0:0:0:
256,192,73617,1,8,0:0:0:0:
256,192,73756,1,0,0:0:0:0:
256,192,74034,1,8,0:0:0:0:
256,192,74312,1,0,0:0:0:0:
256,192,74451,1,0,0:0:0:0:
256,192,74589,1,8,0:0:0:0:
256,192,74728,1,0,0:0:0:0:
256,192,74867,1,0,0:0:0:0:
256,192,75145,1,8,0:0:0:0:
256,192,75423,1,0,0:0:0:0:
256,192,75562,1,0,0:0:0:0:
256,192,75701,1,8,0:0:0:0:
256,192,75840,1,0,0:0:0:0:
256,192,75979,1,0,0:0:0:0:
256,192,76257,1,0,0:0:0:0:
256,192,76395,1,0,0:0:0:0:
256,192,76534,1,8,0:0:0:0:
256,192,76812,1,0,0:0:0:0:
256,192,76951,1,8,0:0:0:0:
256,192,77090,1,0,0:0:0:0:
256,192,77229,1,8,0:0:0:0:
256,192,77368,1,8,0:0:0:0:
256,192,77507,1,8,0:0:0:0:
256,192,77646,1,0,0:0:0:0:
256,192,77785,1,0,0:0:0:0:
256,192,77924,1,8,0:0:0:0:
256,192,78063,1,8,0:0:0:0:
256,192,78201,1,0,0:0:0:0:
256,192,78479,1,0,0:0:0:0:
256,192,78618,1,0,0:0:0:0:
256,192,78757,1,8,0:0:0:0:
256,192,78896,1,8,0:0:0:0:
256,192,78966,1,8,0:0:0:0:
256,192,79035,1,8,0:0:0:0:
256,192,79174,1,8,0:0:0:0:
256,192,79313,1,0,0:0:0:0:
256,192,79452,1,0,0:0:0:0:
256,192,79591,1,8,0:0:0:0:
256,192,80007,1,8,0:0:0:0:
256,192,80424,1,8,0:0:0:0:
256,192,80702,1,0,0:0:0:0:
256,192,80980,1,8,0:0:0:0:
256,192,81119,1,8,0:0:0:0:
256,192,81258,1,8,0:0:0:0:
256,192,81536,1,8,0:0:0:0:
256,192,81674,1,8,0:0:0:0:
256,192,81813,1,0,0:0:0:0:
256,192,81952,1,0,0:0:0:0:
256,192,82091,1,8,0:0:0:0:
256,192,82230,1,8,0:0:0:0:
256,192,82369,1,0,0:0:0:0:
256,192,82508,1,8,0:0:0:0:
256,192,82647,1,8,0:0:0:0:
256,192,82786,1,8,0:0:0:0:
256,192,82925,1,0,0:0:0:0:
256,192,83203,1,0,0:0:0:0:
256,192,83480,1,8,0:0:0:0:
256,192,83619,1,8,0:0:0:0:
256,192,83758,1,0,0:0:0:0:
256,192,83828,1,0,0:0:0:0:
256,192,83897,1,0,0:0:0:0:
256,192,84036,1,8,0:0:0:0:
256,192,84314,1,8,0:0:0:0:
256,192,84453,1,0,0:0:0:0:
256,192,84592,1,8,0:0:0:0:
256,192,84731,1,8,0:0:0:0:
256,192,84870,1,0,0:0:0:0:
256,192,85147,1,8,0:0:0:0:
256,192,85425,1,8,0:0:0:0:
256,192,85703,1,8,0:0:0:0:
256,192,85912,1,8,0:0:0:0:
256,192,86120,1,8,0:0:0:0:
256,192,86328,1,8,0:0:0:0:
256,192,86537,1,0,0:0:0:0:
256,192,86676,1,0,0:0:0:0:
256,192,86815,1,8,0:0:0:0:
256,192,87092,1,8,0:0:0:0:
256,192,87231,1,8,0:0:0:0:
256,192,87370,1,0,0:0:0:0:
256,192,87648,1,0,0:0:0:0:
256,192,87926,1,8,0:0:0:0:
256,192,88204,1,8,0:0:0:0:
256,192,88343,1,0,0:0:0:0:
256,192,88482,1,8,0:0:0:0:
256,192,88621,1,8,0:0:0:0:
256,192,88759,1,0,0:0:0:0:
256,192,88898,1,8,0:0:0:0:
256,192,89037,1,0,0:0:0:0:
256,192,89176,1,0,0:0:0:0:
256,192,89315,1,8,0:0:0:0:
256,192,89454,1,8,0:0:0:0:
256,192,89593,1,0,0:0:0:0:
256,192,90704,1,8,0:0:0:0:
256,192,90982,1,0,0:0:0:0:
256,192,91121,1,8,0:0:0:0:
256,192,91399,1,0,0:0:0:0:
256,192,91538,1,8,0:0:0:0:
256,192,91816,1,12,0:0:0:0:
256,192,92094,1,0,0:0:0:0:
256,192,92232,1,8,0:0:0:0:
256,192,92510,1,8,0:0:0:0:
256,192,92649,1,0,0:0:0:0:
256,192,92927,1,8,0:0:0:0:
256,192,93205,1,0,0:0:0:0:
256,192,93344,1,8,0:0:0:0:
256,192,93622,1,0,0:0:0:0:
256,192,93761,1,8,0:0:0:0:
256,192,94038,1,8,0:0:0:0:
256,192,94316,1,8,0:0:0:0:
256,192,94455,1,8,0:0:0:0:
256,192,94733,1,0,0:0:0:0:
256,192,94872,1,8,0:0:0:0:
256,192,95150,1,8,0:0:0:0:
256,192,95428,1,0,0:0:0:0:
256,192,95567,1,8,0:0:0:0:
256,192,95844,1,8,0:0:0:0:
256,192,95983,1,8,0:0:0:0:
256,192,96261,1,8,0:0:0:0:
256,192,96539,1,0,0:0:0:0:
256,192,96678,1,8,0:0:0:0:
256,192,96956,1,0,0:0:0:0:
256,192,97095,1,8,0:0:0:0:
256,192,97373,1,8,0:0:0:0:
256,192,97650,1,0,0:0:0:0:
256,192,97789,1,8,0:0:0:0:
256,192,98067,1,8,0:0:0:0:
256,192,98206,1,8,0:0:0:0:
256,192,98484,1,8,0:0:0:0:
256,192,98762,1,8,0:0:0:0:
256,192,98901,1,8,0:0:0:0:
256,192,99179,1,8,0:0:0:0:
256,192,99317,1,0,0:0:0:0:
256,192,99595,1,12,0:0:0:0:
256,192,100012,1,12,0:0:0:0:
256,192,100429,1,12,0:0:0:0:
256,192,100707,1,4,0:0:0:0:
256,192,100846,1,0,0:0:0:0:
256,192,100984,1,8,0:0:0:0:
256,192,101123,1,0,0:0:0:0:
256,192,101401,1,0,0:0:0:0:
256,192,101540,1,8,0:0:0:0:
256,192,101818,1,0,0:0:0:0:
256,192,101957,1,0,0:0:0:0:
256,192,102096,1,8,0:0:0:0:
256,192,102235,1,8,0:0:0:0:
256,192,102513,1,0,0:0:0:0:
256,192,102652,1,8,0:0:0:0:
256,192,102929,1,8,0:0:0:0:
256,192,103068,1,0,0:0:0:0:
256,192,103207,1,8,0:0:0:0:
256,192,103346,1,8,0:0:0:0:
256,192,103624,1,0,0:0:0:0:
256,192,103763,1,8,0:0:0:0:
256,192,104041,1,8,0:0:0:0:
256,192,104180,1,0,0:0:0:0:
256,192,104319,1,0,0:0:0:0:
256,192,104458,1,8,0:0:0:0:
256,192,104735,1,0,0:0:0:0:
256,192,104874,1,8,0:0:0:0:
256,192,105152,1,0,0:0:0:0:
256,192,105291,1,8,0:0:0:0:
256,192,105430,1,0,0:0:0:0:
256,192,105569,1,8,0:0:0:0:
256,192,105847,1,0,0:0:0:0:
256,192,105986,1,8,0:0:0:0:
256,192,106263,1,8,0:0:0:0:
256,192,106402,1,0,0:0:0:0:
256,192,106541,1,8,0:0:0:0:
256,192,106680,1,0,0:0:0:0:
256,192,106958,1,0,0:0:0:0:
256,192,107097,1,8,0:0:0:0:
256,192,107375,1,8,0:0:0:0:
256,192,107514,1,8,0:0:0:0:
256,192,107653,1,0,0:0:0:0:
256,192,107792,1,8,0:0:0:0:
256,192,108069,1,0,0:0:0:0:
256,192,108208,1,8,0:0:0:0:
256,192,108486,1,12,0:0:0:0:
256,192,108903,1,12,0:0:0:0:
256,192,109320,1,12,0:0:0:0:
256,192,109598,1,12,0:0:0:0:
256,192,109737,1,0,0:0:0:0:
256,192,109875,1,0,0:0:0:0:
256,192,110014,1,8,0:0:0:0:
256,192,110292,1,0,0:0:0:0:
256,192,110431,1,8,0:0:0:0:
256,192,110709,1,8,0:0:0:0:
256,192,110848,1,0,0:0:0:0:
256,192,110987,1,0,0:0:0:0:
256,192,111126,1,8,0:0:0:0:
256,192,111404,1,0,0:0:0:0:
256,192,111542,1,8,0:0:0:0:
256,192,111820,1,8,0:0:0:0:
256,192,111959,1,0,0:0:0:0:
256,192,112098,1,0,0:0:0:0:
256,192,112237,1,8,0:0:0:0:
256,192,112515,1,0,0:0:0:0:
256,192,112654,1,8,0:0:0:0:
256,192,112932,1,8,0:0:0:0:
256,192,113071,1,0,0:0:0:0:
256,192,113210,1,0,0:0:0:0:
256,192,113348,1,8,0:0:0:0:
256,192,113626,1,0,0:0:0:0:
256,192,113765,1,8,0:0:0:0:
256,192,114043,1,8,0:0:0:0:
256,192,114182,1,0,0:0:0:0:
256,192,114321,1,0,0:0:0:0:
256,192,114460,1,8,0:0:0:0:
256,192,114738,1,0,0:0:0:0:
256,192,114877,1,8,0:0:0:0:
256,192,115154,1,8,0:0:0:0:
256,192,115293,1,0,0:0:0:0:
256,192,115432,1,0,0:0:0:0:
256,192,115571,1,8,0:0:0:0:
256,192,115849,1,0,0:0:0:0:
256,192,115988,1,8,0:0:0:0:
256,192,116266,1,8,0:0:0:0:
256,192,116405,1,0,0:0:0:0:
256,192,116683,1,0,0:0:0:0:
256,192,116821,1,8,0:0:0:0:
256,192,117099,1,0,0:0:0:0:
256,192,117377,1,12,0:0:0:0:
256,192,117794,1,12,0:0:0:0:
256,192,118211,1,12,0:0:0:0:
256,192,118489,1,12,0:0:0:0:
256,192,118766,1,0,0:0:0:0:
256,192,118905,1,8,0:0:0:0:
256,192,119183,1,0,0:0:0:0:
256,192,119322,1,8,0:0:0:0:
256,192,119461,1,0,0:0:0:0:
256,192,119600,1,8,0:0:0:0:
256,192,119878,1,0,0:0:0:0:
256,192,120017,1,8,0:0:0:0:
256,192,120295,1,0,0:0:0:0:
256,192,120433,1,8,0:0:0:0:
256,192,120572,1,0,0:0:0:0:
256,192,120711,1,8,0:0:0:0:
256,192,120989,1,0,0:0:0:0:
256,192,121128,1,8,0:0:0:0:
256,192,121406,1,0,0:0:0:0:
256,192,121545,1,0,0:0:0:0:
256,192,121684,1,8,0:0:0:0:
256,192,121823,1,8,0:0:0:0:
256,192,122100,1,0,0:0:0:0:
256,192,122239,1,8,0:0:0:0:
256,192,122517,1,0,0:0:0:0:
256,192,122656,1,8,0:0:0:0:
256,192,122795,1,0,0:0:0:0:
256,192,122934,1,8,0:0:0:0:
256,192,123212,1,0,0:0:0:0:
256,192,123351,1,8,0:0:0:0:
256,192,123629,1,8,0:0:0:0:
256,192,123768,1,8,0:0:0:0:
256,192,123906,1,0,0:0:0:0:
256,192,124045,1,8,0:0:0:0:
256,192,124323,1,0,0:0:0:0:
256,192,124462,1,8,0:0:0:0:
256,192,124740,1,8,0:0:0:0:
256,192,124879,1,8,0:0:0:0:
256,192,125018,1,8,0:0:0:0:
256,192,125157,1,8,0:0:0:0:
256,192,125435,1,0,0:0:0:0:
256,192,125574,1,8,0:0:0:0:
256,192,125851,1,0,0:0:0:0:
256,192,125990,1,8,0:0:0:0:
256,192,126129,1,0,0:0:0:0:
256,192,126268,1,12,0:0:0:0:
256,192,126685,1,12,0:0:0:0:
256,192,127102,1,12,0:0:0:0:
256,192,127379,1,4,0:0:0:0:
256,192,127796,1,8,0:0:0:0:
256,192,128491,1,8,0:0:0:0:
256,192,128908,1,8,0:0:0:0:
256,192,129602,1,4,0:0:0:0:
256,192,130019,1,8,0:0:0:0:
256,192,130714,1,8,0:0:0:0:
256,192,131130,1,8,0:0:0:0:
256,192,131825,1,4,0:0:0:0:
256,192,132242,1,8,0:0:0:0:
256,192,132936,1,0,0:0:0:0:
256,192,133214,1,8,0:0:0:0:
256,192,133492,1,8,0:0:0:0:
256,192,133770,1,8,0:0:0:0:
256,192,133909,1,8,0:0:0:0:
256,192,134048,1,0,0:0:0:0:
256,192,134464,1,8,0:0:0:0:
256,192,134881,1,0,0:0:0:0:
256,192,135159,1,8,0:0:0:0:
256,192,135311,1,8,0:0:0:0:
256,192,135463,1,0,0:0:0:0:
256,192,135615,1,8,0:0:0:0:
256,192,135957,1,8,0:0:0:0:
256,192,136144,1,0,0:0:0:0:
256,192,136355,1,0,0:0:0:0:
256,192,136622,1,4,0:0:0:0:
256,192,136922,12,0,138722,0:0:0:0:
