osu file format v14

[General]
AudioFilename: S.S.H. - Dead Alus.mp3
AudioLeadIn: 0
PreviewTime: 71813
Countdown: 0
SampleSet: Normal
StackLeniency: 0.7
Mode: 1
LetterboxInBreaks: 0
WidescreenStoryboard: 0

[Editor]
DistanceSpacing: 0.4
BeatDivisor: 4
GridSize: 32
TimelineZoom: 3.099999

[Metadata]
Title:Daedalus
TitleUnicode:Daedalus
Artist:S.S.H.
ArtistUnicode:S.S.H.
Creator:DarkVortex
Version:Inner Oni
Source:デジタル・デビル物語 女神転生
Tags:ssh Saitama Saisyu Heiki Digital Devil Story Megami Tensei
BeatmapID:788968
BeatmapSetID:358799

[Difficulty]
HPDrainRate:6
CircleSize:2
OverallDifficulty:6
ApproachRate:5
SliderMultiplier:1.4
SliderTickRate:1

[Events]
//Background and Video events
0,0,"tiger_fractal_cats_____e_1366x768.jpg",0,0
//Break Periods
//Storyboard Layer 0 (Background)
//Storyboard Layer 1 (Fail)
//Storyboard Layer 2 (Pass)
//Storyboard Layer 3 (Foreground)
//Storyboard Sound Samples

[TimingPoints]
684,277.842093077101,4,1,0,10,1,0
7352,-100,4,1,0,35,0,0
8463,-100,4,1,0,40,0,0
9158,-100,4,1,0,55,0,0
9574,-100,4,1,0,65,0,0
18465,-100,4,1,0,75,0,0
91816,-100,4,1,0,75,0,1
127379,-100,4,1,0,60,0,0
135159,304.568527918782,4,1,0,60,1,0
135159,-95.2380952380952,4,1,0,60,0,0
135311,-100,4,1,0,60,0,0
135463,-105.263157894737,4,1,0,60,0,0
135615,342.857142857143,4,1,0,60,1,8
135957,375,4,1,0,60,1,8
135957,-96.1538461538461,4,1,0,60,0,0
136144,422.535211267606,4,1,0,60,1,8
136144,-90.9090909090909,4,1,0,60,0,0
136355,535.714285714286,4,1,0,60,1,8
136355,-76.9230769230769,4,1,0,60,0,0
136622,600,4,1,0,60,1,0
136622,-74.0740740740741,4,1,0,60,0,0
136772,-74.0740740740741,4,1,0,30,0,0

[HitObjects]
256,192,7352,12,0,9019,0:0:0:0:
256,192,9158,5,0,0:0:0:0:
256,192,9227,1,0,0:0:0:0:
256,192,9297,1,8,0:0:0:0:
256,192,9436,1,0,0:0:0:0:
256,192,9574,1,12,0:0:0:0:
256,192,9852,1,0,0:0:0:0:
256,192,9991,1,8,0:0:0:0:
256,192,10269,1,0,0:0:0:0:
256,192,10408,1,8,0:0:0:0:
256,192,10547,1,0,0:0:0:0:
256,192,10686,1,8,0:0:0:0:
256,192,10964,1,0,0:0:0:0:
256,192,11103,1,8,0:0:0:0:
256,192,11380,1,0,0:0:0:0:
256,192,11519,1,8,0:0:0:0:
256,192,11658,1,8,0:0:0:0:
256,192,11797,1,4,0:0:0:0:
256,192,12075,1,0,0:0:0:0:
256,192,12214,1,8,0:0:0:0:
256,192,12492,1,0,0:0:0:0:
256,192,12631,1,8,0:0:0:0:
256,192,12770,1,0,0:0:0:0:
256,192,12909,1,8,0:0:0:0:
256,192,13186,1,0,0:0:0:0:
256,192,13325,1,8,0:0:0:0:
256,192,13603,1,0,0:0:0:0:
256,192,13742,1,8,0:0:0:0:
256,192,13881,1,8,0:0:0:0:
256,192,14020,1,4,0:0:0:0:
256,192,14298,1,0,0:0:0:0:
256,192,14437,1,8,0:0:0:0:
256,192,14715,1,0,0:0:0:0:
256,192,14853,1,8,0:0:0:0:
256,192,14992,1,0,0:0:0:0:
256,192,15131,1,8,0:0:0:0:
256,192,15409,1,8,0:0:0:0:
256,192,15687,1,8,0:0:0:0:
256,192,15965,1,8,0:0:0:0:
256,192,16104,1,8,0:0:0:0:
256,192,16243,1,4,0:0:0:0:
256,192,16659,1,12,0:0:0:0:
256,192,17076,1,4,0:0:0:0:
256,192,17354,1,8,0:0:0:0:
256,192,17493,1,0,0:0:0:0:
256,192,17632,1,0,0:0:0:0:
256,192,17771,1,8,0:0:0:0:
256,192,17910,1,8,0:0:0:0:
256,192,18002,1,8,0:0:0:0:
256,192,18095,1,8,0:0:0:0:
256,192,18188,1,0,0:0:0:0:
256,192,18280,1,0,0:0:0:0:
256,192,18373,1,0,0:0:0:0:
256,192,18465,1,12,0:0:0:0:
256,192,18743,1,0,0:0:0:0:
256,192,18882,1,8,0:0:0:0:
256,192,19160,1,0,0:0:0:0:
256,192,19299,1,8,0:0:0:0:
256,192,19438,1,0,0:0:0:0:
256,192,19577,1,8,0:0:0:0:
256,192,19716,1,8,0:0:0:0:
256,192,19855,1,0,0:0:0:0:
256,192,19994,1,8,0:0:0:0:
256,192,20271,1,0,0:0:0:0:
256,192,20410,1,8,0:0:0:0:
256,192,20549,1,0,0:0:0:0:
256,192,20688,1,8,0:0:0:0:
256,192,20827,1,0,0:0:0:0:
256,192,20966,1,0,0:0:0:0:
256,192,21105,1,8,0:0:0:0:
256,192,21383,1,0,0:0:0:0:
256,192,21522,1,8,0:0:0:0:
256,192,21661,1,0,0:0:0:0:
256,192,21799,1,8,0:0:0:0:
256,192,21938,1,8,0:0:0:0:
256,192,22077,1,0,0:0:0:0:
256,192,22216,1,8,0:0:0:0:
256,192,22494,1,0,0:0:0:0:
256,192,22633,1,8,0:0:0:0:
256,192,22772,1,0,0:0:0:0:
256,192,22911,1,8,0:0:0:0:
256,192,23050,1,0,0:0:0:0:
256,192,23189,1,0,0:0:0:0:
256,192,23328,1,8,0:0:0:0:
256,192,23605,1,0,0:0:0:0:
256,192,23744,1,8,0:0:0:0:
256,192,23883,1,0,0:0:0:0:
256,192,24022,1,8,0:0:0:0:
256,192,24161,1,8,0:0:0:0:
256,192,24300,1,0,0:0:0:0:
256,192,24439,1,8,0:0:0:0:
256,192,24717,1,0,0:0:0:0:
256,192,24856,1,8,0:0:0:0:
256,192,24995,1,0,0:0:0:0:
256,192,25134,1,8,0:0:0:0:
256,192,25273,1,0,0:0:0:0:
256,192,25411,1,8,0:0:0:0:
256,192,25550,1,8,0:0:0:0:
256,192,25828,1,0,0:0:0:0:
256,192,25967,1,8,0:0:0:0:
256,192,26106,1,0,0:0:0:0:
256,192,26245,1,8,0:0:0:0:
256,192,26314,1,8,0:0:0:0:
256,192,26384,1,0,0:0:0:0:
256,192,26523,1,0,0:0:0:0:
256,192,26662,1,8,0:0:0:0:
256,192,26940,1,0,0:0:0:0:
256,192,27078,1,8,0:0:0:0:
256,192,27148,1,0,0:0:0:0:
256,192,27217,1,0,0:0:0:0:
256,192,27287,1,0,0:0:0:0:
256,192,27356,1,8,0:0:0:0:
256,192,27495,1,0,0:0:0:0:
256,192,27634,1,0,0:0:0:0:
256,192,27773,1,8,0:0:0:0:
256,192,28051,1,0,0:0:0:0:
256,192,28120,1,0,0:0:0:0:
256,192,28190,1,8,0:0:0:0:
256,192,28329,1,0,0:0:0:0:
256,192,28468,1,8,0:0:0:0:
256,192,28746,1,8,0:0:0:0:
256,192,28884,1,0,0:0:0:0:
256,192,29023,1,8,0:0:0:0:
256,192,29301,1,8,0:0:0:0:
256,192,29440,1,0,0:0:0:0:
256,192,29579,1,8,0:0:0:0:
256,192,29718,1,0,0:0:0:0:
256,192,29857,1,0,0:0:0:0:
256,192,29996,1,8,0:0:0:0:
256,192,30274,1,0,0:0:0:0:
256,192,30343,1,0,0:0:0:0:
256,192,30413,1,8,0:0:0:0:
256,192,30552,1,0,0:0:0:0:
256,192,30690,1,8,0:0:0:0:
256,192,30968,1,8,0:0:0:0:
256,192,31107,1,0,0:0:0:0:
256,192,31246,1,8,0:0:0:0:
256,192,31524,1,8,0:0:0:0:
256,192,31663,1,0,0:0:0:0:
256,192,31802,1,8,0:0:0:0:
256,192,31941,1,0,0:0:0:0:
256,192,32080,1,0,0:0:0:0:
256,192,32219,1,8,0:0:0:0:
256,192,32496,1,0,0:0:0:0:
256,192,32566,1,0,0:0:0:0:
256,192,32635,1,8,0:0:0:0:
256,192,32774,1,0,0:0:0:0:
256,192,32913,1,8,0:0:0:0:
256,192,33191,1,8,0:0:0:0:
256,192,33330,1,0,0:0:0:0:
256,192,33469,1,8,0:0:0:0:
256,192,33747,1,8,0:0:0:0:
256,192,33886,1,0,0:0:0:0:
256,192,34025,1,8,0:0:0:0:
256,192,34094,1,8,0:0:0:0:
256,192,34163,1,0,0:0:0:0:
256,192,34302,1,8,0:0:0:0:
256,192,34441,1,8,0:0:0:0:
256,192,34719,1,0,0:0:0:0:
256,192,34789,1,0,0:0:0:0:
256,192,34858,1,8,0:0:0:0:
256,192,34997,1,0,0:0:0:0:
256,192,35136,1,8,0:0:0:0:
256,192,35205,1,8,0:0:0:0:
256,192,35275,1,0,0:0:0:0:
256,192,35414,1,0,0:0:0:0:
256,192,35553,1,8,0:0:0:0:
256,192,35622,1,8,0:0:0:0:
256,192,35692,1,0,0:0:0:0:
256,192,35831,1,0,0:0:0:0:
256,192,35969,1,8,0:0:0:0:
256,192,36039,1,8,0:0:0:0:
256,192,36108,1,0,0:0:0:0:
256,192,36247,1,8,0:0:0:0:
256,192,36386,1,0,0:0:0:0:
256,192,36525,1,0,0:0:0:0:
256,192,36664,1,8,0:0:0:0:
256,192,36803,1,0,0:0:0:0:
256,192,36942,1,0,0:0:0:0:
256,192,37081,1,8,0:0:0:0:
256,192,37220,1,0,0:0:0:0:
256,192,37359,1,0,0:0:0:0:
256,192,37498,1,8,0:0:0:0:
256,192,37636,1,0,0:0:0:0:
256,192,37775,1,0,0:0:0:0:
256,192,37914,1,8,0:0:0:0:
256,192,38053,1,0,0:0:0:0:
256,192,38192,1,0,0:0:0:0:
256,192,38331,1,8,0:0:0:0:
256,192,38401,1,0,0:0:0:0:
256,192,38470,1,8,0:0:0:0:
256,192,38539,1,8,0:0:0:0:
256,192,38609,1,8,0:0:0:0:
256,192,38678,1,0,0:0:0:0:
256,192,38748,1,8,0:0:0:0:
256,192,38817,1,8,0:0:0:0:
256,192,38887,1,0,0:0:0:0:
256,192,38956,1,0,0:0:0:0:
256,192,39026,1,8,0:0:0:0:
256,192,39165,1,0,0:0:0:0:
256,192,39304,1,8,0:0:0:0:
256,192,39396,1,0,0:0:0:0:
256,192,39489,1,0,0:0:0:0:
256,192,39581,1,8,0:0:0:0:
256,192,39674,1,8,0:0:0:0:
256,192,39767,1,0,0:0:0:0:
256,192,39859,1,8,0:0:0:0:
256,192,39998,1,8,0:0:0:0:
256,192,40137,1,0,0:0:0:0:
256,192,40276,1,0,0:0:0:0:
256,192,40415,1,8,0:0:0:0:
256,192,40693,5,0,0:0:0:0:
256,192,40785,1,0,0:0:0:0:
256,192,40878,1,0,0:0:0:0:
256,192,40971,1,8,0:0:0:0:
256,192,41156,1,8,0:0:0:0:
256,192,41248,1,8,0:0:0:0:
256,192,41341,1,0,0:0:0:0:
256,192,41434,1,0,0:0:0:0:
256,192,41526,1,8,0:0:0:0:
256,192,41712,1,0,0:0:0:0:
256,192,41804,1,8,0:0:0:0:
256,192,41897,1,8,0:0:0:0:
256,192,41989,1,0,0:0:0:0:
256,192,42082,1,8,0:0:0:0:
256,192,42175,1,0,0:0:0:0:
256,192,42267,1,8,0:0:0:0:
256,192,42360,1,8,0:0:0:0:
256,192,42452,1,0,0:0:0:0:
256,192,42545,1,0,0:0:0:0:
256,192,42638,1,8,0:0:0:0:
256,192,42730,1,8,0:0:0:0:
256,192,42823,1,0,0:0:0:0:
256,192,42915,1,8,0:0:0:0:
256,192,43101,1,8,0:0:0:0:
256,192,43193,1,8,0:0:0:0:
256,192,43286,1,8,0:0:0:0:
256,192,43379,1,0,0:0:0:0:
256,192,43471,1,8,0:0:0:0:
256,192,43656,1,8,0:0:0:0:
256,192,43749,1,8,0:0:0:0:
256,192,43842,1,0,0:0:0:0:
256,192,43934,1,8,0:0:0:0:
256,192,44027,1,0,0:0:0:0:
256,192,44212,1,0,0:0:0:0:
256,192,44305,1,8,0:0:0:0:
256,192,44397,1,0,0:0:0:0:
256,192,44490,1,0,0:0:0:0:
256,192,44583,1,8,0:0:0:0:
256,192,44768,1,0,0:0:0:0:
256,192,44860,1,8,0:0:0:0:
256,192,44953,1,0,0:0:0:0:
256,192,45046,1,8,0:0:0:0:
256,192,45138,1,0,0:0:0:0:
256,192,45416,1,8,0:0:0:0:
256,192,45509,1,0,0:0:0:0:
256,192,45601,1,0,0:0:0:0:
256,192,45694,1,8,0:0:0:0:
256,192,45879,1,0,0:0:0:0:
256,192,45972,1,8,0:0:0:0:
256,192,46064,1,0,0:0:0:0:
256,192,46157,1,0,0:0:0:0:
256,192,46250,1,8,0:0:0:0:
256,192,46435,1,8,0:0:0:0:
256,192,46527,1,8,0:0:0:0:
256,192,46620,1,0,0:0:0:0:
256,192,46713,1,0,0:0:0:0:
256,192,46805,1,8,0:0:0:0:
256,192,46991,1,0,0:0:0:0:
256,192,47083,1,8,0:0:0:0:
256,192,47176,1,0,0:0:0:0:
256,192,47268,1,0,0:0:0:0:
256,192,47361,1,8,0:0:0:0:
256,192,47454,1,8,0:0:0:0:
256,192,47546,1,0,0:0:0:0:
256,192,47639,1,8,0:0:0:0:
256,192,47731,1,8,0:0:0:0:
256,192,47824,1,0,0:0:0:0:
256,192,47917,1,8,0:0:0:0:
256,224,48009,1,0,0:0:0:0:
256,192,48102,1,0,0:0:0:0:
256,192,48194,1,8,0:0:0:0:
256,192,48333,1,0,0:0:0:0:
256,192,48403,1,0,0:0:0:0:
256,192,48472,1,8,0:0:0:0:
256,192,48611,1,8,0:0:0:0:
256,192,48750,1,8,0:0:0:0:
256,192,48889,1,0,0:0:0:0:
256,192,49028,1,8,0:0:0:0:
256,192,49167,1,8,0:0:0:0:
256,192,49306,1,8,0:0:0:0:
256,192,49445,1,0,0:0:0:0:
256,192,49584,1,8,0:0:0:0:
256,192,49862,1,0,0:0:0:0:
256,192,50000,1,8,0:0:0:0:
256,192,50139,1,0,0:0:0:0:
256,192,50278,1,0,0:0:0:0:
256,192,50417,1,8,0:0:0:0:
256,192,50556,1,0,0:0:0:0:
256,192,50695,1,0,0:0:0:0:
256,192,50834,1,8,0:0:0:0:
256,192,50973,1,0,0:0:0:0:
256,192,51112,1,0,0:0:0:0:
256,192,51181,1,0,0:0:0:0:
256,192,51251,1,8,0:0:0:0:
256,192,51390,1,0,0:0:0:0:
256,192,51459,1,0,0:0:0:0:
256,192,51529,1,8,0:0:0:0:
256,192,51668,1,0,0:0:0:0:
256,192,51737,1,0,0:0:0:0:
256,192,51806,1,8,0:0:0:0:
256,192,51945,1,8,0:0:0:0:
256,192,52084,1,0,0:0:0:0:
256,192,52223,1,8,0:0:0:0:
256,192,52362,1,8,0:0:0:0:
256,192,52501,1,0,0:0:0:0:
256,192,52640,1,8,0:0:0:0:
256,192,52779,1,0,0:0:0:0:
256,192,52848,1,0,0:0:0:0:
256,192,52918,1,8,0:0:0:0:
256,192,53057,1,0,0:0:0:0:
256,192,53196,1,0,0:0:0:0:
256,192,53335,1,8,0:0:0:0:
256,192,53473,1,8,0:0:0:0:
256,192,53612,1,0,0:0:0:0:
256,192,53751,1,8,0:0:0:0:
256,192,53890,1,8,0:0:0:0:
256,192,54029,1,0,0:0:0:0:
256,192,54307,1,8,0:0:0:0:
256,192,54446,1,0,0:0:0:0:
256,192,54585,1,8,0:0:0:0:
256,192,54724,1,8,0:0:0:0:
256,192,54863,1,8,0:0:0:0:
256,192,54955,1,0,0:0:0:0:
256,192,55048,1,8,0:0:0:0:
256,192,55141,1,8,0:0:0:0:
256,192,55233,1,0,0:0:0:0:
256,192,55326,1,0,0:0:0:0:
256,192,55418,1,8,0:0:0:0:
256,192,55604,1,8,0:0:0:0:
256,192,55696,1,8,0:0:0:0:
256,192,55789,1,0,0:0:0:0:
256,192,55881,1,0,0:0:0:0:
256,192,55974,1,8,0:0:0:0:
256,192,56159,1,0,0:0:0:0:
256,192,56252,1,0,0:0:0:0:
256,192,56345,1,0,0:0:0:0:
256,192,56437,1,0,0:0:0:0:
256,192,56530,1,8,0:0:0:0:
256,192,56715,1,0,0:0:0:0:
256,192,56808,1,8,0:0:0:0:
256,192,56900,1,0,0:0:0:0:
256,192,56993,1,0,0:0:0:0:
256,192,57085,1,8,0:0:0:0:
256,192,57271,1,0,0:0:0:0:
256,192,57363,1,8,0:0:0:0:
256,192,57456,1,8,0:0:0:0:
256,192,57549,1,8,0:0:0:0:
256,192,57641,1,8,0:0:0:0:
256,192,57826,1,0,0:0:0:0:
256,192,57919,1,8,0:0:0:0:
256,192,58012,1,0,0:0:0:0:
256,192,58104,1,0,0:0:0:0:
256,192,58197,1,8,0:0:0:0:
256,192,58475,1,0,0:0:0:0:
256,192,58567,1,0,0:0:0:0:
256,192,58660,1,0,0:0:0:0:
256,192,58752,1,8,0:0:0:0:
256,192,58845,1,0,0:0:0:0:
256,192,58938,1,0,0:0:0:0:
256,192,59030,1,8,0:0:0:0:
256,192,59216,1,0,0:0:0:0:
256,192,59308,1,8,0:0:0:0:
256,192,59401,1,0,0:0:0:0:
256,192,59493,1,0,0:0:0:0:
256,192,59586,1,8,0:0:0:0:
256,192,59655,1,8,0:0:0:0:
256,192,59725,1,0,0:0:0:0:
256,192,59794,1,0,0:0:0:0:
256,192,59864,1,8,0:0:0:0:
256,192,60049,1,0,0:0:0:0:
256,192,60142,1,8,0:0:0:0:
256,192,60234,1,0,0:0:0:0:
256,192,60327,1,0,0:0:0:0:
256,192,60420,1,8,0:0:0:0:
256,192,60605,1,0,0:0:0:0:
256,192,60697,1,8,0:0:0:0:
256,192,60790,1,0,0:0:0:0:
256,192,60883,1,0,0:0:0:0:
256,192,60975,1,8,0:0:0:0:
256,192,61068,1,8,0:0:0:0:
256,192,61160,1,0,0:0:0:0:
256,192,61253,1,8,0:0:0:0:
256,192,61346,1,0,0:0:0:0:
256,192,61438,1,0,0:0:0:0:
256,192,61531,1,8,0:0:0:0:
256,192,61716,1,0,0:0:0:0:
256,192,61809,1,8,0:0:0:0:
256,192,61901,1,0,0:0:0:0:
256,192,61994,1,0,0:0:0:0:
256,192,62087,1,8,0:0:0:0:
256,192,62179,1,0,0:0:0:0:
256,192,62272,1,0,0:0:0:0:
256,192,62364,1,8,0:0:0:0:
256,192,62457,1,0,0:0:0:0:
256,192,62550,1,0,0:0:0:0:
256,192,62642,1,8,0:0:0:0:
256,192,62920,1,8,0:0:0:0:
256,192,63013,1,0,0:0:0:0:
256,192,63105,1,8,0:0:0:0:
256,192,63198,1,8,0:0:0:0:
256,192,63291,1,0,0:0:0:0:
256,192,63383,1,0,0:0:0:0:
256,192,63476,1,8,0:0:0:0:
256,192,63568,1,0,0:0:0:0:
256,192,63661,1,8,0:0:0:0:
256,192,63754,1,8,0:0:0:0:
256,192,63846,1,0,0:0:0:0:
256,192,63939,1,0,0:0:0:0:
256,192,64031,1,8,0:0:0:0:
256,192,64124,1,0,0:0:0:0:
256,192,64217,1,8,0:0:0:0:
256,192,64309,1,8,0:0:0:0:
256,192,64402,1,0,0:0:0:0:
256,192,64495,1,0,0:0:0:0:
256,192,64587,1,8,0:0:0:0:
256,192,64726,1,0,0:0:0:0:
256,192,64796,1,0,0:0:0:0:
256,192,64865,1,8,0:0:0:0:
256,192,64934,1,0,0:0:0:0:
256,192,65004,1,8,0:0:0:0:
256,192,65143,1,8,0:0:0:0:
256,192,65212,1,8,0:0:0:0:
256,192,65282,1,0,0:0:0:0:
256,192,65351,1,0,0:0:0:0:
256,192,65421,1,8,0:0:0:0:
256,192,65560,1,0,0:0:0:0:
256,192,65629,1,0,0:0:0:0:
256,192,65699,1,8,0:0:0:0:
256,192,65768,1,0,0:0:0:0:
256,192,65837,1,8,0:0:0:0:
256,192,65976,1,8,0:0:0:0:
256,192,66046,1,8,0:0:0:0:
256,192,66115,1,0,0:0:0:0:
256,192,66185,1,0,0:0:0:0:
256,192,66254,1,8,0:0:0:0:
256,192,66393,1,0,0:0:0:0:
256,192,66463,1,8,0:0:0:0:
256,192,66532,1,8,0:0:0:0:
256,192,66602,1,8,0:0:0:0:
256,192,66671,1,0,0:0:0:0:
256,192,66810,1,8,0:0:0:0:
256,192,66879,1,8,0:0:0:0:
256,192,66949,1,0,0:0:0:0:
256,192,67018,1,0,0:0:0:0:
256,192,67088,1,8,0:0:0:0:
256,192,67157,1,0,0:0:0:0:
256,192,67227,1,8,0:0:0:0:
256,192,67366,1,8,0:0:0:0:
256,192,67505,1,0,0:0:0:0:
256,192,67574,1,0,0:0:0:0:
256,192,67643,1,8,0:0:0:0:
256,192,67782,1,8,0:0:0:0:
256,192,67852,1,8,0:0:0:0:
256,192,67921,1,0,0:0:0:0:
256,192,68060,1,0,0:0:0:0:
256,192,68199,1,8,0:0:0:0:
256,192,68269,1,0,0:0:0:0:
256,192,68338,1,8,0:0:0:0:
256,192,68408,1,8,0:0:0:0:
256,192,68477,1,0,0:0:0:0:
256,192,68662,1,0,0:0:0:0:
256,192,68755,1,8,0:0:0:0:
256,192,68847,1,8,0:0:0:0:
256,192,68940,1,8,0:0:0:0:
256,192,69033,1,0,0:0:0:0:
256,192,69218,1,0,0:0:0:0:
256,192,69310,1,8,0:0:0:0:
256,192,69403,1,0,0:0:0:0:
256,192,69496,1,0,0:0:0:0:
256,192,69588,1,8,0:0:0:0:
256,192,69866,1,8,0:0:0:0:
256,192,69959,1,0,0:0:0:0:
256,192,70051,1,0,0:0:0:0:
256,192,70144,1,8,0:0:0:0:
256,192,70237,1,0,0:0:0:0:
256,192,70329,1,0,0:0:0:0:
256,192,70422,1,8,0:0:0:0:
256,192,70514,1,0,0:0:0:0:
256,192,70607,1,0,0:0:0:0:
256,192,70700,1,8,0:0:0:0:
256,192,70839,1,0,0:0:0:0:
256,192,70978,1,0,0:0:0:0:
256,192,71116,1,8,0:0:0:0:
256,192,71394,1,0,0:0:0:0:
256,192,71533,1,8,0:0:0:0:
256,192,71811,5,8,0:0:0:0:
256,192,71904,1,8,0:0:0:0:
256,192,71996,1,0,0:0:0:0:
256,192,72089,1,8,0:0:0:0:
256,192,72182,1,8,0:0:0:0:
256,192,72274,1,0,0:0:0:0:
256,192,72367,1,8,0:0:0:0:
256,192,72459,1,8,0:0:0:0:
256,192,72552,1,0,0:0:0:0:
256,192,72645,1,8,0:0:0:0:
256,192,72830,1,0,0:0:0:0:
256,192,72922,1,8,0:0:0:0:
256,192,73015,1,8,0:0:0:0:
256,192,73108,1,0,0:0:0:0:
256,192,73200,1,8,0:0:0:0:
256,192,73293,1,8,0:0:0:0:
256,192,73386,1,0,0:0:0:0:
256,192,73478,1,8,0:0:0:0:
256,192,73571,1,8,0:0:0:0:
256,192,73663,1,0,0:0:0:0:
256,192,73756,1,8,0:0:0:0:
256,192,74034,1,8,0:0:0:0:
256,192,74126,1,8,0:0:0:0:
256,192,74219,1,0,0:0:0:0:
256,192,74312,1,8,0:0:0:0:
256,192,74404,1,0,0:0:0:0:
256,192,74497,1,8,0:0:0:0:
256,192,74589,1,8,0:0:0:0:
256,192,74682,1,0,0:0:0:0:
256,192,74775,1,0,0:0:0:0:
256,192,74867,1,8,0:0:0:0:
256,192,75053,1,0,0:0:0:0:
256,192,75145,1,8,0:0:0:0:
256,192,75238,1,8,0:0:0:0:
256,192,75330,1,0,0:0:0:0:
256,192,75423,1,8,0:0:0:0:
256,192,75516,1,0,0:0:0:0:
256,192,75608,1,8,0:0:0:0:
256,192,75701,1,8,0:0:0:0:
256,192,75793,1,0,0:0:0:0:
256,192,75886,1,0,0:0:0:0:
256,192,75979,1,8,0:0:0:0:
256,192,76257,1,0,0:0:0:0:
256,192,76349,1,0,0:0:0:0:
256,192,76442,1,0,0:0:0:0:
256,192,76534,1,8,0:0:0:0:
256,192,76720,1,0,0:0:0:0:
256,192,76812,1,8,0:0:0:0:
256,192,76905,1,0,0:0:0:0:
256,192,76997,1,0,0:0:0:0:
256,192,77090,1,8,0:0:0:0:
256,192,77275,1,0,0:0:0:0:
256,192,77368,1,8,0:0:0:0:
256,192,77461,1,8,0:0:0:0:
256,192,77553,1,0,0:0:0:0:
256,192,77646,1,8,0:0:0:0:
256,192,77738,1,8,0:0:0:0:
256,192,77831,1,0,0:0:0:0:
256,192,77924,1,8,0:0:0:0:
256,192,78016,1,8,0:0:0:0:
256,192,78109,1,0,0:0:0:0:
256,192,78201,1,8,0:0:0:0:
256,192,78479,1,0,0:0:0:0:
256,192,78549,1,0,0:0:0:0:
256,192,78618,1,0,0:0:0:0:
256,192,78688,1,0,0:0:0:0:
256,192,78757,1,8,0:0:0:0:
256,192,78896,1,0,0:0:0:0:
256,192,78966,1,0,0:0:0:0:
256,192,79035,1,8,0:0:0:0:
256,192,79104,1,8,0:0:0:0:
256,192,79174,1,8,0:0:0:0:
256,192,79243,1,8,0:0:0:0:
256,192,79313,1,0,0:0:0:0:
256,192,79382,1,0,0:0:0:0:
256,192,79452,1,0,0:0:0:0:
256,192,79521,1,0,0:0:0:0:
256,192,79591,1,8,0:0:0:0:
256,192,79730,1,0,0:0:0:0:
256,192,79799,1,0,0:0:0:0:
256,192,79868,1,8,0:0:0:0:
256,192,79938,1,0,0:0:0:0:
256,192,80007,1,8,0:0:0:0:
256,192,80077,1,8,0:0:0:0:
256,192,80146,1,0,0:0:0:0:
256,192,80216,1,0,0:0:0:0:
256,192,80285,1,8,0:0:0:0:
256,192,80424,1,8,0:0:0:0:
256,192,80702,1,8,0:0:0:0:
256,192,80887,1,8,0:0:0:0:
256,192,80980,1,8,0:0:0:0:
256,192,81165,1,8,0:0:0:0:
256,192,81258,1,8,0:0:0:0:
256,192,81350,1,0,0:0:0:0:
256,192,81443,1,0,0:0:0:0:
256,192,81536,1,8,0:0:0:0:
256,192,81721,1,0,0:0:0:0:
256,192,81813,1,8,0:0:0:0:
256,192,81906,1,0,0:0:0:0:
256,192,81999,1,0,0:0:0:0:
256,192,82091,1,8,0:0:0:0:
256,192,82276,1,8,0:0:0:0:
256,192,82369,1,8,0:0:0:0:
256,192,82462,1,8,0:0:0:0:
256,192,82554,1,0,0:0:0:0:
256,192,82647,1,8,0:0:0:0:
256,192,82740,1,0,0:0:0:0:
256,192,82832,1,8,0:0:0:0:
256,192,82925,1,0,0:0:0:0:
256,192,83110,1,0,0:0:0:0:
256,192,83203,1,8,0:0:0:0:
256,192,83342,1,8,0:0:0:0:
256,192,83411,1,8,0:0:0:0:
256,192,83480,1,0,0:0:0:0:
256,192,83619,1,0,0:0:0:0:
256,192,83689,1,0,0:0:0:0:
256,192,83758,1,8,0:0:0:0:
256,192,83828,1,8,0:0:0:0:
256,192,83897,1,0,0:0:0:0:
256,192,83967,1,0,0:0:0:0:
256,192,84036,1,8,0:0:0:0:
256,192,84221,5,8,0:0:0:0:
256,192,84314,1,8,0:0:0:0:
256,192,84407,1,8,0:0:0:0:
256,192,84499,1,0,0:0:0:0:
256,192,84592,1,8,0:0:0:0:
256,192,84684,1,8,0:0:0:0:
256,192,84777,1,0,0:0:0:0:
256,192,84870,1,8,0:0:0:0:
256,192,84962,1,8,0:0:0:0:
256,192,85055,1,0,0:0:0:0:
256,192,85147,1,8,0:0:0:0:
256,192,85240,1,0,0:0:0:0:
256,192,85333,1,0,0:0:0:0:
256,192,85425,1,8,0:0:0:0:
256,192,85518,1,0,0:0:0:0:
256,192,85611,1,0,0:0:0:0:
256,192,85703,1,8,0:0:0:0:
256,192,85773,1,8,0:0:0:0:
256,192,85842,1,0,0:0:0:0:
256,192,85912,1,8,0:0:0:0:
256,192,85981,1,8,0:0:0:0:
256,192,86120,1,8,0:0:0:0:
256,192,86189,1,8,0:0:0:0:
256,192,86259,1,0,0:0:0:0:
256,192,86328,1,8,0:0:0:0:
256,192,86398,1,8,0:0:0:0:
256,192,86537,1,8,0:0:0:0:
256,192,86606,1,0,0:0:0:0:
256,192,86676,1,8,0:0:0:0:
256,192,86745,1,8,0:0:0:0:
256,192,86815,1,0,0:0:0:0:
256,192,86907,1,0,0:0:0:0:
256,192,87000,1,8,0:0:0:0:
256,192,87092,1,8,0:0:0:0:
256,192,87185,1,0,0:0:0:0:
256,192,87278,1,0,0:0:0:0:
256,192,87370,1,8,0:0:0:0:
256,192,87463,1,0,0:0:0:0:
256,192,87555,1,0,0:0:0:0:
256,192,87648,1,8,0:0:0:0:
256,192,87741,1,0,0:0:0:0:
256,192,87833,1,0,0:0:0:0:
256,192,87926,1,8,0:0:0:0:
256,192,88019,1,8,0:0:0:0:
256,192,88111,1,0,0:0:0:0:
256,192,88204,1,8,0:0:0:0:
256,192,88296,1,8,0:0:0:0:
256,192,88389,1,0,0:0:0:0:
256,192,88482,1,8,0:0:0:0:
256,192,88621,1,8,0:0:0:0:
256,192,88759,1,0,0:0:0:0:
256,192,88898,1,8,0:0:0:0:
256,192,89037,1,0,0:0:0:0:
256,192,89176,1,0,0:0:0:0:
256,192,89315,1,8,0:0:0:0:
256,192,89454,1,8,0:0:0:0:
256,192,89593,1,0,0:0:0:0:
256,192,89871,1,0,0:0:0:0:
256,192,90149,1,0,0:0:0:0:
256,192,90426,1,0,0:0:0:0:
256,192,90704,1,8,0:0:0:0:
256,192,90774,1,8,0:0:0:0:
256,192,90843,1,0,0:0:0:0:
256,192,90982,1,0,0:0:0:0:
256,192,91121,1,8,0:0:0:0:
256,192,91191,1,8,0:0:0:0:
256,192,91260,1,0,0:0:0:0:
256,192,91399,1,0,0:0:0:0:
256,192,91538,1,8,0:0:0:0:
256,192,91816,5,12,0:0:0:0:
256,192,91955,1,0,0:0:0:0:
256,192,92094,1,0,0:0:0:0:
256,192,92232,1,8,0:0:0:0:
256,192,92371,1,0,0:0:0:0:
256,192,92510,1,0,0:0:0:0:
256,192,92580,1,0,0:0:0:0:
256,192,92649,1,8,0:0:0:0:
256,192,92788,1,0,0:0:0:0:
256,192,92927,1,8,0:0:0:0:
256,192,92997,1,8,0:0:0:0:
256,192,93066,1,0,0:0:0:0:
256,192,93205,1,0,0:0:0:0:
256,192,93344,1,8,0:0:0:0:
256,192,93483,1,0,0:0:0:0:
256,192,93622,1,0,0:0:0:0:
256,192,93691,1,0,0:0:0:0:
256,192,93761,1,8,0:0:0:0:
256,192,93900,1,0,0:0:0:0:
256,192,94038,1,8,0:0:0:0:
256,192,94108,1,8,0:0:0:0:
256,192,94177,1,0,0:0:0:0:
256,192,94247,1,0,0:0:0:0:
256,192,94316,1,8,0:0:0:0:
256,192,94455,1,8,0:0:0:0:
256,192,94594,1,0,0:0:0:0:
256,192,94733,1,0,0:0:0:0:
256,192,94803,1,0,0:0:0:0:
256,192,94872,1,8,0:0:0:0:
256,192,95011,1,0,0:0:0:0:
256,192,95150,1,8,0:0:0:0:
256,192,95289,1,8,0:0:0:0:
256,192,95428,1,0,0:0:0:0:
256,192,95497,1,0,0:0:0:0:
256,192,95567,1,8,0:0:0:0:
256,192,95705,1,0,0:0:0:0:
256,192,95844,1,0,0:0:0:0:
256,192,95983,1,8,0:0:0:0:
256,192,96122,1,0,0:0:0:0:
256,192,96261,1,8,0:0:0:0:
256,192,96331,1,8,0:0:0:0:
256,192,96400,1,0,0:0:0:0:
256,192,96539,1,0,0:0:0:0:
256,192,96678,1,8,0:0:0:0:
256,192,96817,1,0,0:0:0:0:
256,192,96956,1,0,0:0:0:0:
256,192,97025,1,0,0:0:0:0:
256,192,97095,1,8,0:0:0:0:
256,192,97234,1,0,0:0:0:0:
256,192,97373,1,8,0:0:0:0:
256,192,97442,1,8,0:0:0:0:
256,192,97511,1,0,0:0:0:0:
256,192,97650,1,8,0:0:0:0:
256,192,97789,1,8,0:0:0:0:
256,192,97928,1,0,0:0:0:0:
256,192,98067,1,0,0:0:0:0:
256,192,98206,1,8,0:0:0:0:
256,192,98345,1,0,0:0:0:0:
256,192,98484,1,8,0:0:0:0:
256,192,98553,1,8,0:0:0:0:
256,192,98623,1,0,0:0:0:0:
256,192,98692,1,0,0:0:0:0:
256,192,98762,1,8,0:0:0:0:
256,192,98901,1,8,0:0:0:0:
256,192,99040,1,0,0:0:0:0:
256,192,99179,1,0,0:0:0:0:
256,192,99317,1,8,0:0:0:0:
256,192,99456,1,0,0:0:0:0:
256,192,99595,1,12,0:0:0:0:
256,192,99734,1,0,0:0:0:0:
256,192,99804,1,0,0:0:0:0:
256,192,99873,1,0,0:0:0:0:
256,192,100012,1,12,0:0:0:0:
256,192,100151,1,0,0:0:0:0:
256,192,100220,1,0,0:0:0:0:
256,192,100290,1,0,0:0:0:0:
256,192,100429,1,12,0:0:0:0:
256,192,100568,1,0,0:0:0:0:
256,192,100707,1,12,0:0:0:0:
256,192,100984,1,0,0:0:0:0:
256,192,101123,1,8,0:0:0:0:
256,192,101262,1,0,0:0:0:0:
256,192,101401,1,0,0:0:0:0:
256,192,101471,1,0,0:0:0:0:
256,192,101540,1,8,0:0:0:0:
256,192,101679,1,0,0:0:0:0:
256,192,101818,1,8,0:0:0:0:
256,192,101887,1,8,0:0:0:0:
256,192,101957,1,0,0:0:0:0:
256,192,102096,1,0,0:0:0:0:
256,192,102235,1,8,0:0:0:0:
256,192,102374,1,0,0:0:0:0:
256,192,102513,1,0,0:0:0:0:
256,192,102582,1,0,0:0:0:0:
256,192,102652,1,8,0:0:0:0:
256,192,102790,1,0,0:0:0:0:
256,192,102929,1,8,0:0:0:0:
256,192,102999,1,8,0:0:0:0:
256,192,103068,1,0,0:0:0:0:
256,192,103207,1,8,0:0:0:0:
256,192,103346,1,8,0:0:0:0:
256,192,103485,1,0,0:0:0:0:
256,192,103624,1,0,0:0:0:0:
256,192,103693,1,0,0:0:0:0:
256,192,103763,1,8,0:0:0:0:
256,192,103902,1,0,0:0:0:0:
256,192,104041,1,8,0:0:0:0:
256,192,104110,1,8,0:0:0:0:
256,192,104180,1,0,0:0:0:0:
256,192,104319,1,8,0:0:0:0:
256,192,104458,1,8,0:0:0:0:
256,192,104596,1,0,0:0:0:0:
256,192,104735,1,0,0:0:0:0:
256,192,104805,1,0,0:0:0:0:
256,192,104874,1,8,0:0:0:0:
256,192,105013,1,0,0:0:0:0:
256,192,105152,1,8,0:0:0:0:
256,192,105222,1,8,0:0:0:0:
256,192,105291,1,0,0:0:0:0:
256,192,105430,1,0,0:0:0:0:
256,192,105499,1,0,0:0:0:0:
256,192,105569,1,8,0:0:0:0:
256,192,105708,1,0,0:0:0:0:
256,192,105847,1,0,0:0:0:0:
256,192,105986,1,8,0:0:0:0:
256,192,106125,1,0,0:0:0:0:
256,192,106263,1,8,0:0:0:0:
256,192,106333,1,8,0:0:0:0:
256,192,106402,1,0,0:0:0:0:
256,192,106541,1,0,0:0:0:0:
256,192,106611,1,0,0:0:0:0:
256,192,106680,1,8,0:0:0:0:
256,192,106819,1,0,0:0:0:0:
256,192,106958,1,0,0:0:0:0:
256,192,107097,1,8,0:0:0:0:
256,192,107236,1,0,0:0:0:0:
256,192,107375,1,8,0:0:0:0:
256,192,107444,1,8,0:0:0:0:
256,192,107514,1,0,0:0:0:0:
256,192,107653,1,8,0:0:0:0:
256,192,107722,1,0,0:0:0:0:
256,192,107792,1,8,0:0:0:0:
256,192,107931,1,0,0:0:0:0:
256,192,108069,1,0,0:0:0:0:
256,192,108139,1,0,0:0:0:0:
256,192,108208,1,8,0:0:0:0:
256,192,108347,1,0,0:0:0:0:
256,192,108486,1,12,0:0:0:0:
256,192,108625,1,0,0:0:0:0:
256,192,108695,1,0,0:0:0:0:
256,192,108764,1,0,0:0:0:0:
256,192,108903,1,12,0:0:0:0:
256,192,109042,1,0,0:0:0:0:
256,192,109111,1,0,0:0:0:0:
256,192,109181,1,0,0:0:0:0:
256,192,109320,1,12,0:0:0:0:
256,192,109459,1,0,0:0:0:0:
256,192,109598,1,12,0:0:0:0:
256,192,109875,1,0,0:0:0:0:
256,192,110014,1,8,0:0:0:0:
256,192,110153,1,0,0:0:0:0:
256,192,110292,1,8,0:0:0:0:
256,192,110362,1,0,0:0:0:0:
256,192,110431,1,0,0:0:0:0:
256,192,110570,1,0,0:0:0:0:
256,192,110709,1,8,0:0:0:0:
256,192,110848,1,0,0:0:0:0:
256,192,110917,1,0,0:0:0:0:
256,192,110987,1,0,0:0:0:0:
256,192,111126,1,8,0:0:0:0:
256,192,111265,1,0,0:0:0:0:
256,192,111404,1,8,0:0:0:0:
256,192,111473,1,0,0:0:0:0:
256,192,111542,1,0,0:0:0:0:
256,192,111681,1,0,0:0:0:0:
256,192,111820,1,8,0:0:0:0:
256,192,111959,1,0,0:0:0:0:
256,192,112029,1,0,0:0:0:0:
256,192,112098,1,0,0:0:0:0:
256,192,112237,1,8,0:0:0:0:
256,192,112376,1,0,0:0:0:0:
256,192,112515,1,8,0:0:0:0:
256,192,112584,1,0,0:0:0:0:
256,192,112654,1,0,0:0:0:0:
256,192,112793,1,0,0:0:0:0:
256,192,112932,1,8,0:0:0:0:
256,192,113071,1,0,0:0:0:0:
256,192,113140,1,0,0:0:0:0:
256,192,113210,1,0,0:0:0:0:
256,192,113348,1,8,0:0:0:0:
256,192,113487,1,0,0:0:0:0:
256,192,113626,1,8,0:0:0:0:
256,192,113696,1,0,0:0:0:0:
256,192,113765,1,0,0:0:0:0:
256,192,113904,1,0,0:0:0:0:
256,192,114043,1,8,0:0:0:0:
256,192,114182,1,0,0:0:0:0:
256,192,114251,1,0,0:0:0:0:
256,192,114321,1,0,0:0:0:0:
256,192,114460,1,8,0:0:0:0:
256,192,114599,1,0,0:0:0:0:
256,192,114738,1,8,0:0:0:0:
256,192,114807,1,0,0:0:0:0:
256,192,114877,1,0,0:0:0:0:
256,192,115016,1,0,0:0:0:0:
256,192,115154,1,8,0:0:0:0:
256,192,115293,1,0,0:0:0:0:
256,192,115363,1,0,0:0:0:0:
256,192,115432,1,0,0:0:0:0:
256,192,115571,1,8,0:0:0:0:
256,192,115710,1,0,0:0:0:0:
256,192,115849,1,8,0:0:0:0:
256,192,115919,1,0,0:0:0:0:
256,192,115988,1,0,0:0:0:0:
256,192,116127,1,0,0:0:0:0:
256,192,116266,1,8,0:0:0:0:
256,192,116335,1,0,0:0:0:0:
256,192,116405,1,8,0:0:0:0:
256,192,116544,1,0,0:0:0:0:
256,192,116613,1,0,0:0:0:0:
256,192,116683,1,8,0:0:0:0:
256,192,116821,1,0,0:0:0:0:
256,192,116960,1,0,0:0:0:0:
256,192,117030,1,0,0:0:0:0:
256,192,117099,1,8,0:0:0:0:
256,192,117169,1,8,0:0:0:0:
256,192,117238,1,0,0:0:0:0:
256,192,117377,1,12,0:0:0:0:
256,192,117516,1,0,0:0:0:0:
256,192,117586,1,0,0:0:0:0:
256,192,117655,1,0,0:0:0:0:
256,192,117794,1,12,0:0:0:0:
256,192,117933,1,0,0:0:0:0:
256,192,118002,1,0,0:0:0:0:
256,192,118072,1,0,0:0:0:0:
256,192,118211,1,12,0:0:0:0:
256,192,118350,1,0,0:0:0:0:
256,192,118489,1,12,0:0:0:0:
256,192,118766,1,0,0:0:0:0:
256,192,118905,1,8,0:0:0:0:
256,192,119044,1,0,0:0:0:0:
256,192,119183,1,0,0:0:0:0:
256,192,119253,1,0,0:0:0:0:
256,192,119322,1,8,0:0:0:0:
256,192,119461,1,0,0:0:0:0:
256,192,119600,1,8,0:0:0:0:
256,192,119669,1,8,0:0:0:0:
256,192,119739,1,0,0:0:0:0:
256,192,119878,1,0,0:0:0:0:
256,192,119947,1,0,0:0:0:0:
256,192,120017,1,8,0:0:0:0:
256,192,120156,1,0,0:0:0:0:
256,192,120295,1,0,0:0:0:0:
256,192,120364,1,0,0:0:0:0:
256,192,120433,1,8,0:0:0:0:
256,192,120572,1,0,0:0:0:0:
256,192,120711,1,8,0:0:0:0:
256,192,120781,1,8,0:0:0:0:
256,192,120850,1,8,0:0:0:0:
256,192,120989,1,0,0:0:0:0:
256,192,121059,1,0,0:0:0:0:
256,192,121128,1,8,0:0:0:0:
256,192,121267,1,0,0:0:0:0:
256,192,121406,1,0,0:0:0:0:
256,192,121475,1,0,0:0:0:0:
256,192,121545,1,8,0:0:0:0:
256,192,121684,1,8,0:0:0:0:
256,192,121823,1,8,0:0:0:0:
256,192,121892,1,8,0:0:0:0:
256,192,121962,1,8,0:0:0:0:
256,192,122100,1,0,0:0:0:0:
256,192,122170,1,0,0:0:0:0:
256,192,122239,1,8,0:0:0:0:
256,192,122378,1,0,0:0:0:0:
256,192,122517,1,0,0:0:0:0:
256,192,122587,1,0,0:0:0:0:
256,192,122656,1,8,0:0:0:0:
256,192,122795,1,0,0:0:0:0:
256,192,122934,1,8,0:0:0:0:
256,192,123073,1,8,0:0:0:0:
256,192,123212,1,0,0:0:0:0:
256,192,123281,1,0,0:0:0:0:
256,192,123351,1,8,0:0:0:0:
256,192,123490,1,0,0:0:0:0:
256,192,123629,1,0,0:0:0:0:
256,192,123698,1,0,0:0:0:0:
256,192,123768,1,8,0:0:0:0:
256,192,123906,1,8,0:0:0:0:
256,192,123976,1,0,0:0:0:0:
256,192,124045,1,8,0:0:0:0:
256,192,124115,1,8,0:0:0:0:
256,192,124184,1,0,0:0:0:0:
256,192,124323,1,8,0:0:0:0:
256,192,124462,1,8,0:0:0:0:
256,192,124601,1,0,0:0:0:0:
256,192,124740,1,0,0:0:0:0:
256,192,124809,1,0,0:0:0:0:
256,192,124879,1,8,0:0:0:0:
256,192,125018,1,0,0:0:0:0:
256,192,125157,1,8,0:0:0:0:
256,192,125226,1,0,0:0:0:0:
256,192,125296,1,8,0:0:0:0:
256,192,125435,1,0,0:0:0:0:
256,192,125504,1,0,0:0:0:0:
256,192,125574,1,8,0:0:0:0:
256,192,125712,1,0,0:0:0:0:
256,192,125851,1,0,0:0:0:0:
256,192,125921,1,0,0:0:0:0:
256,192,125990,1,8,0:0:0:0:
256,192,126060,1,8,0:0:0:0:
256,192,126129,1,0,0:0:0:0:
256,192,126268,1,12,0:0:0:0:
256,192,126407,1,0,0:0:0:0:
256,192,126477,1,0,0:0:0:0:
256,192,126546,1,0,0:0:0:0:
256,192,126685,1,12,0:0:0:0:
256,192,126824,1,0,0:0:0:0:
256,192,126893,1,0,0:0:0:0:
256,192,126963,1,0,0:0:0:0:
256,192,127102,1,12,0:0:0:0:
256,192,127241,1,8,0:0:0:0:
256,192,127310,1,8,0:0:0:0:
256,192,127379,1,0,0:0:0:0:
256,192,127657,1,0,0:0:0:0:
256,192,127796,1,8,0:0:0:0:
256,192,128074,1,0,0:0:0:0:
256,192,128213,1,8,0:0:0:0:
256,192,128352,1,0,0:0:0:0:
256,192,128491,1,8,0:0:0:0:
256,192,128769,1,0,0:0:0:0:
256,192,128908,1,8,0:0:0:0:
256,192,129185,1,0,0:0:0:0:
256,192,129324,1,8,0:0:0:0:
256,192,129463,1,8,0:0:0:0:
256,192,129602,1,4,0:0:0:0:
256,192,129880,1,0,0:0:0:0:
256,192,130019,1,8,0:0:0:0:
256,192,130297,1,0,0:0:0:0:
256,192,130436,1,8,0:0:0:0:
256,192,130575,1,0,0:0:0:0:
256,192,130714,1,8,0:0:0:0:
256,192,130991,1,0,0:0:0:0:
256,192,131130,1,8,0:0:0:0:
256,192,131408,1,0,0:0:0:0:
256,192,131547,1,8,0:0:0:0:
256,192,131686,1,8,0:0:0:0:
256,192,131825,1,4,0:0:0:0:
256,192,132103,1,0,0:0:0:0:
256,192,132242,1,8,0:0:0:0:
256,192,132520,1,0,0:0:0:0:
256,192,132658,1,8,0:0:0:0:
256,192,132797,1,0,0:0:0:0:
256,192,132936,1,8,0:0:0:0:
256,192,133214,1,8,0:0:0:0:
256,192,133492,1,8,0:0:0:0:
256,192,133770,1,8,0:0:0:0:
256,192,133909,1,8,0:0:0:0:
256,192,134048,1,4,0:0:0:0:
256,192,134326,1,0,0:0:0:0:
256,192,134464,1,12,0:0:0:0:
256,192,134742,1,8,0:0:0:0:
256,192,134881,1,4,0:0:0:0:
256,192,135159,1,12,0:0:0:0:
256,192,135311,1,0,0:0:0:0:
256,192,135463,1,0,0:0:0:0:
256,192,135615,1,12,0:0:0:0:
256,192,135957,1,12,0:0:0:0:
256,192,136144,1,4,0:0:0:0:
256,192,136355,1,4,0:0:0:0:
256,192,136622,1,4,0:0:0:0:
256,192,136772,12,0,138722,0:0:0:0:
